#VERSION:0.83;
#TITLE:I;
#ARTIST:黒魔;
#ARTISTTRANSLIT:Chroma;
#GENRE:CHIP ELECTRO;
#BANNER:I.png;
#BACKGROUND:I-bg.png;
#CDTITLE:./CDTitles/SDVX IV HEAVENLY HAVEN.png;
#MUSIC:I.ogg;
#SAMPLESTART:91.724;
#SAMPLELENGTH:15;
#BPMS:0=225,70=450,71=225,84=450,85=225,91=112.5,92=225,226=112.5,242=225,302=900,318=225,400=450,404=225,406=450,410=225,416=447.761,417=450,420=225;
#STOPS:70=0.4,76.5=0.267,84=0.4,163.5=0.266,193.333333=0.267,318=3.733,416=0.133,417=0.134,418=0.133,419=0.133;
#TIMESIGNATURES:0=4=4,68=3=4,71=4=4,75=3=4,78=4=4,82=3=4,85=4=4,89=3=4,92=4=4,164=3=4,167=4=4,191=3=4,194=4=4,318=2=4,320=4=4,400=6=4,412=4=4;
#BGSTAGE:30;

//--------------- dance-single - Fred-104 ----------------
#NOTEDATA:;
#STEPSTYPE:dance-single;
#DESCRIPTION:Fred-104;
#DIFFICULTY:Beginner;
#METER:7;
#CREDIT:Fred-104;
#NOTES:
0000
0000
0000
0000
,
0000
0000
0000
0000
,
0000
0000
0000
0000
,
0000
0000
0000
0000
,
0000
0000
0000
0000
,
0000
0000
0000
0000
,
1000
0000
0000
0000
,
0001
0000
0000
0000
,
0100
0000
0000
0000
,
0001
0000
0000
0000
,
1000
0000
0010
0000
,
1000
0000
0001
0000
,
0010
0000
0010
0000
,
0100
0000
0100
0000
,
1000
0000
1000
0000
,
0001
0000
0100
0000
,
0010
0000
1000
0000
,
0001
0000
0001
1001
,
0000
1000
0000
0000
0001
0000
0000
2000
,
0000
3000
0000
0000
1000
0000
0000
1000
,
0000
0000
0001
0000
0000
0002
0000
0000
,
0003
0000
0010
0000
0000
0010
0000
0000
,
0100
0000
0000
0100
0000
0000
0020
0000
,
0130
0000
0000
0010
0000
0000
0100
0000
,
0220
0000
0330
0000
,
1000
1000
1000
0000
,
0001
0001
0001
0000
,
1000
1000
1000
0000
,
0001
0001
0001
0000
,
0100
0100
0100
0000
,
0010
0010
0010
0000
,
1000
1000
1000
0000
,
0001
0001
0001
0000
,
1000
1000
1000
1000
,
1000
0000
0100
0000
,
0010
0010
0010
0010
,
0010
0000
0001
0000
,
1000
1000
0100
0010
,
0010
0000
0100
0000
,
1000
1000
0001
1000
,
0001
0000
0000
1000
0000
0000
2002
0000
,
0000
3003
0000
0001
,
0001
0100
0000
0010
,
1000
0010
0000
1000
,
0100
1000
0000
0001
,
0100
0001
0000
1000
,
0010
0001
0000
0100
,
0010
0100
0000
2002
,
0000
0000
0000
0000
3003
0000
0001
0000
0000
0000
0000
0000
,
0001
0000
0001
0001
,
0100
0000
0100
0000
,
1000
0000
0100
0100
,
0001
0000
1000
0000
0001
0000
0000
0001
,
0000
0000
1000
0000
0000
0010
0000
0000
,
0100
0100
0001
1000
,
0001
0000
2002
0000
,
0000
3003
0000
2000
,
3002
0203
0320
0000
,
0000
0000
0230
0000
,
0000
0000
0302
0000
,
2003
0000
3001
1000
0001
0000
0000
0000
,
1000
0000
0100
0000
,
0010
0000
0001
0000
,
0100
0000
0000
0000
0100
0000
0000
0100
,
0000
0100
0001
0000
,
1000
0000
0000
0001
0000
0000
0100
0000
,
0000
0100
0000
0000
0010
0000
0000
0100
,
0000
0100
0220
0000
,
0000
0330
2000
0000
,
0000
3000
0002
0000
,
0000
0003
2000
0000
,
0000
3000
0002
0000
,
0000
0003
1000
0000
,
0010
0000
0100
0000
,
0001
0000
1000
1000
,
1000
1000
2000
0000
,
0000
0000
0000
0000
,
0000
0000
0000
0000
,
0000
0000
0000
0000
,
0000
0000
3000
0000
,
1000
0010
0010
0000
,
0100
0100
0001
0000
,
1000
0100
0100
0000
,
0001
0001
0010
0000
,
1000
0001
1000
0000
,
0001
1000
0001
0000
,
0100
0010
0100
0000
,
0010
0010
0100
0000
,
0010
1000
0100
0000
,
0010
0010
0001
0000
,
1000
0001
0100
0000
,
0001
0001
1000
0000
,
0010
1000
0100
0000
,
1000
1000
0001
0000
,
1000
1000
1000
1000
,
0001
0000
2002
3003
,
1000
0000
0100
0000
,
0010
0000
0001
0000
,
1000
0000
0010
0000
,
0100
0000
0001
0000
,
2002
0000
0000
0000
,
3003
0000
2002
0000
,
0000
0000
3003
0000
,
0100
0000
0010
0000
,
0200
0000
0000
0300
,
2002
0000
0000
0000
,
0000
0000
0000
0000
,
0000
0000
0000
0000
,
3003
0000
0000
0100
0000
0000
0000
0000
;

//--------------- dance-single - Fred-104 ----------------
#NOTEDATA:;
#STEPSTYPE:dance-single;
#DESCRIPTION:Fred-104;
#DIFFICULTY:Easy;
#METER:11;
#CREDIT:Fred-104;
#NOTES:
0000
0000
0000
0000
,
0000
0000
0000
0000
,
0000
0000
0000
0000
,
0000
0000
0000
0000
,
0000
0000
0000
0000
,
0000
0000
0000
0000
,
0001
0000
0000
1000
0000
0000
0001
0000
,
0000
0100
0000
0000
0010
0000
0100
0000
,
0001
0000
0000
1000
0000
0000
0100
0000
,
0000
0010
0000
0000
0001
0000
1000
0000
,
1001
0000
0001
0000
,
1000
0010
0100
0000
,
0001
0000
1000
0000
,
0100
0010
0001
0000
,
1000
0100
0001
0100
,
1000
0010
0001
0010
,
1000
0001
0000
0010
0100
0000
1000
0001
,
1000
0001
1000
0001
1000
0000
1010
0000
,
0000
0010
0000
0000
0110
0000
0000
0200
,
0000
0300
0000
0000
0101
0000
0000
0001
,
0000
0000
0011
0000
0000
0020
0000
0000
,
0030
0000
1001
0000
0000
0100
0000
0000
,
0110
0000
0000
0010
0000
0000
2002
3003
,
0100
0000
0000
0110
0000
0000
0010
0000
,
2002
0000
3003
0000
,
1000
1000
0100
0100
,
0010
0010
0001
0001
,
1000
1000
0010
0010
,
0100
0100
0001
0001
,
1000
1000
0100
0100
,
0001
0000
0001
0000
0010
0000
0010
1000
,
0001
1000
0100
0010
,
0001
0000
1000
0000
0010
0100
0010
0000
,
1000
0100
0010
0011
,
0001
0100
0010
1010
,
1000
0001
0100
0110
,
1000
0001
0100
0110
,
0001
0010
0100
1100
,
0001
0200
1300
0100
,
0001
0020
0130
1000
,
1001
0000
0000
0110
0000
0000
2002
3003
,
0000
0000
1000
1000
1000
0000
0001
0000
,
0011
0001
0101
1000
,
1100
1000
1010
2000
,
3001
0100
1000
0100
,
0002
0000
0013
0000
0100
0000
1000
0100
,
1000
0000
0001
0100
0001
0000
1000
1000
,
0000
0000
0001
0001
0000
0000
0100
0020
,
0000
0000
0000
0000
0030
0000
1000
0000
0000
1001
0000
0000
,
0001
0100
0010
0110
,
0010
1000
0001
0011
,
0010
0100
1000
0110
,
0001
0000
1000
0000
1001
0000
0000
1000
,
0000
0000
0100
0000
0000
0010
0000
0000
,
0001
0000
0100
0000
0001
0010
0001
0000
,
1000
0010
1000
0000
0001
1000
0001
1000
,
0001
1000
0002
0000
0003
0000
2000
0000
,
3200
0320
0032
0000
,
0000
0000
0203
0000
,
0000
0000
0320
0000
,
1030
0100
1000
0001
1000
0000
0010
0000
,
0100
0000
0000
0000
0001
0000
0010
0010
,
0000
0000
0000
0100
0000
1100
0000
0000
,
0000
0000
0001
1000
0000
0000
0000
0100
,
0000
0000
0001
0000
0000
0100
0000
0000
,
1000
0000
0000
0010
0000
0000
0001
0000
,
0000
0010
0000
0000
1000
0000
0000
0001
,
0000
1000
2002
0000
,
0000
3003
1000
0000
,
1010
0000
0001
0000
,
0011
0000
1000
0000
,
1100
0000
0001
0000
,
0101
0000
1000
0100
,
0010
0001
0100
0010
,
1000
0001
1000
0100
,
0001
0010
2000
0000
,
0000
0000
0000
0000
,
0000
0000
0000
0000
,
0000
0000
0000
0000
,
0000
0000
3000
0000
,
0001
0100
0001
0100
,
1000
0100
1000
0100
,
0001
0010
0001
0010
,
1000
0010
1000
0010
,
0001
0010
0100
1000
,
0001
0100
0010
1000
,
0001
0100
1000
0100
,
0001
0001
1000
1001
,
1000
0010
1000
0010
,
0001
0010
0001
1000
,
0100
1000
0100
0001
,
0100
0001
1000
0001
,
1000
0100
0001
0100
,
0010
1000
0010
0001
,
1000
0100
0010
0001
,
1000
0001
2002
3003
,
1000
0000
1100
0000
,
0100
0000
0110
0000
,
0010
0000
0011
0000
,
0001
0000
1001
0000
,
0200
0000
0000
0000
,
0300
0000
0020
0000
,
0000
0000
0030
0000
,
1000
0001
0100
0010
,
1000
0100
0010
0001
,
2002
0000
0000
0000
,
0000
0000
0000
0000
,
0000
0000
0000
0000
,
3003
0000
0000
0100
0000
0000
0000
0000
;

//--------------- dance-single - Fred-104 ----------------
#NOTEDATA:;
#STEPSTYPE:dance-single;
#DESCRIPTION:Fred-104;
#DIFFICULTY:Medium;
#METER:15;
#CREDIT:Fred-104;
#NOTES:
0000
0000
0000
0000
,
0000
0000
0000
0000
,
0000
0000
0000
0000
,
0000
0000
0000
0000
,
0000
0000
0000
0000
,
0000
0000
0000
0000
,
1000
0000
0000
0100
0000
0000
1000
0000
,
0000
0001
0000
0000
0100
0000
0010
0000
,
0100
0000
0000
0001
0000
0000
1000
0000
,
0000
0100
0000
0000
0010
0000
0001
0000
,
1000
0000
0010
1000
,
0100
0000
0010
0100
,
1001
0000
0001
0010
,
0001
0000
1000
0000
,
0001
0000
1000
0000
,
0010
1000
0100
0010
,
0001
0100
0010
1000
0100
0010
0001
1000
,
0010
0100
0001
1000
0001
0000
1010
0000
,
0000
0101
0000
0000
1100
0000
0000
0022
,
0000
0033
0000
0000
0110
0000
0000
1100
,
0000
0000
0101
0000
0000
0220
0000
0000
,
0330
0000
1001
0000
0000
0110
0000
0000
,
1010
0000
0000
0101
0000
0000
1001
0100
,
1100
0000
0000
0101
0000
0000
1100
0000
,
0001
1000
0001
0000
1000
0001
1000
0000
0002
0000
0000
0000
0003
0000
0000
0000
,
1100
1100
1001
1001
,
0101
0101
1001
1001
,
1010
1010
1001
1001
,
0011
0011
1001
1001
,
2100
3010
0102
0013
,
1200
0000
0000
0000
0310
0000
0000
0000
0201
0000
0000
0000
0310
1000
0010
1000
,
0001
0000
1000
0100
0001
0000
1000
0010
,
0001
1000
0100
0010
0001
1000
0010
0100
,
0001
0010
0001
1000
0010
0100
0001
0000
,
1000
0100
0002
0000
0103
0010
0001
1000
,
0010
0001
0020
0000
0130
0001
1000
0001
,
0020
0000
1030
0010
0100
0010
0001
1000
,
0001
0010
0001
0010
1000
0001
1000
0010
,
0001
1000
0200
0000
0301
0100
0010
0001
,
1000
0010
0100
1000
0001
0010
0100
0001
,
1001
0000
0100
0110
0000
0001
1000
1001
,
0100
0100
0010
0010
0110
0000
1000
0010
,
0001
0010
0100
0001
1000
0001
0010
1000
,
0010
0100
1000
0001
0100
0010
0001
1000
,
0100
0001
1000
0010
0001
0010
0100
0010
,
1000
0001
0010
0100
0001
1000
0010
0001
,
1000
0100
1000
0010
0100
0001
0100
1000
,
0001
1000
0100
0001
1000
0001
0010
1000
,
0010
0000
0000
0000
0000
0000
0000
0000
0000
0000
0000
0000
0000
0000
0000
0000
0000
0000
0000
0000
0000
0000
0000
0000
0000
0000
0000
0000
0000
0000
0000
0000
0001
0000
0000
0000
0000
0000
0000
0000
0000
0000
0000
0000
0000
0000
0000
0000
0000
0000
0000
0000
0000
0000
0000
0000
0000
0000
0000
0000
0000
0000
0000
0000
2002
0000
0000
3003
0000
0000
0000
0000
0000
0000
0000
0000
0000
0000
0000
0000
0000
0000
0000
0000
0000
0000
0000
0000
0000
0000
0000
0000
0000
0000
0000
0000
1000
0000
0000
0000
0000
0000
0000
0000
0000
0000
0000
0000
0000
0000
0000
0000
0000
0000
0000
0000
0000
0000
0000
0000
0010
0000
0000
0000
0000
0000
0000
0000
0000
0000
0000
0000
0000
0000
0000
0000
0000
0000
0000
0000
0000
0000
0000
0000
0100
0000
0000
0000
0000
0000
0000
0000
0000
0000
0000
0000
0000
0000
0000
0000
0000
0000
0000
0000
0000
0000
0000
0000
0010
0000
0000
0000
0000
0000
0000
0000
0000
0000
0000
0000
0000
0000
0000
0000
0000
0000
0000
0000
0000
0000
0000
0000
,
1000
0100
0010
0001
1000
0100
0002
0000
,
1003
0010
0002
0000
1003
0100
0010
0100
,
1000
0001
0100
0001
2000
0000
3001
0100
,
0010
1000
0100
0010
0100
0000
1000
1100
,
0000
0001
0101
0000
0100
0110
0000
0001
,
1000
0001
0200
0300
1000
0100
0010
0001
,
1000
0010
0100
0001
1000
0001
0010
0100
,
1000
0100
1000
0100
1000
0000
0000
0000
2001
0000
0000
0000
3002
0000
0000
0000
,
0203
0320
2030
0000
,
0000
0000
3200
0000
,
0000
0000
0320
0000
,
0000
0000
0000
0000
0000
0000
0031
0000
0001
0000
0000
0001
0000
0000
0001
0000
1000
0000
0000
0000
0000
0000
0000
0000
0001
0000
0000
0000
0000
0000
0000
0000
,
0100
0000
0010
0000
0100
0000
0001
0101
,
0000
0010
0000
0110
0000
1001
0000
0001
,
0000
1000
0100
0110
0010
0000
0000
0011
,
0000
0000
1001
0000
0000
1010
0000
0000
,
0101
0000
0001
0100
0010
0000
1001
0000
,
0000
0110
0000
0000
1010
0000
0000
0011
,
0000
1100
0202
0000
,
0000
0303
0001
0001
,
0100
0100
1000
1000
,
0010
0010
0001
0001
,
0010
0010
1000
1000
,
0100
0000
0000
0100
0000
0000
0001
0000
0000
1000
0010
0100
,
0001
0000
0000
1000
0100
0010
0001
0000
0000
1000
0010
0100
,
0001
0000
0000
1000
0100
0010
0001
0000
0001
0100
0000
0100
,
0010
0000
0010
1000
0000
1000
0002
0000
0000
0000
0000
0000
,
0000
0000
0000
0000
,
0000
0000
0000
0000
,
0000
0000
0000
0000
,
0000
0000
0003
0000
,
1001
0000
0000
0001
1000
0100
1000
0000
0000
0001
0000
0000
,
0100
0000
0000
0010
0100
0010
1000
0000
0000
0001
0000
0000
,
1000
0000
0000
0100
0010
0100
1000
0000
0000
0001
0000
0000
,
1000
0000
0000
0010
1000
0001
1000
0000
0000
0001
0000
0000
,
1000
0000
0000
0010
0001
0010
0001
0000
0000
0010
0000
0000
,
1000
0000
0000
0100
0001
0100
0001
0000
0000
0100
0000
0000
,
1000
0100
0010
0001
0000
0000
0001
0100
0010
1000
0000
0000
,
0001
0010
0100
1000
0001
1000
0020
0000
0000
0230
0000
0000
,
0301
0000
0000
1000
0010
1000
0100
0000
0000
0010
0000
0000
,
0001
0000
0000
1000
0010
0100
0001
0000
0000
1000
0000
0000
,
0001
0000
0000
0010
0100
0010
1000
0000
0000
0010
0000
0000
,
0100
0000
0000
1000
0001
1000
0010
0000
0000
0100
0000
0000
,
0001
0000
0000
0010
0001
0100
0010
0000
0000
0001
0000
0000
,
0010
0000
0000
1000
0001
0010
0100
0000
0000
1000
0000
0000
,
0001
0100
0001
0100
0000
0000
1000
0100
1000
0100
0000
0000
,
0001
0010
0001
1000
0010
1000
0002
0000
0000
0003
0000
0000
,
1200
0310
0201
0310
,
1020
0130
0021
0130
,
2100
3010
0102
0013
,
2010
0000
0000
3100
0000
0000
1001
0000
0100
0000
0010
0000
,
0002
0000
0000
0000
,
0103
0000
0010
0000
1000
0000
0002
0000
0000
0000
0000
0000
,
0000
0000
0000
0000
0000
0000
0013
0000
0100
0000
1000
0000
,
0001
0100
1000
0100
0001
0010
1000
0010
,
0011
1000
0001
1100
,
2002
0000
0000
0000
,
0000
0000
0000
0000
,
0000
0000
0000
0000
,
3003
0000
0000
0100
0000
0000
0000
0000
;

//--------------- dance-single - Fred-104 ----------------
#NOTEDATA:;
#STEPSTYPE:dance-single;
#DESCRIPTION:Fred-104;
#DIFFICULTY:Hard;
#METER:18;
#CREDIT:Fred-104;
#NOTES:
0000
0000
0000
0000
,
0000
0000
0000
0000
,
0000
0000
0000
0000
,
0000
0000
0000
0000
,
0000
0000
0000
0000
,
0000
0000
0000
0000
,
1000
0000
0000
0010
0000
0000
0001
0000
,
0000
1000
0000
0000
0100
0000
0001
0000
,
1000
0000
0000
0100
0000
0000
0001
0000
,
0000
1000
0000
0000
0010
0000
0001
0000
,
1001
0000
0001
0000
,
0010
0100
0001
0000
,
0100
0000
1000
0000
,
0001
0010
0100
0000
,
1000
0000
0000
0001
0010
0100
1000
0000
,
0001
0000
0000
1000
0010
0100
0001
0000
,
1000
0100
1000
0100
0010
0001
1000
0010
1000
0010
0100
0001
1000
0100
0010
0000
,
0001
0000
0000
0000
0010
0000
0000
0000
0001
0000
0000
0000
0100
0000
0000
0000
0010
0000
0000
0000
1000
0000
0000
0000
0100
0000
0000
0000
1000
0000
0000
0000
0002
0003
0000
0000
0000
0000
0000
0000
0000
0000
0000
0000
0000
0000
0000
0000
1001
0000
0000
0000
0000
0000
0000
0000
0000
0000
0000
0000
0000
0000
0000
0000
,
1000
1010
0000
0001
0101
0000
1000
2002
,
0000
3003
0000
0000
0101
0000
0100
1100
,
0000
0100
0101
0000
0100
0220
0000
0000
,
0330
0000
1100
0000
0001
0101
0000
1000
,
1100
0000
0000
0000
0000
0000
0000
0000
1000
0000
0000
0000
0001
0000
0000
0000
0010
0000
0000
0000
0100
0000
0000
0000
1000
0010
1000
0000
0001
0000
1000
0000
,
0001
0100
1000
0001
0010
0100
0001
1000
,
0001
0100
0001
0100
0010
1000
0010
1000
0002
0000
0000
0000
0003
0000
0000
0000
,
1010
1010
1010
1010
,
0011
0011
0011
0011
,
1100
1100
1100
1100
,
0101
0101
0101
0101
,
1001
1001
1001
1001
,
0110
0000
0000
0000
0110
0000
0000
0000
0110
0000
0000
0000
1000
0010
1000
0001
,
0100
0000
0001
1000
0020
0000
0130
0001
,
1000
0000
0100
0000
0010
0000
0001
0000
0010
0001
0010
0001
0010
0000
0100
0000
,
1000
0010
1000
0001
0100
0010
1000
0001
,
0010
0000
0100
0000
2100
0000
0000
0000
3001
0000
1000
0000
0010
1000
0010
1000
,
0010
0100
0102
0000
1003
0100
0010
0001
,
2001
0000
0000
0000
0000
0000
3001
0000
0000
0100
0000
0000
0010
0000
0000
0001
0000
0000
0010
0000
0100
0000
0001
0000
,
1000
0100
0010
0001
0100
0010
1000
0001
,
0100
0001
0100
0001
0200
0000
0000
0000
0301
0000
1000
0000
0100
0010
0100
0010
,
0001
0100
0020
0031
1000
0100
0010
1000
,
1100
0000
0000
0000
0000
0000
0000
0000
0010
0000
0000
0000
0000
0000
0000
0000
0001
0000
0000
0000
0000
0000
0000
0000
0101
0000
0000
0000
0000
0000
0000
0000
0010
0000
0000
0000
0000
0000
0000
0000
1000
0000
0000
0000
0000
0000
0000
0000
0001
0000
0000
0000
0000
0000
0000
0000
2002
3003
0000
0000
0000
0000
0000
0000
,
0001
0100
0001
0100
0010
0000
1000
0000
1001
0000
0000
0000
1000
0000
0100
0010
,
0001
0000
1000
0000
0010
0000
0100
0000
0001
0000
0100
0000
0010
0000
1000
0001
,
0010
0000
0100
0000
1000
0000
0001
0000
0100
0000
0010
0000
1000
0001
0010
0000
,
0001
0000
0100
0000
0010
0000
0100
0000
0001
0000
1000
0000
0100
0000
0001
0100
,
0010
0000
0001
0000
1000
0000
0010
0000
0100
0000
0010
0000
1000
0000
0001
0100
,
0010
0000
0001
0000
0010
0000
1000
0000
0001
1000
0100
0010
0001
1000
0001
0000
,
1000
0010
0100
0001
1000
0001
1000
0000
0001
0010
0100
1000
0001
1000
0010
0000
,
1000
0000
0000
0000
0000
0000
0000
0000
0000
0000
0000
0000
0000
0000
0000
0000
0000
0000
0000
0000
0000
0000
0000
0000
0000
0000
0000
0000
0000
0000
0000
0000
1000
0000
0000
0000
0000
0000
0000
0000
0000
0000
0000
0000
0000
0000
0000
0000
0000
0000
0000
0000
0000
0000
0000
0000
0000
0000
0000
0000
0000
0000
0000
0000
2002
0000
0000
3003
0000
0000
0000
0000
0000
0000
0000
0000
0000
0000
0000
0000
0000
0000
0000
0000
0000
0000
0000
0000
0000
0000
0000
0000
0000
0000
0000
0000
1000
0000
0000
0000
0000
0000
0000
0000
0000
0000
0000
0000
0000
0000
0000
0000
0000
0000
0000
0000
0000
0000
0000
0000
0100
0000
0000
0000
0000
0000
0000
0000
0000
0000
0000
0000
0000
0000
0000
0000
0000
0000
0000
0000
0000
0000
0000
0000
0010
0000
0000
0000
0000
0000
0000
0000
0000
0000
0000
0000
0000
0000
0000
0000
0000
0000
0000
0000
0000
0000
0000
0000
0001
0000
0000
0000
0000
0000
0000
0000
0000
0000
0000
0000
0000
0000
0000
0000
0000
0000
0000
0000
0000
0000
0000
0000
,
0100
0010
0001
0010
0100
0001
1001
0000
,
0100
1000
1001
0000
1000
0100
1100
0000
,
0001
0100
0101
0000
1010
0010
0100
0001
,
1000
0000
0100
0000
0010
0001
1000
0010
0100
0000
0000
0000
0001
0000
1001
0000
,
0000
0100
0110
0000
0010
1010
0000
1000
,
0010
0100
0002
0003
1000
0001
0010
0100
,
1000
0001
0010
0000
0100
1000
0001
0000
1000
0010
0100
0010
1000
0010
0100
0010
,
1000
0001
0010
0100
1000
0000
0000
0000
0002
0000
0000
0000
0023
0000
0000
0000
,
0230
2300
3002
0100
,
1000
0000
0013
0001
2000
0000
0100
0000
,
3100
0010
0100
0010
0001
1000
0001
1000
0002
0000
0000
0000
1003
0100
0010
0001
,
1000
0000
0010
0000
0100
0000
0001
0000
1000
0000
0000
1000
0000
0000
1000
0000
0002
0000
0000
0000
0000
0000
0000
0000
0000
0000
0000
0000
0000
0000
0000
0000
,
0000
0000
0000
0000
0003
0000
1000
1100
,
0000
0000
0000
0101
0000
1010
0000
0000
,
0000
0001
1000
0001
1001
0000
0000
0011
,
0000
0000
0110
0000
0000
1100
0000
0000
,
0101
0000
0000
0011
0000
0000
1010
0000
,
0000
1100
0000
0000
0101
0000
0000
1010
,
0000
0011
2002
0000
,
0000
0000
0000
3003
0000
0000
0001
0100
0010
0100
0010
1000
,
0001
0010
0100
0010
0100
1000
0001
0100
0010
0001
0010
0100
,
0010
0100
1000
0100
0010
1000
0001
0010
0100
0010
0100
1000
,
0001
0100
0010
0100
0010
1000
0001
0010
0100
0001
0100
0010
,
0100
0010
1000
0010
0100
1000
0001
0010
0100
1000
0010
1000
,
0010
0100
0001
0100
0010
0100
0010
1000
0001
1000
0100
1000
,
0100
0010
0001
1000
0010
1000
0001
0100
1000
0001
0010
0100
,
0001
0010
0100
0001
1000
0010
0002
0000
0000
0000
0000
0000
,
0000
0000
0000
0000
,
0000
0000
0000
0000
,
0000
0000
0000
0000
,
0000
0000
1003
0000
,
1000
0000
0100
0010
0100
0001
0100
1000
0001
1000
0000
0000
,
0001
0000
0010
0100
0010
0001
1000
0010
0100
0001
0000
0000
,
1000
0000
0001
0100
1000
0100
0001
0100
0010
1000
0000
0000
,
0001
0000
1000
0010
0001
0010
0100
0001
1000
0100
0000
0000
,
0010
0000
0001
1000
0010
0100
0010
0001
0010
1000
0000
0000
,
0001
0000
0010
0100
1000
0010
0100
1000
0100
0001
0000
0000
,
1000
0100
0010
0001
0100
0010
1000
0010
0100
0001
0010
0100
,
1000
0001
0100
1000
0001
0010
1000
0001
0010
0100
0000
0000
,
1000
0010
0100
0010
1000
0001
1000
0100
0001
0100
0000
0000
,
1000
0001
0100
0001
1000
0100
0010
0001
0010
1000
0000
0000
,
0010
0001
1000
0010
0100
0001
1000
0100
0010
0100
0000
0000
,
1000
0100
0010
1000
0001
0100
0010
0001
1000
0001
0000
0000
,
1000
0100
0010
1000
0010
0100
1000
0001
0100
0001
0000
0000
,
1000
0010
1000
0001
0100
0010
0001
1000
0100
0001
0000
0000
,
1000
0100
0010
0001
1000
0010
0100
0001
1000
0100
0010
0001
,
1000
0100
1000
0001
0010
0001
0200
0000
0000
0300
0000
0000
,
1001
0000
0000
1000
0100
0001
0100
0000
0000
1000
0010
0001
,
0010
0000
0000
1000
0100
0010
1000
0000
0000
1000
0010
0100
,
1000
0000
0000
0001
0100
1000
0100
0000
0000
0001
0010
1000
,
0010
0000
0000
0001
0100
0010
1000
0000
1100
0000
0101
0000
,
0020
0000
0000
0000
,
0130
0000
1010
0000
0011
0000
0200
0000
0000
0000
0000
0000
,
0000
0000
0000
0000
0000
0000
0310
0000
1100
0000
0101
0000
,
0010
0100
1000
0000
0001
0100
0010
0000
1000
0010
0100
0001
1000
0100
0010
0001
,
2000
3000
0000
0000
0000
0000
0000
0000
0000
0000
0000
0000
0000
0000
0000
0000
2200
3300
0000
0000
0000
0000
0000
0000
0000
0000
0000
0000
0000
0000
0000
0000
0220
0330
0000
0000
0000
0000
0000
0000
0000
0000
0000
0000
0000
0000
0000
0000
0022
0033
0000
0000
0000
0000
0000
0000
0000
0000
0000
0000
0000
0000
0000
0000
,
2002
0000
0000
0000
,
0000
0000
0000
0000
,
0000
0000
0000
0000
,
3003
0000
0000
0100
0000
0000
0000
0000
;

//--------------- dance-single - Fred-104 ----------------
#NOTEDATA:;
#STEPSTYPE:dance-single;
#DESCRIPTION:Fred-104;
#DIFFICULTY:Challenge;
#METER:19;
#CREDIT:Fred-104;
#NOTES:
0000
0000
0000
0000
,
0000
0000
0000
0000
,
0000
0000
0000
0000
,
0000
0000
0000
0000
,
0000
0000
0000
0000
,
0000
0000
0000
0000
,
1001
0000
1000
0100
0000
1000
0001
0000
,
0100
0010
0000
1000
0100
0010
0001
1000
,
0010
0000
1000
0100
0000
0010
1000
0000
,
0010
0100
0000
0010
0001
0100
0010
1000
,
1001
0000
0001
0010
1000
0000
0001
0100
,
1000
0000
0100
0010
0001
1000
0001
0000
,
1000
0000
0010
0001
1000
0000
0100
0001
,
1000
0000
0001
0100
1000
0100
0001
0000
,
1000
0000
0001
0000
0010
0000
0100
1000
0100
0000
0010
0000
0001
0000
1000
0000
,
0001
0000
0100
0000
1000
0000
0100
0010
0100
0000
0001
0000
1000
0000
0001
0000
,
1000
0100
1000
0001
0100
0001
1000
0010
1000
0001
0010
0001
1000
0100
0010
0001
,
0010
0000
0000
0000
0100
0000
0000
0000
1000
0000
0000
0000
0001
0000
0000
0000
0100
0000
0000
0000
0010
0000
0000
0000
1000
0000
0000
0000
0001
0000
0000
0000
2000
3000
0000
0000
0000
0000
0000
0000
0000
0000
0000
0000
0000
0000
0000
0000
1100
0000
0000
0000
0000
0000
0000
0000
0000
0000
0000
0000
0000
0000
0000
0000
,
0101
0101
0000
1010
1010
0000
0011
0022
,
0000
0033
0000
0000
1010
0000
0011
0011
,
0000
1100
1100
0000
0101
0202
0000
0000
,
0303
0000
1100
0000
0101
1100
0000
0011
,
1010
0000
0000
0000
0000
0000
0000
0000
0110
0000
0000
0000
1001
0000
0000
0000
0000
0000
0000
0000
1000
0000
0000
0000
0010
1000
0010
0000
0100
0000
0001
0000
,
0011
0100
1000
1010
0100
0001
1001
0001
,
0010
0001
1000
0010
0100
0001
0010
0100
2000
0000
3020
0000
0230
0000
0302
0000
,
1003
0010
0100
1000
0001
0010
1000
0001
,
0010
0100
0001
1000
0010
0100
0010
0001
,
1000
0010
0001
1000
0100
0010
0100
0001
,
1000
0100
0010
1000
0001
0100
0010
0001
,
1000
0001
0100
1000
0001
0010
0100
0001
,
1000
0000
0100
0000
0001
0000
1000
0000
0001
0000
0100
0000
1000
0100
0010
0001
,
0200
0000
0001
0000
0301
0100
0010
1000
0200
0000
1000
0000
1300
0001
0010
0100
,
0010
0000
0100
1000
0001
0000
0100
0001
1000
0100
0010
0001
1000
0001
1000
0000
,
1001
0000
0001
1000
0010
0000
0100
0000
0001
0000
0010
0100
1000
0000
0001
0000
,
1000
0000
0001
0100
2000
0000
3100
0000
0010
0000
0001
0010
1000
0000
0001
0000
,
1000
0000
0100
0010
0002
0000
1003
0000
0100
0000
0001
0100
0010
0000
0001
0000
,
2000
0000
0000
3010
0000
0000
0001
0000
0000
0000
0000
0000
1000
0000
0000
0000
0000
0000
0100
0000
0000
0001
0000
0000
0100
0000
0000
0000
0000
0000
0010
0000
0000
0000
0000
0000
1000
0000
0000
0000
0001
0000
0000
0000
0100
0000
0000
0000
,
1000
0000
0100
0001
1000
0000
0001
0010
0100
0000
1000
0001
0100
0000
0001
1000
,
0010
0000
1000
0001
0020
0000
0130
0010
0001
0000
0100
0010
1000
0010
0100
0000
,
0001
1000
0100
0010
0002
0000
1003
0010
0100
0000
0001
1000
0100
0000
1000
0001
,
1000
0000
0000
0000
0000
0000
0000
0000
0000
0000
0000
0000
0001
0000
0000
0000
0000
0000
0000
0000
0000
0000
0000
0000
0010
0000
0000
0000
0000
0000
0000
0000
0000
0000
0000
0000
0100
0000
0000
0000
0000
0000
0000
0000
0000
0000
0000
0000
1000
0000
0000
0000
0000
0000
0000
0000
0000
0000
0000
0000
0000
0000
0000
0000
0000
0000
0000
0000
0000
0000
0000
0000
0010
0000
0000
0000
0000
0000
0000
0000
0000
0000
0000
0000
0100
0000
0000
0000
0000
0000
0000
0000
0000
0000
0000
0000
0001
0000
0000
0000
0000
0000
0000
0000
0000
0000
0000
0000
1000
0000
0000
0000
0000
0000
0000
0000
0000
0000
0000
0000
0100
0000
0000
0000
0000
0000
0000
0000
0000
0000
0000
0000
0000
0000
0000
0000
0000
0000
0000
0000
0000
0000
0000
0000
0010
0000
0000
0000
0000
0000
0000
0000
0000
0000
0000
0000
0000
0000
0000
0000
0000
0000
0000
0000
0000
0000
0000
0000
0220
0330
0000
0000
0000
0000
0000
0000
0000
0000
0000
0000
0000
0000
0000
0000
0000
0000
0000
0000
0000
0000
0000
0000
,
1000
0100
0001
0100
1000
0000
0001
0000
1001
0000
0000
0000
1000
0010
0100
0000
,
0002
1003
0100
0000
0001
0100
1000
0000
0010
0100
0001
0000
1000
0001
0010
0000
,
2000
3010
0001
0000
0010
0100
1000
0000
0010
0100
0001
0000
2000
3100
0010
0001
,
1000
0000
0001
0100
0010
0000
0001
0010
0100
0000
0001
0000
1000
0100
0010
0000
,
0001
1000
0010
0000
1000
0001
0100
0000
1000
0100
0010
0000
1000
0100
0010
0000
,
0002
0013
0100
0000
1000
0001
0100
0000
0010
1000
0001
0010
0100
0010
0001
0000
,
1000
0010
1000
0001
0010
0100
0010
0000
0001
0100
0010
1000
0001
0010
0100
0000
,
1100
0000
0000
0000
0000
0000
0000
0000
0000
0000
0000
0000
0000
0000
0000
0000
0000
0000
0000
0000
0000
0000
0000
0000
0000
0000
0000
0000
0000
0000
0000
0000
0101
0000
0000
0000
0000
0000
0000
0000
0000
0000
0000
0000
0000
0000
0000
0000
0000
0000
0000
0000
0000
0000
0000
0000
0000
0000
0000
0000
0000
0000
0000
0000
2002
0000
0000
3003
0000
0000
0000
0000
0000
0000
0000
0000
0000
0000
0000
0000
0000
0000
0000
0000
0000
0000
0000
0000
0000
0000
0000
0000
0000
0000
0000
0000
2000
0000
0000
0000
0000
0000
0000
0000
0000
0000
0000
0000
0000
0000
0000
0000
0000
0000
0000
0000
0000
0000
0000
0000
3100
0000
0000
0000
0000
0000
0000
0000
0000
0000
0000
0000
0000
0000
0000
0000
0000
0000
0000
0000
0000
0000
0000
0000
0020
0000
0000
0000
0000
0000
0000
0000
0000
0000
0000
0000
0000
0000
0000
0000
0000
0000
0000
0000
0000
0000
0000
0000
0031
0000
0000
0000
0000
0000
0000
0000
0000
0000
0000
0000
0000
0000
0000
0000
0000
0000
0000
0000
0000
0000
0000
0000
,
0200
0310
0002
1003
0200
0310
2000
3100
,
0020
0032
2003
3100
0002
1003
0020
0130
,
2000
3010
2000
3001
0200
1300
0002
0013
,
0200
0000
0301
0000
1000
0001
1000
0100
0010
0000
0000
0000
0011
0000
1010
0000
,
0000
0101
1100
0000
0110
1001
0000
0101
,
0110
0000
0010
0000
1000
0001
2000
0000
3001
0010
0001
0010
0100
1000
0100
1000
,
0001
0100
0010
1000
0001
0100
0010
1000
0001
0010
0001
0100
0010
1000
0100
1000
,
0010
0100
0001
0010
0001
0000
0000
0000
2001
0000
0000
0000
3002
0000
0000
0000
,
0023
0230
2300
0000
,
0000
0000
0000
0000
0000
0000
3001
1000
0020
0000
0000
0000
0000
0000
0000
0000
,
0100
0100
0100
0100
0100
0100
0100
0130
0002
0000
0000
0000
1000
1000
1000
1000
,
1000
0000
1000
0000
1000
0000
1003
0000
0001
0000
0000
0010
0000
0000
0100
0000
2000
0000
0000
0000
0000
0000
0000
0000
0010
0000
0000
0000
0000
0000
0000
0000
,
0001
0000
0000
0000
3100
0000
0010
0001
1000
0000
0001
0000
1000
0000
1010
0000
,
0000
0001
0000
0011
0000
1100
0000
0001
,
0000
1000
1100
0110
0011
0000
0000
1100
,
0000
0000
0101
0000
0000
1010
0000
0000
,
0011
0000
0000
0101
0000
0000
1100
0000
,
0000
0101
0000
0000
0110
0000
0000
1010
,
0000
0101
2002
0000
,
0000
0000
0000
3003
0000
0000
1001
1000
0100
0010
0001
1000
,
1001
0001
0100
0010
1000
0001
0011
0010
0100
1000
0001
1000
,
1010
0010
0100
0001
1000
0100
0110
0010
0001
1000
0001
0100
,
0101
0001
1000
0100
0010
0100
1100
1000
0001
0100
0010
1000
,
1001
0001
0010
0100
0010
0001
1001
1000
0100
0010
0001
1000
,
1010
0010
0100
0001
1000
0100
1100
1000
0010
0100
0001
0010
,
0011
0001
1000
0010
0100
0010
0110
0100
0001
0010
1000
0001
,
0100
1000
0010
0001
1000
0100
0002
0000
0000
0000
0000
0000
,
0000
0000
0000
0000
,
0000
0000
0000
0000
,
0000
0000
0003
0000
,
0000
0000
MMMM
0000
,
1001
0001
0100
1000
0100
0001
0010
0100
0010
0001
1000
0001
,
1000
0100
0010
1000
0010
0100
1000
0001
1000
0100
0010
0001
,
1000
0100
0010
0001
0100
0010
0001
0010
1000
0001
0010
0100
,
1000
0001
0100
0010
1000
0100
0001
0100
0010
0100
1000
0010
,
1000
0001
0100
0010
0001
0010
1000
0001
0010
0100
1000
0001
,
1000
0010
1000
0100
0010
0001
1000
0100
0001
0100
0010
0001
,
1000
0010
0100
1000
0001
0010
0100
0001
0010
1000
0001
0100
,
1000
0001
1000
0000
0100
0000
0001
0000
0100
0000
0010
0000
0011
0000
0000
0000
0000
0000
1001
0000
0000
0000
0000
0000
,
1000
0010
0001
0010
0100
0010
1000
0001
0010
0100
1000
0001
,
1000
0010
0001
0010
0100
0001
1000
0001
0010
0100
0001
0100
,
1000
0001
0100
0010
0001
0010
0100
0001
1000
0100
0010
0001
,
0010
0100
0001
0100
1000
0010
0100
0010
0001
0010
1000
0001
,
1000
0100
0001
1000
0010
0001
1000
0100
0010
0001
1000
0001
,
0010
0100
0001
1000
0010
0001
0100
0010
1000
0001
1000
0001
,
0100
1000
0001
0010
0100
0001
0010
1000
0001
0100
1000
0001
,
1000
0001
1000
0000
0100
0000
0001
0000
0100
0000
1000
0000
2002
0000
0000
0000
0000
0000
0000
0000
0000
0000
3003
0000
,
1100
0100
0010
0001
0100
0010
0110
0100
0001
1000
0100
0010
,
0011
0001
1000
0100
1000
0010
1010
1000
0100
0010
0001
1000
,
1001
0001
0100
1000
0100
0001
1001
1000
0100
0001
0100
1000
,
1001
0001
0010
1000
0010
0001
1001
0000
1100
0000
0101
0000
,
0220
0000
0000
0330
,
1010
0000
0101
0000
1100
0000
2002
0000
0000
0000
0000
0000
,
0000
0000
0000
3003
0000
0000
0011
0000
1010
0000
0101
0000
,
1000
0100
0010
0001
0100
0010
1000
0100
0010
0001
0100
0010
1000
0100
0010
0001
,
0200
0300
0000
0000
0000
0000
0000
0000
0000
0000
0000
0000
0000
0000
0000
0000
2020
3030
0000
0000
0000
0000
0000
0000
0000
0000
0000
0000
0000
0000
0000
0000
0022
0033
0000
0000
0000
0000
0000
0000
0000
0000
0000
0000
0000
0000
0000
0000
2200
3300
0000
0000
0000
0000
0000
0000
0000
0000
0000
0000
0000
0000
0000
0000
,
2002
0000
0000
0000
,
0000
0000
0000
0000
,
0000
0000
0000
0000
,
3003
0000
0000
0100
0000
0000
0000
0000
;

//--------------- dance-double - Fred-104 ----------------
#NOTEDATA:;
#STEPSTYPE:dance-double;
#DESCRIPTION:Fred-104;
#DIFFICULTY:Easy;
#METER:11;
#CREDIT:Fred-104;
#NOTES:
00000000
00000000
00000000
00000000
,
00000000
00000000
00000000
00000000
,
00000000
00000000
00000000
00000000
,
00000000
00000000
00000000
00000000
,
00000000
00000000
00000000
00000000
,
00000000
00000000
00000000
00000000
,
00010000
00000000
00001000
00000000
,
00000100
00000000
00000010
00001000
,
00000001
00000000
00000010
00000000
,
00000100
00000000
00010000
00001000
,
00010000
00000000
01000000
00000000
,
00100000
00010000
10000000
00000000
,
00010000
00000000
10000000
00000000
,
01000000
00010000
00001000
00000000
,
00100000
00001000
00020000
00030000
,
00001000
00000100
00000002
00000003
,
00000010
00000100
00001000
00000001
,
00000100
00001000
00010000
00001000
00010000
00000000
00010010
00000000
,
00000000
00010000
00000000
00000000
00011000
00000000
00000000
00002000
,
00000000
00003000
00000000
00000000
01010000
00000000
00000000
01000000
,
00000000
00000000
01100000
00000000
00000000
00200000
00000000
00000000
,
00300000
00000000
10010000
00000000
00000000
10000000
00000000
00000000
,
11000000
00000000
00000000
01000000
00000000
00000000
02200000
03300000
,
00100000
00000000
00000000
00001000
00000000
00000000
00010000
00000000
,
00022000
00000000
00033000
00000000
,
00010000
00010000
00001000
00001000
,
00000100
00000100
00000001
00000001
,
00000010
00000010
00001000
00001000
,
00100000
00100000
00010000
00010000
,
10000000
10000000
01000000
01000000
,
00010000
00000000
00010000
00000000
00001000
00000000
00010000
00001000
,
00000100
00000001
00001000
00000100
,
00000010
00000100
00002000
00003000
,
00000001
00000010
00000100
00001001
,
00000001
00000100
00001000
00011000
,
01000000
00001000
00100000
00110000
,
10000000
01000000
00010000
00011000
,
00010000
00001000
00000010
00000011
,
00001000
00000002
00000103
00001000
,
00000100
00000002
00000013
00000100
,
00001100
00000000
00000000
00010010
00000000
00000000
00022000
00033000
,
00000000
00000000
00000000
00010000
,
00010100
00001000
01001000
00010000
,
00010010
00001000
00101000
00002000
,
00013000
01000000
00100000
00010000
,
20000000
00000000
30100000
00000000
00010000
00000000
00001000
00010000
,
00001000
00000000
00010000
01000000
10000000
00000000
00100000
00100000
,
00000000
00000000
01000000
01000000
00000000
00000000
00010000
20000000
,
00000000
00000000
00000000
00000000
30000000
00000000
00010000
00000000
00000000
10010000
00000000
00000000
,
10000000
01000000
00010000
00011000
,
00001000
00000100
00000001
00001001
,
00001000
00000100
00000010
00000110
,
00000100
00000000
00001000
00000000
00001001
00000000
00000000
00000001
,
00000000
00000000
00000100
00000000
00000000
00001000
00000000
00000000
,
00010000
00100000
01000000
00010000
,
10000000
00000000
00100000
00000000
01000000
00010000
01000000
00010000
,
01000000
00010000
20000000
00000000
30000000
00000000
20000000
00000000
,
32000000
03200000
00302000
00000000
,
00000000
00000000
00023000
00000000
,
00000000
00000000
00030020
00000000
,
00001030
00000001
00000100
00001000
00010000
00000000
00100000
00000000
,
01000000
00000000
00000000
00000000
00010000
00000000
10000000
01000000
,
00000000
00000000
00000000
00100000
00000000
00100000
00000000
00000000
,
00000000
00000000
00001000
00010000
00000000
00000000
00000000
00010000
,
00000000
00000000
00001000
00000000
00000000
00000010
00000000
00000000
,
00000001
00000000
00000000
00000100
00000000
00000000
00001000
00000000
,
00000000
00010000
00000000
00000000
00100000
00000000
00000000
10000000
,
00000000
01000000
02200000
00000000
,
00000000
03300000
10000000
00000000
,
10100000
00000000
00010000
00000000
,
00110000
00000000
01000000
00000000
,
01010000
00000000
00001000
00000000
,
00011000
00000000
00010000
00001000
,
00000100
00000000
00000001
00001000
,
00000001
00000000
00000010
00000100
,
00000010
00001000
00020000
00000000
,
00000000
00000000
00000000
00000000
,
00000000
00000000
00000000
00000000
,
00000000
00000000
00000000
00000000
,
00000000
00000000
00030000
00000000
,
00010000
00001000
00010000
00000100
,
00000010
00000001
00001000
00000001
,
00000100
00000010
00000100
00001000
,
00010000
00100000
10000000
00010000
,
00100000
01000000
00100000
00010000
,
10000000
00100000
00010000
00100000
,
10000000
01000000
00010000
00001000
,
00010000
00010000
00001000
00011000
,
00010000
00001000
00000100
00000001
,
00001000
00000100
00000010
00000001
,
00000010
00001000
00010000
00001000
,
00010000
01000000
00100000
00010000
,
01000000
00100000
00010000
00001000
,
00010000
01000000
00100000
00010000
,
10000000
00100000
00010000
00001000
,
00000100
00000001
00002002
00003003
,
00000001
00000000
00000101
00000000
,
00001000
00000000
00001100
00000000
,
00000010
00000000
00011000
00000000
,
00100000
00000000
10010000
00000000
,
20000000
00000000
00000000
00000000
,
30000000
00000000
00020000
00000000
,
00000000
00000000
00030000
00000000
,
10000000
00100000
00010000
00001000
,
00000010
00000001
00000100
00001000
,
00022000
00000000
00000000
00000000
,
00000000
00000000
00000000
00000000
,
00000000
00000000
00000000
00000000
,
00033000
00000000
00000000
00000100
00000000
00000000
00000000
00000000
;

//--------------- dance-double - Fred-104 ----------------
#NOTEDATA:;
#STEPSTYPE:dance-double;
#DESCRIPTION:Fred-104;
#DIFFICULTY:Medium;
#METER:15;
#CREDIT:Fred-104;
#NOTES:
00000000
00000000
00000000
00000000
,
00000000
00000000
00000000
00000000
,
00000000
00000000
00000000
00000000
,
00000000
00000000
00000000
00000000
,
00000000
00000000
00000000
00000000
,
00000000
00000000
00000000
00000000
,
00001000
00000000
00000000
00010000
00000000
00000000
00000100
00000000
,
00000000
00010000
00000000
00000000
00001000
00000000
00010000
00000000
,
00000010
00000000
00000000
00010000
00000000
00000000
00100000
00000000
,
00000000
00010000
00000000
00000000
00001000
00000000
00010000
00000000
,
00000010
00001000
00000100
00000010
,
00000001
00000100
00001000
00010000
,
00001000
00100000
01000000
00100000
,
00010000
10000000
00100000
01000000
,
00010000
00000000
01000000
00000000
10000000
01000000
00010000
00000000
,
00100000
00000000
01000000
00000000
00010000
00001000
00010000
00000000
,
00001000
00010000
00000100
00001000
00000001
00000100
00000010
00001000
,
00000001
00000010
00000100
00010000
00001000
00000000
10010000
00000000
,
00000000
00101000
00000000
00000000
00010010
00000000
00000000
00022000
,
00000000
00033000
00000000
00000000
00010100
00000000
00000000
00001001
,
00000000
00000000
00000101
00000000
00000000
00000220
00000000
00000000
,
00000330
00000000
00011000
00000000
00000000
00101000
00000000
00000000
,
00110000
00000000
00000000
11000000
00000000
00000000
00011000
00000100
,
00000110
00000000
00000000
00001001
00000000
00000000
00000110
00000000
,
00000001
00000100
00000001
00000100
00000001
00000100
00000001
00000000
00002000
00000000
00000000
00000000
00003000
00000000
00000000
00000000
,
00000101
00000101
00001001
00001001
,
00001010
00001010
00010100
00011000
,
00010100
00011000
00101000
00110000
,
10010000
10100000
10010000
01100000
,
10100000
00110000
11000000
01010000
,
10010000
00000000
00000000
00000000
01100000
00000000
00000000
00000000
10010000
00000000
00000000
00000000
10000000
00100000
10000000
00100000
,
10000000
00000000
00010000
10000000
01000000
00000000
00100000
01000000
,
00100000
00010000
01000000
00001000
00010000
00001000
00000010
00000001
,
00001000
00000010
00000100
00000001
00001000
00000100
00000010
00000000
,
00000001
00000100
00002000
00000000
00013000
00001000
01000000
00001000
,
00010000
00000100
00000020
00000000
00000031
00000100
00000010
00000100
,
00002000
00000000
00013000
00100000
01000000
00100000
10000000
00010000
,
00100000
01000000
00010000
00001000
00010000
00000010
00010000
00001000
,
00010000
00000100
00002000
00000000
00003001
00000100
00001000
00010000
,
00001000
00010000
01000000
00100000
00010000
10000000
00100000
00010000
,
00011000
00000000
00010000
00010100
00000000
00010000
00001000
01001000
,
00001000
00010000
00100000
10000000
10010000
00000000
10000000
01000000
,
00010000
00001000
00000010
00000100
00001000
00000000
00000001
00000100
,
00001000
00010000
00001000
00100000
00001000
00000000
00010000
00100000
,
01000000
00100000
10000000
00100000
00010000
00000000
00001000
00010000
,
00000100
00010000
00001000
01000000
00001000
00000000
00010000
00001000
,
00000010
00000100
00001000
00000100
00010000
00001000
00100000
00001000
,
00010000
00001000
00000010
00001000
00010000
00001000
01000000
00001000
,
00010000
00000000
00000000
00000000
00000000
00000000
00000000
00000000
00000000
00000000
00000000
00000000
00000000
00000000
00000000
00000000
00000000
00000000
00000000
00000000
00000000
00000000
00000000
00000000
00000000
00000000
00000000
00000000
00000000
00000000
00000000
00000000
00001000
00000000
00000000
00000000
00000000
00000000
00000000
00000000
00000000
00000000
00000000
00000000
00000000
00000000
00000000
00000000
00000000
00000000
00000000
00000000
00000000
00000000
00000000
00000000
00000000
00000000
00000000
00000000
00000000
00000000
00000000
00000000
00022000
00000000
00000000
00033000
00000000
00000000
00000000
00000000
00000000
00000000
00000000
00000000
00000000
00000000
00000000
00000000
00000000
00000000
00000000
00000000
00000000
00000000
00000000
00000000
00000000
00000000
00000000
00000000
00000000
00000000
00000000
00000000
00001000
00000000
00000000
00000000
00000000
00000000
00000000
00000000
00000000
00000000
00000000
00000000
00000000
00000000
00000000
00000000
00000000
00000000
00000000
00000000
00000000
00000000
00000000
00000000
00010000
00000000
00000000
00000000
00000000
00000000
00000000
00000000
00000000
00000000
00000000
00000000
00000000
00000000
00000000
00000000
00000000
00000000
00000000
00000000
00000000
00000000
00000000
00000000
00100000
00000000
00000000
00000000
00000000
00000000
00000000
00000000
00000000
00000000
00000000
00000000
00000000
00000000
00000000
00000000
00000000
00000000
00000000
00000000
00000000
00000000
00000000
00000000
01000000
00000000
00000000
00000000
00000000
00000000
00000000
00000000
00000000
00000000
00000000
00000000
00000000
00000000
00000000
00000000
00000000
00000000
00000000
00000000
00000000
00000000
00000000
00000000
,
10000000
01000000
00010000
00100000
01000000
00010000
00002000
00000000
,
00013000
00001000
00000200
00000000
00000301
00001000
00000100
00000010
,
00000100
00010000
00001000
01000000
00002000
00000000
00013000
00001000
,
00010000
00100000
01000000
00010000
10000000
00000000
01000000
01100000
,
00000000
00001000
00011000
00000000
00000100
00000110
00000000
00000001
,
00000100
00001000
00020000
00030000
00001000
00010000
01000000
00100000
,
00010000
01000000
00100000
00010000
00001000
00010000
00001000
00000100
,
00000010
00001000
00000010
00001000
00000100
00000000
00000000
00000000
00000020
00000000
00000000
00000000
00000032
00000000
00000000
00000000
,
00000203
00002300
00023000
00000000
,
00000000
00000000
00230000
00000000
,
00000000
00000000
20300000
00000000
,
00000000
00000000
00000000
00000000
00000000
00000000
31000000
00000000
00100000
00000000
00000000
00001000
00000000
00000000
00010000
00000000
00001000
00000000
00000000
00000000
00000000
00000000
00000000
00000000
00000100
00000000
00000000
00000000
00000000
00000000
00000000
00000000
,
00000001
00000000
00001000
00000000
00000100
00000000
00000010
00000011
,
00000000
00000001
00000000
00001010
00000000
00010010
00000000
00001000
,
00000000
00100000
00010000
01010000
01000000
00000000
00000000
10010000
,
00000000
00000000
11000000
00000000
00000000
10100000
00000000
00000000
,
00110000
00000000
00010000
00001000
00010000
00000000
00011000
00000000
,
00000000
00001010
00000000
00000000
00000011
00000000
00000000
00000101
,
00000000
00001100
00022000
00000000
,
00000000
00033000
00001000
00010000
,
00100000
01000000
00010000
00100000
,
01000000
10000000
00100000
00010000
,
00001000
00000100
00000001
00000010
,
00000100
00000000
00000000
00010000
00000000
00000000
00001000
00000000
00000000
00100000
00010000
00100000
,
00010000
00000000
00000000
10000000
00100000
10000000
00100000
00000000
00000000
00010000
00001000
00010000
,
00001000
00000000
00000000
00000100
00000001
00000100
00000001
00000000
00000001
00000010
00000000
00000010
,
00000100
00000000
00000100
00010000
00000000
00010000
00002000
00000000
00000000
00000000
00000000
00000000
,
00000000
00000000
00000000
00000000
,
00000000
00000000
00000000
00000000
,
00000000
00000000
00000000
00000000
,
00000000
00000000
00003000
00000000
,
00001001
00000000
00000000
00000001
00000100
00000010
00000100
00000000
00000000
00001000
00000000
00000000
,
00010000
00000000
00000000
00001000
01000000
00001000
00010000
00000000
00000000
00100000
00000000
00000000
,
10000000
00000000
00000000
01000000
00100000
01000000
00100000
00000000
00000000
00001000
00000000
00000000
,
00010000
00000000
00000000
00000010
00001000
00000010
00001000
00000000
00000000
00000100
00000000
00000000
,
00000010
00000000
00000000
00000001
00001000
00000010
00010000
00000000
00000000
00001000
00000000
00000000
,
01000000
00000000
00000000
00010000
10000000
01000000
00100000
00000000
00000000
00001000
00000000
00000000
,
00010000
00001000
00010000
00001000
00000000
00000000
00000100
00000010
00000100
00000001
00000000
00000000
,
00001000
00000100
00000010
00000001
00000010
00000100
00001000
00000000
00000000
00001000
00000000
00000000
,
00000001
00000000
00000000
00000010
00000100
00000010
00001000
00000000
00000000
00010000
00000000
00000000
,
00001000
00000000
00000000
00010000
01000000
00100000
00010000
00000000
00000000
00001000
00000000
00000000
,
01000000
00000000
00000000
00010000
00100000
01000000
10000000
00000000
00000000
00100000
00000000
00000000
,
01000000
00000000
00000000
00100000
00010000
00001000
00010000
00000000
00000000
00000010
00000000
00000000
,
00010000
00000000
00000000
00001000
00000100
00000010
00001000
00000000
00000000
00000100
00000000
00000000
,
00000010
00000000
00000000
00000001
00001000
00000010
00000100
00000000
00000000
00001000
00000000
00000000
,
00010000
00001000
00010000
00001000
00000000
00000000
00010000
01000000
00010000
01000000
00000000
00000000
,
10000000
00010000
00100000
01000000
10000000
00010000
20000000
00000000
00000000
30000000
00000000
00000000
,
11000000
00010000
00101000
00010000
,
00010010
00001000
00010100
00010000
,
01001000
00001000
00011000
00000100
,
00000110
00000000
00000000
00000001
00000000
00000000
00000100
00000000
00001000
00000000
00010000
00000000
,
00002000
00000000
00000000
00000000
,
00013000
00000000
00100000
00000000
10000000
00000000
02000000
00000000
00000000
00000000
00000000
00000000
,
00000000
00000000
00000000
00000000
00000000
00000000
03010000
00000000
00001000
00000000
00010000
00000000
,
00000100
00000010
00000001
00000100
00001000
01000000
00010000
10000000
,
11000000
01010000
00011000
00010010
,
00022000
00000000
00000000
00000000
,
00000000
00000000
00000000
00000000
,
00000000
00000000
00000000
00000000
,
00033000
00000000
00000000
01000000
00000000
00000000
00000000
00000000
;

//--------------- dance-double - Fred-104 ----------------
#NOTEDATA:;
#STEPSTYPE:dance-double;
#DESCRIPTION:Fred-104;
#DIFFICULTY:Hard;
#METER:18;
#CREDIT:Fred-104;
#NOTES:
00000000
00000000
00000000
00000000
,
00000000
00000000
00000000
00000000
,
00000000
00000000
00000000
00000000
,
00000000
00000000
00000000
00000000
,
00000000
00000000
00000000
00000000
,
00000000
00000000
00000000
00000000
,
00000001
00000000
00001000
00000010
00000000
00000100
00001000
00000000
,
00010000
00100000
00000000
01000000
00010000
10000000
01000000
00100000
,
00001000
00000000
01000000
00001000
00000000
00010000
00000100
00000000
,
00010000
00000010
00000000
00001000
00000100
00000010
00000001
00000100
,
00001000
01000000
00010000
10000000
,
00100000
00010000
00000010
00001000
,
00000100
00000010
00000001
00000100
,
00001000
00000000
00010000
00000000
00100000
01000000
00010000
00000000
,
00100000
01000000
10000000
00010000
01000000
00100000
00010000
00000000
,
00001000
00010000
00000100
00010000
00001000
01000000
00001000
00000000
,
00010000
00001000
00010000
00000000
00001000
00000000
00000100
00000010
00001000
00000000
00000001
00000000
00000010
00000100
00001000
00000000
,
00000001
00000000
00000000
00000000
00001000
00000000
00000000
00000000
00000010
00000000
00000000
00000000
00000100
00000000
00000000
00000000
00000001
00000000
00000000
00000000
00001000
00000000
00000000
00000000
00000010
00000000
00000000
00000000
00000100
00000000
00000000
00000000
00000002
00000003
00000000
00000000
00000000
00000000
00000000
00000000
00000000
00000000
00000000
00000000
00000000
00000000
00000000
00000000
00001001
00000000
00000000
00000000
00000000
00000000
00000000
00000000
00000000
00000000
00000000
00000000
00000000
00000000
00000000
00000000
,
00000100
00000110
00000000
00000010
00001010
00000000
00010000
00022000
,
00000000
00033000
00000000
00000000
00101000
00000000
00010000
10010000
,
00000000
01000000
01100000
00000000
00100000
20200000
00000000
00000000
,
30300000
00000000
11000000
00000000
01000000
01010000
00000000
00010000
,
00011000
00000000
00000000
00000000
00000000
00000000
00000000
00000000
00001000
00000000
00000000
00000000
00001100
00000000
00000000
00000000
00000000
00000000
00000000
00000000
00000100
00000000
00000000
00000000
00000001
00001000
00000001
00000000
00000010
00000000
00000100
00000000
,
00001000
00000010
00000100
00001000
00010000
00100000
01000000
00010000
,
00100000
00001000
00010000
00000010
00001000
00000010
00010000
00001000
00020000
00000000
00000000
00000000
00030000
00000000
00000000
00000000
,
00011000
00110000
10100000
11000000
,
01010000
00011000
00001100
00000101
,
00000011
00001010
00011000
00110000
,
10100000
00110000
00011000
00001010
,
00000011
00000101
00001100
00011000
,
01010000
00000000
00000000
00000000
11000000
00000000
00000000
00000000
10010000
00000000
00000000
00000000
10000000
01000000
00100000
00001000
,
00020000
00000000
00031000
00010000
02000000
00000000
03010000
00001000
,
00000100
00000000
00001000
00000000
00010000
00000000
00001000
00000000
00010000
00000100
00001000
00000100
00000010
00000000
00000001
00000000
,
00001000
00000010
00010000
00100000
01000000
00001000
00100000
01000000
,
00010000
00001000
00020000
00000000
00031000
00000100
00000010
00001000
,
00000100
00000010
00002000
00000000
00103000
00010000
01000000
00100000
,
00020000
00000000
00130000
01000000
00010000
00100000
01000000
00010000
,
00000100
00010000
00001000
00000010
00000100
00001000
00000010
00010000
,
00000100
00010000
02000000
00000000
03100000
00010000
01000000
00001000
,
00010000
00001000
00000100
00000010
00000100
00001000
00010000
00001000
,
00011000
00000000
00000000
00000000
00000000
00000000
00000000
00000000
00000010
00000000
00000000
00000000
00000000
00000000
00000000
00000000
00000000
00000000
00000000
00000000
00000000
00000000
00000000
00000000
00011000
00000000
00000000
00000000
00000000
00000000
00000000
00000000
00100000
00000000
00000000
00000000
00000000
00000000
00000000
00000000
00000000
00000000
00000000
00000000
00000000
00000000
00000000
00000000
00001000
00000000
00000000
00000000
00000000
00000000
00000000
00000000
00022000
00033000
00000000
00000000
00000000
00000000
00000000
00000000
,
00001000
00010000
00001000
00010000
00001000
00000000
00010000
00000000
00011000
00000000
00000000
00000000
00001000
00000000
00010000
00000000
,
00100000
01000000
00010000
00100000
00001000
00000010
00000100
00010000
,
00001000
00000100
00000010
00001000
00000100
00000010
00001000
00010000
,
01000000
00100000
00001000
00100000
01000000
00010000
00001000
01000000
,
00001000
00010000
00100000
01000000
00010000
00001000
00000010
00001000
,
00100000
00000000
01000000
00000000
00100000
00000000
00010000
00000000
00001000
00010000
00001000
00010000
00000100
00001000
00000100
00000000
,
00000010
00000100
00000010
00000100
00001000
00000100
00010000
00000000
00001000
00010000
00001000
01000000
00010000
01000000
00001000
00000000
,
00010000
00000000
00000000
00000000
00000000
00000000
00000000
00000000
00000000
00000000
00000000
00000000
00000000
00000000
00000000
00000000
00000000
00000000
00000000
00000000
00000000
00000000
00000000
00000000
00000000
00000000
00000000
00000000
00000000
00000000
00000000
00000000
00010000
00000000
00000000
00000000
00000000
00000000
00000000
00000000
00000000
00000000
00000000
00000000
00000000
00000000
00000000
00000000
00000000
00000000
00000000
00000000
00000000
00000000
00000000
00000000
00000000
00000000
00000000
00000000
00000000
00000000
00000000
00000000
00022000
00000000
00000000
00033000
00000000
00000000
00000000
00000000
00000000
00000000
00000000
00000000
00000000
00000000
00000000
00000000
00000000
00000000
00000000
00000000
00000000
00000000
00000000
00000000
00000000
00000000
00000000
00000000
00000000
00000000
00000000
00000000
00000010
00000000
00000000
00000000
00000000
00000000
00000000
00000000
00000000
00000000
00000000
00000000
00000000
00000000
00000000
00000000
00000000
00000000
00000000
00000000
00000000
00000000
00000000
00000000
00001000
00000000
00000000
00000000
00000000
00000000
00000000
00000000
00000000
00000000
00000000
00000000
00000000
00000000
00000000
00000000
00000000
00000000
00000000
00000000
00000000
00000000
00000000
00000000
00000001
00000000
00000000
00000000
00000000
00000000
00000000
00000000
00000000
00000000
00000000
00000000
00000000
00000000
00000000
00000000
00000000
00000000
00000000
00000000
00000000
00000000
00000000
00000000
00000100
00000000
00000000
00000000
00000000
00000000
00000000
00000000
00000000
00000000
00000000
00000000
00000000
00000000
00000000
00000000
00000000
00000000
00000000
00000000
00000000
00000000
00000000
00000000
,
00000010
00000100
00001000
00000100
00000010
00001000
00000001
00000010
,
00000100
00001000
00010000
00100000
01000000
10000000
00100000
00010000
,
00001000
00000100
00000001
00001000
00000100
00000010
00001000
00010000
,
01000000
00100000
00010000
10000000
00100000
00000000
01000000
01100000
,
00000000
00001000
00011000
00000000
00000010
00000110
00000000
00001000
,
00000100
00000010
00000002
00002003
00003001
00000010
00000100
00010000
,
00001000
00100000
00010000
00000000
10000000
00010000
10000000
00000000
00100000
01000000
00100000
00000000
00010000
00001000
00010000
00000000
,
00000010
00010000
00001000
00100000
00001000
00000000
00000000
00000000
00011000
00000000
00010000
00000000
00002000
00000000
00000100
00000000
,
00003200
00000001
00000302
00001000
00001003
00000100
00000010
00000001
,
00000100
00000000
00001000
00000000
00010000
00000000
00001000
01000000
00001000
00000000
00010000
00000000
00100000
00000000
10000000
00000000
,
01000000
00100000
01000000
00100000
00001000
00010000
00001000
00010000
00000010
00000000
00001000
00000000
00000001
00000010
00000100
00001000
,
00000010
00000000
00000100
00000000
00001000
00000000
00010000
00000000
00001000
00000000
00000000
00010000
00000000
00000000
00010000
00000000
00001000
00000000
00000000
00000000
00000000
00000000
00000000
00000000
00000010
00000000
00000000
00000000
00000000
00000000
00000000
00000000
,
00000001
00000000
00000100
00000000
00001000
00000000
00010000
00011000
,
00000000
01000000
00000000
10100000
00000000
00110000
00000000
00001000
,
00000000
00010000
00001000
00011000
00011000
00000000
00000000
00001010
,
00000000
00000000
00000011
00000000
00000000
00000101
00000000
00000000
,
00001100
00000000
00000000
00011000
00000000
00000000
01010000
00000000
,
00000000
11000000
00000000
00000000
10100000
00000000
00000000
00110000
,
00000000
00010010
00022000
00000000
,
00000000
00000000
00000000
00033000
00000000
00000000
00010000
00001000
00100000
00010000
00100000
01000000
,
10000000
00010000
01000000
10000000
01000000
00100000
01000000
00010000
10000000
01000000
00100000
01000000
,
00100000
00001000
00010000
00001000
00000100
00000010
00001000
00000100
00001000
00000100
00000010
00000001
,
00000100
00001000
00000100
00000010
00000100
00000001
00001000
00000001
00000010
00001000
00010000
00001000
,
00010000
01000000
10000000
00010000
01000000
00100000
10000000
00000000
00000000
00010000
10000000
01000000
,
00010000
00000000
00000000
00001000
00000100
00000001
00001000
00000000
00000000
00000001
00000010
00001000
,
00010000
00000000
00000000
00100000
10000000
00010000
00100000
01000000
10000000
00100000
01000000
00100000
,
00010000
00001000
00010000
01000000
10000000
01000000
00200000
00000000
00000000
00000000
00000000
00000000
,
00000000
00000000
00000000
00000000
,
00000000
00000000
00000000
00000000
,
00000000
00000000
00000000
00000000
,
00000000
00000000
00301000
00000000
,
00011000
00000000
00000000
00010000
00001000
00000010
00000001
00000100
00000010
00001000
00000000
00000000
,
00000001
00000000
00000000
00000010
00000100
00000001
00000100
00001000
00000001
00001000
00000000
00000000
,
00000010
00000000
00000000
00000100
00001000
00010000
00001000
00100000
00001000
00010000
00000000
00000000
,
00001000
00000000
00000000
00010000
00100000
01000000
00010000
10000000
01000000
00010000
00000000
00000000
,
00001000
00000000
00000000
00010000
01000000
00100000
00010000
10000000
00100000
00010000
00000000
00000000
,
00001000
00000000
00000000
00010000
00001000
00000010
00000100
00001000
00000010
00001000
00000000
00000000
,
00000001
00000010
00000100
00000010
00001000
00010000
00001000
00100000
00010000
01000000
10000000
01000000
,
00010000
10000000
01000000
00100000
01000000
00010000
00001000
00000000
00000000
00011000
00000000
00000000
,
00011000
00000000
00001000
00010000
01000000
10000000
00010000
01000000
00100000
01000000
00000000
00000000
,
00010000
00000000
10000000
00010000
00100000
10000000
00100000
00010000
01000000
00001000
00000000
00000000
,
00010000
00000000
00001000
00000100
00000001
00000100
00000010
00001000
00000001
00000010
00000000
00000000
,
00000001
00000000
00001000
00000100
00000001
00000100
00001000
00000001
00000100
00000010
00000000
00000000
,
00010000
00000000
00001000
00100000
00010000
00100000
10000000
00100000
01000000
10000000
00000000
00000000
,
00010000
00000000
01000000
00100000
00010000
10000000
01000000
00010000
10000000
01000000
00000000
00000000
,
10000000
00010000
00100000
01000000
10000000
00100000
00010000
00001000
00000100
00000010
00001000
00000001
,
00000100
00001000
00010000
01000000
00010000
00001000
00020000
00000000
00000000
00030000
00000000
00000000
,
00011000
00000000
00000000
00010000
00100000
10000000
00010000
00000000
00000000
10000000
01000000
00010000
,
00001000
00000000
00000000
00000100
00000010
00001000
00000001
00000000
00000000
00000010
00000100
00000010
,
00001000
00000000
00000000
00010000
00100000
01000000
00010000
00000000
00000000
10000000
01000000
00010000
,
00001000
00000000
00000000
00000100
00000001
00001000
00000100
00000000
00000010
00000000
00000001
00000000
,
00002000
00000000
00000000
00000000
,
00003001
00000000
00000100
00000000
00001000
00000000
00020000
00000000
00000000
00000000
00000000
00000000
,
00000000
00000000
00000000
00000000
00000000
00000000
01030000
00000000
00100000
00000000
00010000
00000000
,
10000000
01000000
00100000
00000000
00001000
00010000
00000010
00000000
00001000
00000001
00000010
00000100
00001000
00000001
00000100
00000010
,
00000200
00000300
00000000
00000000
00000000
00000000
00000000
00000000
00000000
00000000
00000000
00000000
00000000
00000000
00000000
00000000
00000220
00000330
00000000
00000000
00000000
00000000
00000000
00000000
00000000
00000000
00000000
00000000
00000000
00000000
00000000
00000000
00022000
00033000
00000000
00000000
00000000
00000000
00000000
00000000
00000000
00000000
00000000
00000000
00000000
00000000
00000000
00000000
02200000
03300000
00000000
00000000
00000000
00000000
00000000
00000000
00000000
00000000
00000000
00000000
00000000
00000000
00000000
00000000
,
00022000
00000000
00000000
00000000
,
00000000
00000000
00000000
00000000
,
00000000
00000000
00000000
00000000
,
00033000
00000000
00000000
00000100
00000000
00000000
00000000
00000000
;

//--------------- dance-double - Fred-104 ----------------
#NOTEDATA:;
#STEPSTYPE:dance-double;
#DESCRIPTION:Fred-104;
#DIFFICULTY:Challenge;
#METER:19;
#CREDIT:Fred-104;
#NOTES:
00000000
00000000
00000000
00000000
,
00000000
00000000
00000000
00000000
,
00000000
00000000
00000000
00000000
,
00000000
00000000
00000000
00000000
,
00000000
00000000
00000000
00000000
,
00000000
00000000
00000000
00000000
,
00010000
00001000
00000010
00000100
00000010
00000001
00001000
00000010
,
00010000
00100000
01000000
00001000
01000000
00100000
10000000
00010000
,
00100000
01000000
00010000
01000000
00100000
00001000
00000010
00001000
,
00010000
00000010
00000100
00000001
00000100
00001000
01000000
00010000
,
10000000
00000000
00010000
00100000
10000000
00000000
00010000
01000000
,
10000000
00000000
00010000
10000000
01000000
00100000
00001000
00000000
,
00010000
00000000
00001000
00000100
00000001
00000000
00001000
00000100
,
00000001
00000000
00001000
00000010
00000001
00000100
00001000
00000000
,
00010000
00000000
00001000
00000000
00100000
00000000
00010000
00100000
01000000
00000000
10000000
00000000
00010000
00000000
00000000
00000000
,
01000000
00000000
00001000
00000000
00010000
00000000
00000100
00001000
00000001
00000000
00000100
00000000
00000010
00000000
00000000
00000000
,
00001000
00000001
00000010
00000100
00001000
00000100
00010000
00001000
00010000
00001000
00100000
00010000
00100000
01000000
10000000
00010000
,
01000000
00000000
00000000
00000000
00100000
00000000
00000000
00000000
10000000
00000000
00000000
00000000
00010000
00000000
00000000
00000000
01000000
00000000
00000000
00000000
00001000
00000000
00000000
00000000
00010000
00000000
00000000
00000000
00001000
00000000
00000000
00000000
00020000
00030000
00000000
00000000
00000000
00000000
00000000
00000000
00000000
00000000
00000000
00000000
00000000
00000000
00000000
00000000
01001000
00000000
00000000
00000000
00000000
00000000
00000000
00000000
00000000
00000000
00000000
00000000
00000000
00000000
00000000
00000000
,
00010100
00010100
00000000
00101000
00101000
00000000
00010010
00020020
,
00000000
00030030
00000000
00000000
00000011
00000000
00001010
00001010
,
00000000
00011000
00011000
00000000
01010000
22000000
00000000
00000000
,
33000000
00000000
11000000
00000000
01010000
00011000
00000000
00011000
,
00010010
00000000
00000000
00000000
00000000
00000000
00000000
00000000
00001010
00000000
00000000
00000000
00010010
00000000
00000000
00000000
00000000
00000000
00000000
00000000
00011000
00000000
00000000
00000000
00001000
00010000
00001000
00000000
00100000
00000000
00010000
00000000
,
10010000
10000000
00100000
01100000
01000000
00010000
10010000
10000000
,
00010000
00100000
00001000
00100000
00001000
00010000
00001000
00010000
00002000
00000000
00023000
00000000
02030000
00000000
03200000
00000000
,
00301000
00010000
00100000
01000000
00010000
00100000
01000000
00010000
,
00000100
00001000
00000010
00001000
00000100
00000010
00001000
00010000
,
00001000
01000000
00010000
00100000
01000000
00100000
00001000
01000000
,
00001000
00000100
00000010
00010000
00000100
00001000
00010000
00100000
,
01000000
00100000
00001000
00000010
00010000
00100000
00001000
01000000
,
00010000
00000000
00001000
00000000
00000010
00000000
00000100
00000000
00001000
00000000
00010000
00000000
00001000
00100000
00010000
10000000
,
02000000
00000000
00100000
00000000
03100000
01000000
10000000
00010000
02000000
00000000
00100000
00000000
03100000
10000000
01000000
00100000
,
00001000
00000000
00010000
00000100
00001000
00000000
00000100
00000010
00000001
00000000
00001000
00000001
00001000
00000001
00001000
00000000
,
00001001
00000000
00000001
00000000
00001000
00000000
00000010
00000000
00000100
00000001
00001000
00000000
00000100
00000000
00000010
00000000
,
00000001
00001000
00000010
00000000
00000200
00000000
00001300
00000000
00010000
00001000
00010000
00000000
00100000
00000000
01000000
00000000
,
00010000
10000000
01000000
00000000
00200000
00000000
00301000
00000000
00010000
00000000
00100000
00000000
01000000
00010000
10000000
00000000
,
02000000
03100000
00010000
00000000
00001000
00000000
00000100
00000010
00000001
00000000
00001000
00000000
00000010
00010000
00001000
00000000
,
00010000
00000000
00000010
00001000
00000100
00000000
00000010
00000000
00000001
00000000
00001000
00000010
00000100
00000000
00001000
00000000
,
00010000
00000000
00001000
00010000
00200000
00000000
01300000
00010000
10000000
00000000
01000000
00100000
00001000
00010000
00001000
00000000
,
00010000
00000000
01000000
10000000
00020000
00000000
01030000
00100000
00010000
00000000
00001000
00010000
00000010
00000000
00010000
00001000
,
00000100
00000000
00000000
00000000
00000010
00000000
00000000
00000000
00001000
00000000
00000000
00000000
00000001
00000000
00000000
00000000
00000010
00000000
00000000
00000000
00000000
00000000
00000000
00000000
00000100
00000000
00000000
00000000
00001000
00000000
00000000
00000000
00000100
00000000
00000000
00000000
00001000
00000000
00000000
00000000
00000100
00000000
00000000
00000000
00000000
00000000
00000000
00000000
00010000
00000000
00000000
00000000
00000000
00000000
00000000
00000000
00022000
00033000
00000000
00000000
00000000
00000000
00000000
00000000
,
00001000
00010000
00001000
01000000
00001000
00000000
00010000
00000000
00011000
00000000
00000000
00000000
00001000
00100000
00010000
00000000
,
20000000
30100000
01000000
00000000
00010000
10000000
01000000
00000000
00100000
00010000
00100000
00000000
00001000
00010000
00000100
00000000
,
00002000
00003100
00000010
00000000
00000001
00001000
00000010
00000000
00010000
00001000
00010000
00000000
00000200
00001300
00000001
00001000
,
00000100
00000000
00000010
00000001
00001000
00000000
00000010
00010000
00001000
00000000
00010000
00000000
00001000
00100000
00010000
00000000
,
00100000
01000000
10000000
00000000
00100000
01000000
00100000
00000000
00010000
00001000
00010000
00000000
01000000
00100000
00010000
00000000
,
20000000
30010000
01000000
00000000
00100000
00010000
00001000
00000000
00010000
00000010
00001000
00000010
00010000
00001000
00010000
00000000
,
00001000
00100000
00001000
00010000
00000100
00001000
00000001
00000000
00000100
00000010
00001000
00000001
00000010
00000100
00001000
00000000
,
00000001
00000000
00000000
00000000
00000000
00000000
00000000
00000000
00000000
00000000
00000000
00000000
00000000
00000000
00000000
00000000
00000000
00000000
00000000
00000000
00000000
00000000
00000000
00000000
00000000
00000000
00000000
00000000
00000000
00000000
00000000
00000000
00001000
00000000
00000000
00000000
00000000
00000000
00000000
00000000
00000000
00000000
00000000
00000000
00000000
00000000
00000000
00000000
00000000
00000000
00000000
00000000
00000000
00000000
00000000
00000000
00000000
00000000
00000000
00000000
00000000
00000000
00000000
00000000
00000220
00000000
00000000
00000330
00000000
00000000
00000000
00000000
00000000
00000000
00000000
00000000
00000000
00000000
00000000
00000000
00000000
00000000
00000000
00000000
00000000
00000000
00000000
00000000
00000000
00000000
00000000
00000000
00000000
00000000
00000000
00000000
00000001
00000000
00000000
00000000
00000000
00000000
00000000
00000000
00000000
00000000
00000000
00000000
00000000
00000000
00000000
00000000
00000000
00000000
00000000
00000000
00000000
00000000
00000000
00000000
00000010
00000000
00000000
00000000
00000000
00000000
00000000
00000000
00000000
00000000
00000000
00000000
00000000
00000000
00000000
00000000
00000000
00000000
00000000
00000000
00000000
00000000
00000000
00000000
00000100
00000000
00000000
00000000
00000000
00000000
00000000
00000000
00000000
00000000
00000000
00000000
00000000
00000000
00000000
00000000
00000000
00000000
00000000
00000000
00000000
00000000
00000000
00000000
00001000
00000000
00000000
00000000
00000000
00000000
00000000
00000000
00000000
00000000
00000000
00000000
00000000
00000000
00000000
00000000
00000000
00000000
00000000
00000000
00000000
00000000
00000000
00000000
,
00000010
00010000
00100000
01000000
00001000
00010000
01000000
00100000
,
10000000
00100000
01000000
10000000
00010000
01000000
00100000
00010000
,
00001000
00000100
00000001
00001000
00000100
00000010
00001000
00010000
,
01000000
00000000
00100000
00000000
00010000
00100000
00001000
00010000
00001000
00000000
00000000
00000000
00100000
00000000
00101000
00000000
,
00000000
00000010
00010010
00000000
00010000
00011000
00000000
00010000
,
00100000
00000000
10000000
00000000
00010000
10000000
00020000
00000000
10030000
01000000
10000000
00000000
00010000
00100000
00010000
00000000
,
00100000
00001000
00010000
00001000
00010000
00000100
00010000
00000100
00001000
00000001
00001000
00000001
00000010
00000100
00000010
00000100
,
00001000
00000001
00000100
00000001
00001000
00000000
00000000
00000000
00000002
00000000
00000000
00000000
00000203
00000000
00000000
00000000
,
00002300
00023000
00230000
00000000
,
00000000
00000000
00000000
00000000
00000000
00000000
10300000
01000000
00200000
00000000
00000000
00000000
00000000
00000000
00000000
00000000
,
00001000
00001000
00001000
00001000
00001000
00001000
00001000
00301000
00020000
00000000
00000000
00000000
00001000
00001000
00001000
00001000
,
00001000
00000000
00001000
00000000
00001000
00000000
00031000
00000000
00010000
00000000
00000000
00100000
00000000
00000000
10000000
00000000
00020000
00000000
00000000
00000000
00000000
00000000
00000000
00000000
01000000
00000000
00000000
00000000
00000000
00000000
00000000
00000000
,
00001000
00000000
01030000
00000000
00002000
00000000
01003000
01010000
,
00000000
00001000
00000000
00010010
00000000
00000110
00000000
00000001
,
00000000
00001000
00001100
00010100
00011000
00000000
00000000
10010000
,
00000000
00000000
00011000
00000000
00000000
00001001
00000000
00000000
,
00011000
00000000
00000000
01001000
00000000
00000000
00011000
00000000
,
00000000
00010010
00000000
00000000
00011000
00000000
00000000
00101000
,
00000000
00010100
00022000
00000000
,
00000000
00000000
00000000
00033000
00000000
00000000
00011000
00001000
00010000
00100000
10000000
00010000
,
00100000
01000000
10000000
00010000
01000000
00100000
10100000
10000000
01000000
00010000
00001000
00010000
,
00000100
00010000
00001000
00000100
00000001
00000010
00000110
00000100
00001000
00000001
00000100
00000010
,
00000100
00001000
00010000
00001000
01000000
00001000
00011000
00010000
00000100
00000010
00000001
00001000
,
00000010
00000100
00001000
00010000
01000000
00010000
00001000
00010000
00100000
10000000
01000000
01000000
,
00010000
10000000
00100000
00010000
00001000
00001000
00000001
00000100
00001000
00010000
00001000
00001000
,
00000010
00010000
00001000
01000000
00010000
00010000
00001000
00100000
01000000
00010000
00001000
00000010
,
00000100
00001000
00000010
00000100
00001000
00010000
00002000
00000000
00000000
00000000
00000000
00000000
,
00000000
00000000
00000000
00000000
,
00000000
00000000
00000000
00000000
,
00000000
00000000
00003000
00000000
,
00000000
00000000
MMMMMMMM
00000000
,
00011000
00001000
00010000
00000010
00001000
00000001
00000100
00001000
00000100
00000001
00001000
00000001
,
00001000
00000100
00000001
00000100
00001000
00000001
00000100
00001000
00010000
00001000
00100000
00001000
,
00010000
00001000
00000100
00000010
00001000
00000100
00000010
00000001
00001000
00000100
00001000
00000001
,
00000100
00000010
00000100
00001000
00010000
00100000
01000000
00010000
10000000
00010000
10000000
01000000
,
00100000
01000000
00010000
00001000
00000010
00000100
00001000
00000010
00010000
00001000
00100000
00010000
,
00001000
00000100
00000001
00000100
00001000
00000100
00000010
00000001
00001000
00000001
00000100
00000010
,
00000100
00001000
00010000
00100000
01000000
00010000
00100000
00010000
10000000
00100000
00010000
00001000
,
00000100
00000010
00000100
00000000
00000010
00000000
00001000
00000000
00000001
00000000
00000010
00000000
00000110
00000000
00000000
00000000
00000000
00000000
00001001
00000000
00000000
00000000
00000000
00000000
,
00000001
00000010
00001000
00010000
01000000
00100000
00010000
01000000
00001000
00010000
00000100
00001000
,
00000001
00000100
00001000
00010000
00100000
01000000
00010000
10000000
01000000
00100000
00010000
00100000
,
00010000
10000000
01000000
00010000
00001000
00010000
00100000
10000000
01000000
00010000
00001000
00000010
,
00000100
00001000
00000001
00000100
00001000
00000100
00000001
00000010
00000100
00000010
00001000
00010000
,
01000000
00100000
00010000
10000000
00100000
00010000
00001000
00000100
00000010
00001000
00000001
00000010
,
00000100
00001000
00000010
00001000
00000001
00000100
00001000
00010000
00100000
01000000
00010000
10000000
,
00010000
10000000
01000000
00010000
01000000
00100000
01000000
00010000
00001000
00000010
00000100
00001000
,
00000001
00001000
00000001
00000000
00000100
00000000
00001000
00000000
00000001
00000000
00000010
00000000
00002020
00000000
00000000
00000000
00000000
00000000
00000000
00000000
00000000
00000000
00003030
00000000
,
00001000
00000100
00000010
00000001
00000100
00000100
00001000
00000010
00010000
00001000
00010000
00010000
,
01000000
00100000
01000000
00010000
00100000
00100000
10000000
00100000
00010000
00001000
01000000
01000000
,
10000000
01000000
00100000
00001000
00010000
00010000
01000000
00001000
00010000
00000010
00000100
00000100
,
00001000
00000001
00000010
00001000
00010000
00010000
10000000
00000000
10100000
00000000
01010000
00000000
,
22000000
00000000
00000000
33000000
,
10100000
00000000
00110000
00000000
00011000
00000000
00002020
00000000
00000000
00000000
00000000
00000000
,
00000000
00000000
00000000
00003030
00000000
00000000
00000011
00000000
00001100
00000000
00001001
00000000
,
00000001
00000010
00000100
00001000
00000100
00010000
00001000
00100000
00010000
00100000
01000000
10000000
00010000
01000000
00001000
00010000
,
00002000
00003000
00000000
00000000
00000000
00000000
00000000
00000000
00000000
00000000
00000000
00000000
00000000
00000000
00000000
00000000
00020020
00030030
00000000
00000000
00000000
00000000
00000000
00000000
00000000
00000000
00000000
00000000
00000000
00000000
00000000
00000000
00022000
00033000
00000000
00000000
00000000
00000000
00000000
00000000
00000000
00000000
00000000
00000000
00000000
00000000
00000000
00000000
02002000
03003000
00000000
00000000
00000000
00000000
00000000
00000000
00000000
00000000
00000000
00000000
00000000
00000000
00000000
00000000
,
00022000
00000000
00000000
00000000
,
00000000
00000000
00000000
00000000
,
00000000
00000000
00000000
00000000
,
00033000
00000000
00000000
01000000
00000000
00000000
00000000
00000000
;
