#TITLE:I'M GONNA GET YOU!;
#ARTIST:Kelly Cosmo;
#BANNER:I'M GONNA GET YOU!.png;
#BACKGROUND:I'M GONNA GET YOU!-bg.png;
#CDTITLE:./CDTitles/GF 4thMIX & dm 3rdMIX.png;
#MUSIC:I'M GONNA GET YOU!.ogg;
#SAMPLESTART:37.506;
#SAMPLELENGTH:15;
#DISPLAYBPM:160;
#BPMS:0=159.363,4=159.985,24.75=160.5,25=159.987,30.75=163,31=159.985,35=160.4,36=159.99,99=160.8,100=160,131.75=161.4,132=160,134.75=161.8,135=160,142.5=155.4,143=160,162.5=161,163=160,195=160.2,196=160,235.5=159.574,236=160,243.75=160.714,244=160;
#STAGE:17;

//--------------- dance-single - Fred-104 ----------------
#NOTES:
     dance-single:
     Fred-104:
     Beginner:
     2:
     :
0000
0000
0000
0000
,
0000
0000
0000
0000
,
0000
0000
0000
0000
,
2000
0000
3000
0000
,
0002
0000
0003
0000
,
1000
0000
0000
0000
,
0001
0000
0000
0000
,
1000
0000
0000
0000
,
0001
0000
0001
0000
,
1000
0000
0000
0000
,
0010
0000
0000
0000
,
1000
0000
0000
0000
,
0001
0000
0000
0000
,
1000
0000
0000
0000
,
0001
0000
0000
0000
,
1000
0000
0000
0000
,
0100
0000
0000
0000
,
2000
3000
0000
0000
,
0001
0000
1000
0000
,
0002
0003
0000
0000
,
1000
0000
0010
0000
,
2000
3000
0000
0000
,
0010
0000
1000
0000
,
0001
0000
1000
0000
,
1001
0000
0000
0000
,
0001
0000
0000
0000
,
0100
0000
0000
0000
,
0001
0000
0000
0000
,
1000
0000
1000
0000
,
1000
0000
0000
0000
,
0010
0000
0000
0000
,
0100
0000
0000
0000
,
0001
0000
1000
0000
,
0002
0000
0000
0000
,
0003
0000
0000
0000
,
2000
0000
0000
0000
,
3000
0000
0000
0000
,
0001
0000
0001
0000
,
0100
0000
0100
0000
,
0010
0000
0010
0000
,
1000
0000
1000
0000
,
0002
0000
0003
0000
,
2000
0000
3000
0000
,
0001
0000
1000
0000
,
0001
0000
1000
0000
,
0002
0000
0000
0000
,
0003
0000
0000
0000
,
2000
0000
0000
0000
,
3000
0000
0000
0000
,
0001
0000
1000
0000
,
0001
0000
0000
0000
,
1000
0000
0010
0000
,
1000
0000
0000
0000
,
0001
0000
1000
0000
,
0001
0000
0000
0000
,
0100
0000
0010
0000
,
0100
0000
0000
0000
,
0001
0000
1000
0000
,
0001
0000
0000
0000
,
1000
0000
0100
0000
,
1000
1000
1000
1000
,
2002
0000
0000
0000
,
0000
0000
0000
3003
;

//--------------- dance-single - Fred-104 ----------------
#NOTES:
     dance-single:
     Fred-104:
     Easy:
     5:
     :
0000
0000
0000
0000
,
0000
0000
0000
0000
,
0000
0000
0000
0000
,
1000
0000
0001
0000
,
1000
1000
1000
1000
,
0001
0000
0002
0003
,
0100
0010
0200
0300
,
0001
0000
1000
0000
,
0010
1000
0200
0300
,
1000
0000
0010
0000
,
1000
0100
1000
0000
,
0001
0000
0100
0000
,
1000
0000
0010
0000
,
0001
0000
1000
0000
,
0001
0100
0001
0000
,
1000
0000
0010
0000
,
0001
0000
0100
0000
,
1000
1000
1000
0000
,
0010
1000
0001
0000
,
0100
0100
0100
0000
,
0001
0010
0001
0000
,
0010
0010
0010
0000
,
0001
1000
0010
0000
,
2000
3000
0002
0003
,
1000
0001
1000
1001
,
0001
0000
0100
0000
,
0010
1000
0100
0000
,
1000
0000
0010
0000
,
1000
0100
0001
0100
,
1000
0000
0001
0000
,
0100
0010
0100
0000
,
0001
0000
1000
0000
,
0001
0010
1000
0010
,
0001
0200
0300
0020
,
0030
0200
0300
0001
,
1000
0002
0003
2000
,
3000
0020
0130
0001
,
1000
0100
0110
0000
,
0001
0100
0110
0000
,
1000
0001
1001
0000
,
0001
1000
2002
3003
,
0001
0100
0001
0010
,
0100
1000
0001
1000
,
0002
0000
2003
0000
,
3002
0003
1001
0000
,
1000
0010
1000
0100
,
0010
0001
1000
0010
,
0100
0000
0001
0000
,
1000
0001
1000
1001
,
0001
0000
1000
0000
,
0001
0100
0010
1000
,
0001
0000
1000
0000
,
0001
0010
0100
1000
,
0001
0000
1000
0000
,
0001
0010
1000
0100
,
0001
0000
1000
0000
,
0010
1000
0100
1000
,
0001
0000
0100
0000
,
0010
1000
0100
0010
,
0100
0000
1000
0000
,
0001
1000
0001
0100
,
0010
0000
0000
2002
0000
0000
0000
0000
,
0000
0000
0000
3003
;

//--------------- dance-single - Fred-104 ----------------
#NOTES:
     dance-single:
     Fred-104:
     Medium:
     10:
     :
0000
0000
0000
0000
,
0000
0000
0000
0000
,
0000
0000
0000
0000
,
0001
1000
1001
0000
,
0100
0000
0100
0000
0010
0100
0010
0000
,
0001
0010
0001
0010
0000
0000
0000
0110
,
0000
0000
0000
1100
0000
1000
0010
1000
,
0100
0010
0100
1000
0000
0000
0000
1001
,
0000
0000
0000
0110
0000
0001
1000
0001
,
1000
0000
0020
0000
0000
0000
0030
0100
,
0010
0000
1000
0100
0000
0010
0001
0000
,
0100
0000
0010
1000
0000
0010
0100
0000
,
0001
0100
0001
0000
1000
0010
1000
0000
,
0001
0001
0100
0000
0020
0000
1030
0010
,
1000
0000
0100
1000
0000
0001
1000
0000
,
0001
0100
0010
0100
,
0001
0000
0010
0001
1000
0000
1001
0000
,
1100
0000
1100
0000
0000
0010
1000
0001
,
0000
0100
0010
0000
0100
0000
0001
0000
,
0011
0000
0011
0000
0000
0001
1000
0010
,
0000
0100
0010
0000
1000
0000
0100
0000
,
1010
0000
0101
0000
0000
0001
1000
0001
,
0000
0100
0010
0000
1000
0000
0100
0000
,
1100
0000
0000
0000
0101
0000
0000
0011
,
0000
1010
1000
1001
,
0010
1000
0100
0000
0010
0001
0010
0001
,
0000
0100
0010
0000
1000
0001
1000
0001
,
0000
0100
0001
0000
0100
0010
0100
0001
,
0000
1001
0000
1100
0000
0001
0100
0000
,
0100
0001
0010
0000
0100
1000
0100
1000
,
0000
0010
0100
0000
0001
1000
0001
1000
,
0000
0010
1000
0000
0010
0100
0010
1000
,
0000
0001
1000
0001
0100
0010
1000
0010
,
1000
1010
0001
0101
,
1000
1100
0001
0011
,
0100
0011
0100
1010
,
0010
0000
1001
0000
0000
0100
0001
0100
,
0010
0001
0011
0000
,
0100
1000
1100
0000
,
0001
0000
1000
0000
1001
0000
0000
1000
,
0000
0010
0100
0001
1000
0000
1001
0000
,
0002
0100
0010
0103
,
0002
0023
0032
2003
,
3001
0000
0001
0000
0001
0000
1000
0000
1000
0000
1000
0000
,
0001
0000
1000
0000
0001
0000
0200
0000
0000
0320
0000
0000
,
1030
0100
1000
0010
,
0100
0000
0001
1000
0001
0000
0100
0000
,
0110
0010
0010
0010
,
0100
0010
0100
0010
0100
0000
1001
0000
,
1000
0100
0001
0000
1000
0010
1000
0010
,
0000
0001
1000
0000
0100
0010
0100
0010
,
0000
1000
0001
0000
1000
0100
0010
0001
,
0000
1001
0000
0101
0000
1000
0001
0100
,
0010
0100
0001
0000
0100
0010
0100
0010
,
0000
1000
0100
0000
0010
0100
1000
0001
,
0000
1000
0010
0000
0100
0010
0100
0001
,
0000
1000
0001
1000
0100
0010
0001
0000
,
1000
0001
0010
0000
0001
0100
0010
1000
,
0000
0100
1000
0000
0010
1000
0001
1000
,
0000
0100
0010
0000
0001
0010
0001
1000
,
0000
1100
0000
1001
0000
0001
1000
0000
,
0001
0001
1000
2002
0000
0000
0000
0000
,
0000
0000
0000
3003
;

//--------------- dance-single - Fred-104 ----------------
#NOTES:
     dance-single:
     Fred-104:
     Hard:
     13:
     :
0000
0000
0000
0000
,
0000
0000
0000
0000
,
0000
0000
0000
0000
,
1000
0100
1001
0000
,
0001
0000
0000
0000
0001
0000
0000
0000
1000
0000
0001
1000
0001
0000
0000
0000
,
1000
0100
0010
0002
0000
0103
0010
0002
,
0000
0013
1000
0002
0000
0103
0010
1000
,
0001
0010
0100
2000
0000
3001
0100
2000
,
0000
0000
3100
0000
0010
0000
2000
0000
3001
1000
0001
0000
1001
0000
0000
0000
,
0001
0100
0001
0000
0010
0001
1000
0001
,
1000
0000
0100
0001
0000
1000
0010
0001
,
1000
0000
0001
0100
0000
1000
0001
0010
,
1000
0001
1000
0100
0010
0100
1000
0001
,
0100
0010
1000
0010
0000
1000
0001
0010
,
0100
0000
0001
0100
0010
0001
1000
0001
,
0010
0001
1000
0100
0010
0100
1000
0100
,
1000
0001
0100
0010
1000
0100
0110
0000
,
1100
0000
0101
0000
1000
0100
0010
0002
,
0000
0103
0010
0100
0001
0010
0001
0000
,
0011
0000
1010
0000
0001
0010
0100
1000
,
0010
1000
0001
0100
0010
0100
0001
0000
,
1010
0000
0101
0000
1000
0001
0100
0020
,
0000
1030
0100
0010
0001
0010
0100
0000
,
2100
0000
3010
0000
0102
0000
0013
1001
,
0000
0000
0001
0010
0001
0000
1000
0100
1000
0000
0001
0010
0002
0000
0000
0000
,
1003
0000
0010
0000
1000
0000
0010
0000
0100
0000
0010
0100
0010
0000
0001
0000
,
0010
0100
0010
1000
0001
0010
0100
1000
,
0001
0000
0100
0000
0001
0000
0010
0000
0100
0000
0010
0001
0010
0000
0001
0000
,
1000
0100
0001
0100
1000
0001
1000
0000
,
0001
0000
0100
0000
0010
0000
0100
0000
1000
0000
0100
0010
0100
0000
0001
0000
,
1000
0100
1000
0010
0100
0001
1000
0001
,
0010
0000
0100
0000
1000
0000
0010
0100
0010
0000
0100
0000
1000
0000
0100
0000
,
0001
1000
0001
0100
0010
1000
0001
0010
,
0001
0100
0010
0200
0000
0301
0010
0200
,
0000
1300
0010
0200
0000
0301
1000
0001
,
1000
0010
0100
0002
0000
0013
0100
2000
,
0000
0000
3001
0000
0100
0000
0020
0000
0000
0000
1030
0100
1000
0000
0010
0000
,
1000
0100
0010
0001
0201
0310
0100
0001
,
1000
0001
0010
0100
0120
0031
1000
0100
,
1000
0010
0100
0001
2001
3010
1000
0200
,
0000
0000
0310
0000
0001
0000
1000
0000
0100
0010
0100
0000
1001
0000
0000
0000
,
0002
0000
0000
0000
2003
0000
0000
0000
3100
0000
1000
0100
1000
0000
0001
0100
,
0001
0000
1000
0001
2000
0000
0000
0000
3001
0000
0010
0000
0100
0000
1000
0000
,
0001
0000
0100
0000
0100
0000
1000
0000
0010
0000
0010
0000
,
0001
0000
0000
0000
0000
0000
0000
0000
0100
0000
0000
0000
0000
0000
0000
0000
0010
0000
0000
0000
0000
0000
0000
0000
2001
0000
0000
0000
0000
0000
0000
0000
0000
0000
0000
0000
3001
0000
0000
0000
0000
0000
1000
0000
0000
0100
0000
0000
,
1000
0010
1000
0000
0010
0100
0010
0000
0100
0000
0001
0000
1000
0000
0001
0100
,
0001
0000
1000
0010
1000
0000
0001
0000
0010
0000
0100
0010
0100
0000
1000
0000
,
0001
0000
1000
0100
1000
0000
0001
0010
0001
0000
1000
0100
1000
0000
0001
0000
,
0010
0100
0010
0100
0010
0100
0010
0100
0010
0000
0000
0000
1001
0000
0000
0000
,
0001
0000
1000
0000
0001
0000
1000
0000
0100
0000
1000
0010
0100
0000
0001
0000
,
1000
0001
0010
1000
0010
0100
1000
0001
,
1000
0000
0010
0000
0001
0000
0010
0000
0100
0000
0001
0000
1000
0000
0001
0100
,
0001
0100
0010
0100
0001
1000
0100
0010
,
0001
0000
1000
0000
0001
0000
0100
0000
0001
0000
0010
0100
0010
0000
0100
0000
,
1000
0001
0100
0010
0100
0001
1000
0100
,
1000
0000
0001
0000
0010
0000
0100
0000
0001
0000
0100
0000
1000
0000
0001
1000
,
0001
0100
0010
1000
0100
0001
0100
1000
,
0010
0000
0100
0000
0001
0000
1000
0000
0100
0000
0010
0001
0010
0000
0001
0000
,
1000
0000
0010
0000
0100
0000
0001
0000
0100
0010
0100
0000
0001
0000
1000
0000
,
0001
0000
0010
0000
0100
0000
1000
0000
0010
0000
0100
0001
0100
0000
0001
0000
,
0010
1000
0100
0001
1000
0001
1001
0000
,
1000
0010
0100
0000
0010
0000
2002
0000
0000
0000
0000
0000
0000
0000
0000
0000
,
0000
0000
0000
3003
;

//--------------- dance-double - Fred-104 ----------------
#NOTES:
     dance-double:
     Fred-104:
     Easy:
     6:
     :
00000000
00000000
00000000
00000000
,
00000000
00000000
00000000
00000000
,
00000000
00000000
00000000
00000000
,
00010000
00000000
10000000
00000000
,
00100000
00100000
01000000
01000000
,
00010000
00000000
20000000
30000000
,
00100000
01000000
00200000
00300000
,
00001000
00000000
00010000
00000000
,
00000100
00010000
00002000
00003000
,
00010000
00000000
00000100
00000000
,
00000010
00000100
00000010
00000000
,
00000001
00000000
00001000
00000000
,
00000001
00000000
00000100
00000000
,
00000010
00000000
00010000
00000000
,
00001000
00010000
00001000
00000000
,
00100000
00000000
00010000
00000000
,
00100000
00000000
01000000
00000000
,
10000000
00010000
10000000
00000000
,
10000000
01000000
00100000
00000000
,
00001000
00010000
00001000
00000000
,
00010000
00000100
00001000
00000000
,
00000010
00000100
00000010
00000000
,
00001000
00000001
00000100
00000000
,
00000020
00000030
00000200
00000300
,
00000001
00000100
00001000
00011000
,
00010000
00000000
00001000
00000000
,
00010000
00100000
10000000
00000000
,
00010000
00000000
10000000
00000000
,
00010000
01000000
10000000
01000000
,
00010000
00000000
10000000
00000000
,
01000000
00100000
00010000
00000000
,
00001000
00000000
00010000
00000000
,
00001000
00010000
00000010
00010000
,
00001000
00020000
00030000
00000200
,
00000300
00020000
00030000
00001000
,
00100000
00002000
00003000
02000000
,
03000000
00002000
00013000
00000100
,
00001000
00000100
00000110
00000000
,
00000001
00000100
00000110
00000000
,
00001000
00010000
00011000
00000000
,
00010000
10000000
20020000
30030000
,
10000000
01000000
00010000
01000000
,
10000000
00100000
00010000
00001000
,
00020000
00000000
02030000
00000000
,
13000000
00000000
10010000
00000000
,
00010000
01000000
00001000
00010000
,
00000010
00001000
00000100
00010000
,
00001000
00000000
00010000
00000000
,
00001000
00010000
00001000
00001100
,
00000100
00000000
00000001
00000000
,
00001000
00000010
00000001
00000100
,
00001000
00000000
00010000
00000000
,
00001000
00010000
01000000
10000000
,
00010000
00000000
10000000
00000000
,
00010000
01000000
10000000
00100000
,
00010000
00000000
00001000
00000000
,
00000100
00000001
00000010
00001000
,
00010000
00000000
01000000
00000000
,
00010000
00001000
00000010
00001000
,
00010000
00000000
00100000
00000000
,
00010000
00001000
00000100
00001000
,
00010000
00000000
00000000
00022000
00000000
00000000
00000000
00000000
,
00000000
00000000
00000000
00033000
;

//--------------- dance-double - Fred-104 ----------------
#NOTES:
     dance-double:
     Fred-104:
     Medium:
     10:
     :
00000000
00000000
00000000
00000000
,
00000000
00000000
00000000
00000000
,
00000000
00000000
00000000
00000000
,
00000010
00000100
00000110
00000000
,
00000001
00000000
00000001
00000000
00000100
00000010
00000100
00000000
,
00000001
00000100
00000001
00000100
00000000
00000000
00000000
00011000
,
00000000
00000000
00000000
01100000
00000000
10000000
00010000
01000000
,
00100000
10000000
00010000
10000000
00000000
00000000
00000000
01100000
,
00000000
00000000
00000000
00011000
00000000
00010000
00001000
00000100
,
00000010
00000000
00000002
00000000
00000000
00000000
00000003
00000100
,
00000010
00000000
00001000
00000100
00000000
00000001
00000100
00000000
,
00010000
00000000
00001000
00100000
00000000
01000000
00100000
00000000
,
00001000
00010000
00001000
00000000
00100000
00010000
10000000
00000000
,
00010000
01000000
01000000
00000000
00200000
00000000
10300000
00000000
,
10000000
00000000
00100000
01000000
00000000
00010000
10000000
00000000
,
01000000
00100000
00001000
00010000
,
00100000
00000000
10000000
01000000
00100000
00000000
00110000
00000000
,
00011000
00000000
00011000
00000000
00000000
00010000
00000010
00001000
,
00000000
00000010
00000100
00000000
00000001
00000000
00001000
00000000
,
00001001
00000000
00001001
00000000
00000000
00000001
00000010
00001000
,
00000000
00010000
01000000
00000000
10000000
00000000
00010000
00000000
,
00110000
00000000
11000000
00000000
00000000
10000000
01000000
00100000
,
00000000
00010000
01000000
00000000
00100000
00000000
01000000
00000000
,
01001000
00000000
00000000
00000000
00011000
00000000
00000000
00010010
,
00000000
00001010
00000010
00000110
,
00000100
00000001
00000010
00000000
00000100
00001000
00000100
00001000
,
00000000
00010000
00001000
00000000
00100000
00010000
00100000
00010000
,
00000000
10000000
00010000
00000000
10000000
01000000
00100000
00010000
,
00000000
01100000
00000000
10010000
00000000
10000000
01000000
00000000
,
00100000
00010000
00100000
00000000
00001000
00010000
00001000
00010000
,
00000000
00000100
00000010
00000000
00000001
00000100
00000001
00000100
,
00000000
00001000
00000100
00000000
00000001
00000010
00000001
00000010
,
00000000
00001000
00000010
00000001
00001000
00000001
00000100
00000010
,
00001000
00010010
00001000
01001000
,
00010000
00101000
00001000
00010100
,
00001000
00011000
01000000
10010000
,
01000000
00000000
00011000
00000000
00000010
00000100
00000010
00000100
,
00000001
00000100
00000110
00000000
,
00010000
00001000
00011000
00000000
,
00001000
00000000
01000000
00000000
01100000
00000000
00000000
00010000
,
00000000
01000000
00100000
10000000
01000000
00000000
01100000
00000000
,
00002000
00100000
00000010
00013000
,
00002000
00023000
00030200
00002300
,
00003001
00000000
00000001
00000000
00000001
00000000
00000010
00000000
00000010
00000000
00000010
00000000
,
00000100
00000000
00001000
00000000
00000001
00000000
00000200
00000000
00000000
00000320
00000000
00000000
,
00001030
00000001
00000010
00000100
,
00010000
00000000
00001000
00010000
00001000
00000000
00100000
00000000
,
00110000
00010000
00010000
00010000
,
10000000
01000000
10000000
01000000
10000000
00000000
10010000
00000000
,
10000000
01000000
00010000
00000000
00001000
00010000
00001000
00010000
,
00000000
00100000
10000000
00000000
00010000
10000000
01000000
00100000
,
00000000
00001000
00010000
00000000
00001000
00010000
00000010
00001000
,
00000000
00001100
00000000
00000101
00000000
00001000
00000100
00000010
,
00000001
00000100
00001000
00000000
00000100
00001000
00010000
00100000
,
00000000
00010000
00100000
00000000
10000000
00010000
10000000
01000000
,
00000000
00100000
01000000
00000000
10000000
00100000
01000000
00010000
,
00000000
00100000
00001000
00010000
00001000
00000010
00001000
00000000
,
00010000
00001000
00000100
00000000
00000001
00000100
00001000
00010000
,
00000000
00001000
00000100
00000000
00001000
00010000
01000000
00010000
,
00000000
00001000
00010000
00000000
00001000
00010000
00100000
10000000
,
00000000
11000000
00000000
01010000
00000000
00010000
00001000
00000000
,
00001000
00000010
00000001
00002002
00000000
00000000
00000000
00000000
,
00000000
00000000
00000000
00003003
;

//--------------- dance-double - Fred-104 ----------------
#NOTES:
     dance-double:
     Fred-104:
     Hard:
     14:
     :
00000000
00000000
00000000
00000000
,
00000000
00000000
00000000
00000000
,
00000000
00000000
00000000
00000000
,
00001000
00010000
00011000
00000000
,
00001000
00000000
00000000
00000000
00010000
00000000
00000000
00000000
00001000
00000000
00100000
00010000
00100000
00000000
00000000
00000000
,
00010000
00100000
10000000
00200000
00000000
00310000
00001000
00000020
,
00000000
00001030
00010000
02000000
00000000
03010000
00001000
00010000
,
00100000
00010000
00001000
00000020
00000000
00001030
00010000
00002000
,
00000000
00000000
00003100
00000000
00001000
00000000
00020000
00000000
00031000
00010000
00001000
00000000
00011000
00000000
00000000
00000000
,
00001000
00010000
00100000
00000000
01000000
00010000
10000000
00100000
,
10000000
00000000
01000000
00010000
00000000
00001000
00000010
00000001
,
00001000
00000000
00000001
00000100
00000000
00001000
00010000
00100000
,
10000000
00010000
00100000
01000000
00100000
00010000
01000000
00001000
,
00010000
00001000
00000100
00000001
00000000
00001000
00000100
00000010
,
00000001
00000000
00000100
00000010
00001000
00000010
00000100
00000001
,
00000100
00010000
00001000
00100000
01000000
10000000
00010000
01000000
,
00100000
10000000
00100000
00001000
00010000
00001000
00011000
00000000
,
00010010
00000000
01001000
00000000
00001000
00010000
00000100
00002000
,
00000000
00003010
00010000
00001000
00100000
00010000
00100000
00000000
,
00101000
00000000
00010100
00000000
00000010
00001000
00010000
00001000
,
00000100
00001000
00010000
01000000
00010000
00001000
00010000
00000000
,
01100000
00000000
00011000
00000000
00010000
00001000
00000010
00002000
,
00000000
00013000
01000000
00010000
00001000
00000100
00001000
00000000
,
00021000
00000000
01030000
00000000
00012000
00000000
00003010
00000110
,
00000000
00000000
00000001
00000010
00000100
00000000
00001000
00000010
00000100
00000000
00000001
00000010
00000002
00000000
00000000
00000000
,
00000103
00000000
00000010
00000000
00001000
00000000
00000001
00000000
00000010
00000000
00000100
00000010
00000001
00000000
00000100
00000000
,
00001000
00010000
00100000
10000000
00010000
01000000
00100000
10000000
,
01000000
00000000
10000000
00000000
00100000
00000000
01000000
00000000
00010000
00000000
00100000
01000000
00100000
00000000
00010000
00000000
,
01000000
00001000
00010000
00001000
00000010
00001000
00010000
00000000
,
00001000
00000000
00010000
00000000
01000000
00000000
00010000
00000000
00001000
00000000
00010000
00001000
00010000
00000000
00001000
00000000
,
00000100
00001000
00010000
00100000
00010000
00001000
00000010
00001000
,
00010000
00000000
00001000
00000000
00000100
00000000
00001000
00010000
00001000
00000000
00010000
00000000
01000000
00000000
00010000
00000000
,
00001000
00010000
00100000
00010000
00001000
00001000
00010000
00010000
,
00001000
00010000
00100000
20000000
00000000
31000000
00010000
00002000
,
00000000
00003010
00000001
00000200
00000000
00001300
00010000
00100000
,
10000000
01000000
00010000
00002000
00000000
00003010
00000001
00000200
,
00000000
00000000
00001300
00000000
00010000
00000000
00200000
00000000
00000000
00000000
10300000
00010000
10000000
00000000
00100000
00000000
,
11000000
00100000
01010000
00100000
,
00011000
00000010
00001001
00000100
,
00000011
00000000
00001000
00000000
00010100
00000000
00001000
00101000
,
00000000
00000000
01100000
00000000
10000000
00000000
00100000
00000000
01000000
00001000
00010000
00000000
00011000
00000000
00000000
00000000
,
00020000
00000000
00000000
00000000
00030200
00000000
00000000
00000000
00001300
00000000
00000010
00000100
00000001
00000000
00000010
00000001
,
00001000
00000000
00000010
00010000
00002000
00000000
00000000
00000000
00013000
00000000
00100000
00000000
10000000
00010000
10000000
00000000
,
00010000
00000000
01000000
00000000
10000000
00000000
00100000
00000000
00010000
00000000
00001000
00000000
,
00000100
00000000
00000000
00000000
00000000
00000000
00000000
00000000
00000001
00000000
00000000
00000000
00000000
00000000
00000000
00000000
00000010
00000000
00000000
00000000
00000000
00000000
00000000
00000000
00002000
00000000
00000000
00000000
00000000
00000000
00000000
00000000
00000000
00000000
00000000
00000000
00013000
00000000
00000000
00000000
00000000
00000000
00001000
00000000
00000000
00100000
00000000
00000000
,
00010000
00100000
00010000
00000000
01000000
00100000
01000000
00000000
00010000
00000000
10000000
00000000
01000000
00000000
00100000
00010000
,
00100000
00000000
00001000
00010000
00001000
00000000
00100000
00000000
00001000
00000000
00010000
00001000
00010000
00000000
00000010
00000000
,
00001000
00000000
00000100
00000001
00000100
00000000
00001000
00000010
00001000
00000000
00000001
00000100
00000001
00000000
00000100
00000000
,
00000010
00001000
00000010
00001000
00000010
00001000
00000010
00001000
00000100
00000000
00000000
00000000
00011000
00000000
00000000
00000000
,
00010000
00000000
00001000
00000000
00100000
00000000
00010000
00000000
10000000
00000000
00010000
00100000
01000000
00000000
00100000
00000000
,
00010000
10000000
01000000
00010000
00001000
00000010
00000001
00001000
,
00000001
00000000
00000100
00000000
00000010
00000000
00001000
00000000
00000100
00000000
00010000
00000000
00001000
00010000
00001000
00000000
,
00010000
00001000
00100000
01000000
00010000
00001000
00011000
00000000
,
00010000
00000000
00001000
00000000
00000010
00000000
00000001
00000000
00000100
00000000
00000010
00000100
00000010
00000000
00001000
00000000
,
00000001
00000100
00001000
00010000
00100000
10000000
00010000
10000000
,
01000000
00000000
00100000
00000000
00010000
00000000
10000000
00000000
01000000
00000000
00010000
00000000
01000000
10000000
00100000
00000000
,
01000000
00010000
00001000
00010000
00000010
00010000
00011000
00000000
,
00010000
00000000
00001000
00000000
00000100
00000000
00000001
00000000
00001000
00000000
00000001
00000010
00000001
00000000
00000100
00000000
,
00000010
00000000
00001000
00000000
00000100
00000000
00010000
00000000
00001000
00010000
00001000
00000000
00010000
00000000
00000010
00000000
,
00010000
00000000
00001000
00000000
00100000
00000000
10000000
00000000
00010000
00000000
01000000
00100000
01000000
00000000
00001000
00000000
,
00010000
00000100
00010000
00001000
00100000
00010000
10010000
00000000
,
00010000
01000000
00100000
00000000
10000000
00000000
20020000
00000000
00000000
00000000
00000000
00000000
00000000
00000000
00000000
00000000
,
00000000
00000000
00000000
30030000
;
