#TITLE:I Am No One;
#ARTIST:DJ Myosuke;
#BANNER:I Am No One.png;
#BACKGROUND:I Am No One-bg.png;
#CDTITLE:./CDTitles/RB VOLZZA.png;
#MUSIC:I Am No One.ogg;
#SAMPLESTART:69.319;
#SAMPLELENGTH:15;
#BPMS:0=180,37.5=90,38=180,65=90,66=180,80=90,81=180,94.5=90,125=45,126=180,158=45,160=180,172.5=360,176=180,184=90,188=180,200.5=360,204=135,205=90,205.667=45,206=90,207=180,208=90,212=180,240=90;
#STOPS:36=0.167,36.5=0.167,37=0.166,62=0.125,62.375=0.125,62.75=0.125,63.125=0.125,63.5=0.083,63.75=0.084,64=0.042,64.125=0.041,64.25=0.041,64.375=0.042,64.5=0.042,64.625=0.041,64.75=0.042,64.875=0.042,93=0.125,93.375=0.125,93.75=0.125,94.125=0.125,172.5=0.125,173.25=0.125,174=0.125,174.75=0.125,175.5=0.083,200.5=0.125,201.25=0.125,202=0.125,202.75=0.125,203.5=0.084,207=0.041,207.125=0.042,207.25=0.042,207.375=0.041,207.5=0.042,207.625=0.042,207.75=0.041,207.875=0.042;
#TIMESIGNATURES:0=4=4,36=2=4,38=4=4,62=2=4,66=4=4,78=3=4,81=4=4,93=2=4,95=4=4,123=3=4,126=4=4,158=2=4,160=4=4,184=2=4,188=4=4,204=2=4,212=4=4;
#BGSTAGE:27;

//--------------- dance-single - Fred-104 ----------------
#NOTES:
     dance-single:
     Fred-104:
     Beginner:
     5:
     :
0000
0000
0000
0000
,
0000
0000
0000
0000
,
0000
0000
0000
0000
,
0000
0000
0000
0000
,
0000
0000
0000
0000
,
0000
0000
0000
0000
,
1000
0000
0010
0000
,
0100
0000
0001
0000
,
1000
1000
1000
1000
,
1001
0000
1000
0000
,
0001
0000
0100
0000
,
0010
0010
0010
0000
,
0100
0000
0001
0001
,
0001
0001
0001
0000
,
1000
0000
0001
0000
,
0100
0000
2002
0000
,
0000
3003
1000
0000
,
0010
0000
1000
0000
,
0001
0000
0010
0000
,
0100
0000
1000
1000
,
1001
0001
0000
0001
,
0000
1000
0000
1000
,
0000
0001
0001
0001
,
0001
1001
0000
2000
,
0000
0000
0000
0000
,
0000
0000
0000
3002
,
0000
0000
0000
0000
,
0000
0000
0003
1000
,
0010
0100
0001
2002
,
0000
0000
3003
0220
,
0000
0000
0330
2002
,
0000
3003
1000
0000
,
0100
0000
1000
0000
,
0001
0000
0100
0000
,
0001
0000
0010
0000
,
0100
0100
0100
0000
,
1000
0000
0001
0000
,
0100
0000
0001
0000
,
1000
0000
0001
0001
,
0001
0001
1001
0000
,
1000
0000
0010
0000
,
1000
0000
0001
0000
,
0100
0000
0001
0000
,
0000
0000
0000
0000
,
0000
0000
0001
0000
,
1000
0000
0100
0000
,
2000
0000
3002
0000
,
1003
0000
0001
0000
,
0100
0100
0100
0000
,
0001
0000
1000
0000
,
0000
0000
0000
0000
,
0000
0000
0220
0000
,
0330
0000
2002
3003
,
1000
0000
0010
0000
,
1000
0000
0001
0001
,
0001
0000
1000
0000
,
0001
0010
0100
1000
,
0010
0000
0100
0000
,
0001
0000
1000
0000
,
0100
0100
0010
0010
,
2002
0000
0000
0000
0000
0000
0000
3003
0000
0000
0000
0000
0000
0000
0000
0000
;

//--------------- dance-single - Fred-104 ----------------
#NOTES:
     dance-single:
     Fred-104:
     Easy:
     9:
     :
0000
0000
0000
0000
,
0000
0000
0000
0000
,
0000
0000
0000
0000
,
0000
0000
0000
0000
,
0000
0000
0000
0000
,
0000
0000
0000
0000
,
1000
1000
0001
0001
,
0100
0010
0100
0001
,
1000
0100
1000
0000
0001
0100
0001
0000
,
2002
0000
0000
3003
0011
0000
0001
0000
,
1000
0000
1010
1000
,
0001
0000
1100
1000
,
0001
0000
0200
0320
,
0230
0320
0130
0001
,
1000
0000
0100
0000
1000
0010
1000
0000
,
0001
0100
0001
0000
2000
0000
0000
0000
,
3002
0000
1003
1000
1001
0000
0110
0000
,
1001
0001
0101
1001
,
1000
0001
1000
0000
1100
0000
1001
0000
,
0001
0100
0001
1000
,
0002
2003
3100
0000
0100
0000
0010
0000
,
0010
0001
0001
1000
,
1000
0010
0100
0001
,
1000
0000
0220
0000
0000
0330
2002
0000
,
0000
0000
0000
0000
,
0000
0000
0000
0000
,
0000
0000
0000
0000
,
0000
0000
3003
0110
,
0001
0000
1000
0100
0010
0001
1000
0001
,
0100
0220
0000
0000
0000
0330
0001
0010
,
0100
2000
0000
0000
0000
3001
0200
0000
,
0000
0300
0001
0000
,
1000
0000
0100
0100
,
0010
0001
1000
0000
,
0001
0000
0100
0100
,
0010
0100
0010
0000
1000
0000
0100
0000
,
0010
0000
0001
0100
,
0010
0000
1000
0100
,
1000
0000
0001
0001
,
1000
0000
0000
0000
1000
0000
0000
0000
2002
0000
0000
0000
0000
0000
0000
3003
,
1000
1000
0001
0100
,
0010
0000
0100
0100
,
0001
0000
1000
0000
,
2002
0000
0000
0000
0000
0000
0000
3003
,
1000
0100
0010
0010
,
0001
0000
1000
0000
0001
0001
0001
0000
,
0200
0000
0320
0000
0130
0100
0001
0001
,
1000
0000
1100
0000
1001
0000
0001
0010
,
0001
0000
0011
0000
0001
0000
1000
1000
,
0001
0100
0010
1000
,
2002
0000
0000
0000
,
3003
0000
2002
0000
,
0000
0000
0000
3003
0220
0000
0000
0330
,
1001
1000
0001
0100
,
0110
0010
1000
0001
,
0011
0010
0100
1000
,
0001
0001
1000
1000
,
0001
0010
0100
0100
,
1000
0001
0100
0100
,
0010
0100
0010
0000
1000
0001
1000
0000
,
2002
0000
0000
0000
0000
0000
0000
3003
0000
0000
0000
0000
0000
0000
0000
0000
;

//--------------- dance-single - Fred-104 ----------------
#NOTES:
     dance-single:
     Fred-104:
     Medium:
     13:
     :
0000
0000
0000
0000
,
0000
0000
0000
0000
,
0000
0000
0000
0000
,
0000
0000
0000
0000
,
0000
0000
0000
0000
,
0000
0000
0000
0000
,
0001
0100
0001
1000
0001
0010
0100
0000
,
1000
0001
0100
0001
1000
0100
0010
0000
,
0001
1000
0001
0100
0010
1000
0001
0010
,
0200
0300
0200
0300
0020
0030
0110
0000
1001
0000
0000
0000
0001
0000
0010
0000
,
0100
0000
1100
0000
1000
0001
0100
1000
,
0100
0001
0010
0010
0110
0000
1000
0001
,
0010
0000
0000
0000
0001
0000
1000
0000
0100
1000
0100
1000
0100
0000
0000
0010
,
0001
0000
0000
1000
0010
0000
0100
0000
0001
0000
0000
0000
1000
0000
0100
0000
,
0001
0100
1000
0000
0001
0001
0010
0100
,
1000
0000
0000
0000
1000
0000
0000
0000
0010
0000
0000
0000
0100
0000
0000
0000
0001
0000
0000
0001
0000
0000
1000
0000
0000
1000
0000
0000
0100
0000
0010
0000
,
0002
2003
3100
0110
1001
0000
1100
0000
,
1000
0100
0010
0000
0011
0000
1010
0000
,
0001
1000
0010
0100
0101
0000
1100
0000
,
0001
1000
0100
0100
0010
0010
0001
0001
,
2000
3000
2002
3003
0001
0000
0100
0000
0001
0000
0100
0000
0001
0000
0010
0000
,
0001
0000
0010
0000
0100
0000
1000
0000
0100
0000
1000
0000
0010
0000
0000
1000
,
0010
1000
0001
0001
0100
0100
0010
1000
,
0001
0000
0000
0000
0010
0000
0000
0000
0100
0000
0000
0100
0000
0000
0100
0000
0000
0100
0000
0000
0110
0000
0000
0000
2002
0000
0000
0000
0000
0000
0000
0000
,
0000
0000
0000
0000
,
0000
0000
0000
0000
,
0000
0000
0000
0000
,
0000
0000
0000
0000
3003
0000
1100
0001
,
1000
0000
0100
1000
0001
0100
0010
0000
0100
0001
1000
0000
0001
0010
0100
0000
,
1000
0000
2002
0000
0000
0000
0000
0000
0000
0000
3003
0000
0001
0100
0010
1000
,
0100
0010
0002
0000
0000
0000
0000
0000
0003
0000
0110
0000
2002
0000
0000
0000
,
0000
0000
0000
0000
3003
0000
0000
0000
1000
0000
0000
0100
0000
0000
0010
0000
,
0000
0001
0000
0000
1000
0000
0001
0000
0100
0000
0000
0010
0000
0000
0100
0000
,
0001
1000
0000
0001
1000
0000
0100
0000
0010
0000
0000
0001
0000
0000
1000
0000
,
0000
0010
0000
0000
0100
0000
0001
0000
1000
0000
1000
0000
1001
0000
0000
0000
,
0001
1000
0001
0001
0010
0100
1000
0001
,
0100
0010
1000
0001
0010
0100
0010
0001
,
0100
0010
1000
0002
0013
0010
0100
0100
,
1000
1000
0001
0001
0100
0010
1000
0001
,
1000
0001
1000
0001
1000
0001
1000
0001
2000
0000
0000
0000
0000
0000
0000
3000
,
1000
1000
1100
0000
0101
0000
1000
0100
,
0010
0000
0000
0001
0000
0000
1000
0000
0001
0100
0000
0001
0100
0000
0010
0000
,
0100
0000
0000
0001
0000
0000
1000
0000
0001
0000
0010
0000
0100
1000
0100
1000
,
0000
0000
0001
0000
0000
0100
0000
0000
1000
0000
0000
0100
0000
0000
0001
0000
,
1000
0000
0000
0100
0000
0000
0010
0000
0000
0001
0000
0000
1000
0000
0001
0000
,
0100
0000
0000
0010
0000
0000
0100
0000
0001
0000
0001
0000
0010
0000
0100
0000
,
2000
0000
0000
0000
0000
0000
0000
0000
3002
0000
0000
0000
0000
0000
0000
0000
1003
0000
0010
0000
0000
0010
0000
0000
0100
0000
0000
0100
0000
0000
0001
0000
,
1000
0001
1001
0000
0110
0000
0001
0010
,
0100
1000
1001
0000
1000
0010
0100
0100
,
0001
0000
0000
0000
1000
0000
0100
0000
0010
0000
0001
0000
1000
0001
1000
0001
,
0000
0000
1000
0000
0000
0010
0000
0000
0001
0000
0000
0010
0000
0000
1000
0000
,
0002
0000
0000
0000
1003
0100
2000
3002
,
2003
0000
0002
3003
,
1100
0101
1100
0101
,
1010
0011
1010
0011
,
1100
0101
1010
0011
,
1100
0000
0000
1000
0100
0000
0000
0001
0100
0000
0000
1000
0001
0000
0000
0000
,
1000
0100
0010
0001
1000
0010
0100
0001
,
1000
0001
0010
0100
0010
0100
0010
0001
,
1000
0010
0100
0001
1000
0100
0010
0001
,
2000
0000
0000
0000
0000
0001
0000
3001
0000
0000
0000
0000
0000
0000
0000
0000
;

//--------------- dance-single - Fred-104 ----------------
#NOTES:
     dance-single:
     Fred-104:
     Hard:
     17:
     :
0000
0000
0000
0000
,
0000
0000
0000
0000
,
0000
0000
0000
0000
,
0000
0000
0000
0000
,
0000
0000
0000
0000
,
0000
0000
0000
0000
,
1001
0001
1000
0010
0100
0001
1000
0100
,
0110
0010
0001
1000
0010
0100
0001
1000
,
0100
0010
0001
1000
0010
1000
0001
0100
0010
1000
0010
0100
0001
1000
0100
0010
,
0200
0300
2000
3000
0002
0003
1001
0000
0001
0000
1000
0000
0001
0000
0010
0100
,
0010
0000
0100
0000
1000
0000
0001
0000
1000
0000
0010
0100
0001
0000
0010
0001
,
1000
0000
0001
0100
0010
1000
0010
0000
0100
0000
0001
0010
0100
0000
1000
0001
,
0100
0000
0010
1000
0001
0000
0001
0000
1000
0001
1000
0001
0100
0000
0000
0010
,
1000
0000
0000
0001
0010
0100
1000
0000
1000
0100
1000
0000
0001
0000
0100
0000
,
0010
1000
0010
0000
0100
0000
0001
0000
1000
0100
0010
0000
0011
0000
0001
0000
,
1000
0000
0001
0000
0100
0000
0001
0000
1000
0000
0000
0000
0100
0000
0000
0000
1100
0000
0000
0101
0000
0000
1010
0000
0000
0011
0000
0000
0110
0000
1001
0000
,
0001
1000
0001
1000
0001
1000
0001
1000
0100
0000
0010
0000
0002
0000
0000
0003
1001
0000
0000
0000
1000
0000
0100
0000
0010
0000
0000
0000
0001
0000
0100
0000
,
0010
0000
1000
0100
0010
0000
0001
0000
1001
0000
0001
1000
0010
0000
1000
0001
,
0010
0000
0100
1000
0001
0100
0010
0000
0110
0000
1000
0100
0010
0000
0001
0100
,
0010
0000
1000
0010
0100
0000
0001
0000
1000
0100
0010
0001
1000
0100
0010
0001
,
2000
3000
1001
0000
0011
0000
0001
0000
0100
0000
0100
0000
0010
0000
0010
0000
,
1000
0000
1000
0000
1100
0000
0100
0000
0010
0000
0010
0000
0001
0000
0001
1000
,
0010
0000
0100
0000
0001
1000
0001
0000
0010
0100
0010
0000
0001
1000
0010
0100
,
0001
0000
0100
0000
0010
0000
1000
0000
0001
0000
0000
0010
0000
0000
0100
0000
0000
1000
0000
0000
2002
0000
3003
0000
2002
0000
0000
0000
0000
0000
0000
0000
,
0000
0000
3003
0220
,
0000
0000
0000
0000
0000
0000
0000
0000
0330
0000
0000
0000
1000
0001
0100
1000
,
0001
0010
1000
0001
0010
0100
0001
0100
1000
0001
0100
0010
0001
0010
1000
0001
,
1000
0100
0010
0100
0001
0100
1000
0001
0100
0010
1000
0000
1010
0000
0000
0000
,
0101
0000
1000
0100
0110
0010
0001
0000
1000
0001
0020
0030
0100
0010
0001
0000
,
0100
0000
0220
0000
0000
0000
0000
0000
0000
0000
0330
0000
1000
0010
0100
1000
,
0100
0001
0020
0000
0000
0000
0000
0000
0030
0000
0110
0000
2002
0000
0000
0000
,
0000
0000
0000
0000
3003
0000
0000
0000
1000
0000
0010
0100
0000
0010
1000
0000
,
0001
0010
0000
0100
1000
0000
0001
0000
0100
0010
0000
1000
0001
0000
0010
0100
,
0000
1000
0001
0000
0100
0010
1000
0001
0010
0000
0100
0010
0000
0001
0010
0000
,
1000
0010
0000
0001
0010
0100
1000
0001
0100
0000
0110
0000
1001
0000
0000
0000
,
1000
0000
0100
0000
1000
0001
0100
0010
1000
0000
0001
0000
0010
0000
0100
0000
,
2100
0000
3001
0000
0100
0000
0010
1000
0001
0000
1000
0000
0100
0000
0010
0000
,
0001
0100
0010
1000
0100
0010
0002
0000
1003
0010
1000
0010
0100
0001
0100
0001
,
1000
0100
1000
0100
0010
0001
0010
0001
0010
0100
1000
0001
0100
0010
1000
0010
,
0100
0000
0000
0000
0001
0000
0000
0000
0010
0000
0000
0000
0100
0000
0000
0000
1000
0000
0000
0000
0001
0000
0000
0000
1000
0000
0000
0000
0001
0000
0000
0000
2000
0000
0000
0000
0000
0000
0000
0000
0000
0000
0000
0000
0000
0000
0000
0000
3000
0000
0002
0000
0003
0000
0002
0000
0023
0000
0230
0000
2300
3000
0002
0003
,
1001
0000
1000
0000
1100
0000
0000
0000
0001
0100
0000
0010
1000
0000
0001
0000
,
0010
0000
0100
0010
0000
0100
1000
0000
1100
0000
1001
0000
0001
0100
0010
1000
,
0001
0000
0010
0100
0000
1000
0010
0000
0100
0001
1000
0000
0100
0010
0001
2000
,
0000
3000
1100
0000
0000
0101
0000
0000
0011
0000
0000
1010
0000
0000
1001
0000
,
1000
0000
0100
0010
0000
0001
0100
0000
0010
1000
0000
0010
0100
0000
0001
1000
,
0001
0000
0011
0000
1001
0000
0000
0000
1000
0100
0010
0001
1000
0010
0100
0001
,
2000
0000
0000
0000
0000
0000
0000
0000
3200
0000
0000
0000
0000
0000
0000
0000
0310
0000
0001
0000
0010
0100
0000
1000
0010
0000
0100
0010
0000
1000
0001
0000
,
0101
0000
0100
0000
0110
0000
0000
0000
1010
0000
1001
0000
1000
0100
0010
0001
,
1000
0000
0100
0000
0110
0000
0000
0000
0010
0001
1000
0010
0100
0001
0010
0100
,
1000
0000
0010
0100
0000
0010
1000
0000
0001
0010
0100
1000
0100
0010
0001
2000
,
0000
3000
1010
0000
0000
0011
0000
0000
0101
0000
0000
1100
0000
0000
0110
0000
,
2002
0000
0000
0000
0000
0000
0000
0000
0000
0000
0000
0000
0000
0000
0000
0000
0000
0000
0000
0000
0000
0000
0000
0000
0000
0000
0000
0000
3003
0000
0000
0000
0001
0000
0000
0000
0000
0000
0000
0000
0100
0000
0000
0000
0000
0000
0000
0000
0002
0003
2000
3000
0002
0003
2000
3000
0200
0300
0020
0030
0200
0300
0020
0030
,
0002
0000
0000
0000
0000
0000
0000
0000
2000
0000
0000
0000
0000
0000
3003
0100
,
0110
0000
0001
0100
0010
0000
1000
0100
0010
0000
0001
0100
0020
0000
1030
0000
,
1001
0000
0001
0010
0100
0000
1000
0010
0100
0000
0001
0010
0100
1000
0001
0000
,
1001
0000
1000
0010
0100
0001
1000
0000
1100
0000
0110
0000
0011
0000
0000
0000
,
2200
3300
0000
0000
0202
0000
0000
0303
2020
0000
3030
0000
0022
0000
0033
0000
,
1001
0000
1000
0000
0010
0000
0010
0000
0100
0000
0100
0000
0001
1000
0100
0010
,
0001
0001
0100
0100
0010
0010
1000
0001
,
0010
0100
1000
0001
0100
0010
1000
0010
0100
0001
1000
0100
0010
0001
1000
0010
,
0200
0000
0000
0000
0000
0001
0000
1300
0000
0000
0000
0000
0000
0000
0000
0000
;

//--------------- dance-double - Fred-104 ----------------
#NOTES:
     dance-double:
     Fred-104:
     Easy:
     9:
     :
00000000
00000000
00000000
00000000
,
00000000
00000000
00000000
00000000
,
00000000
00000000
00000000
00000000
,
00000000
00000000
00000000
00000000
,
00000000
00000000
00000000
00000000
,
00000000
00000000
00000000
00000000
,
00010000
00010000
10000000
10000000
,
00100000
01000000
00100000
10000000
,
01000000
00000000
00010000
00000000
00001000
00000100
00000001
00000000
,
00002002
00000000
00000000
00003003
00000001
00000000
00000100
00000000
,
00001000
00010000
01000000
10000000
,
00010000
00000000
10000000
00100000
,
00010000
00001000
00020000
00032000
,
00023000
00032000
00013000
00000010
,
00001000
00000000
00000010
00000000
00010000
00001000
00010000
00000000
,
00000100
00001000
00000100
00000000
00020000
00000000
00000000
00000000
,
00032000
00000000
00013000
00001000
00011000
00000000
01100000
00000000
,
10000000
00010000
01000000
00000000
01100000
00000000
10010000
00000000
,
10000000
01000000
00100000
00000000
00101000
00000000
00011000
00000000
,
00001000
00010000
00000010
00001000
,
00000002
00002003
00003001
00000000
00000001
00000000
00000100
00000000
,
00000100
00001000
00001000
00010000
,
00010000
00001000
00010000
01000000
,
10000000
00000000
22000000
00000000
00000000
33000000
02200000
00000000
,
00000000
00000000
00000000
00000000
,
00000000
00000000
00000000
00000000
,
00000000
00000000
00000000
00000000
,
00000000
00000000
03300000
00011000
,
00010000
00000000
00001000
00010000
00000010
00001000
00000100
00000010
,
00000001
00002002
00000000
00000000
00000000
00003003
00010000
00000010
,
00001000
00000020
00000000
00000000
00000000
00010030
00002000
00000000
,
00000000
00003000
00001000
00000000
,
00010000
00000000
01000000
00100000
,
00010000
10000000
00010000
00000000
,
10000000
00000000
00100000
01000000
,
00001000
00010000
00001000
00000000
00010000
00000000
00000010
00000000
,
00010000
00000010
00001000
00000001
,
00000100
00000001
00000100
00001000
,
00010000
00000100
00000010
00000001
,
00001000
00000000
00000001
00000000
00001000
00000000
00000000
00000000
00002002
00000000
00000000
00000000
00000000
00000000
00000000
00003003
,
00000001
00000100
00001000
00010000
,
00001000
00000000
00010000
01000000
,
00100000
00000000
00010000
00000000
,
20020000
00000000
00000000
00000000
00000000
00000000
00000000
30030000
,
10000000
01000000
00100000
00001000
,
00010000
00000000
00010000
00000000
00001000
00001000
00001000
00000000
,
00020000
00000000
00032000
00000000
00013000
00001000
00000010
00000001
,
00001000
00000000
00001001
00000000
00000110
00000000
00000001
00000100
,
00001000
00000000
00011000
00000000
00001000
00000000
00010000
00010000
,
00001000
00010000
00000010
00001000
,
00002002
00000000
00000000
00000000
,
00003003
00000000
00022000
00000000
,
00000000
00000000
00000000
00033000
20020000
00000000
00000000
30030000
,
10000000
01000000
00100000
00001000
,
00011000
00010000
00000010
00001000
,
00001010
00000001
00000100
00000010
,
00010000
00010000
00001000
00001000
,
00010000
00100000
01000000
01000000
,
00010000
10000000
01000000
00100000
,
00001000
00010000
00001000
00000000
00010000
00000010
00010000
00000000
,
00022000
00000000
00000000
00000000
00000000
00000000
00000000
00033000
00000000
00000000
00000000
00000000
00000000
00000000
00000000
00000000
;

//--------------- dance-double - Fred-104 ----------------
#NOTES:
     dance-double:
     Fred-104:
     Medium:
     13:
     :
00000000
00000000
00000000
00000000
,
00000000
00000000
00000000
00000000
,
00000000
00000000
00000000
00000000
,
00000000
00000000
00000000
00000000
,
00000000
00000000
00000000
00000000
,
00000000
00000000
00000000
00000000
,
00010000
00001000
00010000
00000010
00001000
00000010
00010000
00000000
,
00001000
00100000
00010000
10000000
00010000
00100000
01000000
00000000
,
10000000
01000000
00010000
00001000
00000100
00000001
00001000
00000100
,
00020000
00030000
00002000
00003000
00020000
00030000
00011000
00000000
01100000
00000000
00000000
00000000
00010000
00000000
10000000
00000000
,
01000000
00000000
00110000
00000000
10000000
00100000
00010000
00001000
,
00000010
00000100
00001000
00001000
00001001
00000000
00000001
00000100
,
00001000
00000000
00000000
00000000
00010000
00000000
00001000
00000000
00010000
00001000
00010000
00001000
00010000
00000000
00000000
01000000
,
00100000
00000000
00000000
00010000
10000000
00000000
00000000
00000000
00010000
00000000
00000000
00000000
01000000
00000000
00100000
00000000
,
00010000
00001000
00000100
00000000
00000010
00010000
00001000
00000010
,
00000001
00000000
00000000
00000000
00000010
00000000
00000000
00000000
00000100
00000000
00000000
00000000
00010000
00000000
00000000
00000000
00001000
00000000
00000000
00010000
00000000
00000000
01000000
00000000
00000000
00010000
00000000
00000000
00001000
00000000
00010000
00000000
,
00002000
00023000
00031000
00011000
01100000
00000000
10010000
00000000
,
10000000
01000000
00010000
00000000
00011000
00000000
00010010
00000000
,
00010000
00001000
00000100
00000010
00000110
00000000
00001010
00000000
,
00000001
00000100
00001000
00010000
01000000
10000000
00010000
00100000
,
01000000
01100000
10000000
01000000
10000000
01000000
00100000
00010000
,
00100000
00000000
00010000
00000000
00100000
00000000
00001000
00000000
00100000
00000000
00001000
00000000
00010000
00000000
00000000
00000010
,
00010000
00000010
00001000
00001000
00000001
00000001
00000010
00000100
,
00001000
00000000
00000000
00000000
00000100
00000000
00000000
00000000
00010000
00000000
00000000
00001000
00000000
00000000
01000000
00000000
00000000
00001000
00000000
00000000
00010000
00000000
00000000
00000000
00022000
00000000
00000000
00000000
00000000
00000000
00000000
00000000
,
00000000
00000000
00000000
00000000
,
00000000
00000000
00000000
00000000
,
00000000
00000000
00000000
00000000
,
00000000
00000000
00000000
00000000
00033000
00000000
00011000
01000000
,
00010000
00000000
10000000
00010000
00100000
01000000
00100000
00000000
00001000
00010000
00000010
00000000
00001000
00000100
00000010
00000000
,
00000001
00000000
00000220
00000000
00000000
00000000
00000000
00000000
00000000
00000000
00000330
00000000
00000001
00000100
00000010
00001000
,
00000100
00010000
00002000
00000000
00000000
00000000
00000000
00000000
00003000
00000000
00011000
00000000
02200000
00000000
00000000
00000000
,
00000000
00000000
00000000
00000000
03300000
00000000
00000000
00000000
10000000
00000000
00000000
00100000
00000000
00000000
00010000
00000000
,
00000000
00001000
00000000
00000000
00000100
00000000
00000010
00000000
00001000
00000000
00000000
00000001
00000000
00000000
00000010
00000000
,
00000100
00001000
00000000
00000100
00001000
00000000
00000001
00000000
00000100
00000000
00000000
00000010
00000000
00000000
00010000
00000000
,
00000000
00001000
00000000
00000000
00100000
00000000
01000000
00000000
10000000
00000000
00100000
00000000
01100000
00000000
00000000
00000000
,
00010000
10000000
00100000
01000000
00010000
00100000
01000000
00010000
,
00001000
00000010
00000100
00001000
00000010
00000100
00001000
00010000
,
00100000
01000000
00001000
00020000
00030100
00000100
00001000
00001000
,
00000010
00000010
00000100
00000100
00000001
00000100
00001000
00010000
,
00100000
01000000
00100000
01000000
00100000
01000000
00100000
01000000
00200000
00000000
00000000
00000000
00000000
00000000
00000000
00300000
,
10000000
10000000
10010000
00000000
11000000
00000000
01000000
00100000
,
00001000
00000000
00000000
00010000
00000000
00000000
00000010
00000000
00001000
00000001
00000000
00000100
00000001
00000000
00001000
00000000
,
00000100
00000000
00000000
00000010
00000000
00000000
00000001
00000000
00000100
00000000
00001000
00000000
00010000
00001000
00010000
00001000
,
00000000
00000000
00010000
00000000
00000000
00001000
00000000
00000000
00000100
00000000
00000000
00000010
00000000
00000000
00001000
00000000
,
00000001
00000000
00000000
00000010
00000000
00000000
00000100
00000000
00000000
00010000
00000000
00000000
00001000
00000000
00000100
00000000
,
00000010
00000000
00000000
00001000
00000000
00000000
00000001
00000000
00000010
00000000
00000100
00000000
00010000
00000000
00001000
00000000
,
00020000
00000000
00000000
00000000
00000000
00000000
00000000
00000000
00032000
00000000
00000000
00000000
00000000
00000000
00000000
00000000
00013000
00000000
00010000
00000000
00000000
00001000
00000000
00000000
00001000
00000000
00000000
00010000
00000000
00000000
00010000
00000000
,
00001000
00100000
00110000
00000000
10010000
00000000
10000000
00010000
,
01000000
00001000
00011000
00000000
00010000
00001000
00000010
00000001
,
00000010
00000000
00000000
00000000
00000100
00000000
00010000
00000000
00001000
00000000
00010000
00000000
00100000
10000000
00100000
10000000
,
00000000
00000000
10000000
00000000
00000000
01000000
00000000
00000000
00100000
00000000
00000000
00001000
00000000
00000000
00010000
00000000
,
00002000
00000000
00000000
00000000
00013000
00001000
00000020
00000230
,
00002300
00000000
00000002
00003003
,
00000001
00000100
00000001
00001000
00000100
00010000
00001000
00000000
,
01000000
00001000
00010000
00001000
00000100
00000010
00001000
00000000
,
00000100
00000010
00001000
00010000
01000000
10000000
00010000
00000000
,
11000000
00000000
00000000
10000000
01000000
00000000
00000000
01000000
00100000
00000000
00000000
00001000
00010000
00000000
00000000
00000000
,
00001000
00010000
00001000
01000000
00001000
00010000
00000200
00000300
,
00001000
00000001
00000100
00000001
00001000
00000100
00020000
00030000
,
00001000
00000100
00000001
00001000
00000100
00000010
00001000
00010000
,
02000000
00000000
00000000
00000000
00000000
10000000
00000000
13000000
00000000
00000000
00000000
00000000
00000000
00000000
00000000
00000000
;

//--------------- dance-double - Fred-104 ----------------
#NOTES:
     dance-double:
     Fred-104:
     Hard:
     17:
     :
00000000
00000000
00000000
00000000
,
00000000
00000000
00000000
00000000
,
00000000
00000000
00000000
00000000
,
00000000
00000000
00000000
00000000
,
00000000
00000000
00000000
00000000
,
00000000
00000000
00000000
00000000
,
00001001
00000001
00000100
00001000
00010000
00100000
01000000
00010000
,
10010000
10000000
01000000
00010000
00001000
00000010
00000100
00001000
,
00000001
00000100
00000001
00000100
00000010
00010000
00000010
00010000
00001000
00100000
00001000
00100000
00010000
10000000
00010000
10000000
,
02000000
03000000
00200000
00300000
00002000
00003000
00011000
00000000
00010000
00000000
00001000
00000000
00000010
00000000
00000100
00000010
,
00000001
00000000
00001000
00000000
00000001
00000000
00000100
00000000
00001000
00000000
00010000
00001000
00010000
00000000
00100000
01000000
,
00010000
00000000
01000000
00100000
10000000
00010000
00100000
00000000
01000000
00000000
10000000
00010000
00100000
00000000
00001000
00010000
,
00000100
00000000
00010000
00001000
01000000
00000000
01000000
00000000
00100000
10000000
00100000
10000000
01000000
00000000
00000000
00100000
,
00001000
00000000
00000000
00001000
00010000
00001000
00010000
00000000
00001000
00010000
00001000
00000000
00100000
00000000
00001000
00000000
,
00010000
00000010
00010000
00000000
00000010
00000000
00001000
00000000
00000001
00000010
00000100
00000000
00001100
00000000
00000100
00000000
,
00010000
00000000
00001000
00000000
00010000
00000000
00001000
00000000
00010000
00000000
00000000
00000000
00001000
00000000
00000000
00000000
00010000
00000000
00000000
00001000
00000000
00000000
00000010
00000000
00000000
00000001
00000000
00000000
00000100
00000000
00001000
00000000
,
00010000
00001000
00010000
00001000
00010000
00001000
00010000
00001000
00010000
00000000
00001000
00000000
00020000
00000000
00030000
00000000
00011000
00000000
00000000
00000000
00001000
00000000
00100000
00000000
00010000
00000000
00000000
00000000
10000000
00000000
00010000
00000000
,
00100000
00000000
01000000
10000000
00100000
00000000
01000000
00000000
01010000
00000000
10000000
01000000
00010000
00000000
00001000
00000100
,
00000001
00000000
00001000
00000000
00000100
00000010
00000001
00000000
00001001
00000000
00000001
00000100
00000010
00000000
00001000
00000100
,
00010000
00000000
00001000
00100000
00010000
00000000
10000000
00000000
01000000
00100000
01000000
00100000
00001000
00010000
00001000
00010000
,
00002000
00003000
00011000
00000000
00010000
00000000
00001000
00000000
00000100
00000000
00000010
00000000
00001000
00000000
00000100
00000000
,
00000010
00000000
00001000
00000000
00010000
00000000
01000000
00000000
00100000
00000000
00010000
00000000
01000000
00000000
00001000
00010000
,
00001000
00000000
00100000
00000000
00001000
00010000
00001000
00000000
00010000
00000010
00010000
00000000
00000010
00001000
00000010
00001000
,
00000001
00000000
00000100
00000000
00000001
00000000
00000100
00000000
00000001
00000000
00000000
00001000
00000000
00000000
00010000
00000000
00000000
10000000
00000000
00000000
20020000
00000000
30030000
00000000
00022000
00000000
00000000
00000000
00000000
00000000
00000000
00000000
,
00000000
00000000
00033000
20020000
,
00000000
00000000
00000000
00000000
00000000
00000000
00000000
00000000
30030000
00000000
00000000
00000000
10000000
00100000
01000000
00010000
,
10000000
00100000
00010000
00001000
00000100
00000001
00000100
00000010
00001000
00000100
00010000
00001000
01000000
00001000
00010000
00000010
,
00001000
00000010
00010000
00001000
00100000
00010000
01000000
00001000
00010000
00000100
00010000
00000000
00011000
00000000
00000000
00000000
,
00010010
00000000
00000010
00001000
00001010
00001000
00000001
00000000
00000100
00001000
00020000
00000000
00130000
01000000
00010000
00000000
,
10000000
00000000
20020000
00000000
00000000
00000000
00000000
00000000
00000000
00000000
30030000
00000000
10000000
01000000
00010000
00001000
,
00000010
00000001
00002000
00000000
00000000
00000000
00000000
00000000
00003000
00000000
00000110
00000000
00022000
00000000
00000000
00000000
,
00000000
00000000
00000000
00000000
00033000
00000000
00000000
00000000
00001000
00000000
00010000
00100000
00000000
01000000
00010000
00000000
,
10000000
01000000
00000000
00100000
00001000
00000000
00010000
00000000
00001000
01000000
00000000
00001000
00010000
00000000
00001000
00000010
,
00000000
00000001
00000010
00000000
00000100
00001000
00000100
00001000
00000100
00000000
00010000
00001000
00000000
00100000
00001000
00000000
,
00010000
00001000
00000000
00010000
00100000
01000000
00100000
10000000
00010000
00000000
10000000
00000000
10010000
00000000
00000000
00000000
,
10000000
00000000
01000000
00000000
00010000
00001000
00010000
00001000
00010000
00000000
00000100
00000000
00000010
00000000
00000001
00000000
,
00001002
00000000
00001003
00000000
00000010
00000000
00000100
00000001
00001000
00000000
00000100
00000000
00010000
00000000
00001000
00000000
,
00100000
00010000
10000000
00010000
01000000
00001000
00020000
00000000
00031000
00010000
00000010
00000000
00001000
00000001
00000010
00000000
,
00000100
00010000
00001000
00000000
00100000
01000000
10000000
00000000
00010000
10000000
01000000
10000000
00010000
00100000
00001000
00010000
,
00000010
00000000
00000000
00000000
00001000
00000000
00000000
00000000
00000001
00000000
00000000
00000000
00000010
00000000
00000000
00000000
00000001
00000000
00000000
00000000
00001000
00000000
00000000
00000000
00000100
00000000
00000000
00000000
00010000
00000000
00000000
00000000
00002000
00000000
00000000
00000000
00000000
00000000
00000000
00000000
00000000
00000000
00000000
00000000
00000000
00000000
00000000
00000000
00003000
00000000
00020000
00000000
00030000
00000000
00020000
00000000
00032000
00000000
00003200
00000000
00000302
00000003
00000020
00000030
,
00000110
00000000
00000100
00000000
00001100
00000000
00000000
00000000
00000001
00000100
00000000
00001000
00010000
00000000
00001000
00000000
,
00010000
00000000
01000000
10000000
00000000
01000000
00100000
00000000
00001000
00000000
00001000
00000000
00010000
00000010
00001000
00000010
,
00010000
00000000
00001000
00000100
00000000
00000010
00001000
00000000
00000001
00000010
00000001
00000000
00001000
00000010
00000100
00000002
,
00000000
00000003
00000101
00000000
00000000
00001100
00000000
00000000
00011000
00000000
00000000
00110000
00000000
00000000
10100000
00000000
,
10000000
00000000
00010000
00100000
00000000
01000000
10000000
00000000
01000000
00100000
00000000
00001000
00010000
00000000
00000100
00001000
,
00000100
00000000
00000010
00000000
00000011
00000000
00000000
00000000
00000001
00000100
00000010
00001000
00000001
00000010
00000100
00010000
,
00002000
00000000
00000000
00000000
00000000
00000000
00000000
00000000
00023000
00000000
00000000
00000000
00000000
00000000
00000000
00000000
00031000
00000000
00010000
00000000
00100000
01000000
00000000
00100000
10000000
00000000
01000000
00010000
00000000
00001000
00010000
00000000
,
00011000
00000000
00010000
00000000
00010100
00000000
00000000
00000000
00011000
00000000
00010010
00000000
00010000
00000010
00001000
00000010
,
00000100
00000000
00000001
00000000
00001001
00000000
00000000
00000000
00000001
00000010
00000100
00001000
00000100
00010000
00001000
00100000
,
00001000
00000000
00100000
00010000
00000000
10000000
00010000
00000000
00100000
01000000
10000000
00000000
01000000
00100000
00010000
20000000
,
00000000
30000000
11000000
00000000
00000000
01010000
00000000
00000000
00011000
00000000
00000000
00001010
00000000
00000000
00000011
00000000
,
00002002
00000000
00000000
00000000
00000000
00000000
00000000
00000000
00000000
00000000
00000000
00000000
00000000
00000000
00000000
00000000
00000000
00000000
00000000
00000000
00000000
00000000
00000000
00000000
00000000
00000000
00000000
00000000
00003003
00000000
00000000
00000000
00001000
00000000
00000000
00000000
00000000
00000000
00000000
00000000
00000010
00000000
00000000
00000000
00000000
00000000
00000000
00000000
00020000
00030000
00002000
00003000
00020000
00030000
00002000
00003000
00020000
00030000
00002000
00003000
00020000
00030000
00002000
00003000
,
00020000
00000000
00000000
00000000
00000000
00000000
00000000
00000000
00002000
00000000
00000000
00000000
00000000
00000000
00033000
01000000
,
01100000
00000000
00100000
10000000
00010000
00000000
10000000
01000000
00100000
00000000
00001000
00010000
00000020
00000000
00010030
00000000
,
00011000
00000000
00010000
00001000
00000010
00000000
00000100
00001000
00000001
00000000
00000100
00001000
00010000
00100000
01000000
00000000
,
01010000
00000000
00010000
10000000
01000000
00000000
00100000
00000000
00101000
00000000
00001000
00000000
00011000
00000000
00000000
00000000
,
00020020
00030030
00000000
00000000
02002000
00000000
00000000
03003000
00020200
00000000
00030300
00000000
00202000
00000000
00303000
00000000
,
00011000
00000000
00001000
00000000
00010000
00000000
00010000
00000000
00000010
00000000
00000010
00000000
00001000
00000100
00000010
00000001
,
00001000
00001000
00000100
00000100
00010000
00010000
00001000
00100000
,
00010000
00100000
01000000
10000000
01000000
00100000
00001000
00010000
00000100
00001000
00000001
00001000
00000010
00000100
00000001
00001000
,
00000200
00000000
00000000
00000000
00000000
00001000
00000000
00000301
00000000
00000000
00000000
00000000
00000000
00000000
00000000
00000000
;
