#TITLE:Hollywood Galaxy;
#ARTIST:dj TAKA;
#GENRE:DRUM'N'BASS;
#BANNER:Hollywood Galaxy.png;
#BACKGROUND:Hollywood Galaxy-bg.png;
#CDTITLE:./CDTitles/REFLEC BEAT.png;
#MUSIC:Hollywood Galaxy.ogg;
#SAMPLESTART:43.87;
#SAMPLELENGTH:15;
#BPMS:0=186;
#STOPS:68=0.968;
#TIMESIGNATURES:0=4=4,68=1=4,69=4=4;
#STAGE:27;

//--------------- dance-single - Fred-104 ----------------
#NOTES:
     dance-single:
     Fred-104:
     Beginner:
     5:
     :
0000
0000
0000
0000
,
0000
0000
0000
0000
,
0000
0000
0000
0000
,
0000
0000
0000
0000
,
0000
0000
0000
0000
,
0000
0000
0000
0000
,
0000
0000
0000
0000
,
0000
0000
0000
0000
,
0000
0000
0000
0000
,
1000
0000
0000
0010
,
0010
0000
0000
0001
,
0001
0000
0000
0100
,
0100
0000
0000
1000
,
1000
0000
1000
0000
,
0010
0000
0100
0000
,
0001
0001
0001
1000
,
0001
1000
0001
2002
,
3003
1000
0010
0000
,
0010
0100
1000
0000
,
0010
1000
0001
0000
,
0010
0001
0001
1000
,
0001
0001
0100
0000
,
0100
0010
0100
0000
,
0010
1000
0010
0000
,
1000
0001
1000
1000
,
0001
1000
0000
0100
,
0000
1000
0010
0010
,
0000
1000
0000
0001
,
0000
0100
0100
0010
,
0000
0100
0000
0001
,
0000
1000
0010
0010
,
0000
0001
0000
0100
,
0000
2002
0000
0000
,
3003
2000
3000
0010
,
0010
2000
3000
0001
,
0001
0020
0030
0001
,
0001
0200
0300
0020
,
0030
1001
0000
0010
,
0000
0001
0000
0100
,
0000
0001
0000
1000
,
0000
0010
0000
1000
,
0000
2002
3003
1000
,
0100
0200
0300
0010
,
0100
0200
0300
0010
,
0001
0002
0003
2000
,
3000
1001
0000
0010
,
0000
0100
0000
1000
,
0000
0010
0000
1000
,
0000
0010
0010
0100
,
0100
0020
0000
0000
,
0030
2000
0000
0000
,
3000
0002
0000
0000
,
0003
0200
0000
0000
,
0300
0002
0000
0000
,
0003
0020
0000
0000
,
0030
0200
0000
0000
,
0300
2000
0000
0000
,
3000
0001
0000
0010
,
0000
0001
0000
1000
,
0000
0010
0000
1000
,
0000
0100
0000
1000
,
0000
1000
0100
1000
,
0000
0001
0100
0001
,
0000
1000
0100
0010
,
0001
2002
0000
0000
,
3003
1000
0000
0010
,
0000
1000
0000
0100
,
0000
1000
1000
0010
,
0000
0100
0000
0001
,
0000
1000
0000
0010
,
0000
0100
0100
0001
,
0000
0100
0010
0100
,
0000
0010
1000
1000
,
0000
1001
0000
0010
,
0000
1001
0000
0010
,
0000
1001
0000
0100
,
0000
1001
0000
0100
,
0000
0110
0000
0010
,
0000
0110
0000
0100
,
0000
2002
0000
0000
,
0000
0000
0000
3003
,
0000
1001
0000
0000
;

//--------------- dance-single - Fred-104 ----------------
#NOTES:
     dance-single:
     Fred-104:
     Easy:
     9:
     :
0000
0000
0000
0000
,
0000
0000
0000
0000
,
0000
0000
0000
0000
,
0000
0000
0000
0000
,
0000
0000
0000
0000
,
0000
0000
0000
0000
,
0000
0000
0000
0000
,
0000
0000
0000
0000
,
0000
0000
0000
0000
,
0001
0100
0010
0000
,
1000
0001
0010
0000
,
0001
1000
0010
0000
,
0100
0010
0010
0100
,
0010
0000
0100
1000
,
0001
0000
1000
0100
,
0010
0000
0100
0010
,
0001
0000
1000
0000
0010
0100
0010
0200
,
0000
0300
0000
0000
0000
0000
0000
0000
0000
0000
0000
0000
0000
0000
0000
0000
1000
0000
0000
0000
0000
0000
0000
0000
0000
0000
0000
0000
0000
0000
0000
0000
0010
0000
0000
0000
0000
0000
0000
0000
0000
0000
0000
0000
0000
0000
0000
0000
0000
0000
0000
0000
0000
0000
0000
0000
0100
0000
0000
0000
0000
0000
0000
0000
,
0001
0000
1000
0000
0100
0000
0000
0010
,
0010
0000
0001
0000
0100
0000
0000
1000
,
1000
0000
0010
0000
1000
0100
0000
1000
,
0001
0000
1000
0000
0010
0000
0000
0100
,
0010
0000
1000
0000
0001
0000
0000
0010
,
0100
0000
0010
0000
0001
0000
0000
0100
,
0010
0000
1000
0000
0001
0010
0000
0100
,
1000
0000
0001
0000
1000
0000
0010
1000
,
0010
0000
1000
0000
0100
0000
0010
0100
,
0010
0000
0001
0000
1000
0000
0001
1000
,
0001
0000
0100
0000
0010
0000
1000
0100
,
1000
0000
0001
0000
0010
0000
0001
0100
,
0001
0000
0010
0000
0100
0000
1000
0010
,
1000
0000
0001
0000
0100
0000
0010
1000
,
0001
2002
0000
0000
,
3003
0000
1000
0001
1000
0000
0010
0000
,
0100
0000
0001
0100
0001
0000
0010
0000
,
0100
0000
1000
0100
1000
0000
0010
0000
,
0100
0000
0001
0010
0100
0000
1000
0010
,
0100
1001
0000
0010
,
0000
0100
0010
0001
,
1000
0000
0010
1000
0010
0000
1000
0000
,
0100
0000
0010
0000
0001
0000
1000
0001
,
1000
0000
0001
0100
0010
0000
1000
0000
,
0001
0000
0010
0100
1000
0000
0001
0000
,
1000
0000
0010
1000
0100
0000
1000
0000
,
0010
0000
0100
0001
0010
0000
0100
1000
,
0010
0110
0000
0100
,
0000
0001
0010
1000
,
0010
0000
0001
0010
0001
0000
1000
0010
,
1000
0000
0001
1000
0001
0000
0100
0010
,
1000
0000
1000
0000
0000
1100
0000
0000
,
0000
0000
0001
0000
0000
0101
0000
0000
,
0000
0001
0000
1000
,
0000
0000
2002
0000
0000
0000
3003
0001
,
1000
0001
0010
0000
0000
0110
0000
0000
,
0000
0000
1000
0000
0000
1010
0000
0000
,
0000
0001
0000
1000
,
0000
2002
0000
0000
,
3003
0000
1000
0000
0000
0100
0000
0000
,
0010
0000
0001
0000
0100
0010
0000
1000
,
0010
0000
0100
0000
0000
0010
0000
0000
,
1000
0000
0001
0000
1000
0010
0000
0100
,
0010
1100
0100
0010
,
0000
0101
0100
0010
,
0000
1000
0001
1000
,
0001
2002
0000
0000
,
3003
0010
1000
0010
,
0010
1000
0100
0100
,
1000
0000
0001
0000
0000
1000
0000
0000
,
0001
0100
0100
0010
,
0100
0001
1000
0100
,
0010
0001
0001
1000
,
0001
0000
1000
0000
0000
0100
0000
0000
,
0001
0100
1000
0010
,
0100
0101
0000
0101
,
0000
1001
0000
1001
,
0000
1100
0000
1100
,
0000
1010
0000
0011
,
0000
1001
0000
0100
,
0000
0010
0000
0001
,
0000
0000
1000
0000
0000
0001
0000
0000
,
0200
0000
0000
0000
0000
0000
0000
0000
0000
0000
0000
0000
0000
0300
0000
0000
,
0000
1001
0000
0000
;

//--------------- dance-single - Fred-104 ----------------
#NOTES:
     dance-single:
     Fred-104:
     Medium:
     13:
     :
0000
0000
0000
0000
,
0000
0000
0000
0000
,
0000
0000
0000
0000
,
0000
0000
0000
0000
,
0000
0000
0000
0000
,
0000
0000
0000
0000
,
0000
0000
0000
0000
,
0000
0000
0000
0000
,
0000
0000
0000
0000
,
0001
0001
0010
1000
,
0001
0010
1000
0001
,
0100
0100
0010
1000
,
0100
0000
0010
0000
1000
0001
1000
0001
,
0100
1000
0001
0100
,
1000
0001
0100
1000
,
0010
0100
0001
0010
,
1000
0000
0010
0000
0001
1000
0100
0020
,
0000
0030
0000
0000
0000
0000
0000
0000
0000
0000
0000
0000
0000
0000
0000
0000
0001
0000
0000
0000
0000
0000
0000
0000
0100
0000
0000
0000
0000
0000
0000
0000
0001
0000
0000
0000
0000
0000
0000
0000
0000
0000
0000
0000
0100
0000
0000
0000
0000
0000
0000
0000
0000
0000
0000
0000
0010
0000
0000
0000
0000
0000
0000
0000
,
1000
0000
0000
0000
0100
0000
1000
0000
0001
0000
0000
1000
0000
0000
0010
0000
,
0100
0000
0000
0000
0010
0000
1000
0000
0010
0000
0000
0100
0000
0000
0001
0000
,
0001
0000
1000
0100
0010
0001
1000
0001
,
1001
0000
0000
0000
0010
0000
0010
0000
1000
0000
0000
0001
0000
0000
0100
0000
,
0010
0000
0000
0000
0100
0000
0100
0000
1000
0000
0000
0001
0000
0000
0010
0000
,
0100
0000
0000
0000
0001
0000
0001
0000
0100
0000
0000
0010
0000
0000
0001
0000
,
1001
0000
0010
1000
0001
0100
0010
1000
,
1001
0000
0001
0010
0001
1000
0001
0010
,
0100
0000
0010
0001
1000
0001
0100
0010
,
1000
0000
0100
1000
0010
1000
0100
0010
,
0001
0000
1000
0100
0010
0001
0100
1000
,
0001
0000
1000
0100
0001
0010
0100
1000
,
0010
0000
1000
0010
0100
0010
1000
0010
,
0001
0000
0010
1000
0001
0010
0100
1000
,
0010
0100
0220
0000
0000
0000
0000
0000
,
0330
0000
0000
0000
1000
0000
0010
1000
0010
0000
0000
0000
1000
0000
0010
0000
,
0100
0000
0010
0000
1000
0000
0001
0010
0001
0000
0000
0000
0100
0000
1000
0000
,
0100
0000
0001
0000
0010
0000
0100
0010
0100
0000
0000
0000
1000
0000
0010
0000
,
0100
0000
0001
0000
1000
0000
0100
1000
0100
0000
0000
0000
0010
0000
0100
0010
,
0100
0001
2000
0000
0010
0000
3002
0000
,
0100
0000
1003
0001
1000
0010
0100
0010
,
1000
0010
0100
0001
1000
0000
0010
1000
,
0001
0000
0010
0100
1000
0001
0100
0100
,
0100
0000
0100
0000
0010
0000
0100
0010
0100
0000
0000
0000
0001
0000
0010
0000
,
0001
0000
1000
0000
0010
0000
1000
0100
1000
0000
0000
0000
0010
0000
1000
0000
,
0100
0000
0010
0000
0001
0000
0100
0001
0100
0000
0000
0000
0001
0000
0010
0000
,
1000
0000
0010
0000
0001
0000
0100
0010
0100
0000
0000
0000
1000
0000
0100
0010
,
0100
0001
2000
0000
0010
0000
3002
0000
,
0100
0000
1003
0001
0010
0001
0100
0010
,
1000
0010
1000
1000
0010
0100
0001
0001
,
0010
0100
1000
0010
0100
0001
1000
0001
,
1001
2200
0000
0000
,
3300
0202
0000
0000
,
0303
0022
0033
2020
,
3030
0000
2002
0000
0000
0000
3003
0001
,
0100
0010
2020
0000
0000
0000
0000
0000
,
3030
0022
0000
0000
,
0033
0202
0303
2200
,
3300
0000
0001
0000
1000
0000
0010
0100
,
0110
0000
0001
0000
0010
0001
0000
1000
,
0010
0000
0100
0000
0010
1000
0000
0001
,
1000
0000
0100
0000
0010
0001
0000
1000
,
0100
0000
0010
0000
0100
1000
0000
0010
,
0100
0000
0001
0010
0001
1000
0001
0100
,
0010
0000
1000
0100
0010
0100
1000
0100
,
1000
0000
0001
1000
0100
0010
0001
1000
,
0100
0010
0002
0000
0000
0000
0000
0000
,
1003
0000
0001
0000
0010
0001
0000
1000
,
0010
0000
0100
0010
1000
0000
0010
0100
,
0001
0000
1000
0010
0100
0001
0000
1000
,
1000
0010
1001
0100
,
1001
0000
0001
0000
0010
0100
0000
1000
,
0010
0000
1000
0100
0010
0000
0001
0100
,
1000
0000
0100
0000
0001
0010
0000
0100
,
1000
0000
0010
1000
0100
0000
0010
0100
,
0010
0000
0100
0000
1001
0000
0000
0010
1000
0000
0000
0000
1001
0000
0000
0000
,
0100
0000
0000
0000
0110
0000
0000
0001
0100
0000
0000
0000
0110
0000
0000
1000
,
0100
0000
0000
0000
1100
0000
0000
0001
0100
0000
0000
0000
1001
0000
0000
0100
,
0001
0000
0000
0000
1001
0000
0000
0001
0010
0000
0000
0000
0001
0000
1000
0000
,
0010
0000
1000
0000
1001
0000
0000
1000
0100
0000
0000
0000
0110
0000
0000
0000
,
0101
0000
0000
0000
0011
0000
0000
1000
0001
0000
0000
0000
1010
0000
0000
0010
,
0100
0000
0001
0001
0000
1000
1000
0000
,
0010
0200
0000
0000
0000
0000
0300
0010
,
1000
0001
0011
0000
0000
0000
0000
0000
;

//--------------- dance-single - Fred-104 ----------------
#NOTES:
     dance-single:
     Fred-104:
     Hard:
     16:
     :
0000
0000
0000
0000
,
0000
0000
0000
0000
,
0000
0000
0000
0000
,
0000
0000
0000
0000
,
0000
0000
0000
0000
,
0000
0000
0000
0000
,
0000
0000
0000
0000
,
0000
0000
0000
0000
,
0000
0000
0000
0000
,
1001
0000
0010
0100
0000
1000
0001
0000
,
1010
0000
0100
0010
0000
0001
1000
0000
,
0101
0000
0010
0001
0000
1000
0001
0000
,
0100
0001
0010
0100
1000
0001
1001
0000
,
1000
0100
0010
0001
0100
0010
0100
0010
,
1000
0010
0100
0001
0100
1000
0001
0010
,
1000
0010
0001
1000
0010
0100
0001
1000
,
0011
0000
0100
0000
1000
0000
0000
0000
1000
0000
0100
0000
0001
0000
1000
0200
,
0000
0300
0000
0000
0000
0000
0000
0000
0000
0000
0000
0000
0000
0000
0000
0000
1000
0000
0000
0000
0000
0000
0000
0000
0010
0000
0000
0000
0000
0000
0000
0000
0100
0000
0000
0000
0000
0000
0000
0000
0020
0000
0000
0000
1000
0000
0000
0000
0000
0000
0000
0000
0000
0000
0000
0000
1030
0000
0000
0000
0000
0000
0000
0000
,
0100
0000
0001
0000
0100
0000
1000
0000
0001
0000
0020
0100
0000
0000
0130
0000
,
0010
0000
0001
0000
0100
0000
0001
0000
0010
0000
0200
0010
0000
0000
0310
0000
,
1000
0000
0010
0000
0100
0000
0010
0000
1000
0000
0001
0010
0000
0100
1000
0000
,
0001
0000
1000
0001
1000
0000
0010
0000
0100
0000
0010
0100
0000
0000
0110
0000
,
0001
0000
1000
0000
0010
0000
0100
0000
0010
0000
1000
0100
0000
0000
0101
0000
,
0001
0000
0100
0000
1000
0000
0010
0000
0100
0000
0001
0010
0000
0000
1010
0000
,
1000
0000
0010
0000
0100
0000
0001
0000
1000
0000
0001
0010
0000
1000
0010
0001
,
1000
0000
0001
0000
0010
0000
0001
0000
1000
0010
0100
0010
0000
0000
1000
0000
,
0100
0000
1000
0000
0001
0000
0010
0000
0100
0010
0001
0010
0000
0000
1000
0000
,
0010
0000
0001
0000
1000
0000
0010
0000
0100
0001
0100
0010
0000
0000
0100
0000
,
0100
0000
0010
0000
1000
0000
0001
0000
1000
0010
0100
0001
0000
0001
1000
0000
,
1001
0000
0000
0000
0001
0000
0100
0000
0010
0100
0010
1000
0000
0000
1001
0000
,
1000
0000
0100
0000
0010
0000
0001
0000
1000
0100
0010
0100
0000
0000
0101
0000
,
0100
0000
0010
0000
0001
0000
1000
0000
0010
0100
0010
1000
0000
0001
1000
0000
,
0010
0000
1000
0000
2002
0000
0000
0000
0000
0000
3003
0000
0001
1000
0001
1000
,
0001
1000
0001
0000
1000
0100
1000
0100
0010
0000
0000
0000
0001
0000
1000
0000
,
0010
0000
0100
0000
0001
0010
0001
0010
0100
0000
0000
0000
1000
0000
0100
0000
,
0001
0000
0100
0000
1000
0010
1000
0010
0100
0000
0000
0000
0001
0000
0010
0000
,
1000
0000
0001
0000
0100
0010
0100
0010
1000
0000
0000
0000
0001
0010
0100
1000
,
0010
0100
0001
1000
0002
0000
0000
0000
0100
0000
0000
0000
2003
0000
0000
0000
,
0010
0010
3001
1000
0010
0100
0010
1000
,
0100
0000
0010
0000
1000
0010
0100
0010
0100
0000
0010
0000
1000
0000
0010
0000
,
0001
0010
1000
0001
0100
0010
0100
0010
,
0110
0000
0110
0000
1000
0100
0010
0001
0020
0000
0000
0000
0130
0000
0010
0000
,
1000
0000
0010
0000
0100
0001
1000
0001
0020
0000
0000
0000
1030
0000
0010
0000
,
0001
0000
1000
0000
0001
0100
0010
1000
0002
0000
0000
0000
0103
0000
1000
0000
,
0010
0000
0100
0000
0001
1000
0100
0010
0002
0000
0000
0000
1003
0010
0100
0010
,
1000
0010
0100
0010
2000
0000
0000
0000
0100
0000
0000
0000
3002
0000
0000
0000
,
0010
0010
1003
0010
0001
0010
1000
0010
,
0100
0000
0001
0000
1000
0010
1000
0010
1000
0010
1000
0000
0001
0010
0001
0010
,
0001
0010
0001
0000
1000
0100
1000
0000
0001
0100
0001
0000
1000
0100
0010
0001
,
0100
0010
1000
0001
1000
0000
0000
0000
0001
0000
0200
0000
0000
0000
0000
0000
,
0000
0000
0301
0000
1000
0020
0000
0000
,
0000
0000
0130
0000
0001
2000
0000
0000
,
0000
0000
3010
0000
0100
0010
0000
1000
,
0010
0001
1001
0000
0001
0200
0000
0000
,
0000
0000
1300
0000
0100
0002
0000
0000
,
0000
0000
0013
0000
1000
0020
0000
0000
,
0000
0000
0031
0000
1000
0000
0010
0200
,
0302
0003
1001
0000
0001
0010
0000
1000
,
0001
0100
1100
0000
0010
0100
0000
0010
,
1000
0100
0101
0000
1000
0010
0000
0001
,
1000
0010
0110
0000
0001
1000
0000
0010
,
0100
0001
1000
1000
0100
0100
0010
0010
,
0001
0001
1000
0010
0100
0001
0010
1000
,
0010
0000
0001
0000
1000
0100
1000
0100
0010
0001
0010
0001
1000
0100
0010
0001
,
0100
0010
1000
0001
0200
0000
0000
0000
0000
0000
0000
0000
0000
0000
0000
0000
,
0310
0000
1001
0000
0010
0100
1000
0100
,
0001
0000
0100
0000
1000
0010
1000
0010
1000
0010
0100
0000
0001
0010
0001
0010
,
0001
0010
0100
0000
0010
0001
1000
0010
0100
0000
0001
1000
0100
0010
0001
0000
,
1000
0010
0100
0010
1000
0000
0010
0000
0100
0000
0010
0000
1000
0000
0001
0000
,
0201
0000
1000
0000
0301
0010
1000
0010
,
0100
0000
0001
0000
0010
0001
0010
0001
0010
0100
1000
0000
0010
0100
0010
0100
,
0001
1000
0001
0000
1000
0010
0100
0010
1000
0000
0001
0010
0100
1000
0010
0000
,
0100
0001
0010
0001
1000
0000
0000
0000
0001
0000
0000
0000
1001
0000
1001
0000
,
1001
0000
1001
0000
1010
0000
0000
0010
0100
0000
0000
0100
0001
0000
0000
0001
,
0010
0000
0000
0000
0101
0000
0000
0010
1000
0000
0000
0000
1100
0000
0000
0010
,
0001
0000
0000
0000
1001
0000
0000
0010
0100
0000
0000
0000
1001
0000
0000
0100
,
0010
0000
0000
0000
0011
0000
0000
0100
1000
0000
0000
0000
1010
0000
0010
0000
,
0100
0000
0001
0000
0011
0000
0001
1000
0001
0000
0000
0000
1100
0000
0100
0000
,
0010
0000
0001
0000
0101
0000
0010
1000
0001
0000
0000
0000
1100
0000
0010
0001
,
1000
0000
1010
1010
0000
0101
0101
0000
,
1001
0000
2002
0000
0000
0000
0000
0000
0000
0000
0000
0000
3003
1000
0001
1000
,
0010
0100
0001
1000
0100
0000
0000
0000
0000
0000
0000
0000
0000
0000
0000
0000
;

//--------------- dance-single - Fred-104 ----------------
#NOTES:
     dance-single:
     Fred-104:
     Challenge:
     18:
     :
0000
0000
0000
0000
,
0000
0000
0000
0000
,
0000
0000
0000
0000
,
0000
0000
0000
0000
,
0000
0000
0000
0000
,
0000
0000
0000
0000
,
0000
0000
0000
0000
,
0000
0000
0000
0000
,
0000
0000
0000
0000
,
1001
0000
0001
0010
0000
0100
0001
0000
,
1001
0000
1000
0010
0000
0100
1000
0000
,
1001
0010
0100
0100
0100
0010
0001
0000
,
1001
0010
0100
0100
0100
0010
1000
0001
,
1000
0100
0001
0000
0100
1000
0010
0000
1000
0010
0100
0000
0001
0010
0100
0000
,
0001
0010
1000
0000
0010
0001
0100
0000
0010
1000
0100
0000
0010
0001
1000
0000
,
0010
0100
1000
0000
0010
0100
0001
0000
1000
0100
0010
0000
1000
0010
0100
0000
,
0001
0000
0010
0000
1001
0000
0000
0000
1000
0000
0100
0000
0001
0000
0010
0200
,
0000
0300
0000
0000
0000
0000
0000
0000
0000
0000
0000
0000
0000
0000
0000
0000
1001
0000
0000
0000
0000
0000
0000
0000
0100
0000
0000
0000
0000
0000
0000
0000
0010
0000
0000
0000
0000
0000
0000
0000
0001
0000
0000
0000
0100
0000
0000
0000
0010
0000
0000
0000
0100
0000
0000
0000
0001
0000
0000
0000
0000
0000
0000
0000
,
1000
0000
0001
0000
0100
0000
0010
0000
1000
0000
0001
0010
0100
0010
0001
0000
,
0100
0000
0010
0000
1000
0000
0100
0000
0001
0000
0100
1000
0010
0100
0001
0000
,
1000
0000
0010
0000
0001
0000
0010
0000
1000
0000
0010
0100
0010
1000
0001
0100
,
0001
0000
1000
0100
0001
0000
1000
0000
0001
0000
0010
0100
1000
0001
1000
0000
,
0001
0000
0010
0000
0100
0000
0010
0000
0001
0000
1000
0100
0001
1000
0010
0000
,
0100
0000
0010
0000
1000
0000
0100
0000
0010
0000
0100
0001
0100
0010
1000
0000
,
0100
0000
1000
0000
1100
0000
0100
0000
0010
1000
0001
0000
0100
0010
0001
0010
,
0100
0001
1000
0001
0100
0000
0010
0000
0001
0100
0001
0000
1000
0010
0100
0010
,
1000
0000
0010
0000
0100
0000
0010
0000
1000
0100
0010
0000
1000
0010
0100
1000
,
0001
0000
0100
0000
0010
0000
0100
0000
0001
0010
0100
0000
0001
0100
0010
0001
,
0100
0000
0010
0000
0100
0000
0010
0001
1000
0000
0010
1000
0100
0010
0001
0010
,
0002
0000
0000
0000
1003
0000
0010
0000
1000
0100
0010
0000
0001
1000
0010
0100
,
0001
0000
0100
0000
0010
0000
0100
0000
0010
0001
0010
0000
0001
0010
1000
0010
,
0100
0000
0010
0000
1000
0000
0001
0000
0100
0010
1000
0000
0001
0010
0100
1000
,
0010
0100
0001
0000
2002
0000
0000
0000
0000
0000
3003
0000
1000
0100
0010
0001
,
0010
0100
1000
0001
1000
0100
0001
0100
1000
0000
0000
0000
0011
0000
0010
0000
,
1000
0000
0001
0000
1000
0010
0001
0010
1000
0000
0000
0000
1001
0000
0100
0000
,
1000
0000
0010
0000
0100
0001
1000
0001
0010
0000
0000
0000
0101
0000
0100
0000
,
0010
0000
1000
0000
0001
0010
0100
0010
0001
0000
0000
0000
1000
0100
0010
0100
,
0001
0100
0010
0001
1000
0010
0100
0000
0001
0010
1000
0000
0010
0001
0100
0000
,
0001
0010
1000
0000
0010
0001
0100
0001
1000
0001
0100
0001
0010
0000
0001
0000
,
1000
0000
0100
0000
0010
0100
1000
0100
0010
0100
1000
0001
0010
0100
0001
0100
,
0010
0100
0001
1000
0100
0010
0100
1000
0010
0100
0010
1000
0001
0010
0100
1000
,
0010
0100
0001
1000
0001
0010
1000
0010
0100
0000
0000
0000
0011
0000
0100
0000
,
1000
0000
0010
0000
0100
0001
0100
1000
0010
0000
0000
0000
0110
0000
1000
0000
,
0001
0000
0100
0000
0010
1000
0010
0100
0010
0000
0000
0000
1100
0000
0001
0000
,
0100
0000
0010
0000
1000
0100
0010
0100
1000
0000
0000
0000
0001
0010
0100
1000
,
0010
0100
0001
1000
0001
0000
0010
0000
0100
0000
0010
0000
0100
0000
1000
0000
,
0010
0000
0100
0000
0001
0010
1000
0000
0001
0100
1000
0000
0001
0010
0100
0000
,
1000
0010
0100
0000
0001
0010
0100
1000
0100
0010
0100
1000
0010
0100
0010
1000
,
0001
1000
0010
1000
0100
0010
0001
0100
0001
1000
0001
0100
0001
0010
0100
1000
,
0001
0100
0010
1000
0002
0000
0000
0000
0000
0000
0000
0000
0000
0000
0000
0000
,
0000
0203
0000
0000
,
0000
2300
0000
3020
,
0000
0000
0032
0000
0000
0000
0000
0013
,
1000
0100
0001
0000
0100
0220
0000
0000
,
0330
0000
1000
0000
0100
0220
0000
0000
,
0330
0000
0001
0000
0010
2020
0000
0000
,
3030
0000
0000
0000
0000
0000
0000
0000
0000
0000
0000
0000
0000
0000
0000
0000
1000
0000
0000
0000
0000
0000
0000
0000
0000
0000
0000
0000
0000
0000
0000
0000
0100
0000
0000
0000
0000
0000
0000
0000
0000
0000
0000
0000
0000
0000
0000
0000
0001
0000
0000
0000
0000
0000
0000
0000
0020
0030
0000
0000
0000
0000
0000
0000
,
0220
0330
0000
0000
0000
0000
0000
0000
0000
0000
0000
0000
0000
0000
0000
0000
1100
0000
0000
0000
0000
0000
0000
0000
0000
0000
0000
0000
0000
0000
0000
0000
0100
0000
0000
0000
0000
0000
0000
0000
1001
0000
0000
0000
0000
0000
0000
0000
0000
0000
0000
0000
0000
0000
0000
0000
0010
0000
0000
0000
0000
0000
0000
0000
,
0100
0000
1001
0000
1000
0011
0000
0100
,
0010
1000
1010
0000
0010
0101
0000
0010
,
0011
0000
1001
0100
1000
0100
0001
0100
,
0110
0000
0000
0000
0001
0010
0100
0010
0001
0010
0100
1000
0010
1000
0001
1000
,
0010
1000
0100
0010
0001
0010
0001
0100
0001
1000
0001
0100
0001
0010
0001
1000
,
0010
0100
0001
1000
0001
0010
1000
0010
0001
1000
0010
0100
0001
1000
0100
0001
,
0100
1000
0010
0100
0002
0000
0000
0000
0000
0000
0000
0000
0000
0000
0000
0000
,
1003
0000
0011
0010
0100
1000
0010
0100
,
0010
0000
1000
0000
0100
1000
0100
1000
0100
0010
0100
0010
0001
0100
0001
0100
,
0010
1000
0001
1000
0100
0010
0001
1000
0001
0000
0100
0010
1000
0001
0010
0000
,
0100
1000
0010
0100
0001
0100
0001
0000
0001
0010
0001
0000
0001
1000
0001
0000
,
0001
0100
0001
0000
1100
0000
0100
0000
0010
0000
0001
0000
0010
0000
1000
0000
,
0001
0000
0100
0000
0010
1000
0010
0100
0010
0001
0010
0100
0010
1000
0001
0010
,
0100
0001
0100
1000
0001
0010
0100
1000
0010
0000
0100
0010
1000
0010
0100
0000
,
0010
1000
0001
0100
0010
0000
0100
0000
1000
0000
0000
0000
0011
0000
1001
0000
,
1100
0000
1001
0000
1010
0000
1000
0100
0010
0000
0000
0000
0001
0000
0100
0000
,
0010
0000
1000
0000
0011
0000
0001
0100
0010
0000
0000
0000
1010
0000
1000
0100
,
0010
0000
0000
0000
0101
0000
0001
0010
0100
0000
0000
0000
1100
0000
1000
0010
,
0100
0000
0000
0000
1001
0000
0001
0100
0010
0000
0000
0000
1000
0100
0010
0001
,
0100
0010
1000
0010
1000
0000
1000
0100
0001
0000
0000
0000
0001
0000
0100
0000
,
0010
0000
1000
0000
0001
0000
0001
0010
1000
0000
0001
0000
1000
0000
1000
0010
,
0001
1000
0011
1001
0000
1010
1001
0000
,
0101
0000
0220
0000
0000
0000
0000
0000
0000
0000
0000
0000
0330
1000
0100
0001
,
0100
1000
0010
1000
1001
0000
0000
0000
0000
0000
0000
0000
0000
0000
0000
0000
;

//--------------- dance-double - Fred-104 ----------------
#NOTES:
     dance-double:
     Fred-104:
     Easy:
     9:
     :
00000000
00000000
00000000
00000000
,
00000000
00000000
00000000
00000000
,
00000000
00000000
00000000
00000000
,
00000000
00000000
00000000
00000000
,
00000000
00000000
00000000
00000000
,
00000000
00000000
00000000
00000000
,
00000000
00000000
00000000
00000000
,
00000000
00000000
00000000
00000000
,
00000000
00000000
00000000
00000000
,
00000000
00000010
00000000
00000100
,
00000000
00001000
00010000
00001000
,
00000000
00100000
00000000
01000000
,
00000000
10000000
00010000
00100000
,
00000000
00001000
00000000
00010000
,
00000000
00000100
00000010
00000001
,
00000000
00000100
00000000
00000001
,
00000000
00000100
00000000
00002000
,
00000000
00003000
00000000
00000000
00000000
00000000
00000000
00000000
00000000
00000000
00000000
00000000
00000000
00000000
00000000
00000000
00000010
00000000
00000000
00000000
00000000
00000000
00000000
00000000
00000000
00000000
00000000
00000000
00000000
00000000
00000000
00000000
00010000
00000000
00000000
00000000
00000000
00000000
00000000
00000000
00000000
00000000
00000000
00000000
00000000
00000000
00000000
00000000
00001000
00000000
00000000
00000000
00000000
00000000
00000000
00000000
00000000
00000000
00000000
00000000
00000000
00000000
00000000
00000000
,
00000000
00001000
01000000
00010000
,
00000000
00010000
00100000
10000000
,
00000000
00000000
10000000
00000000
00100000
00000000
00010000
00001000
,
00010000
00000100
00010000
00001000
,
00000000
00001000
00000100
00000010
,
00000000
00000010
00000001
00001000
,
00000000
00000000
00000100
00000000
00000010
00000000
00000001
00001000
,
00000001
00000200
00000010
00001300
,
00000100
00002000
00000010
00010000
,
00003010
00020000
00001000
00100000
,
00031000
00000000
00100000
00000000
00010000
00000000
10000000
00100000
,
01000000
00000000
00100000
00000000
10000000
00000000
01000000
00100000
,
01000000
00000000
00010000
00000000
00001000
00000000
00010000
00000010
,
00010000
00000000
00001000
00000000
00000100
00000000
00000001
00000010
,
00000100
00002002
00000000
00000000
,
00003003
00000000
00000002
00000000
00000013
00000000
00000100
00000010
,
00000100
00000000
00000020
00000000
00010030
00000000
00001000
00010000
,
00001000
00000000
00200000
00000000
01300000
00000000
00100000
00010000
,
00100000
00000000
00010000
10000000
00010000
00000000
01000000
00100000
,
01000000
00010000
01000000
01000000
,
00100000
00010000
00001000
00020000
,
00000000
00030100
00001000
00000020
,
00000000
00000000
00000130
00000000
00000010
00000000
00000100
00000010
,
00000100
00000000
00000001
00000010
00000200
00000000
00000310
00000000
,
00001000
00000000
00000100
00010000
00002000
00000000
00013000
00000000
,
00001000
00000000
00100000
00010000
20000000
00000000
31000000
00000000
,
00100000
00000000
01000000
10000000
00010000
00000000
01000000
00100000
,
10000000
00010000
00000000
00110000
,
00000000
00100000
00100000
00010000
,
00001000
00000010
00000010
00000001
,
00001000
00000000
00000010
00000000
00000010
00000000
00000100
00000010
,
00000100
00000002
00000000
00000000
,
00000003
00000020
00000000
00000000
,
00000030
00020000
00030000
00002000
,
00003000
00020000
00030000
20000000
,
30000000
00200000
00000000
00000000
,
00300000
02000000
00000000
00000000
,
03000000
00020000
00030000
00002000
,
00003000
00000100
00000010
00000001
,
00001001
00000100
00000100
00000010
,
00001000
00000000
00010000
00000000
00010000
00000000
00001000
00010000
,
00001000
00010000
00100000
00100000
,
10000000
00000000
00100000
00000000
00001000
00000000
00010000
00001000
,
00010000
00001000
00000100
00000100
,
00000001
00000010
00000010
00001000
,
00010000
00000000
00010000
00000000
01000000
00000000
10000000
00010000
,
10000000
20020000
00000000
00000000
,
30030000
01000000
00100000
00100000
,
00001000
00000000
00010000
00000000
00001000
00000000
00000100
00000010
,
00000100
00000000
00000001
00000000
00000000
00001000
00000000
00000000
,
00000001
00000000
00000100
00000000
00000010
00000000
00001000
00000010
,
00001000
00000010
00010000
00001000
,
00001000
00000000
00010000
00000000
00100000
00000000
01000000
00100000
,
01000000
00000000
00010000
00000000
00000000
10000000
00000000
00000000
,
00010000
01000000
00100000
00001000
,
00010000
00011000
00001000
00000000
,
00000100
00000110
00000010
00000001
,
00000001
00000101
00000100
00000010
,
00001000
00001010
00000010
00000000
,
00010000
00011000
00001000
00000000
,
00100000
00110000
00010000
10000000
,
01000000
00000000
00100000
00100000
00000000
00001000
00001000
00000000
,
00010000
00000000
00020000
00000000
00000000
00000000
00000000
00000000
00000000
00000000
00000000
00000000
00000000
00030000
00000000
00000000
,
00000000
10010000
00000000
00000000
;

//--------------- dance-double - Fred-104 ----------------
#NOTES:
     dance-double:
     Fred-104:
     Medium:
     13:
     :
00000000
00000000
00000000
00000000
,
00000000
00000000
00000000
00000000
,
00000000
00000000
00000000
00000000
,
00000000
00000000
00000000
00000000
,
00000000
00000000
00000000
00000000
,
00000000
00000000
00000000
00000000
,
00000000
00000000
00000000
00000000
,
00000000
00000000
00000000
00000000
,
00000000
00000000
00000000
00000000
,
00001000
01000000
00001000
00010000
,
00000010
00010000
00001000
00000100
,
00000010
00000100
00001000
00010000
,
01000000
00000000
00100000
00000000
00010000
10000000
00010000
10000000
,
01000000
10000000
01000000
00010000
,
00001000
00100000
00001000
00010000
,
00001000
00100000
00010000
00100000
,
00001000
00000000
00001000
00000000
00000100
00000010
00000100
00000020
,
00000000
00000030
00000000
00000000
00000000
00000000
00000000
00000000
00000000
00000000
00000000
00000000
00000000
00000000
00000000
00000000
00010000
00000000
00000000
00000000
00000000
00000000
00000000
00000000
00001000
00000000
00000000
00000000
00000000
00000000
00000000
00000000
00100000
00000000
00000000
00000000
00000000
00000000
00000000
00000000
00010000
00000000
00000000
00000000
00000000
00000000
00000000
00000000
00100000
00000000
00000000
00000000
00000000
00000000
00000000
00000000
10000000
00000000
00000000
00000000
00000000
00000000
00000000
00000000
,
00100000
00000000
00001000
00010000
00000100
00001000
00000100
00000001
,
00000100
00000000
00010000
00001000
00010000
00100000
10000000
00010000
,
00100000
00000000
00000000
00000000
00001000
00000000
00010000
00000000
00000100
00000000
00001000
00000001
00000000
00000010
00000001
00000000
,
00000100
00000000
00000001
00000010
00001000
00010000
00001000
00000010
,
00000100
00000000
00010000
00001000
00000010
00001000
00010000
01000000
,
00100000
00000000
00001000
00010000
00100000
10000000
00100000
00001000
,
00010000
00000000
00000000
00000000
00001000
00000000
00010000
00000000
00000100
00000000
00001000
00000010
00001000
00000010
00000100
00000000
,
00000002
00000000
00000203
00000000
00000010
00000000
00001300
00000100
,
00010000
00000000
00002000
00000000
00010000
00000000
01003000
00100000
,
01000000
00000000
00020000
00000000
00100000
00000000
10030000
00010000
,
01000000
00000000
00100000
00000000
10000000
01000000
00100000
01000000
,
00010000
00000000
00100000
00001000
00010000
00001000
00100000
00010000
,
00001000
00000100
00010000
00001000
00000100
00000010
00001000
00010000
,
00100000
01000000
00010000
00100000
00001000
00010000
00100000
10000000
,
00010000
20020000
00000000
00000000
,
30030000
00000000
00000000
00000000
01000000
00000000
00100000
01000000
00100000
00000000
00000000
00000000
00010000
00000000
00001000
00000000
,
00000100
00000000
00000010
00000000
00001000
00000000
00000001
00001000
00000001
00000000
00000000
00000000
00000100
00000000
00000010
00000000
,
00001000
00000000
00000100
00000000
00010000
00000000
00001000
00010000
00001000
00000000
00000000
00000000
00010000
00000000
00100000
00000000
,
10000000
00000000
00100000
00000000
00010000
00000000
00001000
00010000
00001000
00000000
00000000
00000000
00000100
00000000
00000010
00000100
,
00000010
00000001
00002000
00000000
00000010
00000000
00003100
00000000
,
00000001
00000010
00001000
00000010
00000100
00000010
00001000
00000100
,
00010000
00001000
00010000
00100000
01000000
00010000
00100000
01000000
,
10000000
00010000
01000000
00100000
10000000
01000000
00100000
01000000
,
00100000
00000000
01000000
00000000
00100000
00000000
00010000
00000000
00110000
00000000
00000000
00000000
00001000
00010000
00001000
00000000
,
00000100
00000000
00000010
00000000
00000100
00000000
00000001
00000000
00000101
00000000
00000000
00000000
00000100
00000010
00000100
00000000
,
00000010
00000000
00001000
00000000
00010000
00000000
00001000
00000000
00011000
00000000
00000000
00000000
00001000
00100000
00001000
00000000
,
00100000
00000000
00010000
00000000
10000000
00000000
00010000
01000000
00010000
00000000
00000000
00000000
10000000
00100000
10000000
00000000
,
00010000
00100000
00010000
00000000
02000000
00000000
00000000
00000000
03100000
00000000
00010000
00000000
00001000
00000000
00000000
00000000
,
00000010
00001000
00010000
00001000
00010000
00100000
00010000
00001000
,
00010000
00001000
00000100
00001000
00010000
00001000
00010000
01000000
,
00100000
10000000
01000000
00010000
00001000
00000100
00000001
00001000
,
00000010
00002002
00000000
00000000
,
00003003
00022000
00000000
00000000
,
00033000
20020000
30030000
00022000
,
00033000
00000000
00002002
00000000
00000000
00000000
00003003
00000100
,
00000010
00000100
00020000
00000000
00000000
00000000
00000000
00000000
,
00000000
00032000
00000000
00000000
,
00000000
00203000
00000000
00320000
,
00000000
00000000
00031000
00000000
00010000
00000000
01000000
00100000
,
01100000
00000000
10000000
00000000
00100000
01000000
00000000
00100000
,
10000000
00000000
01000000
00000000
00100000
01000000
00000000
00010000
,
00001000
00000000
00010000
00000000
00000010
00001000
00000000
00000001
,
00000100
00000000
00000010
00000000
00001000
00000100
00000000
00000001
,
00000100
00000000
00000001
00000010
00000001
00001000
00000100
00000010
,
00000100
00000000
00010000
00001000
00000100
00001000
00010000
01000000
,
00010000
00000000
00001000
00010000
00100000
10000000
00010000
01000000
,
00100000
10000000
20020000
00000000
00000000
00000000
00000000
00000000
,
30030000
00000000
01100000
00000000
00100000
00010000
00000000
00100000
,
00010000
00100000
10000000
00000000
00100000
10000000
00100000
00010000
,
00001000
00000000
00010000
00001000
00000100
00001000
00000100
00000001
,
00000100
00000000
00000001
00000000
00001000
00000000
00000010
00000100
,
00010000
00000000
00011000
00000000
00010000
00001000
00000000
00000100
,
00001000
00010000
00001000
00000000
00010000
01000000
00010000
01000000
,
10000000
00000000
00010000
10000000
00010000
10000000
00100000
00010000
,
00001000
00010000
00001000
00000000
00000010
00000000
00000100
00000100
,
00000010
00000000
00000000
00000000
00001000
00000000
00000000
00001000
00000100
00000000
00000000
00000000
00000010
00000000
00000000
00000000
,
00000001
00000000
00000000
00000000
00000100
00000000
00000000
00000100
00010000
00000000
00000000
00000000
00001000
00000000
00000000
00001000
,
01000000
00000000
00000000
00000000
00010000
00000000
00000000
00010000
00100000
00000000
00000000
00000000
01000000
00000000
00000000
01000000
,
00100000
00000000
00000000
00000000
00010000
00000000
00000000
00010000
10000000
00000000
00000000
00000000
01000000
00000000
00100000
00000000
,
00010000
00000000
00001000
00000000
00100000
00000000
00000000
00100000
00001000
00000000
00000000
00000000
00010000
00000000
00000000
00010000
,
00000010
00000000
00000000
00000000
00001000
00000000
00000000
00001000
00000001
00000000
00000000
00000000
00000010
00000000
00000000
00000010
,
00000100
00000000
00001000
00001000
00000000
00010000
00010000
00000000
,
00001000
00000000
00022000
00000000
00000000
00000000
00000000
00000000
00000000
00000000
00000000
00000000
00000000
00033000
00000000
00000000
,
00000000
00011000
00000000
00000000
;

//--------------- dance-double - Fred-104 ----------------
#NOTES:
     dance-double:
     Fred-104:
     Hard:
     17:
     :
00000000
00000000
00000000
00000000
,
00000000
00000000
00000000
00000000
,
00000000
00000000
00000000
00000000
,
00000000
00000000
00000000
00000000
,
00000000
00000000
00000000
00000000
,
00000000
00000000
00000000
00000000
,
00000000
00000000
00000000
00000000
,
00000000
00000000
00000000
00000000
,
00000000
00000000
00000000
00000000
,
00000100
00000000
00001000
00010000
00000000
00100000
01000000
00000000
,
00010000
00000000
10000000
01000000
00000000
00100000
00010000
00000000
,
10000000
00000000
01000000
00010000
00000000
00001000
00000100
00000000
,
00000001
00000100
00000100
00000000
00000010
00001000
00010000
01000000
,
00100000
10000000
01000000
00010000
00000000
00000100
00000001
00001000
,
00000001
00000010
00010000
00100000
00000000
00010000
10000000
01000000
,
00001000
00000100
00000001
00000100
00000000
00000001
00000100
00000010
,
00001000
00000000
00000100
00000000
00000011
00000000
00000000
00000000
00000101
00000000
00000010
00000000
00000100
00000000
00001000
00000020
,
00000000
00000030
00000000
00000000
00000000
00000000
00000000
00000000
00000000
00000000
00000000
00000000
00000000
00000000
00000000
00000000
01100000
00000000
00000000
00000000
00000000
00000000
00000000
00000000
00010000
00000000
00000000
00000000
00000000
00000000
00000000
00000000
01000000
00000000
00000000
00000000
00000000
00000000
00000000
00000000
00100000
00000000
00000000
00000000
10000000
00000000
00000000
00000000
00100000
00000000
00000000
00000000
00000000
00000000
00000000
00000000
10000000
00000000
00000000
00000000
00000000
00000000
00000000
00000000
,
01000000
00000000
00000000
00000000
11000000
00000000
01000000
00000000
00010000
00000000
10000000
00010000
10000000
00000000
00100000
00000000
,
00010000
00000000
00000000
00000000
00010010
00000000
00001000
00000000
00000010
00000000
00000100
00000001
00000100
00000000
00000010
00000000
,
00000001
00000000
00000000
00000000
00000101
00000000
00000100
00000000
00001000
00000000
00010000
00001000
00010000
00001000
00010000
00000000
,
01000000
00000000
00000000
00000000
01100000
00000000
00100000
00000000
10000000
00000000
01000000
00100000
00010000
00000000
01000000
00000000
,
00001000
00000000
00000000
00000000
00010100
00000000
00010000
00000000
00000100
00000000
00001000
00000010
00000001
00000000
00000010
00000000
,
00001000
00000000
00000000
00000000
00000101
00000000
00000001
00000000
00000100
00000000
00001000
00010000
01000000
00000000
00100000
00000000
,
01000000
00000000
00000000
00000000
10010000
00000000
01000000
00000000
00100000
00000000
00010000
01000000
00100000
10000000
01000000
00100000
,
00001000
00000000
00010000
00000000
00011000
00000000
00010000
00000000
00001000
00000100
00000010
00000000
00000001
00000000
00001000
00000000
,
00000010
00000100
00000001
00000000
00000100
00000000
00001000
00000000
00000100
00000001
00000010
00000000
00000100
00001000
00010000
00000000
,
00002000
00000000
00000000
00000000
01003000
00000000
00100000
00000000
00010000
01000000
10000000
00000000
01000000
00000000
00010000
00000000
,
10000000
01000000
00100000
00000000
00001000
00010000
00000100
00000000
00001000
00000001
00000100
00000000
00000010
00000000
00000010
00000000
,
00000210
00000000
00000000
00000000
00010300
00000000
00001000
00000000
00100000
01000000
00100000
00000000
00001000
00000000
00010000
00000000
,
00000010
00000100
00000010
00000000
00001000
00000000
00000100
00000000
00010000
00001000
00010000
00000000
00001000
00100000
00010000
00000000
,
02010000
00000000
00000000
00000000
03100000
00000000
10000000
00000000
01000000
00100000
00010000
00001000
00000000
00001000
00010000
00000000
,
00001000
00000000
00000000
00000000
00000220
00000000
00000000
00000000
00000000
00000330
00000000
00000000
00000010
00000100
00000010
00000100
,
00000010
00001000
00000000
00000000
00000001
00000100
00000001
00000100
00000010
00000000
00000000
00000000
00001000
00000000
00010000
00000000
,
00100000
00000000
10000000
00000000
01000000
00100000
01000000
00100000
01000000
00000000
00000000
00000000
10000000
00000000
01000000
00000000
,
00010000
00000000
00001000
00000000
00000100
00000001
00000100
00000001
00000010
00000000
00000000
00000000
00000001
00000000
00000010
00000000
,
00001000
00000000
00010000
00000000
00100000
10000000
00100000
10000000
00010000
00000000
00000000
00000000
10000000
01000000
00100000
00001000
,
00010000
00001000
00100000
00001000
00020000
00000000
00000000
00000000
01000000
00000000
00000000
00000000
00032000
00000000
00000000
00000000
,
00000100
00000100
00003001
00000010
00001000
00010000
10000000
00010000
,
00001000
00000000
00010000
00000000
00100000
01000000
00100000
01000000
00100000
00000000
00010000
00000000
10000000
00000000
00100000
00000000
,
00001000
00010000
00001000
00000010
00000001
00001000
00000100
00000110
,
00000010
00000000
00000110
00000000
00000001
00000100
00000010
00001000
00000200
00000000
00000000
00000000
00010300
00000000
01000000
00000000
,
10000000
00000000
00010000
00000000
01000000
00100000
10000000
01000000
00200000
00000000
00000000
00000000
01300000
00000000
00010000
00000000
,
10000000
00000000
01000000
00000000
00010000
00001000
00100000
00001000
00020000
00000000
00000000
00000000
00031000
00000000
00000100
00000000
,
00000001
00000000
00000010
00000000
00000100
00001000
00000001
00000100
00000020
00000000
00000000
00000000
00001030
00000100
00010000
00001000
,
01000000
00010000
00100000
00010000
20000000
00000000
00000000
00000000
01000000
00000000
00000000
00000000
30020000
00000000
00000000
00000000
,
00001000
00001000
00030100
00000001
00000100
00000001
00000010
00001000
,
00010000
00000000
00001000
00000000
00010000
00100000
01000000
10000000
00100000
00000000
01000000
00000000
00010000
00001000
00100000
00001000
,
00010000
00000000
00001000
00000000
00000100
00000010
00000100
00000000
00000001
00000100
00000001
00000000
00000100
00000010
00000100
00000010
,
00001000
00000100
00010000
00001000
01000000
00000000
00000000
00000000
00100000
00000000
20000000
00000000
00000000
00000000
00000000
00000000
,
30000000
00000000
01000000
00000000
00010000
00002000
00000000
00000000
,
00003000
00000000
00000100
00000000
00000001
00000020
00000000
00000000
,
00000030
00000000
00000001
00000000
00000100
00000100
00000000
00001000
,
00001000
00001000
00011000
00000000
00100000
02000000
00000000
00000000
,
03000000
00000000
00011000
00000000
00000010
00000200
00000000
00000000
,
00000300
00000000
00011000
00000000
00000010
00000002
00000000
00000000
,
00000003
00000000
00000010
00000000
00001000
00000000
00010000
00200000
,
02300000
03000000
10010000
01000000
00100000
00001000
00000000
00000000
,
00010000
00000000
00011000
00001000
00000010
00000001
00000000
00000000
,
00000100
00000000
00001001
00000010
00001000
00010000
00000000
00000000
,
01000000
00000000
01100000
00100000
10000000
00010000
00000000
00000000
,
01000000
00000000
10000000
00010000
10000000
00010000
00001000
00010000
,
00001000
00000100
00000001
00000100
00000001
00000010
00001000
00010000
,
00001000
00000000
00010000
00000000
01000000
00100000
10000000
01000000
00100000
00001000
00010000
00001000
00010000
00000010
00001000
00000010
,
00000100
00000010
00001000
00000001
00000200
00000000
00000000
00000000
00000000
00000000
00000000
00000000
00000000
00000000
00000000
00000000
,
00000310
00000000
00000110
00000100
00000001
00000010
00001000
00010000
,
00100000
00000000
10000000
00000000
00010000
01000000
00010000
01000000
00010000
01000000
00010000
01000000
00100000
10000000
00100000
10000000
,
00010000
00000000
10000000
00000000
01000000
00100000
01000000
00100000
01000000
00000000
00001000
00010000
00001000
00010000
00001000
00000000
,
00000100
00000010
00000100
00000010
00000100
00000001
00000100
00000000
00000001
00000010
00000001
00000000
00001000
00000000
00000100
00000000
,
00000010
00000000
00011000
00010000
01000000
00100000
10000000
01000000
,
00010000
00000000
00001000
00000000
00010000
00000100
00010000
00000100
00001000
00000010
00001000
00000010
00000100
00000001
00000100
00000001
,
00001000
00000000
00000010
00000000
00000100
00000010
00000100
00000010
00000100
00000000
00010000
00001000
00010000
00001000
00010000
00000000
,
01000000
00100000
01000000
00100000
01000000
00000000
00000000
00000000
00010000
00000000
00000000
00000000
10000000
00000000
00010000
00000000
,
10010000
00000000
00000000
00000000
01100000
00000000
00000000
10000000
00100000
00000000
00000000
00010000
00001000
00000000
00000000
00000010
,
00000001
00000000
00000000
00000000
00000101
00000000
00000000
00000001
00000010
00000000
00000000
00000000
00011000
00000000
00000000
00001000
,
00100000
00000000
00000000
00000000
01010000
00000000
00000000
00100000
10000000
00000000
00000000
00000000
11000000
00000000
00000000
00100000
,
00010000
00000000
00000000
00000000
01001000
00000000
00000000
00001000
00010000
00000000
00000000
00000000
00010010
00000000
00000010
00000000
,
00000100
00000000
00000010
00000000
00001100
00000000
00000100
00000010
00000100
00000000
00000000
00000000
00000001
00000000
00000010
00000000
,
00001000
00000000
00010000
00000000
00011000
00000000
00001000
00100000
00001000
00000000
00000000
00000000
00011000
00000000
00010000
00000010
,
00010000
00000000
01001000
00011000
00000000
00101000
01100000
00000000
,
11000000
00000000
02200000
00000000
00000000
00000000
00000000
00000000
00000000
00000000
00000000
00000000
03300000
10000000
01000000
00100000
,
00001000
00010000
00000100
00000010
00000001
00000000
00000000
00000000
00000000
00000000
00000000
00000000
00000000
00000000
00000000
00000000
;

//--------------- dance-double - Fred-104 ----------------
#NOTES:
     dance-double:
     Fred-104:
     Challenge:
     18:
     :
00000000
00000000
00000000
00000000
,
00000000
00000000
00000000
00000000
,
00000000
00000000
00000000
00000000
,
00000000
00000000
00000000
00000000
,
00000000
00000000
00000000
00000000
,
00000000
00000000
00000000
00000000
,
00000000
00000000
00000000
00000000
,
00000000
00000000
00000000
00000000
,
00000000
00000000
00000000
00000000
,
00011000
00000000
01000000
10000000
01000000
00010000
00100000
00001000
,
00010000
00000000
00010100
00010100
00000000
00011000
00010100
00000000
,
00011000
00000000
00100000
00100000
00001000
00000010
00000001
00000000
,
00000010
00000100
00000100
00000000
00000010
00001000
00010000
00100000
,
01000000
00100000
10000000
00000000
01000000
00100000
00010000
00000000
00001000
00010000
00001000
00000000
00000010
00000100
00000001
00000000
,
00001000
00000001
00000010
00000000
00000001
00001000
00000010
00000000
00010000
00001000
00010000
00000000
00100000
00010000
10000000
00000000
,
00010000
10000000
01000000
00000000
00100000
00001000
00010000
00000000
00001000
00010000
00001000
00000000
00000100
00000010
00000100
00000000
,
00001000
00000000
00000001
00000000
00000010
00000000
00001000
00000000
00010000
00000000
01000000
00000000
10000000
00000000
00100000
02000000
,
00000000
03000000
00000000
00000000
00000000
00000000
00000000
00000000
00000000
00000000
00000000
00000000
00000000
00000000
00000000
00000000
00100000
00000000
00000000
00000000
00000000
00000000
00000000
00000000
10000000
00000000
00000000
00000000
00000000
00000000
00000000
00000000
01000000
00000000
00000000
00000000
00100000
00000000
00000000
00000000
01000000
00000000
00000000
00000000
00100000
00000000
00000000
00000000
00010000
00000000
00000000
00000000
00000000
00000000
00000000
00000000
00001000
00000000
00000000
00000000
00010000
00000000
00000000
00000000
,
00001000
00000000
00010000
00000100
00001000
00000000
00000010
00000000
00001000
00000010
00000100
00000010
00001000
00000000
00000001
00000010
,
00000100
00000000
00000010
00000100
00001000
00000000
00000100
00000000
00010000
00001000
00010000
00000100
00010000
00000000
00001000
00100000
,
00010000
00000000
10000000
00100000
01000000
00000000
00010000
00000000
10000000
01000000
00010000
01000000
00000000
00100000
01000000
00000000
,
10000000
00000000
00010000
01000000
00010000
00000000
00001000
00000000
00100000
00001000
00000000
00010000
00001000
00000000
00100000
00001000
,
00010000
00000000
00000100
00001000
00000010
00000000
00001000
00000000
00000100
00000010
00000001
00000000
00000100
00000010
00001000
00000010
,
00000100
00000000
00000001
00000100
00001000
00000000
00000100
00000000
00000001
00000010
00000001
00000000
00000100
00000000
00000010
00001000
,
00000010
00000000
00010000
00001000
00010000
00000000
00001000
00000000
00100000
00010000
10000000
00000000
00100000
10000000
01000000
00100000
,
00001000
00000000
00010000
00000000
00021000
00000000
00000000
00000000
00031000
00000000
00100000
00010000
10000000
00100000
01000000
00100000
,
10000000
00000000
01000000
00000000
02100000
00000000
00000000
00000000
03010000
00000000
00100000
00001000
00010000
00001000
00100000
00001000
,
00010000
00000000
00001000
00000000
00001200
00000000
00000000
00000000
00000310
00000000
00000001
00000100
00000010
00000100
00000001
00000100
,
00000010
00000000
00001000
00000000
00011000
00000000
00010000
00000000
00001000
00000000
00100000
00001000
00010000
00001000
00010000
00000000
,
02000000
00000000
00000000
00000000
03100000
00000000
10000000
00000000
01000000
00100000
01000000
00000000
00010000
00100000
00001000
00000000
,
00010000
00001000
00000100
00000000
00000001
00000000
00000100
00000000
00000010
00000001
00001000
00000000
00000010
00000100
00010000
00000000
,
00001000
00010000
00001000
00000000
00100000
00000000
00010000
00000000
10000000
00100000
00010000
00100000
00000000
01000000
00100000
00000000
,
10000000
00000000
00000000
00000000
20020000
00000000
00000000
00000000
00000000
00000000
30030000
00000000
10000000
01000000
00100000
00001000
,
00010000
00000100
00000010
00000001
00001000
00000010
00000100
00000001
00001000
00000000
00000000
00000000
00000110
00000000
00000100
00000000
,
00001000
00000000
00010000
00000000
00001000
00010000
01000000
10000000
01000000
00000000
00000000
00000000
01100000
00000000
00100000
00000000
,
00010000
00000000
00001000
00000000
00000010
00000001
00000010
00000100
00000001
00000000
00000000
00000000
00000110
00000000
00000100
00000000
,
00000001
00000000
00001000
00000000
00000010
00010000
00001000
00100000
00010000
00000000
00000000
00000000
10000000
01000000
00100000
01000000
,
00100000
00001000
00010000
00001000
00100000
00000000
00001000
00010000
00001000
00000000
00000100
00000000
00000010
00000000
00000100
00000001
,
00000100
00000000
00000010
00000001
00001000
00000000
00000010
00000100
00000010
00000000
00000001
00000000
00001000
00000000
00000100
00010000
,
00000100
00000000
00010000
00000000
00001000
00100000
00010000
00000000
10000000
00100000
01000000
00000000
00010000
10000000
01000000
00000000
,
00100000
00001000
00010000
00000000
00000100
00001000
00000100
00000010
00000001
00000100
00000010
00001000
00000100
00010000
00001000
00010000
,
00100000
01000000
10000000
00010000
01000000
00100000
10000000
00100000
01000000
00000000
00000000
00000000
00010000
00000000
10000000
00000000
,
01000000
00000000
00010000
00000000
00001000
00000100
00000010
00000100
00000001
00000000
00000000
00000000
00000100
00000000
00000100
00000000
,
00000001
00000000
00000010
00000000
00000001
00000010
00000100
00010000
00001000
00000000
00000000
00000000
00010000
00000000
00001000
00000000
,
00100000
00000000
00010000
00000000
00100000
00010000
00100000
01000000
10000000
00000000
00000000
00000000
00010000
10000000
01000000
00100000
,
00010000
01000000
00100000
00010000
00001000
00000000
00010000
00000000
00001000
00000000
00000010
00000000
00001000
00000000
00010000
00000000
,
00100000
00000000
00010000
01000000
00100000
00000000
10000000
00100000
01000000
00000000
00010000
00100000
00001000
00000000
00010000
00000100
,
00001000
00000000
00000010
00000000
00001000
00000100
00000010
00000001
00000010
00000001
00000100
00000010
00001000
00000100
00010000
00001000
,
00010000
00100000
00001000
00010000
00001000
00100000
00010000
01000000
00100000
10000000
00100000
00010000
00001000
00010000
00001000
00000010
,
00000001
00001000
00000001
00000100
00000010
00000000
00000000
00000000
00001000
00000000
00200000
00000000
00000000
00000000
00000000
00000000
,
00300000
00000000
01000000
00000000
00010000
00000200
00000000
00000000
,
00000300
00000000
00000010
00000000
00010000
00200000
00000000
00000000
,
00300000
00000000
01000000
00000000
00001000
00000100
00000000
00000110
,
00000010
00000001
00000101
00000000
00000100
00002020
00000000
00000000
,
00003030
00000000
00000100
00000000
00010000
00022000
00000000
00000000
,
00033000
00000000
00011000
00000000
00010000
01000000
01200000
00000000
,
10000000
00000000
20300000
00000000
30200000
00000000
00310000
00001000
,
00011000
00000000
00010100
00000000
00001000
00001100
00000000
00000100
,
00000010
00000001
00000101
00000000
00000100
00000110
00000000
00000100
,
00001000
00000010
00010010
00000000
00010000
00101000
00000000
00010000
,
00100000
01000000
11000000
00000000
00100000
01100000
00000000
00100000
,
00010000
00000000
10000000
00000000
01000000
10000000
01000000
00100000
00010000
01000000
00001000
00010000
00000100
00001000
00000100
00000010
,
00000001
00001000
00000010
00000100
00000001
00000010
00000100
00001000
00000100
00010000
00001000
00100000
00010000
00100000
01000000
10000000
,
00010000
01000000
00100000
10000000
01000000
00100000
01000000
00010000
00100000
00001000
00010000
00000010
00001000
00000010
00000100
00000001
,
00000010
00001000
00010000
01000000
20000000
00000000
00000000
00000000
00000000
00000000
00000000
00000000
00000000
00000000
00000000
00000000
,
30010000
00000000
01010000
01000000
00100000
10000000
00100000
00001000
,
00010000
00000000
00001000
00000000
00000010
00001000
00000010
00001000
00000001
00000100
00000001
00000100
00000010
00000100
00000010
00000100
,
00001000
00000000
00010000
00000000
00100000
01000000
10000000
01000000
00100000
00000000
00001000
00010000
00100000
00010000
00001000
00000000
,
00010000
00000010
00001000
00000000
00000010
00000100
00000010
00000000
00000010
00001000
00000010
00000000
00001000
00000001
00001000
00000000
,
00000001
00000100
00000001
00000000
00000011
00000000
00000010
00000000
00000100
00000000
00010000
00000000
00001000
00000000
00100000
00000000
,
01000000
00000000
00100000
00000000
00010000
00100000
01000000
10000000
00100000
01000000
00001000
00010000
00000010
00001000
00000100
00000010
,
00000001
00001000
00000010
00000100
00000001
00000010
00000100
00001000
00000100
00000000
00010000
00001000
00010000
00100000
01000000
00000000
,
00010000
00100000
01000000
10000000
01000000
00000000
10000000
00000000
00100000
00000000
00000000
00000000
01010000
00000000
01001000
00000000
,
00011000
00000000
00010100
00000000
00001100
00000000
00000010
00000100
00000010
00000000
00000000
00000000
00000001
00000000
00000010
00000000
,
00001000
00000000
00010000
00000000
00011000
00000000
00001000
00000010
00010000
00000000
00000000
00000000
00011000
00000000
00010000
00001000
,
00100000
00000000
00000000
00000000
00011000
00000000
00001000
00010000
00000100
00000000
00000000
00000000
00011000
00000000
00010000
00001000
,
01000000
00000000
00000000
00000000
10010000
00000000
00100000
01000000
00100000
00000000
00000000
00000000
01000000
00100000
00010000
00001000
,
00100000
00010000
01000000
00100000
10000000
00000000
00100000
01000000
00010000
00000000
00000000
00000000
00100000
00000000
00010000
00000000
,
00000010
00000000
00000001
00000000
00000100
00000000
00000010
00001000
00000100
00000000
00010000
00000000
00001000
00000000
00010000
01000000
,
00010000
00001000
00011000
00010010
00000000
00011000
01001000
00000000
,
00011000
00000000
00022000
00000000
00000000
00000000
00000000
00000000
00000000
00000000
00000000
00000000
00033000
10000000
01000000
00100000
,
00010000
00001000
00000100
00000010
00001001
00000000
00000000
00000000
00000000
00000000
00000000
00000000
00000000
00000000
00000000
00000000
;
