#VERSION:0.83;
#TITLE:Hollywood Galaxy(DJ NAGAI Remix);
#ARTIST:Remixed by DJ NAGAI;
#GENRE:GALACTIC J-CORE;
#BANNER:Hollywood Galaxy(DJ NAGAI Remix).png;
#BACKGROUND:Hollywood Galaxy(DJ NAGAI Remix)-bg.png;
#CDTITLE:./CDTitles/bm IIDX 22 PENDUAL.png;
#MUSIC:Hollywood Galaxy(DJ NAGAI Remix).ogg;
#SAMPLESTART:83.381;
#SAMPLELENGTH:15;
#BPMS:0=186;
#BGSTAGE:29;

//--------------- dance-single - Fred-104 ----------------
#NOTEDATA:;
#STEPSTYPE:dance-single;
#DESCRIPTION:Fred-104;
#DIFFICULTY:Beginner;
#METER:3;
#CREDIT:Fred-104;
#NOTES:
0000
0000
0000
0000
,
0000
0000
0000
0000
,
0000
0000
0000
0000
,
0000
0000
0000
0000
,
0000
0000
0000
0000
,
1000
0000
0000
0000
,
0000
0000
0000
0000
,
0001
0000
0000
0000
,
0000
0000
0000
0000
,
1000
0000
0000
0000
,
0001
0000
0000
0000
,
1000
0000
0000
0000
,
0010
0000
0000
0000
,
0100
0000
0000
0000
,
0001
0000
0000
0000
,
1000
0000
0000
0000
,
0100
0000
0000
0000
,
1001
0000
0000
0000
,
0000
0000
0000
0000
,
0001
0000
0000
0000
,
0000
0000
0000
0000
,
1000
0000
0000
0000
,
0100
0000
0000
0000
,
0010
0000
0010
0000
,
1001
0000
0000
0000
,
0001
0000
0000
0000
,
0010
0000
0000
0000
,
1000
0000
0000
0000
,
0100
0000
0001
0000
,
1000
0000
0000
0000
,
1000
0000
0100
0000
,
0100
0000
0000
0000
,
0110
0000
0000
0000
,
0001
0000
0000
0000
,
0100
0000
0000
0000
,
1000
0000
0000
0000
,
0010
0000
0001
0000
,
1000
0000
0000
0000
,
0001
0000
0100
0000
,
0001
0000
0000
0000
,
1000
0000
0100
0000
,
2000
0000
0000
3000
,
0002
0000
0000
0003
,
2000
3000
0002
0003
,
2000
0000
0000
3000
,
0002
0000
0000
0003
,
0020
0000
0000
0030
,
0200
0300
0020
0030
,
0200
0300
2000
3000
,
0002
0000
0000
0003
,
2000
0000
0000
3000
,
0002
0003
0200
0300
,
0002
0000
0000
0003
,
2000
0000
0000
3000
,
0200
0000
0000
0300
,
0020
0030
0002
0003
,
2000
3000
0002
0003
,
1001
0000
0000
0000
,
0001
0000
0000
0000
,
1000
0000
0000
0000
,
0001
0000
0000
0000
,
0100
0000
0100
0000
,
0010
0000
0010
0000
,
1001
0000
0000
0000
,
1001
0000
0000
0000
,
0001
0000
0010
0000
,
1000
0000
1000
0000
,
0010
0000
0001
0000
,
0001
0000
0000
0000
,
1000
0000
0010
0000
,
0001
0000
0001
0000
,
0010
0000
1000
0000
,
1000
0000
0000
0000
,
0001
0000
0100
0000
,
0100
0000
1000
0000
,
0100
0000
0001
0000
,
0001
0000
0000
0000
,
1000
0000
0100
0000
,
0100
0000
0001
0000
,
0100
0000
1000
0000
,
1001
0000
0000
0000
,
1000
0000
0000
0000
,
0010
0000
0000
0000
,
0001
0000
0000
0000
,
0100
0000
1000
0000
,
1001
0000
0000
0000
,
0110
0000
0000
0000
,
1001
0000
0110
0000
,
2002
0000
0000
0000
0000
0000
0000
3003
;

//--------------- dance-single - Fred-104 ----------------
#NOTEDATA:;
#STEPSTYPE:dance-single;
#DESCRIPTION:Fred-104;
#DIFFICULTY:Easy;
#METER:9;
#CREDIT:Fred-104;
#NOTES:
0000
0000
0000
0000
,
0000
0000
0000
0000
,
0000
0000
0000
0000
,
0000
0000
0000
0000
,
0000
0000
0000
0000
,
0001
0000
0000
0010
0000
0000
0010
0000
,
0100
0000
0000
0100
0000
0000
1000
0000
,
0001
0000
0000
0100
0000
0000
0010
0000
,
0220
0000
0030
0300
,
0001
0010
0001
0010
,
0100
1000
0100
1000
,
0010
0100
0010
1000
,
0100
0000
0010
0000
0001
1000
0001
0000
,
1000
0010
1000
0100
,
1000
0001
0100
0001
,
0100
0010
0100
0001
,
0010
0100
0010
0000
0100
0010
0100
0000
,
1001
0000
0000
0001
0000
0000
1000
0000
,
0100
0000
0000
0010
0000
0000
0001
0000
,
1000
0000
0000
0010
0000
0000
0100
0000
,
0002
0003
2000
3000
,
0100
0000
0100
0010
0000
0010
0001
0000
,
0100
0000
0100
0010
0000
0010
1000
0000
,
0001
0000
0001
0010
0000
0010
0100
0000
,
2002
0000
0000
3003
,
0001
0100
0001
0000
,
1000
0010
1000
0000
,
0001
0010
0001
0000
,
1000
0100
1000
0000
,
0100
0010
0001
0000
,
0100
0010
1000
0000
,
0001
0010
0100
1000
,
0000
0001
0000
0000
0001
0000
0000
0001
,
1000
0100
1000
0000
,
0001
0100
0001
0000
,
1000
0010
1000
0000
,
0001
0010
0001
0000
,
0010
0100
1000
0000
,
0010
0100
0001
0000
,
0100
0100
0010
0010
,
1000
0100
0010
0001
,
2001
0000
0000
0000
,
3002
0000
0000
0000
,
0203
0000
0302
0000
,
0203
0000
0000
0300
,
0020
0000
0000
0000
,
2030
0000
0000
0000
,
3002
0000
0023
0000
,
0032
0023
0230
2300
,
3002
0000
0000
0000
,
2003
0000
0000
0000
,
3020
0000
0230
0000
,
0302
0000
0000
0003
,
2000
0000
0000
0000
,
3200
0000
0000
0000
,
0320
0000
0230
0000
,
2300
3002
0203
0310
,
0110
0000
0001
1000
,
0001
0100
0001
0100
,
1000
0000
0000
0010
0000
0000
0001
0000
,
2002
0000
3003
0000
,
0110
0000
1000
0100
,
1000
0100
0001
0010
,
1000
0000
0000
0001
0000
0000
1000
0000
,
2002
0000
3003
0000
,
1001
0000
1000
0010
,
1000
0100
1000
0000
0001
0100
0001
0000
,
0010
0000
0000
0100
0000
0000
0100
0000
,
1000
0001
0100
0010
,
0110
0000
1000
0100
,
1000
0001
1000
0000
0001
0100
0001
0000
,
1001
0000
0000
0110
0000
0000
1001
0000
,
0001
0001
0000
0100
0100
0000
0110
0000
,
1001
0000
0001
1000
,
0010
1000
0010
0000
0100
0001
0100
0000
,
0001
0000
0000
0010
0000
0000
0100
0000
,
1000
0001
1000
0010
,
0110
0000
0001
1000
,
0001
0100
0001
0000
1000
0100
1000
0000
,
1100
0000
0000
0011
0000
0000
1010
0000
,
2002
0000
0000
3003
,
1000
0100
0001
0001
,
0001
0100
1000
1000
,
1000
0010
0001
0001
,
0001
0010
1000
1000
,
1001
0001
0100
0001
,
1001
1000
0100
1000
,
0001
0001
0000
0000
1000
1000
0000
0000
,
0010
0100
0010
0000
0100
0000
0001
1000
;

//--------------- dance-single - Fred-104 ----------------
#NOTEDATA:;
#STEPSTYPE:dance-single;
#DESCRIPTION:Fred-104;
#DIFFICULTY:Medium;
#METER:12;
#CREDIT:Fred-104;
#NOTES:
0000
0000
0000
0000
,
0000
0000
0000
0000
,
0000
0000
0000
0000
,
0000
0000
0000
0000
,
0000
0000
0000
0000
,
0001
0000
0010
0001
0000
1000
0100
0000
,
1000
0000
0010
1000
0000
0001
0100
0000
,
0010
0000
1000
0001
0000
0010
0100
0000
,
2000
0000
0000
0000
0000
0000
3001
1000
0001
0000
0000
0000
1001
0000
0000
0000
,
0001
0000
0000
0001
0000
0000
0001
0000
0000
0000
0010
0000
0001
0000
0000
0000
,
1000
0000
0000
1000
0000
0000
1000
0000
0000
0000
0010
0000
1000
0000
0000
0000
,
0100
0000
0000
0100
0000
0000
0100
0000
0000
0000
1000
0000
0001
0000
0000
0000
,
0010
0000
0000
0010
0000
0000
0010
0000
0000
0000
0100
0000
1000
0000
0000
0000
,
0001
0000
0000
0001
0000
0000
0001
0000
0000
0000
0100
0000
0010
0000
0100
0000
,
0010
0000
0000
0010
0000
0000
0010
0000
0000
0000
1000
0000
0100
0000
1000
0000
,
0001
0000
0000
0001
0000
0000
0001
0000
0000
0000
0100
0000
0010
0000
1000
0000
,
0001
0010
0001
0010
0001
0010
0001
0000
,
1001
0000
0001
0010
0000
0100
1000
0000
,
0001
0000
1000
0010
0000
0100
0001
0000
,
1000
0000
0100
0010
0000
0001
1000
0000
,
0001
0100
1000
0000
0001
0010
1000
0000
,
0001
0010
0001
0010
0000
0100
1000
0000
,
0010
1000
0010
1000
0000
0001
0100
0000
,
0001
0010
0100
1000
0000
0100
1000
0000
,
2002
0000
0000
3003
,
0001
0010
0001
0000
1000
0100
1000
0000
,
0001
0100
0001
0000
1000
0010
1000
0000
,
0001
1000
0001
0000
0100
0010
0100
0000
,
0001
1000
0100
0010
0001
1000
0001
0000
,
1000
0100
0010
0000
0001
1000
0010
0000
,
0100
0100
0001
0001
1000
1000
0010
0010
,
1000
0001
0010
0000
0100
1000
0001
1000
,
0000
0000
0100
0000
0000
0110
0000
0000
0010
0000
0000
0011
0000
0000
0001
0000
,
1000
0010
1000
0000
0001
0010
0001
0000
,
1000
0100
1000
0000
0001
0100
0001
0000
,
0010
0100
1000
0000
0001
0100
0010
0000
,
1000
0100
0010
0000
0001
1000
0010
0000
,
0110
0000
0100
0000
0001
0000
1000
0100
,
0010
0100
0010
0100
1000
0100
0010
0000
,
0001
1000
0010
0000
1000
0001
0010
0000
,
0100
1000
0001
0000
0100
0001
1000
0000
,
1002
0000
0000
0000
,
2003
0000
0000
0000
,
3020
0000
0230
0000
,
0302
0000
0000
0000
0003
1000
0001
1000
,
0200
0000
0000
0000
,
0320
0000
0000
0000
,
0032
0000
2003
0000
,
3002
0203
0320
2030
,
3002
0000
0000
0000
,
0023
0000
0000
0000
,
0230
0000
2300
0000
,
3020
0000
0000
0000
0000
0130
0001
0100
,
0020
0000
0000
0000
,
2030
0000
0000
0000
,
3200
0000
0320
0000
,
0032
2003
3002
0103
,
0110
0000
0000
0000
0000
0010
1000
0010
,
1000
0100
0010
0001
,
1000
0000
0000
0001
0000
0000
0100
0000
,
0220
0000
0330
0000
,
1001
0000
0000
0000
0000
0001
1000
0001
,
0100
0000
0010
0000
0100
0001
0010
0000
,
0011
0000
0000
1010
0000
0000
0101
0000
,
2002
0000
3003
0000
,
1001
0000
1000
0000
0001
1000
0010
1000
,
0100
0010
0001
0000
1000
0010
0100
0000
,
0010
0000
1000
0100
0000
0010
0001
0000
,
1000
0001
0100
0000
0010
1000
0001
0000
,
0101
0000
0100
0000
0010
1000
0100
0010
,
0100
1000
0001
0000
0100
0010
0100
0000
,
0001
0001
0100
1000
1000
0100
0001
1000
,
0001
0001
0000
0100
0010
0000
0110
0000
,
1001
0000
1000
0000
0100
0010
0001
1000
,
0010
0100
0001
0000
0010
0100
1000
0000
,
0001
0000
0100
0001
0000
1000
0100
0000
,
0010
0100
1000
0000
0010
0100
0001
0000
,
0011
0000
0010
0000
0100
0010
0001
1000
,
0010
1000
0100
0000
0010
0001
1000
0000
,
1001
0000
0001
0100
0000
1000
0100
0000
,
0220
0000
0000
0330
,
1000
0100
1000
0000
0001
0100
0001
0000
,
1000
0010
1000
0000
0001
0010
0001
0000
,
0010
0100
1000
0000
0010
0100
0001
0000
,
1000
0100
1000
0000
0001
0100
0010
1000
,
0001
0001
0010
0100
1000
0001
1000
0000
,
0001
0001
0100
0010
1000
0001
1000
0000
,
0100
0100
0010
0001
0100
0100
0010
1000
,
0001
0010
0100
1000
0001
0100
0001
1001
;

//--------------- dance-single - Fred-104 ----------------
#NOTEDATA:;
#STEPSTYPE:dance-single;
#DESCRIPTION:Fred-104;
#DIFFICULTY:Hard;
#METER:16;
#CREDIT:Fred-104;
#NOTES:
0000
0000
0000
0000
,
0000
0000
0000
0000
,
0000
0000
0000
0000
,
0000
0000
0000
0000
,
0000
0000
0000
0000
,
1000
0010
1000
0010
0000
0100
0001
1000
,
0100
0010
0100
0010
0000
0001
1000
0010
,
0100
0001
1000
0100
0000
0001
0100
1000
,
0002
0000
0000
0000
0000
0000
1003
0001
1000
0000
0000
0000
1001
0000
0000
0000
,
1000
0000
0001
0100
0000
0001
0100
0000
0000
0000
0010
0000
1000
0000
0100
0000
,
0010
0000
0001
1000
0000
0001
1000
0000
0000
0000
0010
0000
0100
0000
0001
0000
,
1000
0000
0100
0010
0000
0100
0010
0000
0000
0000
0001
0000
1000
0000
0010
0000
,
0100
0000
0001
0010
0000
0001
0010
0000
0100
0000
1000
0001
1000
0000
0010
0000
,
0100
0000
0001
1000
0000
0100
1000
0000
0000
0000
0100
0000
0010
0000
0001
0000
,
1000
0000
0010
0100
0000
0001
0100
0000
0000
0000
0010
0000
1000
0000
0001
0000
,
0010
0000
0100
1000
0000
0001
1000
0000
0000
0000
0010
0000
1000
0000
0001
0000
,
0020
0000
0230
0000
0302
0000
2003
0000
3020
0000
0032
0003
1001
0000
0000
0000
,
1001
0000
0001
0010
0000
0100
1000
0001
,
1000
0000
0010
0100
0000
0010
1000
0010
,
0100
0000
0001
1000
0000
0100
0010
0001
,
0100
1000
0001
0000
0010
1000
0001
0000
,
1000
0100
0010
1000
0000
0001
0100
0010
,
0001
0100
0010
0001
0000
1000
0100
0010
,
1000
0100
0001
1000
0001
0100
1000
0001
,
2002
0000
0000
3003
,
0001
0100
0001
0100
0001
0000
1000
0000
0100
0000
0010
0000
0001
0000
0000
0000
,
1000
0010
1000
0010
1000
0000
0001
0000
0010
0000
0001
0000
1000
0000
0000
0000
,
0001
0010
0001
0010
0001
0000
1000
0000
0010
0000
0100
0000
0001
0000
0000
0000
,
1000
0100
1000
0100
1000
0000
0001
0000
0100
0000
0010
1000
0010
0000
0100
0001
,
1000
0001
1000
0001
1000
0000
0100
0000
0010
0000
0100
0000
1000
0000
0001
0000
,
0100
0010
0100
0000
0010
1000
0010
0000
0100
0001
0100
0000
0001
0010
0001
0000
,
1000
0010
1000
0010
1000
0000
0001
0000
0010
0000
0100
0000
0010
0001
0010
0001
,
0000
0000
0011
0000
0000
1010
0000
0000
0101
0000
0000
1100
0000
0000
0110
0000
,
0001
1000
0001
1000
0001
0000
0100
0000
0010
0000
1000
0000
0100
0000
0000
0000
,
0010
0001
0010
0001
0010
0000
0100
0000
1000
0000
0010
0000
0100
0000
0000
0000
,
0001
0100
0001
0100
0001
0000
0010
0000
0100
0000
1000
0000
0001
0000
0000
0000
,
1000
0100
1000
0100
1000
0000
0001
0000
0100
0000
0010
1000
0010
0000
0100
0001
,
1000
0001
1000
0001
0010
0000
0100
0000
1000
0000
0001
0000
0100
0000
0001
1000
,
0100
0000
0010
0001
1000
0000
0010
0100
0001
0000
1000
0001
1000
0000
0001
0000
,
1000
0010
1000
0010
0100
0000
1000
0000
0100
0000
0001
0000
0100
0010
1000
0001
,
0010
0000
0100
0000
0001
0000
0100
0000
0010
0000
1000
0000
0010
0001
1000
0000
,
1002
0000
0000
0000
,
2003
0000
0000
0000
0000
0000
0000
3000
,
0020
0000
0230
0000
,
0302
0000
0000
0000
0000
2003
3200
0320
,
0032
0000
0000
0000
,
2003
0000
0000
0000
,
3020
0000
0230
0000
,
0302
0000
1003
0000
0200
0000
0310
0001
0020
0030
0001
0000
1001
0000
0000
0000
,
0210
1000
0001
1300
,
0020
0001
0100
1030
,
0002
0010
2003
0100
,
3002
0000
0000
0000
0010
0000
0000
0000
0013
0100
0010
0100
1000
0000
0001
0000
,
0200
0010
1000
0301
,
2000
0010
0001
3100
,
2000
0100
0002
3003
0002
0100
2000
3003
,
2000
0000
3020
0000
0230
0000
0302
0003
,
1001
1000
0100
0100
,
0010
0010
0001
0001
,
2000
0000
3010
0002
0000
0013
2000
0000
,
3002
0010
0010
0013
,
1001
0000
1000
0000
0001
0100
0001
0000
,
0100
0000
0010
0000
1000
0000
0100
0000
0010
0000
0001
0000
1000
0000
0001
0100
,
0001
0000
0000
1100
0000
0000
0011
0000
,
2002
0000
0000
0000
3003
1000
0010
0100
,
0102
0000
0000
0000
1003
0000
0001
0000
0100
0000
0010
1000
0010
0000
0100
0000
,
0001
0010
0100
0001
1000
0010
0100
1000
,
0001
0100
1000
0001
1000
0100
0010
1000
,
0001
1000
0010
0001
1000
0100
0010
1000
,
1002
0000
0000
0000
0103
0000
0001
0000
0010
0000
0100
0010
0100
0000
1000
0000
,
0001
0100
1000
0001
0010
0100
0001
1000
,
1100
0000
0010
0000
0001
0000
0101
0000
0010
0000
1000
0000
1001
0000
0001
0010
,
0100
0000
0110
0000
0000
0000
0100
0000
1000
0001
1000
0000
0001
0000
1000
0000
,
1200
0000
0000
0000
0310
0000
0001
0000
1000
0000
0001
0100
0001
0000
1000
0000
,
0100
0010
0100
0000
0001
0000
0100
0000
0010
0100
0010
0000
1000
0000
0010
0000
,
0001
1000
0010
0000
0100
0000
0001
0010
0100
0000
0010
0000
0001
0100
0010
0000
,
1000
0100
0001
1000
0010
0100
1000
0001
,
0201
0000
0000
0000
0310
0000
1000
0000
0100
0000
0010
0100
1000
0000
0001
0000
,
0100
0010
0100
0000
1000
0000
0100
0000
0010
0100
0010
0000
0001
0000
0010
0000
,
1000
0001
0010
0000
0100
0000
0010
0001
0100
0000
0010
0000
1000
0100
0010
0000
,
0022
0000
0000
0033
,
1000
0100
1000
0100
0010
0000
0001
0000
0100
0000
0001
0000
1000
0000
0000
0000
,
0001
0100
0001
0100
0010
0000
1000
0000
0100
0000
0010
0000
0100
0000
0000
0000
,
1000
0001
1000
0001
0010
0000
0001
0000
0100
0000
0010
0000
1000
0000
0000
0000
,
0001
0100
0001
0100
0001
0000
1000
0000
0001
0000
0010
0100
1000
0000
0010
0100
,
0001
0000
1001
0000
1000
0100
1000
0000
0001
0010
0001
0000
0100
0000
0010
0000
,
1000
0000
1100
0000
0001
0100
0001
0000
1000
0010
1000
0000
0001
0000
0010
0000
,
0100
0000
1100
0000
1000
0001
0100
0001
1000
0000
1010
0000
1000
0001
0010
0100
,
1000
0000
0001
0000
0100
0000
0010
0000
1000
0000
0100
0000
0010
0001
0010
0000
;

//--------------- dance-single - Fred-104† ----------------
#NOTEDATA:;
#STEPSTYPE:dance-single;
#DESCRIPTION:Fred-104†;
#DIFFICULTY:Challenge;
#METER:18;
#CREDIT:Fred-104†;
#NOTES:
0000
0000
0000
0000
,
0000
0000
0000
0000
,
0000
0000
0000
0000
,
0000
0000
0000
0000
,
0000
0000
0000
0000
,
1000
0100
0010
0001
1000
0010
0100
0001
,
1000
0001
0010
0100
1000
0001
0100
0010
,
1000
0100
0010
0001
0010
0100
1000
0001
1000
0010
0100
0001
0100
0010
1000
0001
,
0020
0000
0000
0000
0000
0000
0130
1000
0010
0000
0000
0000
1001
0000
0000
0000
,
0011
0000
0010
0100
0000
0100
1000
0000
0001
0000
0100
1000
0100
0000
0001
0000
,
1000
0000
0010
0100
0000
0100
0001
0000
1000
0000
0100
0001
0100
0000
1000
0000
,
0001
0000
0100
0001
0000
0001
1000
0000
0001
0000
0010
1000
0010
0000
0001
0000
,
1000
0000
0001
0100
0000
0100
0010
0000
0100
0000
0001
0010
0100
0000
1000
0000
,
0001
0000
0100
0010
0000
1000
0001
0000
1000
0100
0010
0001
1000
0000
0001
0000
,
0100
0000
0001
1000
0000
0001
0010
0000
0100
0010
0001
1000
0010
0000
0100
0000
,
0010
0000
1000
0001
0000
1000
0100
0000
0010
0100
1000
0001
0100
0000
0010
0000
,
1000
0100
1000
0100
0010
0001
0010
0001
1000
0001
1000
0001
1000
0000
0000
0000
,
1001
0000
0000
0000
1000
0000
0010
0000
0001
0000
1000
0000
0100
0000
0001
1000
,
0001
0000
0000
0000
0001
0000
0010
0000
1000
0000
0001
0000
0100
0000
1000
0001
,
1000
0000
0000
0000
1000
0000
0010
0000
0100
0000
1000
0000
0001
0000
0010
1000
,
0001
0010
1000
0010
0100
0001
0100
1000
,
0001
0010
1000
0001
0100
0010
0001
1000
,
0001
0100
0010
0100
1000
0001
0010
1000
,
0001
0010
0001
0010
0100
1000
0001
0100
0010
1000
0010
0100
0001
1000
0100
0010
,
0002
0000
0000
0000
0000
0003
1001
0000
,
0001
0100
0010
1000
0002
0000
0013
0100
2000
0000
3010
0100
0002
0000
1003
0000
,
0100
0010
0001
1000
0020
0000
0130
0001
0020
0000
0130
1000
0020
0000
1030
0000
,
0001
0100
0001
1000
0200
0000
0310
0100
2000
0000
3010
0100
0002
0000
1003
0000
,
0001
0100
0010
0100
0002
0000
1003
0000
0100
0010
0001
0100
0010
1000
0100
0010
,
0001
1000
0010
1000
0002
0000
0103
0010
2000
0000
3100
0010
0002
0000
1003
0001
,
0200
0000
1300
0100
0020
0000
0031
0010
0200
0000
1300
0100
0002
0000
1003
0000
,
0001
0010
0100
0010
1000
0000
0010
0000
0001
1000
0010
0100
0001
1000
0100
1000
,
0000
0000
1100
0000
0000
0101
0000
0000
0011
0000
0000
1010
0000
0000
1000
0001
,
1000
0100
0010
0001
2000
0000
3001
0100
2000
0000
3100
0010
0002
0000
0013
0000
,
1000
0001
0100
0010
2000
0000
3001
0010
2000
0000
3010
0100
0002
0000
0103
0000
,
1000
0001
0100
1000
0200
0000
0310
0100
0002
0000
1003
0100
0020
0000
0031
0000
,
1000
0010
0100
0001
2000
0000
3001
0000
0010
0100
0010
0001
0100
0010
1000
0001
,
0010
0100
1000
0010
2000
0000
3001
0000
0020
0000
0130
1000
0002
0000
0103
0010
,
0002
0000
0013
0100
2000
0000
3100
0010
0002
0000
0013
1000
0002
0000
1003
0000
,
0100
0010
0001
1000
0010
0100
0010
1000
0001
0010
0100
0010
0001
1000
0010
1000
,
0001
0000
0100
0000
1000
0000
0001
0000
0010
0000
1000
0000
0100
0010
0001
0000
,
0022
0000
0000
0033
,
2020
0000
0000
3030
,
2200
3300
0202
0303
,
2002
0000
0000
0000
3003
0001
0100
0010
,
2020
0000
0000
3030
,
0022
0000
0000
0033
,
0202
0303
2200
3300
,
0120
0000
0000
0000
0000
0000
1030
0000
0000
0000
0000
0000
0200
0000
0000
0000
0000
0000
0310
0000
0001
0000
0010
0000
0002
0000
0000
0000
0000
0000
1003
0000
0000
0000
0000
0000
1002
0000
0000
0000
0000
0000
1003
0000
0000
0001
0000
0000
,
0200
0000
0000
0000
,
0320
0000
0000
0000
,
2030
0000
3200
0000
,
0320
0000
0000
0000
0000
0032
2003
3002
,
0203
0000
0000
0000
,
0320
0000
0000
0000
,
2030
0000
3200
0000
,
0302
0000
0023
0000
2030
0000
3002
0003
,
1001
0000
0000
0000
0000
0001
0010
0100
,
1000
0010
0100
1000
0001
0010
0100
0001
,
1000
0100
0001
1000
0001
0100
1000
0001
,
2002
0000
3003
0000
,
0110
0000
0000
0000
0000
0001
0010
0100
,
1000
0000
0010
0000
0100
0000
1000
0000
0001
0000
0010
0000
0100
0000
0001
0010
,
0110
0000
0000
1100
0000
0000
0101
0000
,
2002
0000
0000
0000
3003
1000
0100
0010
,
0012
0000
0000
0000
1003
0000
0001
0000
0100
0010
1000
0001
0010
0000
0100
0000
,
1000
0010
0100
0000
1000
0100
0010
0000
1000
0100
0010
0000
1000
0010
0001
0000
,
1000
0010
0100
0001
1000
0000
0001
0010
0100
1000
0001
0000
1000
0001
0100
0001
,
1000
0000
0001
0100
1000
0000
0100
0010
0001
0000
0010
0100
0001
0000
1000
0000
,
1020
0000
0000
0000
0130
0000
0001
0000
1000
0100
0010
0001
1000
0000
0001
0000
,
0100
0010
0001
0000
0010
0100
0001
0000
0010
0100
0001
0000
0100
0010
0001
0000
,
0011
0000
0100
0000
1000
0000
1010
0000
0100
0000
0001
0000
1000
0100
0010
0001
,
0100
0000
0110
0000
0000
0000
0110
0000
1000
0100
0010
0000
0001
0000
1000
0000
,
1020
0000
0000
0000
0130
0000
0001
0000
0010
0100
1000
0001
0100
0000
0001
0000
,
1000
0001
0010
0200
0001
0000
1300
0000
0001
1000
0010
0200
1000
0000
0301
0000
,
1000
0100
0010
0100
1000
0000
0010
0100
0001
0100
0010
0000
1000
0100
0010
0001
,
1000
0000
0001
0100
1000
0000
0100
0010
0001
0000
0010
0100
0010
0000
1000
0000
,
1002
0000
0000
0000
1003
0000
0001
0000
0010
0100
1000
0100
0010
0000
0001
0000
,
1000
0001
0100
0020
0001
0000
1030
0000
0001
1000
0100
0020
1000
0000
0031
0000
,
1000
0100
0010
0100
0001
0000
1000
0010
0100
0010
0001
0000
1000
0100
0010
0001
,
2000
0000
0000
3000
,
0001
0100
0010
0100
1000
0000
0100
0010
0001
0000
0010
1000
0001
0000
1000
0000
,
0001
0010
0100
0010
1000
0000
0010
0100
0001
0000
0100
1000
0100
0000
0010
0000
,
0001
1000
0010
0100
1000
0000
0100
0010
0001
0000
0010
0100
0010
0000
1000
0000
,
0001
0010
0100
1000
0001
0000
0100
0000
0010
1000
0010
0100
0001
1000
0100
0010
,
0001
0000
0011
0000
0001
1000
0010
1000
0001
0010
0100
1000
0010
0100
0001
1000
,
0100
0000
0110
0000
0010
0001
1000
0010
0100
0010
1000
0100
0010
0001
0010
0100
,
1000
0000
1100
0000
0100
0010
0001
1000
0010
0000
0110
0000
0100
0001
0010
0100
,
1000
0010
1000
0001
0010
0001
1000
0100
1000
0001
0100
0001
0010
0100
1000
0000
;

//--------------- dance-double - Fred-104 ----------------
#NOTEDATA:;
#STEPSTYPE:dance-double;
#DESCRIPTION:Fred-104;
#DIFFICULTY:Easy;
#METER:9;
#CREDIT:Fred-104;
#NOTES:
00000000
00000000
00000000
00000000
,
00000000
00000000
00000000
00000000
,
00000000
00000000
00000000
00000000
,
00000000
00000000
00000000
00000000
,
00000000
00000000
00000000
00000000
,
00000001
00000000
00000000
00001000
00000000
00000000
00000010
00000000
,
00001000
00000000
00000000
00000010
00000000
00000000
00010000
00000000
,
00001000
00000000
00000000
00010000
00000000
00000000
00100000
00000000
,
20200000
00000000
00300000
30000000
,
10000000
01000000
10000000
00100000
,
01000000
00100000
00010000
00001000
,
00010000
00000000
00000010
00000000
00001000
00000010
00001000
00000000
,
00000100
00000010
00000001
00001000
,
00000001
00000100
00000010
00000100
,
00001000
00010000
00001000
01000000
,
00001000
00000000
00010000
00000000
00000100
00000010
00000100
00000000
,
00001000
00000010
00001000
00000000
00000010
00001000
00000010
00000000
,
00001001
00000000
00000000
00000001
00000000
00000000
00000010
00000000
,
00000100
00000000
00000000
00010000
00000000
00000000
00000100
00000000
,
00010000
00000000
00000000
00001000
00000000
00000000
01000000
00000000
,
00200000
00300000
20000000
30000000
,
01000000
00000000
01000000
00100000
00000000
00100000
00010000
00000000
,
00100000
00000000
00100000
00001000
00000000
00001000
00010000
00000000
,
00000010
00000000
00000010
00010000
00000000
00000010
00000100
00000000
,
00002002
00000000
00000000
00003003
,
00000001
00000100
00001000
00000000
,
00010000
00100000
10000000
00000000
,
10000000
01000000
00010000
00000000
,
00001000
00000010
00000001
00001000
,
00000001
00000000
00000010
00000000
,
00000100
00010000
00000100
00010000
,
00001000
00000000
00010000
00000000
00100000
10000000
00100000
10000000
,
00000000
01000000
00000000
00000000
01000000
00000000
00000000
01000000
,
00100000
00001000
00010000
00001000
,
00010000
00000100
00000010
00000001
,
00001000
00000001
00000100
00000010
,
00000100
00000000
00001000
00000000
00010000
00001000
00010000
00000000
,
00011000
00000000
00001000
01000000
,
00010000
00100000
01000000
10000000
,
00010000
01000000
00010000
00000000
10000000
01000000
10000000
00000000
,
01000000
00100000
00001000
00010000
,
00012000
00000000
00000000
00000000
,
00023000
00000000
00000000
00000000
,
00030020
00000000
00002030
00000000
,
00003200
00000000
00000000
00000300
,
00000020
00000000
00000000
00000000
,
00000032
00000000
00000000
00000000
,
00000203
00000000
00002300
00000000
,
00023000
00032000
00023000
00032000
,
02003000
00000000
00000000
00000000
,
03020000
00000000
00000000
00000000
,
20030000
00000000
32000000
00000000
,
03200000
00000000
00000000
00300000
,
00002000
00000000
00000000
00000000
,
00023000
00000000
00000000
00000000
,
00030020
00000000
00002030
00000000
,
00003200
00000320
00000032
00001003
,
00001001
00000000
00000001
00001000
,
00000100
00000010
00001000
00010000
,
00001000
00000000
01000000
00010000
00000000
00010000
00100000
00000000
,
02200000
00000000
03300000
00000000
,
10010000
00000000
10000000
01000000
,
00010000
00001000
00010000
00001000
,
00011000
00000000
00000000
00010010
00000000
00000000
00101000
00000000
,
00022000
00000000
00033000
00000000
,
00011000
00000000
00010000
00001000
,
00000100
00000001
00000100
00000000
00000010
00001000
00000010
00000000
,
00000100
00000000
00000001
00000010
00000000
00000100
00001000
00000000
,
00000100
00010000
00001000
01000000
,
01100000
00000000
00010000
00100000
,
01000000
10000000
01000000
00000000
00100000
00001000
00100000
00000000
,
00101000
00000000
00000000
00010010
00000000
00000000
00011000
00000000
,
00001000
00001000
00000000
01000000
01000000
00000000
01100000
00000000
,
10010000
00000000
10000000
00100000
,
00010000
00001000
00010000
00000000
00000010
00001000
00000010
00000000
,
00010000
00000000
00001000
00000100
00000000
00000001
00001000
00000000
,
00000100
00010000
00001000
01000000
,
01010000
00000000
00010000
10000000
,
00100000
10000000
00100000
00000000
01000000
00010000
01000000
00000000
,
01001000
00000000
00000000
00010100
00000000
00000000
00101000
00000000
,
00022000
00000000
00000000
00033000
,
00010000
00001000
00010000
00001000
,
00000010
00001000
00000010
00001000
,
00010000
00001000
00010000
00001000
,
00000100
00001000
00010000
00001000
,
00011000
00000000
00001000
01000000
,
01010000
00000000
00010000
10000000
,
01000000
01000000
00000000
00000000
00100000
00100000
00000000
00000000
,
00001000
00000000
00010000
00000000
00001000
00000000
00000000
00011000
;

//--------------- dance-double - Fred-104 ----------------
#NOTEDATA:;
#STEPSTYPE:dance-double;
#DESCRIPTION:Fred-104;
#DIFFICULTY:Medium;
#METER:12;
#CREDIT:Fred-104;
#NOTES:
00000000
00000000
00000000
00000000
,
00000000
00000000
00000000
00000000
,
00000000
00000000
00000000
00000000
,
00000000
00000000
00000000
00000000
,
00000000
00000000
00000000
00000000
,
10000000
00000000
00010000
00100000
00000000
01000000
10000000
00000000
,
00010000
00000000
01000000
00001000
00000000
00010000
00000100
00000000
,
00001000
00000000
00000100
00000010
00000000
00000001
00000100
00000000
,
00001000
00000000
00000000
00000000
00010000
00000000
00001000
00010000
00001000
00000000
00000000
00000000
00011000
00000000
00000000
00000000
,
00001000
00000000
00000000
00001000
00000000
00000000
00001000
00000000
00010000
00000000
00100000
00000000
01000000
00000000
00000000
00000000
,
00010000
00000000
00000000
00010000
00000000
00000000
00010000
00000000
10000000
00000000
01000000
00000000
00010000
00000000
00000000
00000000
,
00001000
00000000
00000000
00001000
00000000
00000000
00001000
00000000
00010000
00000000
00000100
00000000
00001000
00000000
00000000
00000000
,
00000100
00000000
00000000
00000100
00000000
00000000
00000100
00000000
00000010
00000000
00000001
00000000
00001000
00000000
00000000
00000000
,
00000010
00000000
00000000
00000010
00000000
00000000
00000010
00000000
00000100
00000000
00001000
00000000
00010000
00000000
00000000
00000000
,
00001000
00000000
00000000
00001000
00000000
00000000
00001000
00000000
01000000
00000000
00010000
00000000
00100000
00000000
00000000
00000000
,
01000000
00000000
00000000
01000000
00000000
00000000
01000000
00000000
10000000
00000000
00100000
00000000
00010000
00000000
00000000
00000000
,
00001000
00010000
00001000
00010000
00001000
00010000
00001000
00000000
,
00011000
00000000
00001000
00010000
00000000
01000000
00100000
00000000
,
00010000
00000000
10000000
00100000
00000000
00010000
00001000
00000000
,
00010000
00000000
00000010
00001000
00000000
00000100
00000010
00000000
,
00000001
00000100
00001000
00000000
00010000
01000000
10000000
00000000
,
00010000
01000000
00010000
01000000
00000000
00100000
10000000
00000000
,
01000000
00010000
01000000
00010000
00000000
00001000
00010000
00000000
,
00000010
00010000
00000010
00010000
00000000
00001000
00100000
00000000
,
02200000
00000000
00000000
03300000
,
10000000
01000000
10000000
00000000
01000000
00010000
01000000
00000000
,
00010000
00001000
00010000
00000000
00000100
00001000
00000100
00000000
,
00010000
00000010
00010000
00000000
00000010
00001000
00000010
00000000
,
00000100
00000001
00000010
00000000
00000100
00001000
00000010
00000000
,
00000100
00000001
00001000
00000000
00000100
00000010
00001000
00000000
,
00010000
00001000
01000000
00001000
00010000
00001000
00100000
00000000
,
00010000
00100000
01000000
00000000
10000000
00100000
01000000
00010000
,
00000000
00000000
11000000
00000000
00000000
00100000
00000000
00000000
00101000
00000000
00000000
00001000
00000000
00000000
00010010
00000000
,
00010000
00001000
00010000
00000000
00000100
00001000
00000100
00000000
,
00010000
00001000
01000000
00000000
00010000
00100000
01000000
00000000
,
10000000
00100000
10000000
00000000
00100000
01000000
00100000
00000000
,
10000000
01000000
00010000
00000000
00001000
00010000
00001000
00000000
,
00011000
00000000
00001000
00000000
00100000
00000000
00010000
00100000
,
01000000
00100000
10000000
00100000
00010000
00100000
00001000
00000000
,
00010000
00001000
00000100
00000000
00000001
00001000
00000001
00000000
,
00001000
00000001
00000010
00000100
00001000
00000010
00000100
00000000
,
00000102
00000000
00000000
00000000
,
00002003
00000000
00000000
00000000
,
00003200
00000000
00020300
00000000
,
00032000
00000000
00000000
00000000
00003000
01000000
00010000
10000000
,
02000000
00000000
00000000
00000000
,
03200000
00000000
00000000
00000000
,
00302000
00000000
00023000
00000000
,
00032000
00003200
00000302
00000023
,
00000230
00000000
00000000
00000000
,
00020300
00000000
00000000
00000000
,
02030000
00000000
03200000
00000000
,
00320000
00000000
00000000
00000000
00030000
10000000
00100000
00010000
,
00002000
00000000
00000000
00000000
,
00023000
00000000
00000000
00000000
,
00030200
00000000
00002300
00000000
,
00003002
00000000
00000203
00000000
00002300
00000000
00023000
00030000
,
00011000
00000000
00000000
00000000
00000000
00001000
01000000
00010000
,
00100000
00000000
01000000
00000000
10000000
00100000
00010000
00000000
,
00001000
00000000
00010000
00001000
00000000
00000100
00000001
00000000
,
00000220
00000000
00000330
00000000
,
00001001
00000000
00000000
00000000
00000000
00000001
00000100
00000010
,
00000100
00001000
00010000
00000000
00100000
01000000
00010000
00000000
,
11000000
00000000
00000000
00110000
00000000
00000000
01001000
00000000
,
02020000
00000000
03030000
00000000
,
10010000
00000000
00010000
00000000
10000000
01000000
00010000
00000000
,
01000000
10000000
00010000
00000000
01000000
00100000
00010000
00000000
,
00001000
00010000
00000010
00001000
00000000
00000100
00000010
00000000
,
00000001
00000100
00000010
00000000
00000100
00001000
00010000
00000000
,
00011000
00000000
00001000
00000000
01000000
00010000
00100000
00000000
,
01000000
10000000
00010000
00000000
00100000
01000000
10000000
00000000
,
00010000
10000000
01000000
00010000
00001000
00000100
00000001
00000010
,
00000100
00000100
00000000
00010000
00001000
00000100
00000001
00000000
,
00001001
00000000
00000001
00000010
00000100
00001000
00000100
00000000
,
00010000
00001000
01000000
00000000
00010000
00100000
01000000
00000000
,
10000000
01000000
00100000
00010000
01000000
00100000
10000000
00000000
,
00100000
00010000
00001000
00000000
00010000
00000010
00010000
00000000
,
00011000
00000000
00010000
00001000
00000010
00000100
00001000
00000000
,
00000100
00000010
00000001
00000100
00000010
00000100
00001000
00000000
,
00011000
00000000
00010000
00001000
00000000
00000010
00000001
00000000
,
00002002
00000000
00000000
00003003
,
00000001
00000100
00001000
00000000
00010000
00001000
00010000
00000000
,
00001000
00010000
00100000
00000000
10000000
00010000
10000000
00000000
,
01000000
00010000
00001000
00000000
00010000
00001000
00010000
00000000
,
00001000
00000010
00000001
00001000
00000010
00000100
00000001
00000000
,
00000100
00000100
00000001
00000010
00000100
00010000
00001000
00000000
,
00100000
00100000
00010000
01000000
00100000
10000000
00010000
00000000
,
10000000
10000000
01000000
00010000
00001000
00001000
00000100
00000001
,
00000010
00000100
00001000
00000010
00000100
00001000
00010000
00011000
;

//--------------- dance-double - Fred-104 ----------------
#NOTEDATA:;
#STEPSTYPE:dance-double;
#DESCRIPTION:Fred-104;
#DIFFICULTY:Hard;
#METER:17;
#CREDIT:Fred-104;
#NOTES:
00000000
00000000
00000000
00000000
,
00000000
00000000
00000000
00000000
,
00000000
00000000
00000000
00000000
,
00000000
00000000
00000000
00000000
,
00000000
00000000
00000000
00000000
,
00010000
00001000
00000100
00000010
00001000
00000010
00000100
00001000
,
00010000
01000000
00100000
00010000
00100000
01000000
00010000
00001000
,
00000100
00000010
00001000
00000010
00000100
00001000
00010000
00001000
,
00100000
00010000
00100000
00010000
00100000
00001000
00100000
00001000
00010000
00000000
00000000
00000000
00011000
00000000
00000000
00000000
,
00010000
00000000
00001000
00010000
00000000
00010000
00000100
00000000
00001000
00000000
00000100
00000000
00000010
00000000
00000000
00000000
,
00000001
00000000
00000100
00000010
00000000
00000010
00000100
00000000
00001000
00000000
00010000
00000000
00001000
00000000
00000000
00000000
,
01000000
00000000
00010000
00100000
00000000
00100000
01000000
00000000
10000000
00000000
00100000
00000000
00010000
00000000
00000000
00000000
,
00001000
00000000
00010000
00001000
00000000
00001000
00010000
00000000
00000100
00000000
00000010
00000001
00000010
00000000
00000100
00000000
,
00000010
00000000
00001000
00010000
00000000
00010000
00001000
00000000
00100000
00000000
10000000
00000000
00100000
00000000
00000000
00000000
,
00010000
00000000
01000000
00100000
00000000
00100000
00010000
00000000
00001000
00000000
00000100
00000000
00000010
00000000
00000000
00000000
,
00001000
00000000
00000010
00000100
00000000
00000100
00001000
00000000
00010000
00000000
00001000
00000000
01000000
00000000
00000000
00000000
,
00020000
00000000
20030000
00000000
30200000
00000000
00320000
00000000
00032000
00000000
00003200
00000300
00000101
00000000
00000000
00000000
,
00001001
00000000
00000001
00000010
00000000
00001000
00010000
00100000
,
10000000
00000000
00010000
10000000
00000000
01000000
00010000
00001000
,
00000100
00000000
00000001
00001000
00000000
00000100
00000010
00000001
,
00001000
00000001
00000100
00000000
00001000
01000000
00010000
00000000
,
01000000
00010000
00100000
00001000
00000000
01000000
00100000
00010000
,
00001000
00000100
00000010
00001000
00000000
00000100
00001000
00000010
,
00000100
00001000
00010000
00100000
00000000
01000000
00010000
00100000
,
01000000
00010000
00001000
00000100
00000010
00001000
00001100
00000000
,
00000001
00001000
00000001
00001000
00000010
00000000
00000100
00000000
00001000
00000000
00010000
00000000
00100000
00000000
00000000
00000000
,
10000000
00010000
10000000
00010000
00100000
00000000
01000000
00000000
00010000
00000000
00001000
00000000
00010000
00000000
00000000
00000000
,
00001000
00010000
00001000
00010000
00001000
00000000
00000100
00000000
00000010
00000000
00001000
00000000
00000001
00000000
00000000
00000000
,
00000010
00000001
00000010
00000001
00000010
00000000
00000100
00000000
00000010
00000000
00001000
00010000
00001000
00000000
01000000
00010000
,
00100000
01000000
00100000
01000000
00100000
00000000
10000000
00000000
00100000
00000000
00010000
00000000
00001000
00000000
00000100
00010000
,
00001000
00000000
00010000
00100000
01000000
00000000
00100000
10000000
00010000
00000000
00100000
01000000
00010000
00000000
00001000
00000000
,
00010000
00000100
00010000
00000100
00001000
00000000
00000100
00000000
00000010
00000000
00000001
00000000
00001000
00000001
00001000
00000001
,
00000000
00000000
00000011
00000000
00000000
00001010
00000000
00000000
00011000
00000000
00000000
01010000
00000000
00000000
11000000
00000000
,
00010000
10000000
00010000
10000000
01000000
00000000
00100000
00000000
01000000
00000000
00010000
00000000
00001000
00000000
00000000
00000000
,
00010000
00000010
00010000
00000010
00010000
00000000
00001000
00000000
00000100
00000000
00000001
00000000
00000010
00000000
00000000
00000000
,
00000001
00000100
00000001
00000100
00000010
00000000
00000100
00000000
00001000
00000000
00010000
00000000
01000000
00000000
00000000
00000000
,
00100000
00010000
00100000
00010000
00100000
00000000
01000000
00000000
10000000
00000000
00100000
00010000
00100000
00000000
00010000
00001000
,
00010000
00000100
00010000
00000100
00001000
00000000
00000100
00000000
00000010
00000000
00000001
00000000
00001000
00000000
00000010
00000100
,
00001000
00000000
00010000
00100000
01000000
00000000
00010000
00100000
01000000
00000000
10000000
00100000
00010000
00000000
00001000
00000000
,
00010000
00001000
00010000
00001000
00000100
00000000
00000010
00000000
00000001
00000000
00000010
00000000
00001000
00000001
00001000
00000001
,
00000010
00000100
00000010
00001000
00100000
00010000
10000000
00100000
,
02100000
00000000
00000000
00000000
,
03020000
00000000
00000000
00000000
00000000
00000000
00000000
00030000
,
20000000
00000000
32000000
00000000
,
03020000
00000000
00000000
00000000
00000000
00032000
00003200
00000302
,
00000023
00000000
00000000
00000000
,
00000230
00000000
00000000
00000000
,
00020300
00000000
00032000
00000000
,
00023000
00000000
00031000
00000000
00000020
00000000
00001030
00010000
00002000
00000000
00013000
00000000
00011000
00000000
00000000
00000000
,
01200000
00010000
10000000
00310000
,
20000000
01000000
00010000
30100000
,
00020000
00001000
00030200
00001000
,
00000320
00000000
00000001
00000000
00001030
00000010
00000100
00000010
,
00000002
00000100
00001000
00000013
,
00000200
00010000
00001000
00010300
,
00002000
00010000
02003000
00100000
,
03002000
00000000
00023000
00000000
00230000
00000000
20300000
30000000
,
10010000
00010000
10000000
01000000
,
00010000
00001000
00000100
00000001
,
00000020
00000000
00000130
00020000
00000000
01030000
00200000
00000000
,
00320000
01000000
01000000
01030000
,
01100000
00000000
00100000
00000000
10000000
01000000
00100000
00000000
,
00001000
00000000
00010000
00000000
00000010
00000000
00001000
00000000
00000100
00000000
00000010
00000000
00000001
00000000
00000100
00000010
,
00000100
00000000
00000000
00000110
00000000
00000000
00011000
00000000
,
02200000
00000000
00000000
00000000
03300000
10000000
01000000
00010000
,
00012000
00000000
00013000
00001000
00000010
00000100
00010000
00000010
,
00001000
00100000
01000000
00010000
00000100
00001000
00010000
00000100
,
00001000
01000000
00100000
00010000
00100000
01000000
00010000
00001000
,
00000100
00000010
00001000
00000010
00000100
00001000
00010000
00001000
,
00021000
00000000
00031000
01000000
00010000
00001000
00010000
01000000
,
00001000
00000010
00001000
00010000
00001000
00100000
00001000
00010000
,
00011000
00000000
01000000
00000000
00001000
00000000
00011000
00000000
00000100
00000000
00010000
00000000
00011000
00000000
00001000
00010000
,
00001000
00000000
00011000
00000000
00000000
00000000
00000010
00000000
00010000
00001000
00010000
00000000
00100000
00000000
01000000
00000000
,
01002000
00000000
00000000
00000000
00013000
00000000
00001000
00000000
00000100
00000000
00000001
00000010
00000001
00000000
00001000
00000000
,
00000001
00000100
00000010
00000000
00000100
00000000
00001000
00000000
00010000
00100000
01000000
00000000
00100000
00000000
10000000
00000000
,
00010000
00100000
01000000
00000000
00010000
00000000
00001000
00010000
00001000
00000000
00000010
00000000
00000100
00001000
00000001
00000000
,
00001000
00000100
00000010
00001000
00010000
00001000
01000000
00001000
,
00021000
00000000
00000000
00000000
00031000
00000000
00010000
00000000
01000000
00000000
00100000
00010000
00100000
00000000
01000000
00000000
,
10000000
00100000
01000000
00000000
00100000
00000000
00010000
00000000
00001000
00000100
00000010
00000000
00000100
00000000
00000001
00000000
,
00000010
00000100
00001000
00000000
00000010
00000000
00000100
00001000
00010000
00000000
00100000
00000000
01000000
00010000
00100000
00000000
,
20020000
00000000
00000000
30030000
,
10000000
01000000
10000000
01000000
00100000
00000000
01000000
00000000
00010000
00000000
00001000
00000000
00000100
00000000
00000000
00000000
,
00000001
00000010
00000001
00000010
00000100
00000000
00000010
00000000
00001000
00000000
00010000
00000000
00100000
00000000
00000000
00000000
,
10000000
00010000
10000000
00010000
00100000
00000000
01000000
00000000
00010000
00000000
00001000
00000000
01000000
00000000
00000000
00000000
,
00001000
00010000
00001000
00010000
00001000
00000000
00000100
00000000
00000001
00000000
00001000
00000100
00000001
00000000
00000100
00001000
,
00000001
00000000
00000101
00000000
00000001
00000010
00000100
00000000
00010000
00001000
00100000
00000000
00001000
00000000
00010000
00000000
,
01000000
00000000
11000000
00000000
10000000
00100000
01000000
00000000
00100000
00010000
00001000
00000000
00010000
00000000
00000010
00000000
,
00010000
00000000
00011000
00000000
00010000
00001000
00000100
00000001
00001000
00000000
00001001
00000000
00000001
00001000
00000100
00000010
,
00000001
00000000
00000100
00000000
00001000
00000000
00010000
00000000
00100000
00000000
10000000
00000000
01000000
00010000
00001000
00000000
;

//--------------- dance-double - Fred-104† ----------------
#NOTEDATA:;
#STEPSTYPE:dance-double;
#DESCRIPTION:Fred-104†;
#DIFFICULTY:Challenge;
#METER:18;
#CREDIT:Fred-104†;
#NOTES:
00000000
00000000
00000000
00000000
,
00000000
00000000
00000000
00000000
,
00000000
00000000
00000000
00000000
,
00000000
00000000
00000000
00000000
,
00000000
00000000
00000000
00000000
,
00001000
00010000
00001000
01000000
00010000
00100000
01000000
10000000
,
00100000
00010000
00001000
00000100
00000001
00001000
00000100
00000010
,
00000001
00000010
00000100
00000000
00001000
00000010
00000100
00000000
00001000
00010000
00100000
00000000
01000000
00010000
00100000
00000000
,
01000000
10000000
00010000
01000000
00100000
00010000
00001000
00010000
00001000
00000000
00000000
00000000
00000110
00000000
00000000
00000000
,
00001001
00000000
00000001
00000010
00000000
00000010
00000100
00000000
00000001
00000000
00000100
00001000
00000001
00000000
00000010
00000000
,
00000100
00000000
00010000
00001000
00000000
00010000
00100000
00000000
01000000
00000000
00010000
00100000
01000000
00000000
10000000
00000000
,
00010000
00000000
10000000
01000000
00000000
01000000
00010000
00000000
01000000
00000000
00100000
01000000
10000000
00000000
00010000
00000000
,
01000000
00000000
00100000
00010000
00000000
00001000
00000100
00000000
00000010
00000000
00000001
00000010
00001000
00000000
00000001
00000000
,
00001000
00000000
00000100
00000010
00000000
00001000
00010000
00000000
00001000
01000000
00010000
01000000
00100000
00000000
01000000
00000000
,
00010000
00000000
00100000
01000000
00000000
10000000
01000000
00000000
00010000
01000000
00100000
01000000
10000000
00000000
00010000
00000000
,
00100000
00000000
01000000
00010000
00000000
00001000
00000100
00000000
00000010
00001000
00000001
00000010
00000100
00000000
00001000
00000000
,
00000001
00000010
00000001
00000010
00000100
00001000
00000100
00010000
00001000
00000000
00010000
00000000
00011000
00000000
00000000
00000000
,
00011000
00000000
00000000
00000000
00010000
00000000
00001000
00000000
00000100
00000000
00000001
00000000
00001000
00000000
00000100
00000010
,
00000001
00000000
00000000
00000000
00000001
00000000
00000100
00000000
00000010
00000000
00000100
00000000
00001000
00000000
00010000
00100000
,
01000000
00000000
00000000
00000000
01000000
00000000
00010000
00000000
00100000
00000000
01000000
00000000
10000000
00000000
00010000
10000000
,
00010000
10000000
01000000
00010000
00001000
00000100
00000001
00000000
,
00000010
00000100
00001000
00000010
00000100
00001000
00010000
00100000
,
01000000
00010000
00100000
01000000
00010000
00001000
00000010
00000100
,
00001000
00000010
00000100
00000000
00001000
00010000
00100000
00000000
01000000
00010000
00100000
01000000
00100000
00010000
00100000
00001000
,
00020000
00000000
00000000
00000000
00000000
00030000
00011000
00000000
,
00001000
00010000
00100000
01000000
00200000
00000000
10300000
00000000
00020000
00000000
10030000
01000000
00200000
00000000
00301000
00000000
,
00010000
00000100
00001000
00000100
00000020
00000000
00000130
00000000
00002000
00000000
00003010
00000100
00002000
00000000
00013000
00000000
,
00001000
00010000
00000100
00001000
00000002
00000000
00000103
00000000
00000020
00000000
00000130
00001000
00020000
00000000
00031000
00000000
,
00100000
00010000
00100000
01000000
20000000
00000000
30010000
00000000
01000000
00010000
00100000
00000000
01000000
10000000
00010000
00000000
,
01000000
00100000
10000000
00100000
02000000
00000000
03010000
10000000
02000000
00000000
03010000
00000000
00002000
00000000
00013000
00001000
,
00000200
00000000
00000310
00000001
00000020
00000000
00000130
00000010
00002000
00000000
00003001
00000010
00002000
00000000
00013000
00000000
,
00001000
00100000
00010000
00100000
01000000
00000000
10000000
00000000
00010000
01000000
00100000
10000000
01000000
00100000
00001000
00010000
,
00000000
00000000
00010100
00000000
00000000
01001000
00000000
00000000
00010010
00000000
00000000
00101000
00000000
00000000
00011000
00000000
,
00010000
00001000
00000100
00000001
00002000
00000000
00003010
00000100
00000002
00000000
00001003
00000001
00000200
00000000
00001300
00000000
,
00010000
00001000
00010000
01000000
00200000
00000000
00310000
10000000
02000000
00000000
03100000
00010000
20000000
00000000
30010000
00000000
,
01000000
00100000
00010000
00001000
00020000
00000000
00030010
00001000
00000002
00000000
00001003
00000010
00000200
00000000
00000301
00000000
,
00001000
00000001
00000010
00000100
00000020
00000000
00001030
00000000
00010000
00001000
01000000
00010000
01000000
00001000
00010000
00001000
,
00100000
00010000
00100000
01000000
20000000
00000000
30010000
00000000
02000000
00000000
03100000
00010000
00002000
00000000
00003100
00000010
,
00002000
00000000
00003100
00000010
00000002
00000000
00000103
00000010
00002000
00000000
00003100
00010000
00002000
00000000
00013000
00000000
,
00001000
00100000
00010000
10000000
00100000
01000000
00010000
00000000
10000000
01000000
00100000
00010000
00100000
00001000
00010000
00000000
,
00001000
00000000
00010000
00000000
00100000
00000000
10000000
00000000
01000000
00000000
00010000
00000000
00001000
00010000
00001000
00000000
,
00022000
00000000
00000000
00033000
,
00020020
00000000
00000000
00030030
,
00202000
00303000
00020200
00030300
,
02002000
00000000
00000000
00000000
03003000
00001000
00010000
00100000
,
20200000
00000000
00000000
30300000
,
02020000
00000000
00000000
03030000
,
22000000
33000000
00220000
00330000
,
20000000
00000000
00000000
00000000
00000000
00000000
31000000
00000000
00000000
00000000
00000000
00000000
00020000
00000000
00000000
00000000
00000000
00000000
00031000
00000000
00010000
00000000
00001000
00000000
00010000
00000000
00000000
00000000
00000000
00000000
00000100
00000000
00000000
00000000
00000000
00000000
00000120
00000000
00000000
00000000
00000000
00000000
00000031
00000000
00000000
00001000
00000000
00000000
,
00000002
00000000
00000000
00000000
,
00000203
00000000
00000000
00000000
,
00002300
00000000
00023000
00000000
,
00230000
00000000
00000000
00000000
00000000
20300000
32000000
03200000
,
00302000
00000000
00000000
00000000
,
00023000
00000000
00000000
00000000
,
00030020
00000000
00002030
00000000
,
00003200
00000000
00000320
00000000
00000032
00000000
00002003
00003000
,
00000110
00000000
00000000
00000000
00000000
00000100
00000010
00001000
,
00010000
01000000
00100000
00010000
01000000
00100000
00010000
00001000
,
00000010
00000100
00000010
00001000
00100000
00010000
01000000
00001000
,
00022000
00000000
00033000
00000000
,
00000110
00000000
00000000
00000000
00000000
00000100
00010000
00001000
,
00010000
00000000
01000000
00000000
00001000
00000000
00000100
00000000
00010000
00000000
00001000
00000000
00010000
00000000
00100000
01000000
,
00100000
00000000
00000000
01100000
00000000
00000000
00011000
00000000
,
00000220
00000000
00000000
00000000
00000330
00001000
00000001
00000100
,
00000120
00000000
00000000
00000000
00001030
00000000
00000001
00000000
00000010
00000000
00000100
00001000
00000010
00000000
00010000
00000000
,
00001000
00010000
00100000
00000000
00100000
00010000
00001000
00000000
00010000
00001000
00000010
00000000
00000010
00001000
00010000
00000000
,
00001000
00100000
00010000
00100000
00001000
00000000
00010000
00000010
00001000
00000010
00010000
00000000
00001000
00010000
00001000
00010000
,
00001000
00000000
00010000
00100000
01000000
00000000
00100000
10000000
00010000
00000000
10000000
01000000
00100000
00000000
00010000
00000000
,
20010000
00000000
00000000
00000000
30100000
00000000
10000000
00000000
01000000
00000000
00100000
00001000
00010000
00000000
00001000
00000000
,
00010000
00001000
00000100
00000000
00000100
00001000
00010000
00000000
00001000
00010000
01000000
00000000
01000000
00010000
00001000
00000000
,
00011000
00000000
00010000
00000000
00001000
00000000
00001010
00000000
00000010
00000000
00000001
00000000
00000100
00000010
00001000
00000001
,
00000010
00000000
00000110
00000000
00000000
00000000
00000110
00000000
00000100
00001000
00000100
00000000
00010000
00000000
00001000
00000000
,
00021000
00000000
00000000
00000000
00031000
00000000
00010000
00000000
00100000
01000000
00010000
01000000
00100000
00000000
10000000
00000000
,
00010000
00100000
01000000
00000000
00010000
00001000
00010000
00000000
00001000
00000100
00000010
00000000
00001000
00000100
00000010
00000000
,
00000001
00001000
00000010
00010000
00001000
00000000
00100000
00010000
10000000
00010000
01000000
00000000
00001000
00010000
00000100
00010000
,
00001000
00000000
00010000
00001000
00000100
00000000
00000010
00001000
00000010
00000000
00000100
00000001
00000010
00000000
00000100
00000000
,
00002100
00000000
00000000
00000000
00003001
00000000
00000100
00000000
00001000
00010000
00001000
01000000
00010000
00000000
00100000
00000000
,
01000000
10000000
00100000
00000000
01000000
00100000
00010000
00000000
00001000
00000100
00000010
00000000
00000100
00000001
00001000
00000000
,
00000001
00000010
00000100
00000010
00001000
00000000
00010000
01000000
00100000
01000000
10000000
00000000
00010000
01000000
00001000
00010000
,
00002000
00000000
00000000
00003000
,
00010000
00001000
00000010
00001000
00010000
00000000
00001000
00100000
00010000
00000000
00100000
00001000
00010000
00000000
00001000
00000000
,
00010000
00001000
00000100
00001000
00010000
00000000
00001000
01000000
00010000
00000000
01000000
00001000
00010000
00000000
00001000
00000000
,
00010000
00001000
00000100
00000010
00001000
00000000
00000100
00000010
00001000
00000000
00010000
01000000
00100000
00000000
00010000
00000000
,
01000000
00100000
00010000
00001000
00010000
00000000
00000100
00000000
00001000
00000100
00000010
00000100
00001000
00000010
00000100
00001000
,
00010000
00000000
00011000
00000000
00001000
00010000
00001000
00010000
00100000
01000000
00100000
01000000
00010000
10000000
01000000
00000000
,
00100000
00000000
00101000
00000000
00001000
00010000
00001000
00010000
00000010
00001000
00000010
00001000
00000100
00000010
00000001
00000000
,
00000100
00000000
00000110
00000000
00000001
00000010
00000100
00010000
00001000
00000000
00101000
00000000
00100000
00010000
01000000
00100000
,
10000000
01000000
00100000
00000000
00001000
00010000
00000100
00000000
00001000
00000001
00000010
00000100
00010000
00001000
00010000
00000000
;
