#TITLE:卑弥呼;
#ARTIST:朱雀 VS 玄武;
#TITLETRANSLIT:Himiko;
#ARTISTTRANSLIT:Suzaku VS Genbu;
#GENRE:ESOTERIC SPEEDCORE;
#BANNER:Himiko.png;
#BACKGROUND:Himiko-bg.png;
#CDTITLE:./CDTitles/bm IIDX 16 EMPRESS.png;
#MUSIC:Himiko.ogg;
#SAMPLESTART:92.758;
#SAMPLELENGTH:15;
#BPMS:0=185,145=92.5,177=185,252=740,256=370,258=185,323=87.5,331=85,337=82.5;
#TIMESIGNATURES:0=4=4,120=6=4,126=4=4,138=7=4,145=4=4,249=3=4,252=7=4,259=4=4;
#BGSTAGE:21;

//--------------- dance-single - Fred-104 ----------------
#NOTES:
     dance-single:
     Fred-104:
     Beginner:
     6:
     :
0000
0000
0000
0000
,
0000
0000
0000
0000
,
0000
0000
0000
0000
,
0000
0000
0000
0000
,
0000
0000
0000
0000
,
0000
0000
0000
0000
,
0000
0000
0000
0000
,
1000
0000
0002
0003
,
1000
0000
0020
0030
,
1000
0000
0200
0300
,
1000
0000
0002
0003
,
0100
0000
0020
0030
,
0100
0000
0002
0003
,
1000
0000
0002
0003
,
1001
0000
0000
0000
,
0100
0000
0020
0030
,
0100
0000
0001
0001
,
0001
0000
2000
3000
,
0010
0000
0100
0100
,
0100
0000
0002
0003
,
1000
0000
0100
0100
,
0100
0000
0020
0030
,
1001
0000
0000
0000
,
1000
0000
0000
0000
,
0001
0000
0000
0000
,
0100
0000
0000
0000
,
0010
0000
0220
0330
,
0001
0000
0001
0000
,
1000
0000
1000
0000
,
0010
0000
1000
0000
,
0001
0000
0001
0000
,
0001
0002
1003
0000
,
0010
0000
1000
0000
,
0001
0000
0100
0000
,
0100
0000
0010
0000
,
0100
0000
0010
0010
,
0010
0020
0030
0200
,
0300
2000
3000
0002
,
0003
2000
3000
0200
,
0300
0020
0030
0002
,
0003
0000
0000
0000
0000
0000
0000
0000
0000
0000
0000
0000
0000
0000
0000
0000
2000
3000
0000
0000
0000
0000
0000
0000
0000
0000
0000
0000
0000
0000
0000
0000
1000
0000
0000
0000
0000
0000
0000
0000
0000
0000
0000
0000
0000
0000
0000
0000
0100
0000
0000
0000
0000
0000
0000
0000
0000
0000
0000
0000
0000
0000
0000
0000
,
0000
0001
0001
0010
,
0000
1000
0100
1000
,
0000
1001
0000
0100
,
0100
0100
0000
0100
,
0000
0010
0000
0100
,
0100
0100
0000
0001
,
0000
1000
0000
0001
,
0001
0001
0000
1000
,
0000
0010
0000
1000
,
1000
1000
0000
0001
,
0000
1000
1000
1000
,
0000
0001
0000
1000
,
0000
0100
0100
0100
,
0000
1000
0000
0001
,
0000
1000
1000
1000
,
0000
0010
0010
0010
,
0000
0100
0100
0100
,
0000
0001
0001
0001
,
0000
1000
1000
1000
,
0000
0001
0001
0001
,
0000
1000
1000
1000
,
0000
0001
0001
0001
,
2002
0000
0000
0000
,
0000
0000
3003
1000
,
0000
0010
0000
1000
,
0000
0100
0100
0100
,
0000
0010
0000
0100
,
0000
0001
0001
0001
,
0000
1000
0000
0001
,
0000
0010
0010
0010
,
0000
0001
0000
1001
,
0000
0000
0000
1000
,
0000
0100
0000
1000
,
1000
1000
0000
0001
,
0000
0100
0000
0010
,
0010
0010
0000
1001
,
0000
0100
0000
1001
,
0000
0010
0000
1001
,
0000
0100
0000
1000
,
1000
1000
1000
2000
,
3000
0020
0030
0200
,
0300
0002
0003
2000
,
3000
0200
0300
0020
,
0030
0002
0003
1001
,
0000
0000
0000
0200
,
0000
0300
0000
0000
;

//--------------- dance-single - Fred-104 ----------------
#NOTES:
     dance-single:
     Fred-104:
     Easy:
     9:
     :
0000
0000
0000
0000
,
0000
0000
0000
0000
,
0000
0000
0000
0000
,
0000
0000
0000
0000
,
0000
0000
0000
0000
,
0000
0000
0000
0000
,
0000
0000
0000
0000
,
1000
0001
1000
0100
,
1000
0000
0010
0000
0100
0001
0100
0000
,
0001
0010
0001
1000
,
0010
0000
0100
0000
0001
1000
0100
0000
,
1000
0100
1000
0100
,
0010
0000
0001
0000
0100
0010
1000
0000
,
0001
0100
0010
1000
,
0001
1000
0000
0000
0000
0000
1001
0000
,
0001
0010
0001
0100
,
0010
0000
1000
0000
0001
1000
0100
0000
,
1000
0010
0100
0010
,
1000
0000
0010
0000
0100
0010
1000
0000
,
0001
0010
0100
0010
,
0100
0000
0010
0000
0001
1000
0100
0000
,
1000
0001
0100
0010
,
1000
1000
0000
0000
0002
0000
2003
0000
,
3001
0000
0000
0000
,
0100
0000
0000
0000
,
0010
0000
0000
0000
,
1000
0000
2002
3003
,
1000
0100
1000
0001
,
1000
0010
0100
0010
,
1000
0001
0010
0001
,
0100
0010
0100
0000
0001
0000
0100
0010
,
0100
0002
1003
0100
,
1000
0001
0100
0010
,
0100
0001
1000
0100
,
0010
0000
0001
0000
0100
0010
0100
0000
,
1000
0000
0100
0010
0100
0000
0001
0000
,
0002
0203
0310
2000
,
3100
0000
0020
0000
0031
1000
0200
0000
,
0310
0001
0100
1000
,
0010
0001
1000
0000
0001
0010
0100
1000
,
0001
0000
0000
0000
0000
0000
0000
0000
0000
0000
0000
0000
0000
0000
0000
0000
0002
0003
0000
0000
0000
0000
0000
0000
0100
0000
0000
0000
0000
0000
0000
0000
0001
0000
0000
0000
0000
0000
0000
0000
0000
0000
0000
0000
0000
0000
0000
0000
1000
0000
0000
0000
0000
0000
0000
0000
0010
0000
0000
0000
0000
0000
0000
0000
,
0100
0000
0001
1000
0100
0000
0010
0100
,
0010
0000
0001
0010
0100
0010
0001
1000
,
0010
0100
0110
0000
0001
1000
0100
0000
,
1000
0001
1000
0000
0001
0000
0000
0000
0010
0000
0000
0000
0001
0000
0000
0000
,
0100
0010
1000
0100
,
1000
0001
1000
0100
,
0010
0000
0001
0000
1000
0000
0010
0100
,
0010
1000
0100
0010
,
0100
1000
0001
0100
,
0010
0100
0001
0100
,
0010
0000
1000
0000
0001
0000
0010
0100
,
1000
0001
1000
0100
,
0010
0001
0010
0000
0001
0000
0100
0000
,
0010
1000
0001
0000
0100
0000
0010
0100
,
0010
0100
0010
0000
1000
0000
0001
0000
,
0001
1000
1000
0100
,
0100
1000
1000
0010
,
0010
0100
0100
0001
,
0001
0000
1000
0010
1000
0000
0100
0000
,
0010
0000
0001
0100
0010
0000
1000
0000
,
0001
0000
1000
0100
0010
0000
0001
1000
,
0010
0100
0010
0100
,
0220
0000
0000
0000
,
0000
0000
0000
0000
0330
0000
0001
0100
,
0010
1000
0001
1000
,
0100
0000
0010
0000
0010
0000
0001
1000
,
0100
1000
1000
0010
,
1000
0000
1001
0000
0000
0000
1000
0010
,
0100
0001
0010
0010
,
0001
0000
1000
0000
0100
0000
1000
0010
,
0100
0000
0001
0000
1000
0000
0001
0001
,
0000
0000
0000
0000
1001
0000
0001
0100
,
0001
0000
0010
0000
0001
0000
1000
0010
,
0100
0000
0001
0000
0100
0000
0010
0100
,
0001
1000
0100
1000
,
0001
0000
1001
0000
0000
0000
1000
1000
,
0000
0000
0001
0000
0100
0000
0010
0010
,
0000
0100
0010
1000
,
1100
0000
0001
0000
0101
0000
1000
0010
,
0100
0000
0001
0100
0010
0000
2000
0000
,
3010
0200
0301
2000
,
3100
0020
0031
0002
,
0103
2000
3100
0002
,
0103
0020
1030
1001
,
0001
0100
0010
1000
0001
0100
0220
0000
,
0000
0330
0000
0000
;

//--------------- dance-single - Fred-104 ----------------
#NOTES:
     dance-single:
     Fred-104:
     Medium:
     14:
     :
0000
0000
0000
0000
,
0000
0000
0000
0000
,
0000
0000
0000
0000
,
0000
0000
0000
0000
,
0000
0000
0000
0000
,
0000
0000
0000
0000
,
0000
0000
0000
0000
,
0001
1000
0010
0200
0320
1030
0100
0010
,
0001
1000
0010
0200
0320
0130
0001
0100
,
0010
0100
0001
0020
0032
1003
0001
0010
,
0100
0010
0001
0020
0032
0103
0001
1000
,
0001
0010
0100
2000
3002
0013
0100
1000
,
0001
0100
0010
2000
3002
0103
0010
1000
,
0001
0010
0100
2000
3020
0130
0001
0100
,
0110
0110
0000
0000
0000
0000
1001
0000
,
1000
1000
0010
0200
0302
0103
1000
0100
,
0001
0001
0100
0020
2030
3100
0010
0100
,
0010
0010
0001
0010
2000
3020
0031
1000
,
0100
0100
1000
0020
0230
0301
1000
0001
,
1000
1000
0010
0200
0302
1003
0100
0010
,
0001
0001
0100
0002
0203
0310
1000
0100
,
0010
0010
0100
2000
3002
0013
0100
1000
,
1001
1001
0000
0000
1000
0020
0031
0200
,
1300
0000
0000
0000
,
0010
0000
0000
0000
,
0001
0000
0000
0000
,
0100
0000
0220
0330
,
1000
0000
0100
0000
1000
0000
0010
0000
0100
0000
0001
0000
1000
0000
0001
1000
,
0001
0000
0100
0000
0010
0100
0010
0000
1000
0000
0010
0000
1000
0000
0001
0100
,
0000
0001
0100
0000
0010
0000
1000
0000
0001
0000
1000
0100
0000
1000
0100
0000
,
0010
0100
0010
0000
0001
0000
0100
0010
0000
0100
0001
0000
1000
0000
0010
0000
,
0100
0001
0102
0000
1003
0010
1000
0100
,
1000
0000
0001
0000
0100
0000
0010
0100
0010
0000
1000
0000
0001
0010
0001
0000
,
1000
0000
0010
0000
0100
0000
0001
0010
0000
0001
0010
0000
0100
0000
1000
0000
,
0001
0000
0100
0010
0000
0100
0010
0000
1000
0010
1000
0000
0001
0000
1000
0100
,
0000
1000
0001
0000
0100
0010
0100
0000
0001
0000
1000
0001
0000
0100
0010
0000
,
0100
0012
0103
2010
,
3100
0000
0021
0000
0130
0010
2000
0000
,
3001
1200
0310
0201
,
0310
1000
0001
0000
1000
0100
0001
0010
,
1000
0000
0000
0000
0000
0000
0000
0000
0000
0000
0000
0000
0000
0000
0000
0000
2000
3000
0000
0000
0100
0000
0000
0000
1000
0000
0000
0000
0010
0000
0000
0000
1000
0000
0000
0000
0100
0000
0000
0000
1000
0000
0000
0000
0000
0000
0000
0000
0001
0000
0000
0000
0100
0000
0000
0000
0001
0000
0000
0000
0010
0000
0000
0000
,
0001
0100
0001
0000
1000
0100
0010
0001
0010
0100
1000
0000
0001
0100
0010
1000
,
0010
0100
0001
0000
1000
0100
1000
0010
0100
0001
0010
0100
1000
0001
0100
0001
,
0100
0010
1000
0001
1001
0000
0000
0000
1000
0000
0100
0000
0110
0000
0000
0000
,
0001
0100
0101
0000
0100
0000
0010
0000
1000
0000
0010
0000
0100
0000
0001
0000
,
0010
0001
1000
0010
0100
0001
0010
0100
,
0010
0100
0010
0001
1000
0010
1000
0010
,
0100
0010
1000
0001
0010
0100
0010
0001
,
0010
0100
0010
0100
1000
0100
0010
0001
,
1000
0001
0010
0001
0010
0100
0010
0100
,
1000
0001
1000
0001
0100
0001
1000
0010
,
1000
0001
1000
0100
0010
0100
1000
0001
,
0100
0001
0010
0100
0010
0001
1000
0100
,
0010
0100
1000
0100
1000
0100
0010
0001
,
0100
0010
1000
0010
0100
0001
1000
0001
,
1000
0001
1000
0001
1000
0000
0100
0000
0010
0000
0001
0000
1000
0000
0010
0000
,
0200
0000
0301
0100
1000
0100
0001
0010
,
0200
0000
1300
0010
0001
1000
0100
0001
,
2000
0000
3001
0010
0100
1000
0001
0010
,
0200
0000
1300
0001
0100
0000
0001
1000
,
0100
0000
1000
0001
0010
0000
0001
1000
,
0010
2100
3010
0102
,
0013
0000
0000
0000
1000
0000
0100
0000
1000
0000
0001
0000
0100
0010
0100
0010
,
0200
0000
0000
0000
,
0000
0000
0000
0000
0300
0000
0001
0010
,
0001
1000
0100
0010
0001
1000
0010
0100
,
0010
1000
0001
0100
0020
0000
1030
0100
,
0001
1000
0010
0001
1000
0001
0100
0010
,
1000
0001
0100
0010
2000
0000
3001
0010
,
0100
1000
0010
0100
1000
0100
0001
1000
,
0100
0010
0001
0100
0020
0000
1030
0010
,
0100
0001
0100
0010
1000
0100
0110
0110
,
0000
0000
0000
0000
1001
0000
0001
0100
,
0010
1000
0010
0100
0001
1000
0100
0010
,
0001
1000
0010
0100
0001
0000
1000
0010
,
0100
1000
0100
0001
1000
0100
0010
1000
,
0010
0001
1000
0010
0100
0001
1000
1100
,
0000
0000
0001
2000
3010
0200
0301
0101
,
0000
0000
1000
0200
0301
0200
1300
0010
,
0100
0000
0001
0010
0100
0000
1000
0100
,
0010
0001
0100
0010
0100
0100
0020
0000
,
1030
0000
0001
0000
0100
0010
0000
0010
0100
0000
0001
0000
1000
0010
0000
0010
,
0100
0000
0001
0000
0010
0100
0000
0100
1000
0000
0001
0000
1000
0100
0000
0001
,
0100
0000
1000
0000
0001
0100
0000
1000
0100
0000
0010
0000
0100
0001
0000
1000
,
0100
0000
0010
0000
0220
0000
0000
0000
0330
0001
0100
0000
1001
0000
0000
0000
,
1000
0100
0010
0001
0100
0010
1000
0100
0010
0001
0010
0100
2000
0000
0000
0000
,
0000
3000
0000
0000
;

//--------------- dance-single - Fred-104 ----------------
#NOTES:
     dance-single:
     Fred-104:
     Hard:
     18:
     :
0000
0000
0000
0000
,
0000
0000
0000
0000
,
0000
0000
0000
0000
,
0000
0000
0000
0000
,
0000
0000
0000
0000
,
0000
0000
0000
0000
,
0000
0000
0000
0000
,
1000
0000
0010
0000
1000
0000
0001
0100
0010
0000
1000
0000
0100
0000
0010
0000
,
0001
0000
0100
0000
0010
0000
1000
0010
0100
0001
0100
0000
0010
0000
0010
0000
,
1000
0000
0001
0000
0010
0000
0100
0010
0001
0000
1000
0000
0010
0000
0100
0000
,
0010
0000
1000
0000
0001
0000
0100
0010
0001
0010
1000
0000
0001
0000
0100
0000
,
0001
0000
0010
0000
0110
0000
0100
1000
0010
0000
1000
0000
0001
0000
1000
0000
,
0100
0000
1000
0000
1100
0000
0100
1000
0001
0100
0010
0000
1000
0000
0001
0000
,
0100
0000
0010
0000
0110
0000
0100
0001
1000
0000
0001
0000
0100
0000
0010
0000
,
0110
0110
0000
0000
0000
0000
1001
0000
,
1100
0000
1010
0000
1000
0000
0100
0010
0001
0000
0100
0000
0010
0000
0100
0000
,
0011
0000
1001
0000
0001
0000
0100
0010
1000
0010
0100
0000
0001
0000
0100
0000
,
0110
0000
1010
0000
1000
0000
0010
0100
0001
0000
0100
0000
0001
0000
0010
0000
,
1001
0000
1100
0000
1000
0000
0100
0010
0001
1000
0001
0000
0100
0000
0010
0000
,
0201
0000
0302
0000
0103
0000
0010
1000
0001
0000
0010
0000
0100
0000
1000
0000
,
1200
0000
2300
0000
3001
0000
1000
0100
0010
0001
0100
0000
0010
0000
1000
0000
,
1002
0000
2003
0000
3010
0000
0100
0010
1000
0000
0001
0000
0010
0000
0100
0000
,
1100
0000
0000
1100
0000
0000
0000
0000
0000
0000
0000
0000
0001
0000
0000
1000
0100
0010
0001
0000
0000
0100
0010
1000
,
0001
0000
0000
0000
,
1000
0000
0000
0000
,
0100
0000
0000
0000
,
0010
0000
0000
0000
0000
0000
0000
0000
0110
0000
0000
0000
0010
0100
0001
1000
,
0100
0010
0001
0000
0100
0000
0010
1000
0000
0001
0100
0000
0001
0000
1000
0001
,
0100
0000
0010
0000
1000
0010
0100
0000
0001
0000
0100
0010
1000
0000
0001
0100
,
0000
0001
0100
0010
1000
0001
0100
0000
0001
0000
0100
1000
0000
0100
0001
0000
,
0200
0300
0000
0000
0200
0300
0000
0000
1000
0000
0000
0000
0000
0000
0000
0000
0001
0000
0000
0000
0000
0000
0000
0000
1000
0000
0000
0000
0100
0000
0000
0000
0000
0000
0000
0000
0010
0000
0000
0000
0001
0000
0000
0000
0000
0000
0000
0000
1000
0000
0000
0000
0010
0000
0000
0000
0100
0000
0000
0000
0001
0000
0000
0000
,
0100
0010
1000
0100
0001
0000
0100
1000
0001
0100
0001
0000
1000
0010
0100
0000
,
0001
0100
0010
1000
0001
0000
1000
0010
0100
0000
1000
0100
0000
0001
1000
0000
,
0001
0100
0010
0000
0100
0000
0010
1000
0001
0100
0010
0000
1000
0100
0010
0001
,
0100
0000
0000
0000
0000
0000
0000
0000
0001
0000
0000
0000
0100
0000
0000
0000
0000
0000
0000
0000
0010
0000
0000
0000
1000
0000
0000
0000
0000
0000
0000
0000
0200
0300
0000
0000
0200
0300
0000
0000
0001
0000
0000
0000
0000
0000
0000
0000
1000
0000
0000
0000
0000
0000
0000
0000
0100
0000
0000
0000
0010
0000
0000
0000
,
0000
0001
0100
0000
0010
1000
0010
0100
0001
0000
0100
0010
0000
1000
0100
0010
,
0001
0100
0001
0100
0001
0100
0002
0000
0000
0000
0000
0000
0013
0000
0000
0000
0000
0000
2000
0000
0000
0000
0000
0000
,
3100
0000
0002
0000
1003
0200
0010
0000
,
0301
1000
0020
1000
,
0031
0100
0010
0000
1000
0100
0001
0100
,
0220
0000
0000
0000
0000
0000
0000
0000
0330
0000
0000
0000
0000
0000
0000
0000
2002
3003
0000
0000
1000
0000
0000
0000
0100
0000
0000
0000
0010
0000
0000
0000
0001
0000
0000
0000
0100
0000
0000
0000
1000
0000
0000
0000
0100
0000
0000
0000
0001
0000
0000
0000
0010
0000
0000
0000
0100
0000
0000
0000
1000
0000
0000
0000
,
0010
0100
1000
0100
0001
1000
0100
0010
0100
0001
0100
0010
0100
1000
0001
1000
,
0010
0100
0010
1000
0001
0010
1000
0010
0100
1000
0010
1000
0001
0100
1000
0100
,
0010
1000
0001
0100
0110
0000
0000
0000
0100
0000
0100
0000
0001
0000
0000
0000
,
1001
1001
1001
0000
1000
0010
0100
0010
1000
0000
0001
0010
0100
0010
0001
0000
,
1000
0001
0100
0001
1000
0100
0010
0100
1000
0100
0010
0001
0100
0010
0100
0001
,
1000
0100
0010
0000
0001
0010
0100
1000
0001
0000
0100
0010
1000
0001
0010
0100
,
0010
0001
1000
0000
0001
0100
0010
1000
0100
0010
0001
0100
0010
1000
0010
0100
,
0001
0010
0100
1000
0001
0100
0010
1000
0010
0000
1000
0001
0100
0000
1000
0100
,
0010
1000
0100
0000
0010
0001
1000
0000
0010
0000
0100
0001
0010
0100
1000
0100
,
0010
0001
1000
0010
1000
0100
0010
0001
1000
0000
0001
0100
0010
1000
0001
0000
,
1000
0000
0100
1000
0001
0010
0100
0010
0001
0100
0010
1000
0001
0000
1000
0100
,
1000
0000
0100
0000
0010
0001
0100
0000
0010
0000
1000
0100
0010
0001
0100
0010
,
1000
0100
1000
0010
1000
0001
0100
0001
1000
0000
0100
0010
0001
0000
1000
0000
,
0010
0100
0001
0000
1000
0001
0100
0001
1000
0000
0100
0000
0010
0000
0110
0000
,
0001
1000
0001
1000
0001
0000
0001
0000
0010
0000
0010
0000
0100
0000
0100
0000
,
1000
1000
1100
0100
0010
0010
0001
0001
,
0100
0100
0110
0010
0001
0001
1000
1000
,
0001
0001
0011
0010
0100
0100
1000
1000
,
0001
0000
0000
0001
0000
0000
1000
0000
0001
0000
0010
0000
0100
0000
1000
0000
0100
0000
1000
0000
0001
0000
1000
0000
,
0100
0010
0100
1000
1000
0010
0001
0010
0100
1000
1000
0100
,
0001
0010
0100
1000
0100
0001
1000
0010
0001
0100
1000
0001
,
0010
0000
0000
0000
1000
0000
0000
0000
0001
0000
0000
0000
1000
0000
0000
0100
0000
0000
1000
0000
0000
0100
0000
0000
0010
0000
0000
0001
0000
0000
0100
0000
0000
0010
0000
0000
1000
0000
0000
0000
0000
0000
0001
0000
0010
0000
0100
0000
,
2000
0000
0000
0000
,
0000
0000
0000
0000
0000
0000
0000
0000
3000
0000
0000
0000
1000
0010
1000
0000
,
0100
0000
0010
0000
0100
1000
0001
0000
1000
0100
0010
0000
0100
1000
0001
0000
,
0010
0000
0100
0000
0010
0001
0100
0010
1000
0000
0001
0000
1000
0001
0100
0000
,
0010
0000
1000
0000
0001
0010
0100
0000
1000
0010
0100
0000
0001
0100
0010
1000
,
0100
0010
0001
1000
0001
0010
0100
1000
0010
0100
0001
0000
1000
0001
1000
0010
,
0100
0000
0001
0100
0010
1000
0010
1000
0001
0010
0100
0000
1000
0100
1000
0001
,
0100
0001
1000
0100
0010
0001
1000
0010
0200
0000
0000
0000
0301
0100
0001
0000
,
0100
0010
0100
0000
0010
1000
0001
1000
0100
1000
0001
0000
1001
0000
1001
0000
,
0000
0000
0000
0000
0000
0000
0000
0000
0110
0000
0000
0000
1000
0100
1000
0010
,
0100
0001
1000
0000
0001
0010
0100
1000
0100
0010
0001
0000
1000
0010
0100
0010
,
1000
0100
0010
0000
0001
0100
0001
0010
0002
0000
0000
0000
0103
0010
1000
0010
,
0100
0001
1000
0000
0001
0010
0100
1000
0001
0100
0001
0000
1000
0100
0010
0001
,
0100
0010
1000
0100
0010
0100
1000
0010
0100
0001
0010
0100
1000
0000
1010
0000
,
0000
0000
0000
0000
0000
0000
0001
0000
0000
1000
0100
0010
0001
0000
0000
0100
0001
1000
0010
0000
0000
0110
0000
0000
,
0000
0000
0000
0000
0000
0000
0000
0000
0000
0000
0000
0000
0001
0000
0000
0000
0000
0000
0010
0000
0001
0000
1000
0000
0100
0000
0000
0000
0000
0000
1000
0000
0001
0000
0100
0000
0020
0000
0000
0000
0000
0000
1000
0000
0000
0100
0000
0000
,
0000
0000
0001
0100
0000
0000
1000
0100
0030
0000
0001
0100
0010
1000
0100
0010
,
0001
0100
0010
1000
0001
0010
0001
0100
0010
1000
0001
0100
0001
0010
0000
0100
,
1000
0000
0010
0200
0001
0001
0000
1000
1300
0000
0100
0020
1000
1000
0000
0001
,
0031
0000
0010
0200
0001
0001
0000
1000
1300
0000
0001
0010
0100
1100
0000
0100
,
0110
0000
0100
0001
1000
1010
0000
0010
0101
0000
0001
1000
0010
1010
0000
0100
,
1001
0000
0100
0010
0220
0000
0000
0000
0330
1000
0100
0000
1001
0000
0000
0000
,
0010
0100
0010
0100
0001
1000
0001
1000
0001
0010
0001
0010
0100
1000
0100
1000
0001
0010
0100
1000
0010
0100
0001
1000
0002
0000
0000
0000
0000
0000
0000
0000
,
0000
0003
0000
0000
;

//--------------- dance-single - Fred-104† ----------------
#NOTES:
     dance-single:
     Fred-104†:
     Challenge:
     19:
     :
0000
0000
0000
0000
,
0000
0000
0000
0000
,
0000
0000
0000
0000
,
0000
0000
0000
0000
,
0000
0000
0000
0000
,
0000
0000
0000
0000
,
0000
0000
0000
0000
,
0001
0000
0010
0000
0001
0000
0100
0010
1000
0100
1000
0010
0100
0001
1000
0001
,
0100
0000
0010
0000
1000
0000
0100
0010
0001
1000
0010
1000
0001
0100
0001
1000
,
0010
0000
1000
0000
0100
0000
1000
0100
0010
0001
0010
0100
1000
0001
0100
0010
,
0100
0000
0001
0000
0100
0000
0001
0010
0100
1000
0001
0010
0100
1000
0001
0100
,
0010
0000
1000
0000
0001
0000
1000
0010
0100
1000
0100
0010
1000
0100
0010
0001
,
1000
0000
0010
0000
0100
0000
0001
0100
0010
0001
0010
0100
0001
0100
0010
1000
,
0001
0000
0100
0000
0001
0000
0010
0100
0001
0100
0010
0001
0100
0010
1000
0100
,
0110
1001
0000
0000
0000
0000
1100
0000
,
0101
0000
0101
0000
0001
0010
0100
0001
0100
0010
0001
1000
0010
0100
0001
1000
,
0100
0000
1100
0000
1000
0010
0100
0001
0100
1000
0100
0010
1000
0100
0010
0001
,
0010
0000
0011
0000
0001
0100
0010
0001
0010
1000
0001
1000
0100
0010
0001
1000
,
0001
0000
1001
0000
1000
0010
0001
0010
0100
0001
1000
0010
1000
0001
0100
0001
,
0100
0000
0120
0000
1030
0100
0010
0100
0001
0100
1000
0010
0100
1000
0100
0010
,
1000
0000
1002
0000
1003
0100
0010
0001
0100
0010
0001
0010
0100
0001
0010
0100
,
1000
0000
2100
0000
3100
0010
0001
0100
0010
0001
0010
0100
0001
1000
0001
0100
,
0110
0000
0000
1001
0000
0000
0000
0000
0000
0000
0000
0000
1100
0000
0000
1000
0100
0010
0001
0000
0000
0100
0001
1000
,
0100
0000
0000
0000
,
0010
0000
0000
0000
,
0001
0000
0000
0000
,
1000
0000
0000
0000
0000
0000
0000
0000
1001
0000
0000
0000
0001
0100
0010
1000
,
0001
0100
0100
0000
1000
0000
0100
0100
0000
0001
0010
0000
0100
1000
0001
0100
,
0001
0010
0010
1000
0001
0100
0010
0000
1000
0100
0010
0000
0011
0000
0001
1000
,
0000
0100
0010
0000
0001
1000
0010
0000
1001
0000
1000
0100
0000
0100
0010
0001
,
1000
0010
0100
0000
1000
0000
0100
0010
0000
1000
0100
0010
0001
0100
0010
1000
,
0001
0010
0100
1000
0002
0000
1003
0001
0100
0100
1000
0000
0001
0000
1000
0100
,
0000
0010
0001
0000
0100
0100
1000
0000
0001
0000
0100
0100
0000
1000
0001
0000
,
1000
0100
0010
0100
1000
0010
0100
0001
1000
0010
0010
0000
0001
0010
0010
0000
,
1000
0000
0001
0010
0100
1000
0001
1000
0001
0010
0100
0000
0001
0000
1000
0010
,
0000
0001
1000
0001
0100
0000
0010
1000
0001
0100
0010
0001
0010
1000
0001
1000
,
0001
0100
0010
1000
0001
1000
0200
0000
0000
0000
0000
0000
0010
0000
0000
0000
0000
0000
0001
0000
0000
0000
0000
0000
,
1300
0000
1200
0000
0010
1000
0301
0000
,
0110
1200
0310
0201
,
0310
1000
0001
0000
1000
0100
0001
0010
,
1000
0000
0000
0000
0000
0000
0000
0000
0000
0000
0000
0000
0000
0000
0000
0000
2002
3003
0000
0000
0001
0000
0000
0000
1000
0000
0000
0000
0100
0000
0000
0000
1000
0000
0000
0000
0100
0000
0000
0000
1000
0000
0000
0000
0010
0000
0000
0000
1000
0000
0000
0000
0100
0000
0000
0000
0010
0000
0000
0000
1000
0000
0000
0000
,
0001
0100
0010
0001
1000
0001
0100
1000
0100
0010
1000
0100
0010
0001
0100
0010
,
0001
0010
1000
0001
1000
0100
0001
1000
0010
0001
0100
1000
0001
0010
1000
0001
,
0100
0010
1000
0001
1001
0000
0000
0000
1100
0000
0101
0000
1001
0000
0000
0000
,
0110
0110
1001
0000
1000
0100
0010
0100
1000
0010
0100
0001
0010
0001
0100
0010
,
1000
0001
0010
0100
0010
0001
1000
0001
0100
0001
1000
0010
0100
0010
1000
0001
,
0100
0001
1000
0100
0010
0001
0010
0100
1000
0001
0100
0001
1000
0100
0010
0001
,
1000
0100
1000
0001
0100
0010
1000
0001
0010
0001
1000
0100
0010
0001
1000
0010
,
1000
0010
0100
0001
1000
0100
0010
0001
1000
0010
0100
0001
0010
0100
1000
0001
,
0100
0010
1000
0100
0010
0100
1000
0010
0100
1000
0100
0010
1000
0010
0100
0001
,
0100
0010
0001
0010
0100
0001
1000
0001
1000
0010
0100
1000
0100
0001
0100
0001
,
1000
0100
0010
0100
1000
0010
0100
0010
0001
0010
0100
0010
1000
0100
0001
0100
,
1000
0010
0100
0001
1000
0100
0010
0100
1000
0010
0100
0010
1000
0001
0010
0100
,
0001
0100
0010
0001
0100
0001
1000
0100
0001
0100
0010
0001
1000
0010
0100
1000
,
0100
0001
1000
0001
1000
0100
0010
0001
1000
0000
0001
0000
1100
0000
0101
0000
,
1000
0010
0100
0001
1000
0000
1000
0000
0100
0000
0100
0000
0010
0000
0010
0000
,
0001
0001
1001
1000
0010
0010
0100
0100
,
0001
0001
0011
0010
1000
1000
0100
0100
,
0001
0001
0101
0100
1000
1000
0010
0010
,
0001
0000
0000
0001
0000
0000
1000
0000
0100
0000
0010
0000
1000
0000
0010
0000
0001
0000
1000
0000
0010
0000
0100
0000
,
1000
0100
0001
1000
0100
0010
0001
0100
0010
0001
0010
1000
,
0001
0100
0010
1000
0100
0100
0001
0100
0100
1000
0010
0010
,
0001
0000
0000
0000
0010
0000
0000
0000
0010
0000
0000
0000
1000
0000
0000
0010
0000
0000
0100
0000
0000
0001
0000
0000
0010
0000
0000
0100
0000
0000
1000
0000
0000
0010
0000
0000
0100
0000
0000
0001
0000
0000
0010
0000
0001
0000
1000
0000
,
0002
0000
0000
0000
,
0000
0000
0000
0000
0000
0000
0000
0000
0003
0000
0000
0000
1000
0100
0010
0001
,
1000
0010
0100
0000
0001
0100
0010
1000
0001
0010
0100
0000
1000
0100
0010
0100
,
1000
0100
0010
0001
0100
0010
1000
0001
0100
0000
1000
0100
0010
1000
0010
0100
,
0001
1000
0100
1000
0001
1000
0010
1000
0100
0010
0001
0010
0100
1000
0001
1000
,
0001
0100
0010
0001
0010
1000
0001
0100
0002
0000
2003
0000
3001
0010
0100
0010
,
0001
1000
0010
1000
0001
0010
0001
0100
1000
0100
0010
1000
0100
0010
0001
0100
,
0010
1000
0010
0100
0001
0010
0100
1000
0002
0000
0000
0000
1003
0010
1000
0001
,
0010
0100
0001
0100
0010
0001
1000
0010
0100
0001
1000
0000
1100
0000
0110
0000
,
0000
0000
0000
0000
0000
0000
0000
0000
1001
0000
0000
0000
1000
0100
0010
0001
,
0100
0010
0001
0010
1000
0001
0100
0001
0010
0100
0001
0100
1000
0001
0100
1000
,
0100
0010
1000
0100
0010
0001
0100
0010
2000
0000
0000
0000
3001
0010
0100
1000
,
0010
0100
1000
0100
0001
1000
0100
0010
0100
0001
0100
1000
0001
0010
0100
0001
,
1000
0010
0001
1000
0010
0100
1000
0001
0010
1000
0001
1000
1100
0000
1001
0000
,
0000
0000
0000
0000
0000
0000
1001
0000
0000
0001
1000
0010
0100
0000
0000
0001
1000
0100
0010
0000
0000
0011
0000
0000
,
0000
0000
0000
0000
0000
0000
0000
0000
0000
0000
0000
0000
0101
0000
0000
0000
0000
0000
0001
0000
1000
0000
0100
0000
0010
0000
0000
0000
0000
0000
0100
0000
1000
0000
0001
0000
0200
0000
0000
0000
0000
0000
0001
0000
0000
0010
0000
0000
,
0300
0000
1000
0001
0020
0000
0001
0100
0030
0000
1000
0100
0010
0001
0100
0010
,
0001
0010
1000
0001
0100
1000
0100
0010
1000
0100
0010
0001
1000
0100
0000
0001
,
0100
0000
1000
0010
0001
0010
0000
1000
0100
0000
0001
0100
0010
1000
0000
0001
,
0010
0000
0100
1000
0010
0100
0000
0001
0010
0000
0001
0100
0201
0001
0000
0001
,
0001
0000
0000
0000
0000
0000
0000
0000
0000
0000
0000
0000
0000
0000
0000
0000
0000
0000
0000
0000
0000
0000
0000
0000
1000
0000
0000
0000
0000
0000
0000
0000
0000
0000
0000
0000
1000
0000
0000
0000
0000
0000
0000
0000
0000
0000
0000
0000
0010
0000
0000
0000
0000
0000
0000
0000
0000
0000
0000
0000
0010
0000
0000
0000
0000
0000
0000
0000
0000
0000
0000
0000
0000
0000
0000
0000
0000
0000
0000
0000
0000
0000
0000
0000
1000
0000
0000
0000
0000
0000
0000
0000
0000
0000
0000
0000
2300
0000
0000
0000
0000
0000
0000
0000
0000
0000
0000
0000
0000
0000
0000
0000
0000
0000
0000
0000
0000
0000
0000
0000
0001
0000
0000
0000
0000
0000
0000
0000
0000
0000
0000
0000
0001
0000
0000
0000
0000
0000
0000
0000
0000
0000
0000
0000
3100
0000
0000
0000
0000
0000
0000
0000
0000
0000
0000
0000
0200
0000
0000
0000
0000
0000
0000
0000
0000
0000
0000
0000
0000
0000
0000
0000
0000
0000
0000
0000
0000
0000
0000
0000
0010
0000
0000
0000
0000
0000
0000
0000
0000
0000
0000
0300
,
0010
0000
0000
0000
1000
0001
0100
0010
2000
0000
0000
0000
3001
0100
0010
1000
0001
0000
0010
0000
0100
0000
0000
0000
2200
0000
0000
0000
0000
0000
0000
3300
,
0001
0000
0000
0010
0000
0000
0100
0000
0000
1000
0000
0000
0010
0000
0000
0100
0000
0000
0001
0000
0000
0010
0000
0000
0100
0000
0000
1000
0000
0000
0100
0000
0000
0010
0000
0000
0001
0000
0000
0100
0000
0000
0010
0000
0000
1000
0000
0000
0001
0000
0000
0100
0000
0000
0001
0000
0000
1000
0000
0000
0001
0000
0100
0000
0001
0000
0100
0000
0001
0000
0100
0000
0020
0000
0000
0000
0000
0000
0000
0000
0000
0000
0000
0000
0000
0000
0000
0000
0000
0000
0000
0000
0000
0000
0000
0000
,
0000
0030
0000
0000
;

//--------------- dance-double - Fred-104 ----------------
#NOTES:
     dance-double:
     Fred-104:
     Easy:
     10:
     :
00000000
00000000
00000000
00000000
,
00000000
00000000
00000000
00000000
,
00000000
00000000
00000000
00000000
,
00000000
00000000
00000000
00000000
,
00000000
00000000
00000000
00000000
,
00000000
00000000
00000000
00000000
,
00000000
00000000
00000000
00000000
,
00010000
00000000
00001000
00010000
00001000
00000000
00100000
00000000
,
01000000
00000000
10000000
00000000
00100000
01000000
00100000
00000000
,
00010000
00000000
00001000
00000100
00000010
00000000
00001000
00000000
,
00000001
00000000
00000100
00000000
00001000
00010000
00100000
00000000
,
01000000
00000000
00100000
10000000
00010000
00000000
10000000
00000000
,
01000000
00000000
00100000
00000000
00010000
00100000
00001000
00000000
,
00010000
00000000
00000010
00001000
00000010
00000000
00010000
00000000
,
00001000
00001000
00000000
00000000
00000000
00000000
00001001
00000000
,
00000001
00000000
00001000
00000100
00000010
00000000
00000001
00000000
,
00000100
00000000
00000010
00000000
00010000
00001000
01000000
00000000
,
00010000
00000000
00100000
01000000
10000000
00000000
00100000
00000000
,
00010000
00000000
00001000
00000000
00000100
00000010
00001000
00000000
,
00000001
00000000
00000100
00000010
00000100
00000000
00001000
00000000
,
00010000
00000000
00100000
00000000
01000000
00100000
10000000
00000000
,
01000000
00000000
00010000
00001000
00010000
00000000
00001000
00000000
,
00010000
00010000
00000000
00000000
00020000
00000000
00032000
00000000
,
00013000
00000000
00000000
00000000
,
00000010
00000000
00000000
00000000
,
00000100
00000000
00000000
00000000
,
00000001
00000000
00002002
00003003
,
00000001
00000100
00001000
00000100
,
00000001
00000010
00001000
00010000
,
00100000
10000000
01000000
00010000
,
00001000
00010000
00001000
00000000
00100000
00000000
00001000
00010000
,
00001000
00000020
00000031
00000010
,
00000100
00001000
00000001
00000100
,
00001000
00010000
01000000
10000000
,
00100000
00000000
00010000
00000000
00001000
00010000
00001000
00000000
,
00000010
00000000
00000001
00000100
00001000
00000000
00010000
00000000
,
00002000
00023000
00130000
20000000
,
31000000
00000000
00020000
00000000
00031000
00000100
00000002
00000000
,
00001003
00000010
00000100
00000001
,
00000010
00001000
00010000
00000000
00001000
00100000
00010000
01000000
,
00100000
00000000
00000000
00000000
00000000
00000000
00000000
00000000
00000000
00000000
00000000
00000000
00000000
00000000
00000000
00000000
20000000
30000000
00000000
00000000
00000000
00000000
00000000
00000000
01000000
00000000
00000000
00000000
00000000
00000000
00000000
00000000
00010000
00000000
00000000
00000000
00000000
00000000
00000000
00000000
00000000
00000000
00000000
00000000
00000000
00000000
00000000
00000000
00001000
00000000
00000000
00000000
00000000
00000000
00000000
00000000
00000100
00000000
00000000
00000000
00000000
00000000
00000000
00000000
,
00000001
00000000
00000001
00000010
00001000
00000000
00010000
00100000
,
10000000
00000000
00010000
00100000
01000000
10000000
00100000
01000000
,
00010000
00100000
00101000
00000000
00010000
00001000
00000100
00000000
,
00000001
00001000
00000001
00000000
00000100
00000000
00000000
00000000
00000010
00000000
00000000
00000000
00000100
00000000
00000000
00000000
,
00000001
00001000
00000100
00010000
,
00001000
00010000
00100000
10000000
,
00010000
00000000
00100000
00000000
10000000
00000000
00100000
00010000
,
10000000
01000000
00010000
00001000
,
00000100
00001000
00010000
01000000
,
10000000
00100000
00010000
00001000
,
00000100
00000000
00000010
00000000
00001000
00000000
00000001
00001000
,
00000100
00000001
00000100
00001000
,
00000001
00000010
00000100
00000000
00010000
00000000
00001000
00000000
,
00100000
01000000
10000000
00000000
10000000
00000000
00010000
10000000
,
00010000
10000000
00010000
00000000
10000000
00000000
00100000
00000000
,
01000000
00001000
00010000
00001000
,
00000010
00000001
00001000
00000001
,
00000100
00000010
00001000
00010000
,
01000000
00000000
00100000
10000000
00010000
00000000
10000000
00000000
,
01000000
00000000
00100000
00001000
00010000
00000000
00001000
00000000
,
00000100
00000000
00000001
00000100
00001000
00000000
00000100
00000001
,
00000010
00000001
00001000
00000010
,
00000220
00000000
00000000
00000000
,
00000000
00000000
00000000
00000000
00000330
00000000
00010000
00001000
,
00010000
00001000
01000000
00010000
,
00100000
00000000
01000000
00100000
01000000
00000000
10000000
00100000
,
00010000
00001000
00010000
00100000
,
01000000
00000000
01001000
00000000
00000000
00000000
00001000
00010000
,
00001000
00000100
00000001
00001000
,
00000100
00000000
00000010
00000001
00001000
00000000
00000010
00000100
,
00000001
00000000
00001000
00000000
00000100
00000000
00010000
00010000
,
00000000
00000000
00000000
00000000
00011000
00000000
00001000
00010000
,
00100000
00000000
01000000
00000000
00100000
00000000
10000000
01000000
,
00010000
00000000
00001000
00010000
00001000
00000000
00010000
00001000
,
00000100
00000000
00000001
00000000
00001000
00000000
00000100
00000010
,
00000001
00000000
00001001
00000000
00000000
00000000
00000001
00000001
,
00000000
00000000
00000100
00000000
00001000
00000000
00010000
00010000
,
00000000
00100000
10000000
01000000
,
00101000
00000000
00000100
00000000
00010010
00000000
00010000
00001000
,
00000100
00000000
00000001
00001000
00000001
00000000
00000002
00000000
,
00000103
00000020
00001030
00000200
,
00010300
02000000
03010000
00002000
,
00103000
00002000
00003010
00020000
,
00130000
02000000
03100000
10010000
,
10000000
01000000
00010000
00001000
00000100
00000001
00002002
00000000
,
00000000
00003003
00000000
00000000
;

//--------------- dance-double - Fred-104 ----------------
#NOTES:
     dance-double:
     Fred-104:
     Medium:
     14:
     :
00000000
00000000
00000000
00000000
,
00000000
00000000
00000000
00000000
,
00000000
00000000
00000000
00000000
,
00000000
00000000
00000000
00000000
,
00000000
00000000
00000000
00000000
,
00000000
00000000
00000000
00000000
,
00000000
00000000
00000000
00000000
,
10000000
00000000
00010000
00200000
02300000
13000000
01000000
00000000
,
00100000
00001000
00010000
00002000
00003020
00001030
00010000
00000000
,
00001000
00000000
00000100
00000002
00000203
00000310
00001000
00000000
,
00000001
00000010
00000100
00020000
00032000
00103000
01000000
00000000
,
10000000
01000000
00100000
20000000
30200000
01300000
10000000
00000000
,
01000000
00100000
00010000
02000000
03002000
00013000
00001000
00000000
,
00010000
00001000
00000100
00000002
00002003
00003100
00000010
00000000
,
00001001
00001001
00000000
00000000
00000000
00000000
00011000
00000000
,
00001000
00001000
00010000
00200000
20300000
30010000
00100000
01000000
,
10000000
10000000
00100000
00020000
00032000
00003100
00000010
00001000
,
00000001
00000001
00000010
00000200
00000320
00001030
00010000
01000000
,
10000000
10000000
00010000
02000000
03200000
01300000
00001000
00010000
,
00001000
00001000
00010000
00000020
00002030
00003100
00000010
00000001
,
00001000
00001000
00000100
00020000
00032000
00023000
00130000
10000000
,
00010000
00010000
01000000
00200000
00320000
00031000
00000100
00000010
,
00000110
00000110
00000000
00000000
00010000
00002000
00013000
02000000
,
13000000
00000000
00000000
00000000
,
00010000
00000000
00000000
00000000
,
00001000
00000000
00000000
00000000
,
00000001
00000000
00002002
00003003
,
00001000
00000000
00000100
00000000
00000010
00000000
00000001
00000000
00000100
00000000
00001000
00000000
00010000
00000000
00001000
00010000
,
00001000
00000000
00010000
00000000
00100000
01000000
00100000
00000000
10000000
00000000
01000000
00000000
00010000
00000000
00001000
00010000
,
00000000
00001000
00010000
00000000
00001000
00000000
00000100
00000000
00000010
00000000
00001000
00000000
00000100
00000000
00000010
00000000
,
00000001
00000100
00000001
00000000
00001000
00000000
00000100
00010000
00000000
00010000
00001000
00000000
00010000
00000000
00100000
00000000
,
01000000
00100000
20000000
00000000
30010000
00100000
01000000
00100000
,
00001000
00000000
00010000
00000000
00000100
00000000
00001000
00000001
00001000
00000000
00000100
00000000
00000010
00000100
00000010
00000000
,
00000100
00000000
00001000
00000000
00000001
00000000
00000100
00000010
00000000
00000100
00001000
00000000
00010000
00000000
00100000
00000000
,
01000000
00000000
00100000
10000000
00000000
01000000
00100000
00000000
00001000
00010000
00001000
00000000
00010000
00000000
00000100
00001000
,
00000000
00000001
00001000
00000000
00000001
00000000
00000100
00000000
00001000
00000000
00010000
00000000
00001000
00000000
00000100
00000000
,
00000010
00002100
00003010
00000102
,
00000013
00000000
00000210
00000000
00001300
00010000
02000000
00000000
,
03100000
20000000
00100000
01000000
,
30100000
01000000
00001000
00000000
00010000
00001000
00000010
00001000
,
00011000
00000000
00000000
00000000
00001000
00010000
00100000
00000000
10000000
00100000
00010000
00000000
00001000
00000010
00000001
00001000
,
00000100
00000010
00000001
00000000
00000100
00001000
00010000
00000000
01000000
10000000
01000000
00000000
00010000
00001000
00000100
00000010
,
00001000
00000001
00000100
00000000
00000001
00000010
00000100
00000010
00001000
00010000
01000000
00100000
01000000
10000000
00100000
00010000
,
00001000
00000100
00000010
00001000
00001001
00000000
00000000
00000000
00000001
00000000
00000100
00000000
00001100
00000000
00000000
00000000
,
00010000
00001000
00011000
00000000
00001000
00000000
00010000
00000000
00001000
00000000
00100000
00000000
00001000
00000000
00010000
00000000
,
00001000
00100000
00010000
10000000
00010000
01000000
00010000
10000000
,
01000000
00100000
01000000
00100000
00001000
00010000
00001000
00000100
,
00000001
00001000
00000100
00000010
00000100
00001000
00000001
00000100
,
00000010
00000000
00010000
00000010
00001000
00000100
00010000
00000010
,
00001000
00000100
00010000
00001000
01000000
00010000
00100000
00001000
,
01000000
00010000
00100000
00001000
00010000
00100000
10000000
00100000
,
00010000
00001000
00010000
00001000
00000100
00000001
00001000
00000100
,
00000010
00000000
00000001
00001000
00000100
00000010
00000001
00000100
,
00000010
00001000
00000100
00010000
00001000
00010000
00001000
00010000
,
00100000
10000000
00100000
01000000
00010000
10000000
00010000
00010000
,
10000000
01000000
10000000
01000000
10000000
00000000
01000000
00000000
00010000
00000000
00000000
00000000
00001000
00000000
00010000
00000000
,
00001000
00000000
00000100
00000001
00001000
00000000
00000001
00000010
,
00001000
00000000
00010000
00001000
00000010
00000001
00000100
00001000
,
00010000
00000000
00100000
01000000
00010000
10000000
01000000
00100000
,
00010000
00000000
10000000
00100000
00010000
00000000
00001000
00000010
,
00000001
00000000
00000001
00000100
00001000
00000000
00010000
01000000
,
10000000
00000000
00010000
01000000
00100000
00010000
00001000
00000100
,
00000010
00000000
00010000
00000000
00001000
00000000
00010000
00000000
01000000
00000000
10000000
00000000
01000000
00000000
00100000
00010000
,
00200000
00000000
00000000
00000000
,
00000000
00000000
00000000
00000000
00300000
00000000
00001000
00010000
,
00001000
00000100
00000010
00001000
00000001
00000010
00000001
00000100
,
00010000
01000000
00100000
10000000
00020000
00000000
10030000
00100000
,
00010000
00001000
00000100
00000010
00001000
00000001
00000010
00010000
,
00100000
01000000
10000000
01000000
00200000
00000000
00301000
00010000
,
00001000
00000100
00000010
00001000
00000100
00000010
00000001
00000100
,
00010000
01000000
00100000
01000000
00020000
00000000
10030000
01000000
,
00010000
00001000
00010000
01000000
10000000
00010000
10010000
10010000
,
00000000
00000000
00000000
00000000
00011000
00000000
00010000
00000100
,
00000010
00000001
00001000
00000010
00000100
00001000
00010000
00100000
,
01000000
00010000
10000000
00100000
00010000
00000000
00001000
00010000
,
00100000
10000000
01000000
00100000
00001000
00000010
00000001
00000010
,
00000100
00010000
00001000
00000100
00000001
00000000
00001000
00001001
,
00000000
00000000
00000010
00002000
00003100
00020000
00031000
00011000
,
00000000
00000000
00100000
00020000
10030000
00200000
01300000
00010000
,
10000000
00000000
01000000
00100000
00001000
00000000
00010000
00001000
,
00000100
00000010
00001000
00000100
00000010
00000001
00002000
00000000
,
00003001
00000000
00000100
00000000
00001000
00000100
00000000
00000100
00000010
00000000
00000001
00000000
00000100
00000010
00000000
00000010
,
00001000
00000000
00000100
00000000
00010000
00001000
00000000
00001000
00010000
00000000
00100000
00000000
01000000
00010000
00000000
10000000
,
01000000
00000000
00100000
00000000
00001000
00010000
00000000
00000010
00001000
00000000
00000100
00000000
00000010
00000001
00000000
00000100
,
00000010
00000000
00001000
00000000
00002002
00000000
00000000
00000000
00003003
00000100
00000010
00000000
00000110
00000000
00000000
00000000
,
00000001
00000100
00000010
00001000
00000100
00010000
00001000
00100000
00010000
01000000
00100000
10000000
02000000
00000000
00000000
00000000
,
00000000
03000000
00000000
00000000
;

//--------------- dance-double - Fred-104 ----------------
#NOTES:
     dance-double:
     Fred-104:
     Hard:
     18:
     :
00000000
00000000
00000000
00000000
,
00000000
00000000
00000000
00000000
,
00000000
00000000
00000000
00000000
,
00000000
00000000
00000000
00000000
,
00000000
00000000
00000000
00000000
,
00000000
00000000
00000000
00000000
,
00000000
00000000
00000000
00000000
,
00000001
00000000
00000100
00000000
00000001
00000000
00000010
00000001
00001000
00000000
00000010
00000000
00010000
00000000
00000100
00000000
,
00001000
00000000
00000100
00000000
00010000
00000000
00001000
00100000
00010000
01000000
00010000
00000000
00100000
00000000
00010000
00000000
,
10000000
00000000
00100000
00000000
01000000
00000000
00010000
10000000
00010000
00000000
01000000
00000000
00001000
00000000
00010000
00000000
,
00001000
00000000
00000010
00000000
00000100
00000000
00001000
00000100
00000010
00000001
00001000
00000000
00000001
00000000
00000100
00000000
,
00000001
00000000
00000010
00000000
00000100
00000000
00000010
00001000
00010000
00000000
01000000
00000000
00100000
00000000
00010000
00000000
,
00100000
00000000
00001000
00000000
00010000
00000000
00001000
00000100
00000010
00001000
00000010
00000000
00000100
00000000
00000001
00000000
,
00001000
00000000
00000100
00000000
00000001
00000000
00000100
00000010
00000100
00000000
00000010
00000000
00000001
00000000
00001000
00000000
,
00001010
00001010
00000000
00000000
00000000
00000000
00011000
00000000
,
00101000
00000000
00110000
00000000
00010000
00000000
01000000
00100000
10000000
00000000
00100000
00000000
01000000
00000000
00010000
00000000
,
00110000
00000000
00101000
00000000
00001000
00000000
00010000
00000010
00001000
00000010
00000100
00000000
00000001
00000000
00000010
00000000
,
00000011
00000000
00000101
00000000
00000001
00000000
00001000
00000001
00000100
00000000
00000010
00000000
00010000
00000000
00001000
00000000
,
00011000
00000000
00010010
00000000
00010000
00000000
00001000
00100000
00010000
00100000
00001000
00000000
00100000
00000000
00010000
00000000
,
01020000
00000000
02030000
00000000
03100000
00000000
01000000
00001000
00010000
00000000
00001000
00000000
00100000
00000000
00010000
00000000
,
20010000
00000000
30020000
00000000
01030000
00000000
00001000
00010000
00001000
00000100
00000010
00000000
00001000
00000000
00000010
00000000
,
00000120
00000000
00000230
00000000
00000301
00000000
00001000
00000001
00000010
00000000
00000100
00000000
00001000
00000000
00000100
00000000
,
00000110
00000000
00000110
00000000
00000000
00000000
00000000
00000000
00001000
00000000
00000010
00000100
00001000
00000000
00010000
00100000
,
01000000
00000000
00000000
00000000
,
00000100
00000000
00000000
00000000
,
00100000
00000000
00000000
00000000
,
00000010
00000000
00000000
00000000
00000000
00000000
00000000
00000000
00011000
00000000
00000000
00000000
00010000
00001000
00010000
00001000
,
00010000
00000000
00001000
00100000
00010000
00000000
01000000
00000000
00010000
00100000
00001000
00000000
00010000
00000000
00000010
00001000
,
00000100
00000000
00010000
00000000
00001000
00100000
00010000
00000000
01000000
00000000
00010000
00100000
00001000
00000000
00010000
00000010
,
00000000
00001000
00000010
00001000
00000010
00000100
00000010
00000000
00001000
00000000
00000100
00010000
00000000
00001000
01000000
00000000
,
00010000
00100000
01000000
00000000
10000000
00000000
00100000
01000000
00000000
01000000
00010000
00000000
10000000
01000000
00100000
01000000
,
00100000
00010000
00100000
00001000
00010000
00000000
00000010
00001000
00000100
00000010
00000100
00000000
00000001
00000000
00000100
00001000
,
00000000
00000001
00000100
00000000
00000010
00000100
00001000
00000000
00010000
00000000
00100000
01000000
00000000
00010000
01000000
00000000
,
00100000
00000000
10000000
00000000
00010000
00000000
10000000
01000000
00000000
00100000
01000000
00000000
00010000
00001000
00000010
00000100
,
00001000
00000000
00000001
00000100
00000000
00000100
00000010
00000000
00001000
00000100
00010000
00000000
00001000
00000000
00100000
00010000
,
00000000
00100000
01000000
00000000
10000000
00100000
01000000
00100000
10000000
00000000
00010000
01000000
00000000
00100000
01000000
00010000
,
10000000
01000000
00100000
00001000
00020000
00000000
00000000
00000000
00000010
00000000
00000000
00000000
00100000
00000000
00000000
00000000
,
00030010
00000000
00010000
00000000
00001000
00020000
01000000
00000000
,
00030010
00021000
00000100
01000000
,
00030100
00010000
00001000
00000000
00010000
00001000
00000010
00001000
,
00010000
00000000
00000000
00000000
00000000
00000000
00000000
00000000
00000000
00000000
00000000
00000000
00000000
00000000
00000000
00000000
00022000
00033000
00000000
00000000
00010000
00000000
00000000
00000000
00001000
00000000
00000000
00000000
00010000
00000000
00000000
00000000
00001000
00000000
00000000
00000000
00100000
00000000
00000000
00000000
00010000
00000000
00000000
00000000
01000000
00000000
00000000
00000000
00010000
00000000
00000000
00000000
01000000
00000000
00000000
00000000
00100000
00000000
00000000
00000000
01000000
00000000
00000000
00000000
,
00100000
10000000
00100000
10000000
01000000
00010000
00001000
00000100
00000001
00001000
00000100
00000010
00000001
00000010
00000001
00000010
,
00000100
00000010
00000100
00001000
00010000
00010000
00001000
00010000
00100000
10000000
00100000
10000000
01000000
00100000
00001000
00010000
,
00000100
00000010
00000001
00001000
00001001
00000000
00000000
00000000
00010000
00000000
00001000
00000000
00011000
00000000
00000000
00000000
,
10010000
10010000
10010000
00000000
10000000
00100000
10000000
00100000
10000000
00000000
00010000
00100000
00010000
00100000
00010000
00000000
,
01000000
00010000
00100000
00000000
00001000
00010000
00000100
00001000
00000001
00001000
00000100
00000000
00001000
00000010
00000100
00000001
,
00000010
00000100
00000010
00000000
00000001
00000010
00000100
00000010
00000001
00000000
00000100
00000010
00000100
00001000
00010000
00100000
,
01000000
00100000
01000000
00000000
00010000
10000000
00010000
00000000
01000000
00001000
00010000
00000000
00001000
00100000
00010000
00000000
,
00100000
01000000
00100000
00000000
00010000
10000000
00100000
00000000
10000000
00000000
01000000
00100000
00010000
00000000
00100000
00001000
,
00010000
00001000
00000010
00000000
00000100
00001000
00000001
00000000
00001000
00000000
00000010
00000100
00000001
00000100
00000001
00000100
,
00000010
00001000
00000001
00000000
00001000
00000010
00000100
00000000
00000001
00000000
00001000
00000100
00000010
00000000
00000001
00000000
,
00000100
00000000
00001000
00000000
00010000
00100000
01000000
00000000
00010000
10000000
01000000
00100000
00010000
00000000
10000000
00100000
,
00010000
00000000
00001000
00000000
00000100
00000010
00001000
00000000
00000010
00000000
00010000
00000100
00001000
00000100
00010000
00000100
,
00001000
00000100
00000010
00000001
00001000
00000010
00000100
00000001
00001000
00000000
00000001
00000010
00000100
00000000
00000010
00000000
,
00000001
00000100
00000010
00000000
00001000
00000001
00000010
00001000
00010000
00000000
00001000
00000000
00010000
00000000
00011000
00000000
,
00001000
00010000
00001000
00010000
00001000
00000000
00010000
00000000
00100000
00000000
10000000
00000000
00010000
00000000
00100000
00000000
,
00001000
00100000
00010000
01000000
00100000
00010000
00001000
00010000
,
01000000
00010000
00001000
00000100
00000001
00001000
00000010
00000100
,
00001000
00010000
00100000
10000000
00010000
00100000
01000000
00010000
,
00001000
00000100
00000001
00000100
00001000
00010000
00100000
10000000
,
00010000
00100000
01000000
10000000
01000000
00010000
00001000
00000010
,
00000001
00000000
00000000
00001000
00000000
00000000
00000001
00000000
00000010
00000000
00000001
00000000
00001000
00000000
00000010
00000000
00010000
00000000
00000100
00000000
00010000
00000000
00001000
00000000
,
00100000
00000000
00000000
00000000
00010000
00000000
00000000
00000000
10000000
00000000
00000000
00000000
00010000
00000000
00000000
01000000
00000000
00000000
00001000
00000000
00000000
00010000
00000000
00000000
00000100
00000000
00000000
00001000
00000000
00000000
00000100
00000000
00000000
00000010
00000000
00000000
00000001
00000000
00000000
00000100
00000000
00000000
00001000
00000000
00000000
00010000
00000000
00000000
,
00002000
00000000
00000000
00000000
,
00000000
00000000
00000000
00000000
00000000
00000000
00000000
00000000
00003000
00000000
00000000
00000000
00010000
00000100
00001000
00000000
,
00000100
00000000
00010000
00000000
00001000
00100000
00010000
00100000
00001000
00000000
00010000
00000000
00001000
00100000
00010000
00000000
,
10000000
00000000
00100000
00000000
01000000
00100000
10000000
00100000
01000000
00000000
00010000
00000000
00100000
00001000
00010000
00000000
,
00000100
00000000
00001000
00000000
00000100
00000010
00000001
00000000
00000100
00000010
00001000
00000000
00000001
00000010
00000100
00001000
,
00000100
00010000
00001000
00100000
00010000
00100000
01000000
10000000
00010000
01000000
00100000
00000000
10000000
00010000
00100000
00000000
,
00001000
00010000
00001000
00000000
00000010
00000001
00000010
00000000
00000100
00001000
00000100
00000000
00000010
00000001
00001000
00000010
,
00000100
00000001
00000100
00000010
00001000
00000001
00000010
00000100
00002000
00000000
00000000
00000000
00003100
00010000
00001000
00000000
,
00100000
00010000
10000000
00000000
01000000
10000000
00100000
00000000
01000000
00010000
10000000
00000000
11000000
00000000
01100000
00000000
,
00000000
00000000
00000000
00000000
00000000
00000000
00000000
00000000
00011000
00000000
00000000
00000000
00010000
00001000
00000010
00000000
,
00000001
00001000
00000010
00000000
00001000
00000001
00000100
00000000
00001000
00010000
00100000
00000000
01000000
00010000
00100000
00000000
,
00001000
00010000
01000000
00000000
10000000
00100000
01000000
00010000
20000000
00000000
00000000
00000000
30010000
00100000
01000000
00000000
,
10000000
01000000
00100000
00000000
00001000
00100000
00001000
00010000
00000010
00001000
00000001
00000000
00000010
00000100
00001000
00000001
,
00000100
00000010
00010000
00001000
00010000
01000000
10000000
00010000
00100000
00001000
00010000
00000010
00010000
00000000
00011000
00000000
,
00000000
00000000
00000000
00000000
01000000
00000000
00001000
00010000
00000100
00000000
00010000
00000010
00001000
00000000
00001010
00000000
,
00000000
00000000
00000000
00000000
00001000
00000000
00000001
00000100
00000010
00000000
00001000
00000100
00000010
00000000
00000001
00000100
,
00001000
00000000
00010000
00100000
10000000
00000000
00010000
10000000
00010000
00000000
10000000
01000000
00010000
00001000
00000010
00000100
,
00001000
00000010
00000100
00000001
00000010
00000100
00001000
00000010
00000100
00000001
00001000
00000100
00010000
00001000
00000000
00010000
,
00100000
00000000
10000000
01000000
00100000
00001000
00000000
00010000
00000010
00000000
00000100
00000001
00000010
00001000
00000000
00010000
,
01000000
00000000
00100000
00010000
10000000
00100000
00000000
00001000
00000010
00000000
00000100
00000001
00001000
00001000
00000000
00000010
,
00010000
00000000
00001000
01000000
00010000
00010000
00000000
10000000
01000000
00000000
00010000
00001000
00000010
00000010
00000000
00000001
,
00001000
00000000
00000100
00010000
00022000
00000000
00000000
00000000
00033000
00010000
00001000
00000000
00011000
00000000
00000000
00000000
,
00010000
00001000
00010000
00001000
00010000
00000100
00010000
00000100
00001000
00000100
00001000
00000100
00000010
00000001
00000010
00000001
00000100
00000010
00001000
00000010
00000100
00000001
00001000
00000100
00000020
00000000
00000000
00000000
00000000
00000000
00000000
00000000
,
00000000
00000030
00000000
00000000
;

//--------------- dance-double - Fred-104† ----------------
#NOTES:
     dance-double:
     Fred-104†:
     Challenge:
     19:
     :
00000000
00000000
00000000
00000000
,
00000000
00000000
00000000
00000000
,
00000000
00000000
00000000
00000000
,
00000000
00000000
00000000
00000000
,
00000000
00000000
00000000
00000000
,
00000000
00000000
00000000
00000000
,
00000000
00000000
00000000
00000000
,
00001000
00000000
00100000
00000000
01000000
00000000
10000000
00100000
10000000
01000000
10000000
00010000
01000000
00100000
10000000
00000000
,
01000000
00000000
00100000
00000000
00001000
00000000
00010000
00001000
00010000
00001000
00000010
00000100
00001000
00000001
00001000
00000000
,
00000100
00000000
00000010
00000000
00000001
00000000
00000100
00000010
00000100
00000001
00001000
00000100
00010000
00001000
00010000
00000000
,
01000000
00000000
00100000
00000000
00010000
00000000
01000000
00100000
10000000
00100000
01000000
00010000
10000000
01000000
00100000
00000000
,
00001000
00000000
00010000
00000000
00000010
00000000
00001000
00000010
00010000
00001000
00010000
00000010
00001000
00000001
00000010
00000100
,
00000010
00000000
00000001
00000000
00000100
00000000
00000001
00001000
00000100
00000010
00000100
00001000
00000010
00010000
00001000
00100000
,
00010000
00000000
01000000
00000000
00010000
00000000
00100000
01000000
10000000
00010000
01000000
00100000
10000000
01000000
00100000
00010000
,
10000000
10010000
00000000
00000000
00000000
00000000
00011000
00000000
,
00001001
00000000
00001100
00000000
00001000
00000010
00000100
00000001
00001000
00000100
00000010
00000100
00010000
00001000
00010000
00000000
,
00011000
00000000
00101000
00000000
00100000
00001000
00010000
00001000
00100000
00010000
01000000
00010000
10000000
00100000
10000000
00000000
,
10100000
00000000
10010000
00000000
00010000
10000000
01000000
00100000
01000000
10000000
00010000
01000000
10000000
01000000
00010000
00000000
,
00110000
00000000
00011000
00000000
00010000
00001000
00000010
00000100
00001000
00000001
00000010
00000100
00001000
00000001
00001000
00000000
,
00002100
00000000
00003100
00000000
00001000
00000001
00000100
00000010
00000100
00001000
00010000
00100000
01000000
00010000
10000000
00000000
,
20100000
00000000
30010000
00000000
10000000
00100000
00010000
00001000
00010000
00000100
00000010
00000001
00001000
00000010
00000100
00000000
,
00001002
00000000
00001003
00000000
00000001
00000010
00000100
00001000
00000010
00010000
00001000
01000000
00001000
00010000
00001000
00000000
,
00011000
00000000
00011000
00000000
00000000
00000000
00000000
00000000
10010000
00000000
10000000
01000000
00010000
00000000
00010000
01000000
,
10000000
00000000
00000000
00000000
,
00001000
00000000
00000000
00000000
,
00010000
00000000
00000000
00000000
,
00000001
00000000
00000000
00000000
00000000
00000000
00000000
00000000
00001001
00000000
00000000
00000000
00000001
00001000
00000001
00001000
,
00000001
00000100
00000010
00000000
00001000
00000000
00000010
00000100
00000000
00000001
00000100
00000000
00000010
00000000
00010000
00001000
,
00100000
00010000
00100000
00001000
00010000
00001000
01000000
00000000
00010000
01000000
00100000
00000000
10000000
00000000
00010000
01000000
,
00000000
10000000
01000000
00000000
00100000
10000000
01000000
00000000
00100000
00000000
00001000
00010000
00000000
00000100
00000010
00000001
,
00001000
00000010
00000100
00000000
00000001
00000000
00000001
00000010
00000000
00000010
00000100
00001000
00000001
00000100
00000010
00010000
,
00001000
00100000
00010000
10000000
00200000
00000000
10300000
00010000
01000000
00100000
10000000
00000000
00010000
00000000
00100000
10000000
,
00000000
00100000
00010000
00000000
10000000
01000000
00100000
00000000
00001000
00000000
00010000
00000100
00000000
00001000
00000010
00000000
,
00001000
00000001
00000100
00000001
00001000
00000100
00010000
00001000
01000000
00010000
01000000
00000000
00001000
00010000
00001000
00000000
,
00010000
00000000
00000010
00001000
00000001
00000010
00000100
00000010
00000001
00000100
00001000
00000000
00000100
00000000
00000001
00000010
,
00000000
00001000
00000010
00000000
00000001
00000100
00000010
00001000
00000100
00010000
00001000
00100000
00010000
01000000
00100000
10000000
,
00010000
10000000
00010000
10000000
00010000
10000000
02000000
00000000
00000000
00000000
00000000
00000000
03000200
00000000
00000000
00000000
00000000
00000000
00200300
00000000
00000000
00000000
00000000
00000000
,
00300010
00000000
00012000
00000000
00013000
00000010
00000200
00000000
,
00002300
00023000
00001000
00100000
,
00031000
00100000
00010000
00000000
10000000
01000000
00010000
00001000
,
00000010
00000000
00000000
00000000
00000000
00000000
00000000
00000000
00000000
00000000
00000000
00000000
00000000
00000000
00000000
00000000
00000022
00000033
00000000
00000000
00000001
00000000
00000000
00000000
00000100
00000000
00000000
00000000
00000010
00000000
00000000
00000000
00010000
00000000
00000000
00000000
00001000
00000000
00000000
00000000
00010000
00000000
00000000
00000000
01000000
00000000
00000000
00000000
00100000
00000000
00000000
00000000
00010000
00000000
00000000
00000000
10000000
00000000
00000000
00000000
00010000
00000000
00000000
00000000
,
10000000
01000000
00100000
00010000
00001000
00000100
00000010
00001000
00010000
00001000
01000000
00001000
00010000
00001000
00000010
00000100
,
00001000
00000001
00000100
00000010
00001000
00000001
00000100
00001000
00010000
00100000
10000000
00010000
01000000
00100000
10000000
00100000
,
00010000
00001000
00000100
00000001
00001001
00000000
00000000
00000000
00010010
00000000
01001000
00000000
00011000
00000000
00000000
00000000
,
01000000
01000000
10010000
00000000
00010000
01000000
00100000
10000000
00010000
00000000
10000000
01000000
00100000
00010000
00100000
00000000
,
00001000
00010000
00000100
00001000
00000100
00000010
00000001
00001000
00000001
00000100
00000010
00000100
00000001
00000010
00000100
00001000
,
00000100
00010000
00001000
00010000
00000010
00001000
00000010
00010000
00001000
00000000
00100000
00010000
01000000
00100000
10000000
00100000
,
01000000
00100000
10000000
00000000
00010000
01000000
00100000
01000000
00100000
00000000
10000000
01000000
00100000
01000000
00100000
00000000
,
00001000
00010000
00001000
00000000
00000100
00000010
00001000
00000010
00000100
00000000
00000001
00000100
00000001
00000100
00000010
00001000
,
00000010
00000100
00000001
00000000
00000100
00000010
00001000
00000010
00001000
00000100
00010000
00001000
00010000
00001000
00100000
00010000
,
10000000
00100000
01000000
00010000
10000000
00000000
00100000
01000000
00010000
00000000
00100000
00001000
00010000
00001000
00100000
00000000
,
00010000
10000000
00100000
00000000
10000000
00100000
01000000
00100000
00010000
00001000
00000100
00000010
00001000
00000100
00000010
00000001
,
00001000
00000000
00000001
00000000
00000100
00000010
00001000
00000000
00000001
00000000
00000100
00001000
00010000
00001000
01000000
00100000
,
10000000
00010000
10000000
00000000
00010000
00100000
01000000
10000000
00010000
01000000
00001000
00010000
00001000
00000010
00000001
00001000
,
00000100
00000010
00000001
00001000
00000001
00000100
00001000
00000100
00000001
00000000
00000100
00000000
00000110
00000000
00001001
00000000
,
00000001
00001000
00000001
00001000
00000001
00000000
00000001
00000000
00000100
00000000
00000100
00000000
00001000
00000000
00001000
00000000
,
00010000
00010000
00011000
00001000
00010000
00010000
00100000
00100000
,
10000000
10000000
10010000
10000000
01000000
01000000
00010000
00010000
,
00001000
00001000
00011000
00010000
00000100
00000100
00010000
00010000
,
00001000
00000000
00000000
00001000
00000000
00000000
00010000
00000000
00001000
00000000
00100000
00000000
00010000
00000000
10000000
00000000
00100000
00000000
00010000
00000000
00001000
00000000
00010000
00000000
,
00000010
00000100
00000001
00001000
00000001
00000010
00000100
00000010
00001000
00010000
01000000
00100000
,
00010000
10000000
00100000
10000000
10000000
01000000
01000000
00100000
00100000
00001000
00001000
00010000
,
00010000
00000000
00000000
00000000
00000100
00000000
00000000
00000000
00000100
00000000
00000000
00000000
00010000
00000000
00000000
00001000
00000000
00000000
00010000
00000000
00000000
00000010
00000000
00000000
00001000
00000000
00000000
00000100
00000000
00000000
00010000
00000000
00000000
00001000
00000000
00000000
01000000
00000000
00000000
00010000
00000000
00000000
00100000
00000000
00000000
00010000
00000000
00000000
,
20000000
00000000
00000000
00000000
,
00000000
00000000
00000000
00000000
00000000
00000000
00000000
00000000
30000000
00000000
00000000
00000000
00010000
10000000
01000000
00100000
,
00010000
00100000
01000000
00000000
10000000
00100000
01000000
00010000
00100000
00001000
00010000
00000000
00001000
00010000
00000010
00001000
,
00000010
00000100
00000001
00001000
00000100
00000010
00000001
00001000
00000001
00000000
00000100
00000000
00000001
00000010
00000001
00000100
,
00000010
00001000
00000100
00000000
00010000
00000010
00001000
00000010
00010000
00000100
00001000
00000000
00000001
00000010
00000100
00000010
,
00001000
00010000
01000000
00100000
00010000
10000000
00100000
01000000
00001000
00100000
00010000
00000000
10000000
01000000
00100000
00000000
,
00010000
00100000
01000000
00000000
10000000
01000000
00010000
00001000
00000010
00000100
00001000
00000000
00000001
00000100
00000010
00000100
,
00001000
00010000
00100000
01000000
00010000
10000000
01000000
00100000
00020000
00000000
00000000
00000000
10030000
01000000
00010000
00001000
,
00000010
00000100
00001000
00000000
00000001
00000100
00001000
00010000
00100000
01000000
00010000
00000000
10010000
00000000
10010000
00000000
,
00000000
00000000
00000000
00000000
00000000
00000000
00000000
00000000
01100000
00000000
00000000
00000000
00010000
01000000
00100000
10000000
,
00010000
00100000
01000000
00000000
10000000
01000000
00010000
00001000
00000010
00000001
00001000
00000000
00000001
00000100
00001000
00000000
,
00000100
00000001
00000010
00000000
00000001
00000100
00001000
00010000
00001000
00000000
01000000
00000000
00100000
10000000
00010000
00000000
,
01000000
00001000
00010000
00000000
00001000
00000010
00000100
00000000
00001000
00000100
00000010
00000000
00000001
00000100
00001000
00010000
,
00100000
01000000
00010000
10000000
01000000
00010000
00001000
00010000
01000000
10000000
00100000
01000000
01100000
00000000
10010000
00000000
,
00000000
00000000
00000000
00000000
01001000
00000000
01000000
00010000
00100000
00000000
00001000
00010000
00001000
00000000
00011000
00000000
,
00000000
00000000
00000000
00000000
00101000
00000000
00001000
00010000
00000010
00000000
00001000
00000100
00000020
00000000
00000001
00000100
,
00000000
00000000
00001000
00000100
00000000
00000000
00000001
00000100
00000030
00000000
00001000
00000100
00000010
00000001
00000100
00001000
,
00010000
00100000
01000000
00010000
10000000
00100000
01000000
00010000
00001000
00000010
00000100
00000001
00001000
00000002
00000000
00000100
,
00000100
00000000
00000010
00000013
00002000
00000001
00000000
00000100
00000100
00000000
00010000
00013000
00020000
00001000
00000000
00001000
,
00001000
00000000
01000000
01030000
00200000
10000000
00000000
01000000
01000000
00000000
10000000
10300000
01000000
01100000
00000000
00001000
,
00010000
00000000
00000010
00000100
00000001
00001001
00000000
00000001
00000010
00000000
00001000
00010000
01000000
11000000
00000000
10000000
,
00100000
00000000
00000000
00000000
00010000
00001000
00010000
00001000
00020000
00000000
00000000
00000000
00031000
00010000
00001000
00000010
00000001
00000000
00001000
00000000
00001100
00000000
00000000
00000000
00002002
00000000
00000000
00000000
00000000
00000000
00000000
00003003
,
00000010
00000000
00000000
00000001
00000000
00000000
00001000
00000000
00000000
00000010
00000000
00000000
00000100
00000000
00000000
00000001
00000000
00000000
00000100
00000000
00000000
00001000
00000000
00000000
00010000
00000000
00000000
00001000
00000000
00000000
00010000
00000000
00000000
01000000
00000000
00000000
10000000
00000000
00000000
00010000
00000000
00000000
01000000
00000000
00000000
00100000
00000000
00000000
10000000
00000000
00000000
01000000
00000000
00000000
00100000
00000000
00000000
00010000
00000000
00000000
10000000
00000000
01000000
00000000
10000000
00000000
00100000
00000000
00000000
01000000
00000000
00000000
00020000
00000000
00000000
00000000
00000000
00000000
00000000
00000000
00000000
00000000
00000000
00000000
00000000
00000000
00000000
00000000
00000000
00000000
00000000
00000000
00000000
00000000
00000000
00000000
,
00000000
00030000
00000000
00000000
;
