#TITLE:ヒマワリ;
#ARTIST:RIYU from BeForU;
#TITLETRANSLIT:Himawari;
#GENRE:J-HAPPY HARDCORE;
#BANNER:Himawari.png;
#BACKGROUND:Himawari-bg.png;
#CDTITLE:./CDTitles/GF 10thMIX & dm 9thMIX.png;
#MUSIC:Himawari.ogg;
#SAMPLESTART:46.062;
#SAMPLELENGTH:15;
#DISPLAYBPM:185;
#BPMS:0=185.3,4=185;
#STAGE:18;

//--------------- dance-single - Fred-104 ----------------
#NOTES:
     dance-single:
     Fred-104:
     Beginner:
     4:
     :
0000
0000
0000
0000
,
0000
0000
0000
0000
,
0000
0000
0000
0000
,
0000
0000
0000
0000
,
0000
0000
0000
0000
,
0000
0000
0000
0000
,
1000
0000
0001
0000
,
1000
0000
0010
0000
,
1000
0000
0001
0000
,
1000
0000
0001
0000
,
1000
1000
1000
0000
,
0001
0000
1000
0000
,
0010
0000
0000
0000
,
1000
0000
0100
0000
,
0010
0000
0000
0000
,
0001
0000
1000
0000
,
0001
0000
0000
0000
,
1000
0000
0010
0000
,
1000
1000
1000
0000
,
0001
0000
1000
0000
,
0001
0000
0100
0000
,
0001
0000
1000
0000
,
0001
0000
1000
0000
,
1000
0000
0010
0000
,
0100
0000
0010
0000
,
1000
0000
0001
0000
,
1000
0000
0001
0001
,
0001
0000
0001
0000
,
1000
0000
0100
0000
,
0010
0000
0001
0000
,
1000
0000
0001
0000
,
1000
0000
0000
0000
,
0001
0000
0000
0000
,
1000
0000
1000
0000
,
0001
0000
0001
0000
,
2000
0000
3000
0000
,
0001
0000
1000
0000
,
0001
0000
0100
0100
,
0100
0000
0001
0000
,
1000
0000
0001
0001
,
0001
0000
1000
0000
,
0001
0000
1000
0000
,
0010
0000
1000
0000
,
0001
0000
1000
1000
,
1000
0000
0001
0000
,
1000
0000
0010
0010
,
0010
0000
1000
0000
,
0001
0000
1000
1000
,
1000
0000
0001
0000
,
1000
0000
0001
0000
,
0100
0000
0001
0000
,
1000
0000
0001
0001
,
0001
0000
0000
0000
,
1000
0000
0001
0000
,
1000
0000
0000
0000
,
0010
0000
0100
0000
,
0001
0000
1000
0000
,
0001
0000
1000
0000
,
0001
0000
0100
0000
,
0010
0000
1000
0000
,
0001
0000
0000
0000
,
1000
0000
0000
0000
,
0010
0000
0000
0000
,
1000
0000
0000
0000
,
0001
0000
0001
0000
,
1000
0000
1000
0000
,
0001
0000
1000
0000
,
0001
0000
0001
0000
,
2000
0000
0000
0000
,
3000
0000
0000
0000
,
1001
0000
0000
0000
,
0001
0000
0100
0100
,
0100
0000
0000
0000
,
0010
0000
1000
1000
,
1000
0000
0001
0000
,
1000
0000
0001
0000
,
0100
0000
0010
0000
,
0100
0000
0001
0001
,
0001
0000
1000
0000
,
0001
0000
1000
1000
,
1000
0000
0001
0000
,
0100
0000
0010
0010
,
0010
0000
0100
0000
,
0010
0000
1000
0000
,
0001
0000
1000
0000
,
0001
0000
1000
1000
,
1000
0000
0001
0000
,
1000
0000
1000
1001
;

//--------------- dance-single - Fred-104 ----------------
#NOTES:
     dance-single:
     Fred-104:
     Easy:
     7:
     :
0000
0000
0000
0000
,
0000
0000
0000
0000
,
0000
0000
0000
0000
,
0000
0000
0000
0000
,
0000
0000
0000
0000
,
0000
0000
0000
0000
,
0001
0000
1000
0000
,
0010
0000
1000
1000
,
0001
0000
1000
0000
,
0002
0003
2000
3000
,
0001
1000
2002
3003
,
1000
0000
0001
0000
,
0010
0000
0100
1000
,
1001
0000
1000
0000
,
0010
0000
0100
0001
,
1001
0000
0010
0000
,
0100
0010
0100
0000
,
0002
0000
2003
0000
,
3020
0000
0130
0000
,
0001
0100
0001
0100
,
0010
0100
0010
0000
,
1000
0100
1000
0010
,
1000
0001
1000
0000
,
0001
0100
1000
0000
,
0100
0100
0001
0000
,
0001
0100
0001
0010
,
0000
0001
1001
0000
,
0000
1000
0000
0000
,
0010
0000
0000
0100
0000
0000
0000
0000
,
0001
1000
0001
0000
,
0100
0000
0000
0010
0000
0000
0000
0000
,
1000
1000
0010
0000
,
0001
0001
0100
0000
,
1000
1000
0010
0000
,
0001
0001
0100
0000
,
2002
0000
3003
0000
,
1000
0000
0000
0010
0000
0000
0100
0000
,
0001
1000
0100
0010
,
0001
0000
0000
0010
0000
0000
0001
0000
,
0100
0010
0100
0100
,
0001
0000
0000
0010
0000
0000
0100
0000
,
0010
0001
1000
0000
,
0001
1000
0010
0100
,
0001
0000
1000
0001
,
1000
0000
0000
0010
0000
0000
0100
0000
,
0001
1000
0001
0001
,
0100
0000
0000
0010
0000
0000
0001
0000
,
0100
0010
1001
0000
,
0001
0100
0010
0100
,
0001
0010
0100
1000
,
0001
1000
0001
0100
,
0001
0010
0100
1000
,
1001
0000
0010
0000
,
0100
0000
0001
0010
,
1000
0000
0100
0000
,
1000
0000
1000
0001
,
1001
0000
0010
0000
,
0100
0000
0010
0100
,
1001
0000
0010
0000
,
0010
0010
0200
0320
,
1030
0100
1000
0000
,
0100
0001
0100
0000
,
0001
0010
0001
0000
,
0010
1000
0010
0000
,
1000
0100
1000
0010
,
0100
0001
0100
0001
,
0010
0100
1000
0001
,
0100
0010
1000
0001
,
2000
3000
0002
0003
,
1001
0000
0100
0100
,
0010
0000
0000
0100
0000
0000
0010
0000
,
1000
0001
1000
0100
,
0010
0000
0000
0001
0000
0000
1000
0000
,
0010
0100
0100
0002
,
1003
0100
1000
1000
,
0001
0010
0001
0001
,
1000
0100
1000
1000
,
0001
0000
0001
1000
,
0010
0000
0000
1000
0000
0000
0001
0000
,
1000
0001
1000
0000
0001
1000
0001
0000
,
1000
0000
0000
0001
0000
0000
0010
0000
,
0100
1000
0100
0000
0010
0000
0000
0000
,
0001
0100
1000
0001
,
0010
1000
0100
0001
,
1000
0000
0010
1000
0000
0000
0001
0000
,
0100
0001
0000
1000
0000
0010
0100
0000
,
0001
0100
0001
0000
1000
0010
1000
0000
,
0001
1000
0001
0000
1000
0000
1001
0000
;

//--------------- dance-single - Fred-104 ----------------
#NOTES:
     dance-single:
     Fred-104:
     Medium:
     10:
     :
0000
0000
0000
0000
,
0000
0000
0000
0000
,
0000
0000
0000
0000
,
0000
0000
0000
0000
,
0000
0000
0000
0000
,
0000
0000
0000
0000
,
1000
0100
1000
0000
0001
0100
0010
0000
,
1000
0010
1000
0000
0001
0010
0100
0000
,
1000
0100
1000
0010
0000
0100
0001
0000
,
0202
0303
2020
3030
,
1000
0001
1000
0001
0100
0000
0110
0000
,
1000
0000
0001
0000
0100
0000
0001
0100
,
0000
0100
0010
0000
0200
0000
0320
0000
,
0130
0000
0001
0000
1000
0000
0010
0100
,
0000
0100
0010
0000
2000
0000
3002
0000
,
1003
0000
0100
0000
0010
0000
0100
1000
,
0000
1000
0001
0000
1001
0000
0000
0100
,
0010
0000
0010
1000
0000
0000
1000
0001
,
0000
0100
0010
0100
0000
0000
0000
0000
,
0001
0000
0100
0000
0010
0000
0100
0001
,
0000
0001
1000
0010
0100
0000
0001
0100
,
0001
0000
1000
0000
0001
0000
1000
0100
,
0000
0100
0010
0001
2000
0000
3002
0000
,
0103
0000
0010
0000
0100
0000
0001
1000
,
0000
1000
0001
0000
1001
0000
0000
1000
,
0100
0000
0010
0001
0010
0000
0001
0100
,
0000
0010
1000
0000
1010
0000
0101
0000
,
0001
0000
0010
0001
0000
1000
0001
0000
,
1000
0000
0100
1000
0000
0010
0100
0000
,
0001
0000
1000
0001
0000
0100
0010
0000
,
1000
0010
0000
1000
0001
0000
1000
0000
,
0001
0000
0100
0000
0010
0000
2000
0010
,
3000
0000
1000
0000
0100
0000
0020
0001
,
0030
0001
1000
1000
,
0001
0100
0001
0000
1000
0010
1000
0000
,
0001
0000
0000
0100
0000
0000
0010
0000
1010
0000
0000
0000
0101
0000
0000
0000
,
1000
0010
1000
0010
0000
1000
0001
0200
,
0000
0000
0010
0310
,
1000
0000
0100
0010
0000
0001
1000
0001
,
0000
1000
0010
0000
0110
0000
0000
0000
,
0001
0100
0010
1000
0000
0001
0100
0001
,
0000
0000
0101
0000
1100
0000
0001
0100
,
0010
0000
1000
0010
0000
0110
0000
1001
,
0000
0000
0000
0000
0001
0000
0100
0001
,
0100
0000
0010
0100
0000
0010
1000
0001
,
0000
1000
0100
0000
1100
0000
0110
0000
,
0001
0000
0100
0010
0000
1000
0010
1000
,
0000
0001
0100
0000
1001
0000
0000
0000
,
0001
0010
0001
0010
0000
0100
1000
0100
,
1000
0001
0100
0010
,
0100
0000
0001
1000
0000
0000
0100
0000
,
1000
0001
0000
1000
0000
0001
0100
0000
,
0001
0010
0001
0001
,
1000
0000
0010
0000
1000
0100
0010
0001
,
1000
0010
0100
0001
,
1000
0000
1000
0000
0001
0100
0010
1000
,
0001
0100
0001
0100
0000
0010
1000
0010
,
0000
1000
0100
0010
0001
0000
1000
0000
,
0001
1000
0010
1000
0000
0001
0100
0001
,
0000
1000
0001
0100
0020
0000
0230
0000
,
0301
0010
0011
0000
,
0001
1000
0001
1000
0000
0000
1001
0000
,
0010
0100
1100
0000
,
1000
0000
0001
0001
0000
0100
0010
0100
,
0001
0000
0101
0000
0100
0000
0010
1000
,
0000
0000
0001
0000
1001
0000
1000
0010
,
0000
0000
0100
0000
0001
0100
0010
1000
,
0000
0011
1100
1001
,
0001
0000
0100
0000
0001
0000
1000
0000
0100
0000
0010
0000
,
0011
0000
1010
0101
,
0001
0000
0100
0000
0001
0100
0010
0200
,
0000
0001
0301
1000
,
0001
1000
0100
1000
0000
0010
0100
0010
,
0000
1000
0100
0000
1001
0000
0000
0000
,
0001
0100
0010
1000
0000
0001
0100
0001
,
0000
0110
1001
0001
,
0010
0000
0001
0100
0000
0101
0000
1001
,
0000
0010
0100
0000
0001
0000
1000
0001
,
1000
0100
1000
0010
0000
0100
0001
0020
,
0000
0130
0020
0130
,
1001
0000
1000
0010
0000
0100
0001
0100
,
0000
0010
0100
0000
1001
0000
0000
0000
,
1000
0100
0010
0001
0000
1000
0010
0100
,
0001
0101
1001
1000
,
0010
0000
0001
0100
0000
0000
0010
0000
,
1000
0100
0000
0010
0000
0001
0100
0000
,
0001
0100
0001
0000
1000
0100
1000
0000
,
0001
0100
0001
1000
0010
0000
1001
0000
;

//--------------- dance-single - Fred-104 ----------------
#NOTES:
     dance-single:
     Fred-104:
     Hard:
     14:
     :
0000
0000
0000
0000
,
0000
0000
0000
0000
,
0000
0000
0000
0000
,
0000
0000
0000
0000
,
0000
0000
0000
0000
,
0000
0000
0000
0000
,
1000
0100
0010
0010
1000
0001
0100
0100
,
1000
0010
1000
0001
0100
0001
1000
1000
,
0001
0000
0100
0000
0010
0000
1000
0000
0000
0000
1000
0010
1000
0000
0001
0000
,
1000
0000
1000
0100
1000
0000
0000
0000
0001
0000
0001
0100
0001
0000
0000
0000
,
1000
0000
0010
0100
0010
0000
1000
0000
1001
0000
0000
0000
0110
0000
0000
0000
,
1000
0000
0001
1000
0200
0000
1000
1000
,
0000
0001
0301
0000
0101
0000
1001
0000
,
0002
0000
0203
0000
2300
0000
3001
0010
,
0000
0010
1000
0000
1001
0000
0110
0000
,
1001
0000
0100
0000
0001
0000
1000
0010
,
0000
0010
0001
0000
1001
0000
1000
0010
,
0100
0001
0001
1000
0001
1000
1000
0010
,
1000
0100
0010
0001
0100
0100
0100
0100
,
0001
0000
0010
0000
0001
0000
0010
0000
0100
0000
1000
0001
1000
0000
0010
0000
,
0100
0010
1000
0010
1000
0100
0010
0100
,
1000
0001
0100
0001
0100
0010
0100
0001
,
1000
0100
0001
0100
2100
0000
3020
0000
,
0130
0000
0001
0000
0100
0000
0001
0000
0010
0000
0001
1000
0001
0000
0010
0000
,
0100
1000
0010
0100
0010
1000
0001
1000
,
1100
0000
0010
0100
0101
0001
0100
0020
,
0000
1030
0100
0000
1100
0000
1001
0000
,
1000
0100
0100
1000
0000
0010
0100
0001
,
1000
0001
0001
0010
0000
0001
1000
0001
,
0100
0010
0010
1000
0000
0001
0010
0100
,
1000
0100
0100
1000
0000
0001
1000
0100
,
1100
0000
0110
0000
0011
0000
0001
1001
,
0000
1000
0010
0100
0001
0100
0010
1000
,
1100
1000
1010
0000
0101
0001
0010
0001
,
1000
0100
0001
0100
1000
0010
0100
0001
,
1000
0000
0000
0010
0000
0000
0100
0000
0110
0000
0000
0000
1001
0000
0000
0000
,
0001
0100
0010
0100
0001
0010
0100
1000
,
0000
0010
0110
0000
0002
0000
2003
0000
,
3001
0100
0001
0100
0010
1000
0100
0010
,
0000
0000
0001
0000
0101
0000
0000
0000
0001
0000
1000
0100
1000
0000
0001
0000
,
1000
0100
0010
0001
1000
0010
1000
0002
,
0000
0103
0101
0000
0001
1000
0010
0100
,
0001
0010
0100
0010
0100
1000
0010
0100
,
0001
0000
0010
0000
0100
0000
1000
0000
0001
1000
0001
1000
0001
0000
0010
0000
,
0001
0010
0001
0101
0000
1001
1000
0010
,
0100
0000
0001
0000
1000
0000
0100
0000
0010
0000
0001
1000
0001
0000
1000
0100
,
1000
0001
1000
0100
0000
0001
1000
0010
,
0001
1000
0010
0100
0001
0010
0010
0010
,
0001
0100
0010
2000
0000
3001
0010
0100
,
2100
3010
0102
0013
,
1000
0100
0001
0100
0000
1000
0010
0100
,
0001
0100
0001
0000
1000
0010
1000
0000
0001
1000
0001
0000
1000
0000
0000
0000
,
1000
0100
0001
1000
0000
0001
0100
1000
,
0000
0001
1000
0100
0001
1000
0001
0100
,
1000
0010
0001
1000
0000
0001
0010
1000
,
0000
0001
1000
0010
0001
1000
0001
0010
,
1000
0100
0010
0001
1000
0010
0100
0001
,
1000
0000
0001
0000
0100
0000
0010
1000
0010
0000
0100
0000
0001
0000
1000
0000
,
1010
0101
1100
0011
,
1000
0001
0100
0010
0110
0000
1001
0000
,
1000
0100
0001
0100
0000
0100
1000
0001
,
0100
0010
1000
0010
0000
0010
0100
0001
,
1000
0100
0010
1000
0000
0001
0100
0010
,
0001
1000
0001
0100
0000
0010
0010
1000
,
2010
0000
3100
0000
0012
0000
0103
0100
,
0000
0010
1000
0100
0010
0001
1000
0001
,
0000
0100
0010
0100
0001
1000
0010
0100
,
0101
0100
0010
0000
1100
0100
0010
0000
,
0001
0000
0100
0000
1000
0000
0100
0000
0001
0000
1000
0100
,
0010
0001
1000
0010
0000
0000
0110
0000
0000
0101
0000
0000
,
1001
0001
0100
0010
0000
1000
0010
0100
,
0002
0000
0100
0000
0013
1000
0001
0100
,
0010
1000
0100
0110
0000
0010
0001
1000
,
0010
0200
0001
0000
1300
0100
0001
1000
,
0001
0010
0100
2000
0000
3001
1000
0010
,
0100
0100
0101
0000
1100
0000
0101
0000
,
0001
0010
0001
2000
0000
3010
0100
0010
,
1000
1000
0010
0010
0100
0100
0001
0001
,
1000
0100
0010
0100
1000
0001
0100
0010
,
1000
0100
0010
0001
0011
0000
1010
0000
,
0011
0001
1000
0001
0100
0010
0100
0001
,
1000
0000
0100
1000
0100
0000
0000
0000
1010
0000
0000
0000
0101
0000
0000
0000
,
1001
0001
0100
0020
0000
0130
0001
1000
,
1100
0101
1010
0011
,
1000
0100
0001
0100
0000
1000
0100
0001
,
0100
1000
0010
0100
0000
0001
1000
0001
,
1000
0010
1000
0010
1000
0000
0000
0000
0001
0100
0001
0100
0001
0000
0000
0000
,
1000
0000
0001
1000
0001
1000
0001
1000
0001
0000
0100
0010
0100
0000
0000
0000
;

//--------------- dance-double - Fred-104 ----------------
#NOTES:
     dance-double:
     Fred-104:
     Easy:
     7:
     :
00000000
00000000
00000000
00000000
,
00000000
00000000
00000000
00000000
,
00000000
00000000
00000000
00000000
,
00000000
00000000
00000000
00000000
,
00000000
00000000
00000000
00000000
,
00000000
00000000
00000000
00000000
,
00000001
00000000
00001000
00000000
,
00000010
00000000
00010000
00000000
,
00001000
00001000
00010000
00010000
,
00022000
00033000
00022000
00033000
,
00001000
00010000
00022000
00033000
,
00001000
00000000
00010000
00000000
,
00000010
00010000
00001000
00010000
,
00000100
00000000
00001000
00000000
,
00000001
00000001
00000100
00000010
,
00000100
00000000
00000010
00000000
,
00001000
00000100
00010000
00000000
,
00001000
00000000
00010000
00000000
,
01000000
00100000
01100000
00000000
,
00010000
10000000
00010000
00000000
,
10000000
01000000
00100000
00000000
,
00001000
00010000
00001000
00000000
,
00010000
00000100
00020000
00032000
,
00013000
00000010
00001000
00000000
,
00000010
00001000
00000001
00000000
,
00000100
00000010
00000100
00000000
,
00000001
00001000
00000001
00001001
,
00000000
00000010
00000000
00000000
,
00001000
00000000
00000000
00000100
00000000
00000000
00010000
00000000
,
00001000
00000000
00000000
00010000
00000000
00000000
00001000
00000000
,
00100000
00000000
00000000
00010000
00000000
00000000
00000000
00000000
,
10000000
10000000
01000000
00000000
,
00100000
00001000
00010000
00000000
,
00001000
00100000
00001000
00000000
,
00010000
00010000
00001000
00001000
,
00022000
00000000
00033000
00000000
,
00000010
00000000
00000000
00001000
00000000
00000000
00000010
00000000
,
00000100
00000100
00000001
00001000
,
00000001
00000000
00000000
00000010
00000000
00000000
00000001
00000000
,
00000100
00000010
00000110
00000000
,
00000010
00000000
00000000
00001000
00000000
00000000
00000100
00000000
,
00010000
00010000
00001000
00100000
,
00001000
00000000
00010000
00000000
,
00001000
00010000
01000000
10000000
,
00010000
00000000
01000000
00000000
,
00100000
00100000
10000000
01000000
,
00100000
00000000
00001000
00000000
,
00010000
00000010
00001000
00000100
,
00010000
00000000
00000010
00000000
,
00001000
00001000
00000001
00000100
,
00000010
00000000
00000000
00000100
00000000
00000000
00000010
00000000
,
00001000
00000000
00000000
00000100
00000000
00000000
00010000
00000000
,
00011000
00100000
00000000
00100000
,
00000000
00100000
00001000
00010000
,
00001000
00000010
00000000
00000010
,
00000000
00000010
00010000
00001000
,
00010000
00000000
00001000
00100000
,
00010000
00000000
10000000
00100000
,
01000000
00000000
00100000
00000000
,
00001000
00001000
00010000
00010000
,
00001000
00000000
00000000
00010000
00000000
00000000
00001000
00000000
,
00010000
00000000
00000000
00000010
00000000
00000000
00000000
00000000
,
00001000
00000000
00000000
00000001
00000000
00000000
00000100
00000000
,
00000010
00000000
00000000
00000100
00000000
00000000
00000000
00000000
,
00000001
00000001
00000100
00000000
,
00001000
00001000
00000100
00000000
,
00000001
00000010
00000100
00000000
,
00010000
00001000
00010000
00001000
,
00200000
00300000
00020000
00030000
,
10010000
00000000
00000000
00000000
,
00010000
00000000
00000000
10000000
00000000
00000000
01000000
00000000
,
00100000
00000000
00001000
00010000
,
00001000
00000000
00000000
00010000
00000000
00000000
00000100
00000000
,
00001000
00000001
00001001
00000000
,
00000001
00000000
00000100
00000000
,
00000010
00000100
00000010
00000100
,
00000001
00000000
00001000
00000000
,
00000010
00000000
00001000
00000000
00000100
00000000
00010000
00001000
,
00010000
00001000
00010000
00001000
,
00100000
00001000
00100000
00010000
,
10000000
00010000
01000000
00100000
,
01000000
00010000
10010000
00000000
,
10000000
10000000
01000000
01000000
,
00010000
00010000
00001000
00001000
,
00000100
00000100
00000001
00000001
,
00001000
00000000
00000010
00000000
00000100
00000001
00000100
00000000
,
00002002
00003003
00000220
00000330
,
00001000
00010000
01000000
01100000
;

//--------------- dance-double - Fred-104 ----------------
#NOTES:
     dance-double:
     Fred-104:
     Medium:
     11:
     :
00000000
00000000
00000000
00000000
,
00000000
00000000
00000000
00000000
,
00000000
00000000
00000000
00000000
,
00000000
00000000
00000000
00000000
,
00000000
00000000
00000000
00000000
,
00000000
00000000
00000000
00000000
,
00000001
00000100
00000001
00000000
00001000
00000100
00001000
00000000
,
00000010
00010000
00000010
00000000
00010000
00001000
00010000
00000000
,
00001000
00100000
00010000
00100000
00000000
00010000
01000000
00000000
,
00100000
00100000
00100000
00000000
01000000
01000000
01000000
00000000
,
00010000
10000000
00010000
10000000
00010000
00000000
10010000
00000000
,
00100000
00000000
10000000
00000000
01000000
00000000
00100000
00001000
,
00000000
00001000
00010000
00000000
00001000
00000000
00000010
00000000
,
00000001
00000000
00000100
00000000
00001000
00000000
00000100
00000001
,
00000000
00000001
00000010
00000000
00000100
00000000
00010000
00000000
,
00001000
00000000
00100000
00000000
00010000
00000000
00100000
01000000
,
00000000
01000000
10000000
00000000
00010000
00000000
10000000
01000000
,
00100000
00000000
00001000
00000000
00010000
00000000
00001000
00100000
,
00000000
00001000
00010000
00000000
00000100
00001000
00000010
00000000
,
00001000
00000100
00001000
00000000
00000001
00000100
00000010
00000000
,
00000100
00000000
00000100
00000000
00000001
00000010
00000010
00000000
,
00000100
00001000
00000100
00000000
00010000
00001000
01000000
00000000
,
00001000
00000000
00010000
00000000
00001000
00010000
00001000
00000000
,
00100000
00010000
10000000
00000000
00010000
00000000
10000000
01000000
,
00000000
00100000
00001000
00000000
00010000
00000000
00001000
00010000
,
00000100
00000000
00001000
00000000
00000100
00000000
00010000
00000010
,
00000000
00001000
00000100
00000000
00010000
00000000
00011000
00000000
,
00110000
00000000
10010000
00000000
01000000
00100000
01000000
00000000
,
00010000
01000000
00010000
01000000
00100000
01000000
00100000
00000000
,
10100000
10000000
00010000
00100000
,
01000000
00100000
01000000
00100000
00001000
00010000
00001000
00000000
,
00010000
00000100
00000000
00000100
00000000
00001000
00000010
00000100
,
00000001
00000010
00000000
00000010
00000000
00000100
00001000
00000001
,
00000100
00001010
00000100
00000011
,
00000100
00000001
00001000
00000000
00000010
00010000
00001000
00000000
,
00010000
00000000
00000000
00001000
00000000
00000000
00010000
00000000
00011000
00000000
00000000
00000000
01100000
00000000
00000000
00000000
,
00010000
10000000
00010000
01000000
00000000
01000000
00100000
10000000
,
00000000
01000000
00100000
00000000
00002000
00000000
00023000
00000000
,
00030100
00010000
00001000
00010000
00000000
00000010
00001000
00000100
,
00000000
00010000
00001000
00000000
00001020
00000000
00000130
00000000
,
00000001
00000010
00000100
00000010
00000000
00000001
00000100
00000001
,
00000000
00001000
00000010
00000000
00000110
00000000
00000100
00000001
,
00000010
00000100
00000010
00000001
00000100
00000010
00000100
00000001
,
00000000
00001000
00000100
00000000
00000010
00000000
00000001
00000100
,
00000010
00000100
00000000
00000010
00000000
00001000
00000100
00010000
,
00000000
00001000
00000000
00100000
00010000
00000000
01000000
00000000
,
00100000
10000000
00000000
10000000
00000000
00010000
10000000
01000000
,
00000000
00100000
00001000
00010000
00011000
00000000
00000000
00000000
,
00010000
00001000
00010000
00001000
00000000
00000100
00000001
00000100
,
00000001
00001000
00000001
00000100
,
00001000
00000000
00010000
00001000
00000000
00000000
00010000
00000000
,
01000000
01000000
00000000
00100000
00000000
10000000
00010000
00000000
,
10010000
10000000
00100000
01000000
,
00100000
00000000
00001000
00000000
00010000
00001000
00010000
00001000
,
00010000
00000100
00001000
00001000
,
00000001
00000000
00000100
00000000
00000010
00000100
00000001
00000100
,
00000010
00001000
00000010
00001000
00000000
00000001
00000100
00000001
,
00000000
00000100
00000010
00000100
00000000
00000010
00001000
00000000
,
00000100
00010000
00001000
00010000
00000000
00000010
00010000
00001000
,
00000000
00010000
00001000
00100000
00020000
00000000
20030000
00000000
,
30010000
00000000
00000000
10000000
00000000
00000000
01000000
00000000
,
00100000
00000000
00000000
00001000
00000000
00000000
00010000
00000000
,
00000100
00000000
00000000
00010000
00000000
00000000
00001000
00000000
,
00010000
00000000
00000000
00000010
00000000
00000000
00001000
00000000
,
00001001
00000101
00001001
00001100
,
00000010
00000100
00000001
00000000
00000100
00000010
00001000
00000000
,
00001100
00010100
00011000
01001000
,
00001000
00010000
01000000
00000000
10000000
01000000
00010000
00000000
,
00001000
00000000
00010000
00000000
00001000
00000000
00000100
00000000
00000001
00000000
00000010
00000000
,
00000100
00000000
00000110
00011000
,
00100000
01000000
00000000
01000000
00000000
00100000
10000000
00100000
,
00000000
10000000
00000000
01000000
00100000
00000000
00001000
00000000
,
00010000
00001000
00000000
00010000
00000000
00000100
00001000
00000001
,
00000000
00000100
00000010
00000000
00000100
00000000
00000010
00000000
,
00001000
00000010
00001000
00000010
00000000
00000000
00000100
00000010
,
00000000
00000100
00000001
00000000
00000100
00000000
00000010
00001000
,
00000001
00000010
00000100
00010000
,
00001000
00000000
00100000
00000000
00010000
10000000
00010000
00000000
,
10000000
01000000
10000000
00000000
00010000
01000000
00010000
00000000
,
10000000
01000000
00100000
00001000
,
00010000
00000100
00010000
00000000
00000100
00001000
00000100
00000010
,
00000000
00000010
00000001
00000000
00001001
00000000
00000000
00000000
,
00000001
00000010
00000100
00010000
00000000
00001000
00100000
00010000
,
02000000
03200000
20300000
30010000
,
10010000
00000000
01000000
00100000
00000000
00000000
00011000
00000000
,
00010000
00000100
00000000
00001000
00000000
00000010
00000100
00000000
,
00000202
00000303
00002020
00003030
,
00000010
00010000
00001000
00100000
00001000
00000000
00011000
00000000
;

//--------------- dance-double - Fred-104 ----------------
#NOTES:
     dance-double:
     Fred-104:
     Hard:
     14:
     :
00000000
00000000
00000000
00000000
,
00000000
00000000
00000000
00000000
,
00000000
00000000
00000000
00000000
,
00000000
00000000
00000000
00000000
,
00000000
00000000
00000000
00000000
,
00000000
00000000
00000000
00000000
,
00000001
00000100
00000010
00000010
00000001
00000100
00001000
00000100
,
00000001
00000010
00000100
00010000
00001000
00100000
01000000
10000000
,
00010000
00000000
01000000
00000000
00100000
00000000
01000000
00000000
00000000
00000000
00010000
10000000
00010000
00000000
01000000
00000000
,
00100000
00000000
00001000
00010000
00001000
00000000
00000000
00000000
00010000
00000000
00000010
00001000
00000010
00000000
00000000
00000000
,
00000100
00000000
00000001
00001000
00000001
00000000
00000100
00000000
00000110
00000000
00000000
00000000
00011000
00000000
00000000
00000000
,
01100000
00000000
10000000
00100000
02000000
00000000
00010000
00010000
,
00000000
10000000
13000000
00000000
10100000
00000000
01010000
00000000
,
00021000
00000000
00030200
00000000
00002300
00000000
00003001
00000100
,
00000000
00001000
00000100
00000000
00000001
00000000
00001001
00000000
,
00000100
00000000
00000010
00000000
00001000
00000000
00000001
00000010
,
00000000
00001000
00010000
00000000
10010000
00000000
10000000
00100000
,
01000000
00010000
00010000
10000000
01000000
00100000
00100000
01000000
,
10000000
00100000
01000000
00010000
00100000
00100000
00100000
00100000
,
01000000
10000000
00100000
01000000
00010000
01000000
00100000
00001000
,
00010000
00000100
00000010
00000001
00001001
00000000
00000001
00000100
,
00000010
00000100
00000001
00000100
00001000
00010000
00000100
00001000
,
00000001
00000100
00000010
00001000
00012000
00000000
00203000
00000000
,
01300000
00000000
00100000
00000000
00010000
00000000
00001000
00000000
00000100
00000000
00000010
00000100
00000010
00000000
00001000
00000000
,
00010000
00100000
01000000
00001000
00011000
00000000
00010000
00000100
,
00001000
00000100
00000010
00000001
00000100
00000010
00000100
00000102
,
00000000
00001003
00000010
00000000
00000110
00000000
00001001
00000000
,
00000001
00000100
00001000
00010000
00000000
01000000
10000000
00010000
,
10000000
01000000
00010000
00001000
00000000
00000100
00000001
00001000
,
00000001
00000010
00001000
00010000
00000000
00100000
10000000
00010000
,
10000000
00100000
00010000
00001000
00000000
00000010
00000001
00001000
,
00001001
00000000
00000110
00000000
00001001
00000000
00000001
00000101
,
00000000
00000100
00000010
00001000
00000001
00000010
00000100
00010000
,
00011000
00001000
00011000
00000000
00101000
00001000
00010000
00001000
,
01000000
00100000
00001000
00010000
00100000
10000000
00010000
01000000
,
00100000
00000000
00000000
10000000
00000000
00000000
01000000
00000000
01100000
00000000
00000000
00000000
00011000
00000000
00000000
00000000
,
00000100
00000010
00000100
00000001
00000100
00001000
00000100
00000010
,
00000000
00000100
00000110
00000000
00000101
00000000
00001001
00000000
,
00000001
00000100
00001000
00010000
00001000
00000100
00000001
00001000
,
00000000
00000000
00000010
00000000
00000110
00000000
00000000
00000000
00000100
00000000
00000001
00001000
00000001
00000000
00000100
00000000
,
00000010
00000100
00000001
00000010
00000000
00000100
00001000
00010000
,
01000000
00100000
10000000
00010000
00100000
00000000
01000000
10000000
,
00010000
01000000
00100000
01000000
00010000
10000000
01000000
00100000
,
00001000
00000000
00010000
00000000
00001000
00000000
00010000
00000000
00001000
00010000
00001000
00010000
00001000
00000000
00010000
00000000
,
00000010
00001000
00000100
00001100
00000000
00000100
00000010
00000001
,
00000100
00000000
00000010
00000000
00001000
00000000
00000001
00000000
00000010
00000000
00000100
00000010
00000100
00000000
00001000
00000000
,
00000010
00000100
00000010
00001000
00000000
00000001
00000100
00000010
,
00010000
00001000
01000000
00100000
10000000
00010000
00010000
00010000
,
10000000
01000000
00100000
02000000
00000000
13000000
00100000
00010000
,
00012000
00103000
00021000
00030010
,
00001000
00000100
00000001
00000100
00000000
00001000
00000100
00000010
,
00000001
00000100
00000001
00000000
00000100
00000010
00000100
00000000
00000010
00001000
00000010
00000000
00001000
00000000
00000000
00000000
,
00000001
00000100
00001000
00010000
00000000
01000000
10000000
00010000
,
00000000
10000000
01000000
00010000
00001000
00000100
00000001
00001000
,
00000001
00000010
00001000
00010000
00000000
00100000
10000000
00010000
,
00000000
10000000
00100000
00010000
00001000
00000010
00000001
00001000
,
00000001
00000100
00000010
00000100
00000001
00000010
00000100
00000010
,
00000001
00000100
00000010
00001000
00000000
00000100
00010000
00001000
,
00011000
00010010
01001000
00011000
,
00001000
00010000
00100000
10000000
10010000
00000000
01100000
00000000
,
10000000
01000000
00100000
00001000
00000000
00010000
00100000
10000000
,
00010000
00100000
01000000
00100000
00000000
00010000
10000000
01000000
,
00100000
00001000
00010000
00000100
00000000
00000010
00000001
00001000
,
00000001
00000100
00001000
00000100
00000000
00000001
00000010
00000100
,
00002100
00000000
00003010
00000000
00000102
00000000
00000013
00000010
,
00000000
00001000
00000001
00000010
00000100
00000010
00001000
00010000
,
00000000
00100000
01000000
00100000
00001000
00010000
00001000
00010000
,
00001000
00100000
00110000
00000000
10000000
00100000
01100000
00000000
,
00010000
00000000
10000000
00000000
01000000
00000000
00010000
00000000
00001000
00000000
00000010
00000001
,
00001000
00000001
00000100
00000010
00000000
00000000
00000110
00000000
00000000
00001001
00000000
00000000
,
00000011
00000010
00000001
00000100
00000010
00000100
00000001
00000010
,
00000100
00001000
00000100
00010000
00001000
00010000
00000010
00000000
,
00010000
00001000
00100000
00001000
00010000
00000100
00010000
00001000
,
01000000
00010000
00100000
01000000
10000000
00010000
10000000
00000000
,
11000000
01000000
00100000
00001000
00000000
00010000
00001000
00010000
,
00000100
00000100
00001100
00000000
00000101
00000000
00000100
00000010
,
00001000
00000001
00000010
00000100
00000010
00000001
00000100
00001000
,
00010000
00010000
01000000
01000000
10000000
10000000
00010000
00010000
,
01000000
00100000
10000000
01000000
00100000
00001000
00010000
00100000
,
01000000
00001000
00010000
00000100
00010100
00000000
00011000
00000000
,
00001000
01000000
00001000
00010000
00000100
00010000
00001000
00000010
,
00000001
00001000
00000001
00000100
00000010
00000000
00001001
00000000
,
00000110
00000100
00000001
00002000
00000000
00003010
00010000
00001000
,
00011000
00010100
00011000
00101000
,
00001000
00010000
00100000
10000000
00000000
00010000
01000000
10000000
,
01000000
00010000
10000000
01000000
00000000
00100000
00001000
00010000
,
00001000
00010000
00001000
00010000
00001000
00000000
00000000
00000000
00010000
00000010
00010000
00000010
00010000
00000000
00000000
00000000
,
00000010
00000000
00001000
00000100
00001000
00000100
00001000
00000100
00001000
00000000
00000001
00000100
00000010
00000000
00000000
00000000
;
