#VERSION:0.83;
#TITLE:Hero Revealed;
#ARTIST:Yooh;
#BANNER:Hero Revealed.png;
#BACKGROUND:Hero Revealed-bg.png;
#CDTITLE:./CDTitles/jubeat festo.png;
#MUSIC:Hero Revealed.ogg;
#SAMPLESTART:35.294;
#SAMPLELENGTH:15;
#BPMS:0=170;
#BGSTAGE:15;

//--------------- dance-single - Fred-104 ----------------
#NOTEDATA:;
#STEPSTYPE:dance-single;
#DESCRIPTION:Fred-104;
#DIFFICULTY:Beginner;
#METER:3;
#CREDIT:Fred-104;
#NOTES:
0000
0000
0000
0000
,
0000
0000
0000
0000
,
0000
0000
0000
0000
,
0000
0000
0000
0000
,
0000
0000
0000
0000
,
1000
0000
0000
0000
,
0001
0000
0000
0000
,
2000
0000
0000
0000
,
3000
0000
0000
0000
,
0002
0000
0000
0000
,
0000
0000
0003
0000
,
2000
0000
0000
0000
,
0000
0000
3000
0000
,
0002
0000
0000
0003
,
2000
0000
0000
3000
,
0002
0000
0000
0003
,
2000
0000
0000
3000
,
0001
0000
0000
0000
,
0010
0000
0000
0000
,
1000
0000
0000
0000
,
0100
0000
0000
0000
,
0001
0000
0001
0000
,
1000
0000
1000
0000
,
0001
0000
0001
0000
,
1001
0000
0000
0000
,
1000
0000
0001
0000
,
1000
0000
0000
0000
,
0001
0000
0010
0000
,
0001
0000
0000
0000
,
1000
0000
0001
0000
,
0100
0000
0000
0000
,
0010
0000
0100
0000
,
0001
0001
0001
0000
,
1000
0000
0001
0000
,
0010
0000
0000
0000
,
0010
0000
1000
0000
,
0010
0000
0000
0000
,
1000
0000
0100
0000
,
1000
0000
0000
0000
,
0100
0000
0001
0000
,
0001
0001
0001
0000
,
2000
0000
0000
0000
,
0000
0000
3000
0000
,
0002
0000
0000
0000
,
0000
0000
0003
0000
,
2000
0000
0000
3000
,
0002
0000
0000
0003
,
2000
0000
0000
3000
,
0002
0000
0000
0003
,
1000
0000
1000
0000
,
0010
0000
0010
0000
,
0001
0000
0001
0000
,
0100
0000
0100
0000
,
1000
0000
1000
0000
,
0001
0000
0001
0000
,
1000
0000
1000
0000
,
0001
0000
1000
0000
,
0001
0000
1000
0000
,
0002
0000
0003
0000
,
2000
0000
3000
0000
,
0002
0000
0003
0000
,
2000
0000
3000
0000
,
0001
0000
1000
0000
,
0001
0001
0001
0001
,
0000
0000
0000
0000
,
1000
0000
1000
0000
,
0010
0000
0010
0000
,
0001
0000
0001
0000
,
0100
0000
0010
0000
,
0100
0000
0100
0000
,
1000
0000
1000
0000
,
0001
0000
1000
0000
,
0001
0001
0001
0000
,
1000
0000
1000
0000
,
0100
0000
0100
0000
,
0001
0000
0001
0000
,
0100
0000
0100
0000
,
0010
0000
0100
0000
,
1000
0000
1000
0000
,
0001
0000
0001
0000
,
1000
1000
1000
0000
,
2002
0000
0000
0000
,
3003
0000
0000
0000
;

//--------------- dance-single - Fred-104 ----------------
#NOTEDATA:;
#STEPSTYPE:dance-single;
#DESCRIPTION:Fred-104;
#DIFFICULTY:Easy;
#METER:9;
#CREDIT:Fred-104;
#NOTES:
0000
0000
0000
0000
,
0000
0000
0000
0000
,
0000
0000
0000
0000
,
0000
0000
0000
0000
,
0000
0000
0000
0000
,
0001
0001
0010
0010
,
0100
0100
1000
1000
,
0001
1000
0001
1000
0001
1000
0001
1000
,
0000
0000
1000
1001
,
0002
0000
2003
0000
,
3002
0000
0000
0000
,
0023
0000
0230
0000
,
2300
0000
0000
0000
,
3002
0000
0203
0000
,
0320
0000
2030
0000
,
3200
0000
0320
0000
,
0032
0000
1003
0001
,
1001
0000
0000
1000
0001
0000
0000
1000
,
0001
0000
0000
0100
0000
0000
0010
0100
,
0010
0000
0100
0000
0100
0000
0000
0001
,
0000
0001
1000
0000
0001
0000
0000
0000
,
1000
0100
0010
0001
,
1000
0010
1000
0000
0001
0100
0001
0000
,
1001
0110
1001
0110
,
1000
0001
2002
3003
,
1000
0000
0100
0000
1000
0001
1000
0000
,
0001
0000
0000
0100
0000
0000
0010
0000
,
0100
0000
0100
0000
0001
0000
0000
0010
,
0000
0100
0010
0010
,
0001
0000
1000
0000
0001
0001
0100
0000
,
0010
0000
0000
0100
0000
0000
0001
0000
,
0010
0100
1000
0001
,
1000
0100
2002
3003
,
1000
0000
1000
0000
0100
0100
0001
0000
,
0100
0000
0000
0010
0000
0000
0001
0000
,
0010
0001
1000
0001
,
0100
0010
0220
0330
,
0001
0000
0001
0000
0010
0010
0100
0000
,
1000
0000
0000
0001
0000
0000
0100
0000
,
0010
1000
0100
0010
,
0100
0100
2002
3003
,
0002
0000
0000
0000
,
2003
0000
0000
0000
,
3002
0000
0000
0000
,
2003
0000
0000
0000
,
3100
0000
0100
0000
0010
0010
0001
0000
,
1000
0000
1000
0000
0001
0001
0100
0000
,
0010
0000
0010
0000
0100
0100
0001
0000
,
1000
0001
2000
3000
,
1001
0000
0001
0000
0010
0100
0010
0000
,
0100
0000
0100
0000
1000
0001
1000
0000
,
0001
0000
0001
0000
0100
0010
0100
0000
,
0010
0000
0010
0000
1000
0001
1000
0000
,
0100
0000
0100
0000
0010
0010
0001
0000
,
0100
0000
0100
0000
0010
1000
0010
0000
,
1000
0000
1000
0000
0100
0100
0010
0000
,
0002
0003
0002
0003
1000
0001
1000
0000
,
1100
0000
1100
0000
,
0101
0000
0101
0000
,
0011
0000
0011
0000
,
1010
0000
1010
0000
,
1000
1000
0001
0001
,
1000
1000
0001
0001
,
1000
0001
1000
0001
1000
0001
1000
0001
,
0000
0000
0000
0000
,
0001
0000
0010
0000
0100
0100
0100
0000
,
1000
0000
0000
0001
0000
0001
0100
0000
,
0010
0000
1000
0000
0100
0000
0010
0010
,
0000
0001
1000
0000
2002
0000
3003
0000
,
0001
0000
0010
0000
0100
0100
0100
0000
,
0010
0000
0000
0001
0000
0001
1000
0000
,
0001
0000
0100
0000
0010
0010
0100
0000
,
1001
0110
2002
3003
,
0001
0000
1000
0000
0010
1000
0010
0000
,
0100
0000
0100
0001
0000
0001
1000
0000
,
0100
0000
0010
0000
0001
1000
0001
0000
,
0100
0010
0100
0000
0220
0000
0330
0000
,
0001
0010
0001
0000
0010
0100
0010
0000
,
0100
1000
0100
0000
1000
0001
1000
0000
,
0001
0000
0001
0000
0100
0010
0100
0010
,
0000
0000
0100
0000
0001
1000
0001
0000
,
2002
0000
0000
0000
,
3003
0000
0000
0000
;

//--------------- dance-single - Fred-104 ----------------
#NOTEDATA:;
#STEPSTYPE:dance-single;
#DESCRIPTION:Fred-104;
#DIFFICULTY:Medium;
#METER:12;
#CREDIT:Fred-104;
#NOTES:
0000
0000
0000
0000
,
0000
0000
0000
0000
,
0000
0000
0000
0000
,
0000
0000
0000
0000
,
0000
0000
0000
0000
,
1000
0100
1000
0000
0001
0010
0001
0000
,
1000
0010
1000
0000
0001
0100
0001
0000
,
1000
0000
0100
0000
0010
0000
0001
0000
1000
0001
1000
0000
0001
1000
0001
0000
,
0000
0000
0000
0000
1000
0001
1000
1000
,
0002
0000
2003
0000
,
3020
0000
0000
0100
0000
0000
0130
0000
,
0020
0000
0000
0000
2030
0000
0000
0001
,
0000
3002
0203
0320
,
2030
0000
3002
0000
,
0023
0000
0000
0100
0000
0000
0130
0000
,
0020
0000
0000
0000
0032
0000
0000
2003
,
0000
0000
3010
0000
0110
0000
0100
0001
,
1000
0000
1000
0100
0001
0000
0001
0100
,
1000
0001
1000
0001
0000
0000
1000
0001
,
0010
0000
0010
0000
0001
0100
0001
0100
,
0000
0010
1000
0010
1000
0000
1001
0000
,
1000
0100
1000
0000
0100
0010
0001
0000
,
0100
0001
0100
0000
0010
1000
0001
0000
,
0011
1010
1100
0101
,
0001
1000
0001
1001
,
1000
0000
0100
0010
0001
0000
0100
0010
,
0100
0001
0100
0001
0000
0001
0010
0100
,
1000
0000
0001
1000
0001
0100
0010
1000
,
0000
1000
0100
0001
0100
0000
1100
0000
,
1000
0000
0001
1000
0010
0000
0010
0100
,
0001
1000
0100
1000
0000
1000
0010
0100
,
0010
0000
0010
0001
0010
0100
0010
1000
,
0001
0010
0110
1001
,
0001
0000
1000
0010
0001
0000
0001
0010
,
1000
0001
1000
0100
0000
0100
0010
0100
,
1000
0000
1000
0001
0100
0001
0010
0100
,
0000
0100
0001
0100
0010
0000
0011
0000
,
1001
0000
1000
0100
0001
0000
0001
0100
,
0010
0100
1000
0001
0000
0001
1000
0010
,
0100
0000
0100
0010
1000
0001
0010
0100
,
1000
0010
0110
1001
,
2000
0000
0000
0000
,
3002
0000
0000
0000
,
2003
0000
0000
0000
,
3002
0000
0000
0003
,
1000
0000
0100
0000
0010
0001
1000
0000
,
0010
0000
0100
0000
0001
1000
0100
0000
,
0010
0100
0010
0200
0000
2300
0000
3002
,
0000
2003
0000
0020
0000
0000
3030
0000
,
1000
0000
0100
0000
0010
0000
0000
0000
0001
0000
0000
0001
1000
0000
0001
0000
,
1000
0000
0010
0000
0100
0000
0000
0000
0001
0000
0000
0001
1000
0000
0001
0000
,
0010
0000
0100
0000
1000
0000
0000
0000
0001
0000
0000
0001
1000
0000
0001
0000
,
0100
0000
0010
0000
1000
0000
0000
0000
0001
0000
0000
0001
1000
0000
0001
0000
,
0100
0000
0010
0000
0100
0000
0001
0000
1000
0000
0000
1000
0100
0000
0010
0000
,
0100
0000
1000
0000
0001
0000
1000
0000
0010
0000
0000
0010
0100
0000
0010
0000
,
1000
0000
0100
0000
0010
0000
0001
0000
1000
0000
0000
1000
0010
0000
0100
0000
,
0020
0030
0020
0030
0100
0000
1001
0000
,
0001
0000
0001
0010
0100
0000
0100
1000
,
0010
0000
0010
0100
0001
0000
0001
0010
,
0100
0000
0100
1000
0010
0000
0010
0100
,
0001
0000
0001
0010
0100
1000
0100
0000
,
1000
0010
1000
0000
0001
0010
0001
0000
,
1000
0100
1000
0000
0001
0100
0001
0000
,
1000
0000
0001
0000
1000
0000
0001
0000
1000
0001
1000
0001
1000
0001
1000
0001
,
0000
0000
0000
0000
0010
0010
0100
0000
,
1001
0000
1000
0100
0001
0000
0001
0100
,
0010
0100
1000
0001
0000
0001
0100
0010
,
0001
0000
0001
0010
0100
0001
0010
0100
,
0000
0100
1000
0010
0100
0000
0110
0000
,
1001
0000
0001
0010
1000
0000
1000
0010
,
0100
0010
0001
1000
0000
1000
0010
0001
,
0010
0000
0010
0100
0010
0001
0010
1000
,
0100
0010
0100
0010
0100
0000
1001
0000
,
1000
0100
0010
0001
0100
0010
0100
0001
,
1000
0100
0001
1000
0010
0001
1000
0000
,
0001
0100
0010
0100
0001
1000
0100
0010
,
1000
0010
0100
0010
0001
1000
0010
0000
,
0100
0001
0010
0010
0100
1000
0010
0010
,
0100
0001
0010
1000
0010
0001
0100
1000
,
0100
0000
0010
0010
1000
1000
0100
0110
,
0000
0000
0010
0000
0001
0000
1000
0000
0001
1000
0001
1000
0001
0000
1000
0000
,
2002
0000
0000
0000
,
3003
0000
0000
0000
;

//--------------- dance-single - Fred-104 ----------------
#NOTEDATA:;
#STEPSTYPE:dance-single;
#DESCRIPTION:Fred-104;
#DIFFICULTY:Hard;
#METER:14;
#CREDIT:Fred-104;
#NOTES:
0000
0000
0000
0000
,
0000
0000
0000
0000
,
0000
0000
0000
0000
,
0000
0000
0000
0000
,
0000
0000
0000
0000
,
0001
0010
0001
0010
0100
1000
0100
1000
,
0001
0100
0001
0100
0010
1000
0010
1000
,
0001
1000
0001
1000
0001
1000
0001
1000
0001
1000
0001
1000
0001
1000
0001
1000
,
0000
0000
0000
0000
0000
0000
0000
0000
0100
0010
0100
0010
0100
0000
1000
0000
,
0002
0000
0023
0000
,
0230
0000
0000
2300
0000
0000
3001
0000
,
0200
0000
0000
0000
0320
0000
0000
2030
,
0000
3002
0023
0230
,
2300
0001
3002
0100
,
0203
0000
0000
0320
0000
0000
0230
0000
,
0302
0000
1000
0000
2003
0000
0100
3200
,
0000
0000
0000
0000
0320
0000
0000
0000
0032
0000
0000
0000
1003
0000
0100
0010
,
0100
0000
0000
0000
0100
0000
1000
0001
1000
0000
0000
0000
0001
0000
0100
0000
,
0010
0000
1000
0000
0010
0000
0200
0000
0000
0000
0000
0000
0301
0000
1000
0001
,
1000
0000
0001
0100
1000
0001
0010
0100
,
0000
0000
0100
0000
0010
0000
1000
0000
1001
0000
0000
0000
0001
0000
1000
0010
,
1000
0001
0100
0010
1000
0001
0010
0100
,
0010
0001
1000
0010
0100
0001
1000
0001
,
0010
0100
0010
0000
0100
1000
0100
0000
1000
0001
1000
0000
0001
0100
0001
0100
,
0010
0100
0110
1001
,
0011
0000
0000
0000
0010
0000
0100
1000
0100
0000
0000
0000
0010
0000
0001
0000
,
1000
0000
0010
0000
0001
0000
0010
0000
0000
0000
0010
0000
0100
0000
0010
1000
,
0010
0000
0010
0100
0001
1000
0100
0001
,
0000
0001
1000
0010
0001
0000
1001
0000
,
1000
0010
0110
0000
0001
0100
0110
0000
,
0010
0000
1000
0000
0100
0000
0001
0000
0000
0000
0001
0000
0100
0000
0010
0001
,
0010
0000
0110
0100
1000
0001
0100
0010
,
0100
0100
0010
0010
1001
0000
0110
0000
,
1001
0000
0000
0000
0001
0000
0010
0100
0010
0000
0001
0000
1000
0000
0001
0000
,
0100
0000
1000
0000
0001
0000
0010
0000
0000
0000
0010
0000
0100
0000
0010
1000
,
0010
0000
0010
1000
0100
0001
1000
0010
,
0000
0010
0100
1000
0001
0100
0110
0000
,
1010
0000
0000
0000
1000
0000
0001
0100
0001
0000
1000
0000
0001
0000
0010
0000
,
0100
0000
0001
0000
1000
0000
0010
0000
0000
0000
0010
0000
0001
0000
0100
0010
,
0100
0000
1100
1000
0100
0001
0010
0100
,
0010
0010
0100
0100
0110
0000
1001
0000
,
2000
0000
0000
0000
,
3002
0000
0000
0000
,
0203
0000
0000
0000
,
0320
0000
0000
0030
,
0100
0001
1000
0001
0010
0100
1000
0001
,
0100
0010
1000
0001
0010
0100
1000
0001
,
0100
0010
0001
2000
0000
3200
0000
0302
,
0000
0000
0023
0000
0000
0000
0230
0000
0000
0000
0000
0000
1300
0001
1000
0001
,
1000
0000
0001
0000
1000
0000
0010
0000
0100
0000
0000
0100
0001
0000
1000
0000
,
0001
0000
0010
0000
0100
0000
0010
0000
0001
0000
0000
0001
1000
0000
0001
0000
,
1000
0000
0001
0000
1000
0000
0100
0000
0010
0000
0000
0010
0001
0000
1000
0000
,
0001
0000
0100
0000
0010
0000
0100
0000
0001
0000
0000
0001
1000
0001
0100
0000
,
0010
0000
1000
0000
0001
0000
0010
0000
0100
0000
1000
0001
1000
0000
0001
0000
,
0100
0000
0010
0000
1000
0000
0001
0000
0010
0000
0100
1000
0100
0000
1000
0000
,
0001
0000
0100
0000
0010
0000
1000
0000
0001
0000
0010
0100
0010
0000
0001
0000
,
2000
0000
0000
3100
0000
0000
0002
0000
0000
0103
0000
0000
1000
0000
0100
0000
0010
0000
0001
0000
0000
1000
0000
0000
,
1001
0000
0000
0000
0001
0000
0001
0100
0001
0000
0000
0000
1000
0000
1000
0100
,
1000
0000
0000
0000
0001
0000
0001
0010
0001
0000
0000
0000
1000
0000
1000
0010
,
1000
0000
0000
0000
0100
0000
0100
0010
0100
0000
0000
0000
0010
0000
0010
0001
,
0010
0000
0000
0000
0001
0000
0001
1000
0001
1000
0001
1000
0001
0000
0000
0000
,
1000
0100
0010
0001
1000
0100
0010
0001
,
1000
0001
0100
0010
1000
0001
0100
0020
,
0130
0010
0100
0010
0100
0010
0100
0010
0100
0010
0100
0010
0100
0010
0100
0010
,
0000
2000
3020
0230
0000
0302
0023
0230
,
1300
0001
0010
0100
0010
0001
0100
0010
,
1000
0001
0010
1000
0001
0100
0010
0001
,
0100
1000
0001
0010
0100
1000
0100
0001
,
0000
0001
0010
0100
0010
0000
0011
0000
,
1000
0001
0100
0010
1000
0001
0010
0100
,
1000
0010
0100
1000
0001
0010
1000
0001
,
0010
0100
0001
1000
0010
0100
0010
0001
,
0100
0000
0100
0000
0010
0000
0010
0000
0110
0000
0000
0000
1000
0001
1000
0001
,
1000
0000
0001
0000
0100
0000
0010
0000
1000
0000
0001
0000
0010
0000
0100
1000
,
0100
0000
0010
0000
0001
0000
1000
0000
0010
0000
0001
0000
0010
0000
0100
0010
,
0100
0001
1000
0001
0010
1000
0001
0100
,
0000
0100
1000
0010
0110
0000
1001
0000
,
0001
0010
0001
0000
1000
0000
0010
0000
0100
0001
0100
0000
0010
0000
1000
0000
,
0001
0000
0010
0000
0100
0000
1000
0000
0001
1000
0001
1000
0001
1000
0001
1000
,
0001
0000
0100
0100
0010
0010
0100
0101
,
0000
0000
0001
0000
1000
0000
0100
0000
0010
0001
0010
0001
0010
0000
0010
0000
,
2002
0000
0000
0000
,
3003
0000
0000
0000
;

//--------------- dance-single - Fred-104† ----------------
#NOTEDATA:;
#STEPSTYPE:dance-single;
#DESCRIPTION:Fred-104†;
#DIFFICULTY:Challenge;
#METER:17;
#CREDIT:Fred-104†;
#NOTES:
0000
0000
0000
0000
,
0000
0000
0000
0000
,
0000
0000
0000
0000
,
0000
0000
0000
0000
,
0000
0000
0000
0000
,
0001
0010
0001
0010
0100
1000
0100
1000
0001
0100
0001
0100
0010
1000
0010
1000
,
0001
1000
0001
1000
0100
0010
0100
0010
0100
1000
0100
1000
0001
1000
0001
1000
,
0001
0100
0010
1000
0001
0010
0100
0010
0001
1000
0001
0100
0010
1000
0001
0010
,
0000
0000
0000
0000
0000
0000
0000
0000
1000
0001
1000
0001
1000
0000
0010
0000
,
0200
0000
0302
0000
,
2003
0000
0000
0001
0000
0000
3100
0000
,
0020
0000
0000
0000
0032
0000
0000
1000
,
0000
0023
0230
2300
,
3002
0100
2003
0010
,
3200
0000
0010
0010
0010
0000
2300
0000
,
3020
0000
0001
0000
2030
0000
0100
0100
,
0000
0000
0010
0000
0010
0000
0000
0000
3001
0000
0000
0000
1001
0000
1000
0001
,
1000
0000
0000
0000
1000
0000
0100
0010
0001
0000
0000
0000
0001
0000
0001
0000
,
0100
0000
1000
0000
0100
0000
0002
0000
0000
0000
0000
0000
1003
0000
1000
0100
,
0010
0000
0010
1000
0001
0100
0010
1000
,
0000
0000
1000
0000
0010
0000
0001
0000
1001
0000
0000
0000
0001
0000
1000
0001
,
1000
0000
0100
0000
0010
0000
0001
1000
0001
0000
0100
0000
0010
0000
1000
0000
,
0001
0010
1000
0001
0100
1000
0010
0100
,
0001
0010
1000
0000
0001
0100
1000
0000
0001
0100
1000
0000
0001
0010
1000
0100
,
0010
0000
0110
0000
0110
0000
0110
1001
,
1000
0000
0100
0000
0010
0000
0001
1000
0001
0000
1000
0000
0001
0000
0100
0000
,
1000
0000
0001
0000
0010
0000
0100
0000
0001
0000
1000
0000
0100
0000
0010
0001
,
1000
0001
0100
0010
0001
1000
0001
0010
,
0100
0000
0001
0000
0010
0000
0100
0000
0010
0000
0000
0000
1001
0000
1000
0001
,
0010
0000
0100
0000
1100
0000
1000
0001
0100
0000
0010
0000
1010
0000
1000
0000
,
0001
0000
0010
0000
0110
0000
0100
0000
0001
0000
0100
0000
1100
0000
1000
0001
,
0100
0010
0011
0010
1000
0100
0110
0010
,
0012
0000
1003
0000
0102
0000
1003
0000
1001
0000
0000
0000
0110
0000
1000
0001
,
0010
0000
0100
0000
1000
0000
0001
0100
0010
0000
1000
0000
0001
0000
0010
0100
,
1000
0000
0001
0000
0100
0000
1000
0000
0001
0000
0010
0000
1000
0000
0100
0010
,
0100
0000
1000
0000
0010
0000
0100
1000
0100
0000
0001
0000
1000
0000
0001
0010
,
0100
0000
0001
0000
0100
0000
0010
0001
1000
0000
0000
0000
0012
0000
1003
0001
,
0010
0000
0100
0000
1000
0000
0001
0100
0010
0000
0100
0000
1000
0000
0100
0001
,
1000
0000
0100
0000
0001
0000
1000
0000
0001
0000
0100
0000
0010
0000
0001
1000
,
0100
0000
0001
0000
0100
0000
0010
0100
1000
0000
0001
0000
0100
1000
0100
0000
,
0102
0000
1003
0000
0012
0000
1003
0000
1001
0000
0000
0000
0110
0000
1000
0001
,
0020
0100
0100
0000
0001
0001
0001
0000
,
0130
1000
0001
0100
0010
1000
0100
0010
,
0200
0000
0000
0000
1000
0000
0000
0010
0000
0010
0000
0000
1300
0000
0010
0000
,
0100
1000
0001
0010
0000
1010
0000
1001
,
1000
0000
0100
0000
0010
0000
0001
1000
0001
1000
0100
0000
0010
0001
1000
0010
,
0100
0000
0010
0000
1000
0000
0001
0010
0100
0010
0001
0000
1000
0010
0100
0001
,
0010
0001
1000
0020
0000
0001
0000
2030
,
0000
0000
0100
0000
0000
0000
0002
0000
0000
0000
3003
0000
0001
1000
0001
1000
,
0001
0000
0010
0000
0100
0000
0010
0000
0001
0000
0100
0010
0100
0000
0001
0000
,
1000
0000
0100
0000
0010
0000
0100
0000
1000
0000
0010
0100
0010
0000
1000
0000
,
0001
0000
0010
0000
1000
0000
0010
0000
0001
0000
0100
0010
0100
0000
0001
0000
,
1000
0000
0100
0000
0001
0000
0100
0000
1000
0000
1000
0100
0010
0001
1000
0001
,
0010
0000
0100
0010
0001
0000
1000
0010
0100
0000
1000
0100
0001
0000
0010
0000
,
0100
0000
1000
0001
0100
0000
0010
1000
0100
0000
0001
0100
1000
0000
0010
0000
,
0100
0000
0001
1000
0100
0000
0001
0100
0010
0001
0100
0010
1000
0001
0010
0100
,
1000
0000
0001
0000
0100
0000
0010
0000
0000
0000
0000
0000
1000
0000
0001
0000
0010
0000
0100
0000
0000
0000
0000
0000
1000
0000
0000
0000
0001
0000
0000
0000
0100
0000
0000
0000
0110
0000
0000
0000
0000
0000
1000
0000
0000
0001
0000
0000
,
1000
0000
0000
0000
1000
0000
0100
0010
0001
0000
0000
0000
0001
0000
0100
0010
,
1000
0000
0000
0000
1000
0000
0010
0100
0001
0000
0000
0000
0001
0000
0010
0100
,
1000
0000
0000
0000
0001
0000
0010
0100
1000
0000
0000
0000
0001
0000
0100
0010
,
1000
0000
0000
0000
0001
0000
0010
0100
1000
0001
1000
0001
1000
0000
0001
1000
,
0001
0100
0001
0100
0010
1000
0010
1000
,
0100
0010
0100
0010
0001
1000
0001
2000
,
3010
0100
0001
1000
0100
0010
0100
1000
0010
0100
0001
0010
0001
1000
0010
0100
,
0000
0000
2000
0000
3200
0000
0302
0000
0013
0100
2000
0000
3002
0000
2003
3000
,
1001
0000
0001
0000
0010
0000
0100
1000
0001
0000
0100
0000
1000
0000
0100
0010
,
1000
0000
0100
0010
0001
0000
1000
0000
0010
0000
0001
0000
0010
0100
0010
1000
,
0010
0000
0100
0000
0001
0000
1000
0001
0010
0000
0100
0000
1000
0001
0100
0000
,
1000
0000
0100
0001
1000
0000
0100
0000
0110
0000
0001
0000
1001
0000
0000
0000
,
0110
0000
1000
0000
0001
0000
0010
0100
1000
0000
0001
0000
0100
0000
0010
0001
,
0010
0000
0100
1000
0001
0000
0010
0000
1000
0000
0001
0000
0010
0100
1000
0010
,
0100
0000
0001
0000
1000
0000
0100
0001
0100
0000
1000
0000
0001
0010
0100
0000
,
0101
0000
0100
0000
1100
0000
1000
0000
1001
0000
1000
0000
0001
1000
0001
1000
,
0001
0000
0100
0000
0010
0000
1000
0001
0010
0000
1000
0000
0010
0000
0100
0010
,
0001
0000
0100
0010
0001
0000
1000
0000
0100
0000
0010
0000
1000
0001
0010
0100
,
0010
0000
0001
1000
0010
0000
0001
0010
1000
0000
0001
0010
1000
0000
0010
0001
,
0100
0000
0010
1000
0100
0001
0100
1000
0010
0000
0000
0000
1001
0000
0000
0000
,
0001
0100
0010
0100
1000
0000
0001
0000
1000
0100
0010
0100
0001
0000
1000
0000
,
0001
0010
1000
0001
0100
0010
0001
0000
1000
0001
0010
1000
0001
0100
0010
0100
,
1000
0000
2010
3001
2100
3001
0110
1001
,
0000
0000
1100
0000
0110
0000
0011
0000
1000
0010
0001
0010
1000
0000
1000
0000
,
2002
0000
0000
0000
,
3003
0000
0000
0000
;

//--------------- dance-double - Fred-104 ----------------
#NOTEDATA:;
#STEPSTYPE:dance-double;
#DESCRIPTION:Fred-104;
#DIFFICULTY:Easy;
#METER:8;
#CREDIT:Fred-104;
#NOTES:
00000000
00000000
00000000
00000000
,
00000000
00000000
00000000
00000000
,
00000000
00000000
00000000
00000000
,
00000000
00000000
00000000
00000000
,
00000000
00000000
00000000
00000000
,
00001000
00001000
00010000
00010000
,
00000100
00000100
00001000
00001000
,
00000001
00001000
00000001
00000000
00001000
00000001
00001000
00000000
,
00000000
00000000
00000100
00010000
,
00012000
00000000
00023000
00000000
,
00032000
00000000
00000000
00000000
,
02003000
00000000
03020000
00000000
,
20030000
00000000
32000000
00000000
,
03200000
00000000
00302000
00000000
,
00023000
00000000
00000000
00000000
,
00032000
00000000
02003000
00000000
,
03002000
00023000
00032000
00003000
,
00011000
00000000
00000000
00001000
00010000
00000000
00000000
00010000
,
00001000
00000000
00000000
01000000
00000000
00000000
00001000
00000000
,
00010000
00010000
00000100
00000100
,
00000010
00000001
00001001
00000000
,
00000001
00000100
00000001
00000100
,
00001000
00010000
00001000
00010000
,
00011000
00010100
00011000
00010010
,
00010000
00001000
00022000
00033000
,
00010000
00001000
01000000
01000000
,
00100000
00000000
00000000
00100000
00000000
00000000
10000000
00000000
,
01000000
00000000
01000000
00000000
00100000
00000000
00000000
00001000
,
00000000
00001000
00010000
00000000
00022000
00000000
00033000
00000000
,
00010000
00000100
00000010
00000100
,
00001000
00000000
00000000
00001000
00000000
00000000
00000001
00000000
,
00000100
00000000
00000010
00000000
00000100
00000000
00001000
00010000
,
00001000
00010000
00022000
00033000
,
00001000
00100000
00010000
10000000
,
00010000
00000000
00000000
01000000
00000000
00000000
00100000
00000000
,
01000000
00010000
10000000
01000000
,
00100000
00010000
00100000
00000000
00022000
00000000
00033000
00000000
,
00010000
00000100
00000010
00000100
,
00001000
00000000
00000000
00000001
00000000
00000000
00001000
00000000
,
00000010
00000000
00000100
00000000
00001000
00010000
00001000
00000000
,
00010000
00001000
00022000
00033000
,
00020000
00000000
00000000
00000000
,
00032000
00000000
00000000
00000000
,
00023000
00000000
00032000
00000000
,
00023000
00000000
00032000
00000000
,
00013000
00001000
00010000
00000100
,
00000010
00000001
00000010
00000000
00000001
00001000
00000001
00000000
,
00000100
00001000
00010000
00001000
,
00010000
00000100
00001000
00000000
00000010
00001000
00000010
00000000
,
00000110
00000000
00000100
00000000
00000001
00001000
00000001
00000000
,
00000010
00000000
00000100
00000000
00001000
00000100
00001000
00000000
,
00000100
00000000
00010000
00000000
00001000
00100000
00001000
00000000
,
01000000
00000000
00100000
00000000
01000000
00010000
01000000
00000000
,
00100000
00000000
10000000
00000000
01000000
00100000
00010000
00000000
,
00100000
00000000
00001000
00000000
00010000
00000010
00001000
00000000
,
00000001
00000000
00000010
00000000
00000100
00001000
00000100
00000000
,
00020000
00030000
00020000
00030000
00001000
00000000
00011000
00000000
,
00011000
00000000
00001010
00000000
,
00011000
00000000
00110000
00000000
,
00011000
00000000
00001100
00000000
,
00011000
00000000
01010000
00000000
,
00010000
00010000
00001000
00001000
,
00010000
00001000
00010000
00001000
,
00010000
00001000
00010000
00001000
00010000
00001000
00010000
00001000
,
00000000
00000000
00000000
00000000
,
00011000
00010000
00001000
00100000
,
00010000
00000000
00000000
00010000
00000000
00000000
10000000
00000000
,
00100000
01000000
00010000
10000000
,
01000000
00100000
00001000
00000000
00022000
00000000
00033000
00000000
,
00010000
00000100
00000010
00000001
,
00001000
00000000
00000000
00000010
00000000
00000000
00000100
00000000
,
00000010
00000000
00000100
00000000
00001000
00010000
00001000
00000000
,
00010000
00001000
00022000
00033000
,
00010000
00000000
00000100
00000000
00000010
00000100
00000010
00000000
,
00000001
00000000
00000000
00001000
00000000
00000000
00000001
00000000
,
00001000
00000010
00010000
00000010
,
00010000
00001000
00010000
00000000
00022000
00000000
00033000
00000000
,
00001000
00100000
01000000
10000000
,
00010000
01000000
00100000
01000000
,
00010000
00000000
00010000
00000000
10000000
00010000
10000000
00010000
,
00000000
10000000
01000000
00000000
00100000
00000000
00001000
00000000
,
00022000
00000000
00000000
00000000
,
00033000
00000000
00000000
00000000
;

//--------------- dance-double - Fred-104 ----------------
#NOTEDATA:;
#STEPSTYPE:dance-double;
#DESCRIPTION:Fred-104;
#DIFFICULTY:Medium;
#METER:12;
#CREDIT:Fred-104;
#NOTES:
00000000
00000000
00000000
00000000
,
00000000
00000000
00000000
00000000
,
00000000
00000000
00000000
00000000
,
00000000
00000000
00000000
00000000
,
00000000
00000000
00000000
00000000
,
00001000
00100000
00010000
00000000
10000000
00100000
01000000
00000000
,
00100000
10000000
01000000
00010000
00001000
00000100
00000001
00000000
,
00000010
00000000
00000100
00000000
00001000
00000000
00000100
00000000
00010000
00001000
00010000
00000000
00001000
00010000
00001000
00000000
,
00000000
00000000
00000000
00000000
00010000
00010000
00001000
00010000
,
00002000
00000000
02003000
00000000
,
03002000
00000000
00000000
00010000
00000000
00000000
00013000
00000000
,
00002000
00000000
00000000
00000000
00203000
00000000
00000000
00320000
,
00000000
20030000
30200000
00320000
,
00032000
00010000
00023000
00000100
,
00030200
00000000
00000000
00000010
00000000
00000000
00000320
00000000
,
00000032
00000000
00001000
00000000
00002003
00000000
00000000
00003020
,
00000000
00010030
00001000
00011000
,
00001000
00000000
00001000
00010000
00100000
00000000
00100000
10000000
,
00010000
00100000
01000000
10000000
00000000
10000000
00010000
01000000
,
00100000
00000000
00100000
10000000
01000000
00010000
00001000
00010000
,
00000000
00010000
00000100
00000010
00000100
00000000
00001100
00000000
,
00000001
00000100
00000001
00000000
00000010
00000100
00001000
00000000
,
00000100
00010000
00001000
00000000
00010000
00100000
10000000
00000000
,
11000000
00101000
00010010
00000101
,
00000001
00000010
00001000
00011000
,
00010000
00000000
00001000
00100000
00010000
00000000
01000000
00010000
,
01000000
00010000
00100000
01000000
00000000
01000000
00010000
01000000
,
10000000
00000000
10000000
00010000
01000000
00100000
00010000
00001000
,
00000000
00001000
00010000
00000100
00000010
00000000
00000011
00000000
,
00001001
00000000
00000001
00000100
00001000
00000000
00001000
00000100
,
00000001
00001000
00000100
00000010
00000000
00000010
00000001
00001000
,
00000010
00000000
00000010
00000100
00001000
00010000
00001000
00100000
,
00001000
00001000
00010000
00010000
00001000
00000000
00011000
00000000
,
00010000
00001000
00010000
00000100
00001000
00000001
00001000
00000100
,
00000010
00000001
00001000
00000010
00000000
00000010
00000100
00001000
,
00010000
00000000
00010000
00001000
01000000
00001000
00010000
00001000
,
00000000
00001000
00010000
00100000
10000000
00000000
01100000
00000000
,
10010000
00000000
00010000
00100000
10000000
00000000
10000000
00100000
,
00010000
10000000
00100000
00010000
00000000
00010000
00001000
00010000
,
00000100
00001000
00000001
00000100
00000010
00010000
00001000
00010000
,
00100000
00100000
01000000
01000000
00010000
00000000
10010000
00000000
,
20000000
00000000
00000000
00000000
,
32000000
00000000
00000000
00000000
,
03020000
00000000
00000000
00000000
,
00032000
00000000
00000000
00003000
,
00010000
00001000
00100000
00000000
00010000
10000000
00100000
00000000
,
01000000
00100000
00010000
00000000
00001000
00010000
00000010
00000000
,
00001000
00000100
00000010
00000002
00000000
00000203
00000000
00000320
,
00000000
00020030
00000000
00002000
00000000
00000000
00033000
00000000
,
00001000
00000000
00100000
00000000
00010000
00000000
00000000
00000000
10000000
00000000
00000000
10000000
00100000
00000000
00010000
00000000
,
00001000
00000000
00010000
00000000
00001000
00000000
00000000
00000000
00100000
00000000
00000000
00100000
00010000
00000000
01000000
00000000
,
00001000
00000000
00010000
00000000
00000100
00000000
00000000
00000000
00001000
00000000
00000000
00001000
00000100
00000000
00000010
00000000
,
00000001
00000000
00001000
00000000
00000010
00000000
00000000
00000000
00000100
00000000
00000000
00000100
00001000
00000000
00010000
00000000
,
00001000
00100000
00010000
10000000
00010000
01000000
00100000
01000000
,
00010000
10000000
01000000
00100000
00001000
00010000
00000010
00001000
,
00000010
00000100
00000010
00001000
00000100
00000010
00000001
00001000
,
00000020
00000030
00000200
00000300
00001000
00000000
00011000
00000000
,
00010000
00000000
00010000
00001000
00000100
00000000
00000100
00000001
,
00000010
00000000
00000010
00001000
00010000
00000000
00010000
01000000
,
10000000
00000000
10000000
00100000
00010000
00000000
00010000
00001000
,
00000100
00000000
00000100
00000001
00000010
00000100
00000010
00000000
,
00000001
00001000
00000010
00000000
00010000
00001000
00100000
00000000
,
00010000
10000000
01000000
00000000
00100000
00001000
00010000
00000000
,
00000100
00000000
00010000
00000000
00001000
00000000
00010000
00000000
00001000
00010000
00001000
00010000
00001000
00010000
00001000
00010000
,
00000000
00000000
00000000
00000000
00001000
00001000
00010000
00000000
,
00011000
00000000
00010000
00000100
00001000
00000000
00001000
00000100
,
00010000
00001000
00100000
01000000
00000000
01000000
10000000
00010000
,
01000000
00000000
01000000
10000000
01000000
00100000
01000000
00010000
,
00000000
00010000
10000000
01000000
00010000
00000000
00011000
00000000
,
00010100
00000000
00010000
00001000
00100000
00000000
00100000
01000000
,
10000000
00010000
01000000
00001000
00000000
00001000
00010000
00000100
,
00000010
00000000
00000010
00001000
00000010
00000001
00001000
00000010
,
00000100
00001000
00000100
00001000
00010000
00000000
00011000
00000000
,
00001000
00100000
00010000
10000000
00100000
01000000
00010000
00100000
,
01000000
00010000
01000000
00100000
00001000
00010000
00000100
00000000
,
00000010
00000001
00001000
00000001
00000100
00000010
00000001
00000010
,
00000100
00000010
00001000
00000100
00010000
00000000
00011000
00000000
,
00001000
00010000
00100000
10000000
00010000
10000000
01000000
00100000
,
00001000
00010000
00000100
00000010
00000001
00001000
00000010
00010000
,
00001000
00000000
00010000
00010000
00001000
00001000
00010000
00011000
,
00000000
00000000
00010000
00000000
00001000
00000000
00000100
00000000
00000010
00000100
00000010
00000000
00001000
00000000
00000001
00000000
,
00002002
00000000
00000000
00000000
,
00003003
00000000
00000000
00000000
;

//--------------- dance-double - Fred-104 ----------------
#NOTEDATA:;
#STEPSTYPE:dance-double;
#DESCRIPTION:Fred-104;
#DIFFICULTY:Hard;
#METER:15;
#CREDIT:Fred-104;
#NOTES:
00000000
00000000
00000000
00000000
,
00000000
00000000
00000000
00000000
,
00000000
00000000
00000000
00000000
,
00000000
00000000
00000000
00000000
,
00000000
00000000
00000000
00000000
,
00010000
00001000
00100000
00010000
10000000
00100000
01000000
00010000
,
10000000
01000000
00100000
00001000
00010000
00000100
00000010
00000001
,
00001000
00000001
00001000
00000000
00000001
00000100
00000001
00000000
00000010
00000100
00000010
00000100
00010000
00001000
00010000
00001000
,
00000000
00000000
00000000
00000000
00000000
00000000
00000000
00000000
01000000
00100000
01000000
00100000
01000000
00000000
00010000
00000000
,
20000000
00000000
32000000
00000000
,
03200000
00000000
00000000
00302000
00000000
00000000
00013000
00000000
,
00000200
00000000
00000000
00000000
00000320
00000000
00000000
00000032
,
00000000
00000203
00002300
00023000
,
00032000
00010000
00203000
00010000
,
00302000
00000000
00000000
00010000
00000000
00000000
02003000
00000000
,
03020000
00000000
10000000
00000000
02030000
00000000
00001000
03002000
,
00000000
00000000
00010000
00000000
00013000
00000000
00000000
00000000
00011000
00000000
00000000
00000000
00010000
00000000
00010000
00001000
,
00010000
00000000
00000000
00000000
00001000
00000000
00001000
00000100
00001000
00000000
00000000
00000000
00000100
00000000
00000001
00000000
,
00000010
00000000
00000100
00000000
00001000
00000000
00000010
00000000
00000000
00000000
00000010
00000000
00010000
00000000
00001000
00010000
,
00001000
00000000
00010000
01000000
00100000
10000000
00010000
01000000
,
00000000
00000000
01000000
00000000
10000000
00000000
00100000
00000000
00010000
00000000
00000000
00000000
00011000
00000000
00001000
00010000
,
00001000
00010000
00000100
00000010
00000001
00000100
00000010
00001000
,
00100000
01000000
00001000
00010000
01000000
10000000
00100000
01000000
,
00010000
00100000
00010000
00000000
00100000
00001000
00100000
00000000
00001000
00010000
00001000
00000000
00010000
00000010
00001000
00000001
,
00000010
00001000
00010000
00101000
,
00011000
00000000
00000000
00000000
00001000
00000000
01000000
00100000
01000000
00000000
00000000
00000000
00010000
00000000
00100000
00000000
,
10000000
00000000
00100000
00000000
01000000
00000000
00100000
00000000
00000000
00000000
00100000
00000000
00001000
00000000
00010000
00001000
,
00010000
00000000
00000100
00000010
00001000
00000010
00000001
00001000
,
00000000
00001000
00000010
00000100
00001000
00010000
00011000
00000000
,
00001000
00100000
00110000
00010000
10000000
00100000
01100000
00000000
,
01000000
00010000
10010000
10000000
01000000
00100000
00101000
00001000
,
00010000
00000000
00010100
00000100
00000010
00000001
00001000
00000010
,
00000100
00000100
00001000
00001000
00011000
00000000
01100000
00000000
,
10010000
00000000
00000000
00000000
10000000
00000000
00010000
01000000
00010000
00000000
10000000
00000000
01000000
00000000
00010000
00000000
,
00001000
00000000
00010000
00000000
00100000
00000000
00010000
00000000
00000000
00000000
00010000
00000000
00001000
00000000
00010000
00000100
,
00010000
00000000
00010000
00001000
00000010
00000001
00001000
00000001
,
00000100
00000001
00000010
00000100
00010000
00001000
00011000
00000000
,
00010010
00000000
00000000
00000000
00010000
00000000
00000100
00001000
00000100
00000000
00000010
00000000
00000100
00000000
00000001
00000000
,
00000100
00000000
00000010
00000000
00000001
00000000
00000100
00000000
00001000
00000000
00010000
00000000
00001000
00000000
00100000
01000000
,
00100000
00000000
00110000
00010000
10000000
00100000
00010000
00001000
,
00000100
00000100
00000001
00000001
00000110
00000000
00001001
00000000
,
00000002
00000000
00000203
00000000
,
00002300
00023000
00230000
20300000
,
32000000
00000000
03200000
00000000
,
00302000
00023000
00030020
00002030
,
00003100
00000010
00000001
00001000
00000010
00010000
00001000
01000000
,
00100000
00010000
00001000
00010000
01000000
10000000
00010000
00100000
,
00001000
00000010
00000100
00001000
00000010
00000100
00001000
00010000
,
00100000
00000000
10000000
00000000
01000000
00000000
00010000
00000000
01000000
00000000
00100000
00000000
00010000
10000000
00010000
10000000
,
00010000
00000000
01000000
00000000
00100000
00000000
10000000
00000000
01000000
00000000
00000000
01000000
00100000
00000000
00001000
00000000
,
00010000
00000000
00000100
00000000
00000010
00000000
00000100
00000000
00000001
00000000
00000000
00000001
00000100
00000000
00001000
00000000
,
00000001
00000000
00000100
00000000
00001000
00000000
00010000
00000000
00001000
00000000
00000000
00001000
00010000
00000000
00000100
00000000
,
00000010
00000000
00000100
00000000
00001000
00000000
00000100
00000000
00010000
00000000
00000000
00010000
00001000
00100000
00010000
00000000
,
10000000
00000000
00100000
00000000
01000000
00000000
00001000
00000000
00100000
00000000
00010000
10000000
00010000
00000000
01000000
00000000
,
00100000
00000000
00010000
00000000
00001000
00000000
00000100
00000000
00000010
00000000
00001000
00000001
00001000
00000000
00000100
00000000
,
00000010
00000000
00000001
00000000
00001000
00000000
00000010
00000000
00000100
00000000
00001000
00010000
00001000
00000000
00100000
00000000
,
00020000
00000000
00000000
01030000
00000000
00000000
20000000
00000000
00000000
30010000
00000000
00000000
00100000
00000000
10000000
00000000
01000000
00000000
00100000
00000000
00000000
00001000
00000000
00000000
,
00011000
00000000
00000000
00000000
00010000
00000000
00010000
00001000
00010000
00000000
00000000
00000000
00001000
00000000
00001000
00000010
,
00001000
00000000
00000000
00000000
00000010
00000000
00000010
00000001
00000010
00000000
00000000
00000000
00000001
00000000
00000001
00000100
,
00000001
00000000
00000000
00000000
00000100
00000000
00000100
00001000
00000100
00000000
00000000
00000000
00001000
00000000
00001000
00010000
,
00001000
00000000
00000000
00000000
00010000
00000000
00010000
00001000
00010000
00001000
00010000
00001000
00010000
00000000
00000000
00000000
,
00001000
00010000
00100000
10000000
00010000
00100000
01000000
10000000
,
00010000
01000000
00100000
00010000
00001000
00000100
00000001
00002000
,
00003100
00000010
00000100
00000010
00000100
00000010
00000100
00000010
00000001
00001000
00000001
00001000
00000001
00001000
00000001
00001000
,
00000000
00000001
00000010
00001000
00000000
00010000
00100000
10000000
,
01000000
00100000
00010000
10000000
00100000
00010000
00001000
00010000
,
00000100
00000000
00000010
00000000
00000100
00000000
00001000
00000000
00000001
00000000
00000100
00000000
00001000
00000000
00010000
00001000
,
00010000
00001000
00100000
01000000
00100000
10000000
00100000
00010000
,
10000000
00100000
00010000
00001000
00010000
00000000
00001010
00000000
,
00010000
00001000
00100000
01000000
10000000
00010000
01000000
00001000
,
01000000
00000000
00100000
00000000
00010000
00000000
00001000
00000000
00010000
00000000
00000100
00000000
00000010
00000000
00000100
00001000
,
00000100
00010000
00001000
01000000
00010000
00000100
00000010
00001000
,
00000001
00000000
00000001
00000000
00001000
00000000
00001000
00000000
00001001
00000000
00000000
00000000
00000100
00010000
00000100
00010000
,
00001000
00000000
00100000
00000000
00010000
00000000
10000000
00100000
01000000
00000000
00100000
00000000
10000000
00000000
00010000
00100000
,
00001000
00000000
00010000
00000000
00001000
00000000
00000100
00000000
00000010
00000000
00000100
00000000
00000001
00000000
00001000
00000001
,
00000010
00000000
00001000
00010000
00001000
00000000
00100000
00000000
00010000
00000000
00100000
00000000
01000000
00000000
00100000
00000000
,
00001000
00010000
00100000
10000000
01000000
00000000
01100000
00000000
,
00010000
10000000
00010000
00000000
01000000
00000000
00100000
00000000
00010000
00001000
00010000
00000000
00000100
00000000
00000010
00000000
,
00000001
00001000
00000001
00000000
00000100
00000010
00001000
00000000
00000100
00010000
00000100
00010000
00001000
00010000
00001000
00010000
,
00001000
00000000
00011000
00001000
01000000
00100000
10000000
10010000
,
00000000
00000000
10000000
00000000
01000000
00000000
00010000
00000000
00001000
00010000
00001000
00010000
00001000
00000000
00010000
00000000
,
00022000
00000000
00000000
00000000
,
00033000
00000000
00000000
00000000
;

//--------------- dance-double - Fred-104† ----------------
#NOTEDATA:;
#STEPSTYPE:dance-double;
#DESCRIPTION:Fred-104†;
#DIFFICULTY:Challenge;
#METER:17;
#CREDIT:Fred-104†;
#NOTES:
00000000
00000000
00000000
00000000
,
00000000
00000000
00000000
00000000
,
00000000
00000000
00000000
00000000
,
00000000
00000000
00000000
00000000
,
00000000
00000000
00000000
00000000
,
00010000
00001000
00010000
00000000
00000010
00001000
00000010
00000000
00000100
00000001
00000100
00000000
00000001
00001000
00000001
00000000
,
00000010
00000100
00001000
00000100
00010000
00001000
00100000
00000000
00010000
10000000
00100000
01000000
00010000
10000000
01000000
00000000
,
00100000
00010000
00100000
00001000
00010000
00001000
00010000
00000010
00001000
00000010
00000100
00000010
00001000
00000100
00000010
00000001
,
00000000
00000000
00000000
00000000
00000000
00000000
00000000
00000000
00000001
00000010
00000001
00000010
00000001
00000000
00000100
00000000
,
00000020
00000000
00020030
00000000
,
00032000
00000000
00000000
00010000
00000000
00000000
00013000
00000000
,
00002000
00000000
00000000
00000000
02003000
00000000
00000000
00010000
,
00000000
03200000
20300000
32000000
,
03020000
00001000
00030020
00000100
,
00002030
00000000
00000100
00000100
00000100
00000000
00003002
00000000
,
00002003
00000000
00003010
00001000
00000200
00000000
00010000
00010000
,
00000000
00000000
00001000
00000000
00001000
00000000
00000000
00000000
00010300
00000000
00000000
00000000
00011000
00000000
00010000
00001000
,
00010000
00000000
00000000
00000000
00001000
00000000
00001000
01000000
00010000
00000000
00000000
00000000
10000000
00000000
10000000
00000000
,
01000000
00000000
00010000
00000000
00001000
00000000
00020000
00000000
00000000
00000000
00000000
00000000
00031000
00000000
00001000
00010000
,
00000010
00000000
00000100
00001000
00000001
00000010
00001000
00000100
,
00000000
00000000
00000010
00000000
00000001
00000000
00000100
00000000
00001100
00000000
00000000
00000000
00010000
00000000
00001000
00010000
,
00001000
00000000
00010000
00000000
00100000
00000000
01000000
00010000
01000000
00000000
00100000
00000000
10000000
00000000
00010000
00000000
,
00100000
01000000
00010000
00001000
00000010
00000100
00001000
00000001
,
00000010
00000100
00000001
00000000
00001000
00000010
00000001
00000000
00000100
00000010
00000001
00000000
00001000
00000100
00000001
00000010
,
00000100
00000000
00011000
00000000
00011000
00000000
00011000
00101000
,
00100000
00000000
00010000
00000000
10000000
00000000
00010000
01000000
00100000
00000000
00010000
00000000
00001000
00000000
00010000
00000000
,
00000100
00000000
00000010
00000000
00001000
00000000
00000001
00000000
00000100
00000000
00001000
00000000
00000001
00000000
00000100
00000010
,
00001000
00000100
00000010
00001000
00010000
01000000
00100000
00010000
,
01000000
00000000
00100000
00000000
00010000
00000000
00001000
00000000
00010000
00000000
00000000
00000000
00011000
00000000
00001000
00100000
,
00010000
00000000
01000000
00000000
01100000
00000000
00100000
00010000
00100000
00000000
10000000
00000000
11000000
00000000
01000000
00000000
,
00100000
00000000
00001000
00000000
00011000
00000000
00010000
00000000
00000100
00000000
00000010
00000000
00000011
00000000
00000001
00001000
,
00000010
00000100
00001100
00001000
00010000
00001000
01001000
01000000
,
01020000
00000000
10030000
00000000
00120000
00000000
10030000
00000000
01100000
00000000
00000000
00000000
00011000
00000000
00010000
00001000
,
00010000
00000000
00000100
00000000
00000010
00000000
00001000
00000001
00000100
00000000
00000010
00000000
00000001
00000000
00001000
00000001
,
00000100
00000000
00000010
00000000
00000100
00000000
00001000
00000000
00010000
00000000
00100000
00000000
10000000
00000000
00010000
00100000
,
00010000
00000000
01000000
00000000
00100000
00000000
00010000
00100000
10000000
00000000
00010000
00000000
00100000
00000000
01000000
00010000
,
00001000
00000000
00010000
00000000
00000100
00000000
00000010
00000001
00001000
00000000
00000000
00000000
00001100
00000000
00000100
00010000
,
00001000
00000000
00010000
00000000
01000000
00000000
00100000
00010000
10000000
00000000
00100000
00000000
00010000
00000000
00001000
00010000
,
00000100
00000000
00000010
00000000
00000100
00000000
00000001
00000000
00001000
00000000
00000010
00000000
00000100
00000000
00001000
00000001
,
00000100
00000000
00000001
00000000
00000010
00000000
00000100
00001000
00000100
00000000
00010000
00000000
00001000
00100000
00001000
00000000
,
00021000
00000000
00030100
00000000
00012000
00000000
00003010
00000000
00011000
00000000
00000000
00000000
00011000
00000000
00001000
01000000
,
00020000
00100000
00130000
00000000
00002000
00010000
00013000
00000000
,
00010000
00001000
00000100
00000001
00000010
00000100
00010000
00000100
,
00002000
00000000
00000000
00000000
00000010
00000000
00000000
00000001
00000000
00000001
00000000
00000000
00003010
00000000
00000100
00000000
,
00001000
00010000
00100000
10000000
00000000
11000000
00000000
00110000
,
00010000
00000000
10000000
00000000
00100000
00000000
00010000
00001000
00010000
00001000
00010000
00000000
00000100
00000000
00000010
00000000
,
00000001
00000000
00001000
00000000
00000010
00000000
00000100
00001000
00000100
00001000
00010000
00000000
00001000
00000000
00100000
00000000
,
00001000
00010000
00000100
00000020
00000000
00000001
00000000
00000230
,
00000000
00000000
00001000
00000000
00000000
00000000
00020300
00000000
00000000
00000000
00000000
00000000
00031000
00010000
00001000
00010000
,
00001000
00000000
00010000
00000000
00000010
00000000
00010000
00000000
00001000
00000000
00100000
00010000
00100000
00000000
00001000
00000000
,
00010000
00000000
00000100
00000000
00001000
00000000
00000100
00000000
00010000
00000000
00001000
01000000
00001000
00000000
00010000
00000000
,
00001000
00000000
00010000
00000000
00100000
00000000
01000000
00000000
00100000
00000000
00010000
00001000
00010000
00000000
00001000
00000000
,
00010000
00000000
00001000
00000000
00000010
00000000
00000100
00000000
00000010
00000000
00001000
00010000
00001000
00000000
00100000
00010000
,
01000000
00000000
00100000
10000000
01000000
00000000
00010000
01000000
10000000
00000000
00010000
01000000
00100000
00000000
00010000
00000000
,
00001000
00000000
00010000
00000100
00000010
00000000
00001000
00000010
00000001
00000000
00001000
00000010
00000001
00000000
00000010
00000000
,
00001000
00000000
00000001
00000010
00000100
00000000
00001000
00000100
00010000
00001000
00100000
00010000
10000000
00010000
01000000
00000000
,
00010000
00000000
10000000
00000000
00010000
00000000
10000000
00000000
00000000
00000000
00000000
00000000
00100000
00000000
01000000
00000000
00100000
00000000
01000000
00000000
00000000
00000000
00000000
00000000
00010000
00000000
00000000
00000000
10000000
00000000
00000000
00000000
01000000
00000000
00000000
00000000
01100000
00000000
00000000
00000000
00000000
00000000
00010000
00000000
00000000
10000000
00000000
00000000
,
00010000
00000000
00000000
00000000
10000000
00000000
10000000
01000000
10000000
00000000
00000000
00000000
01000000
00000000
01000000
00010000
,
00001000
00000000
00000000
00000000
00010000
00000000
00010000
00001000
00010000
00000000
00000000
00000000
00001000
00000000
00001000
00000100
,
00000001
00000000
00000000
00000000
00000001
00000000
00000001
00000010
00000001
00000000
00000000
00000000
00000010
00000000
00000010
00001000
,
00010000
00000000
00000000
00000000
00001000
00000000
00010000
00001000
01000000
00100000
01000000
00100000
01000000
00000000
00010000
10000000
,
00010000
10000000
01000000
00100000
00010000
00100000
00001000
00010000
,
00000010
00001000
00000010
00000100
00000001
00001000
00000100
00000020
,
00000031
00001000
00000001
00000010
00000100
00001000
00000100
00010000
00001000
00100000
00010000
10000000
00100000
01000000
00010000
10000000
,
00000000
00000000
00200000
00000000
00320000
00000000
00032000
00000000
00003100
00000001
00000010
00000000
00000100
00000000
00001000
00000000
,
00001001
00000000
00000001
00000000
00001000
00000000
00000001
00000100
00000010
00000000
00001000
00000000
00000100
00000000
00000010
00001000
,
00010000
00000000
00001000
00100000
00010000
00000000
01000000
00000000
10000000
00000000
00010000
00000000
00100000
01000000
00010000
10000000
,
01000000
00000000
00100000
00000000
00001000
00000000
00010000
00000010
00001000
00000000
00000100
00000000
00010000
00001000
00100000
00000000
,
01000000
00000000
00100000
00001000
00010000
00000000
00000100
00000000
00000110
00000000
00000010
00000000
00000011
00000000
00000000
00000000
,
00001001
00000000
00000001
00000000
00000100
00000000
00001000
00010000
00001000
00000000
01000000
00000000
00001000
00000000
00010000
01000000
,
00100000
00000000
00010000
00000000
10000000
00100000
00010000
00000000
00001000
00000000
00010000
00000000
00100000
01000000
00100000
10000000
,
00010000
00000000
10000000
00000000
01000000
00000000
00010000
00001000
00010000
00000000
00001000
00000000
00000010
00000001
00001000
00000000
,
00001001
00000000
00000001
00000000
00000101
00000000
00000100
00000000
00000110
00000000
00000100
00000000
00000010
00001000
00000100
00000010
,
00000001
00000000
00001000
00000000
00000010
00000000
00010000
00001000
00100000
00000000
01000000
00000000
10000000
00000000
00010000
01000000
,
10000000
00000000
01000000
00010000
10000000
00000000
01000000
00000000
00010000
00000000
00001000
00000000
00010000
01000000
00100000
01000000
,
10000000
00000000
00010000
00100000
10000000
00000000
00100000
00010000
10000000
00000000
00100000
00010000
00001000
00000000
00000010
00000001
,
00001000
00000000
00000010
00000100
00001000
00010000
00001000
00000000
00011000
00000000
00000000
00000000
00011000
00000000
00000000
00000000
,
00010000
00001000
00000100
00000001
00000010
00000000
00000100
00000000
00001000
00000010
00000100
00001000
00010000
00000000
00100000
00000000
,
10000000
00010000
00100000
01000000
00010000
01000000
00100000
00000000
00001000
00010000
00000100
00000010
00000100
00000001
00000100
00000010
,
00000001
00000000
00002010
00003001
00002100
00003001
00000110
00000110
,
00000000
00000000
00000011
00000000
00000110
00000000
00010100
00000000
00010000
00001000
00100000
01000000
10000000
00000000
00100000
00000000
,
20020000
00000000
00000000
00000000
,
30030000
00000000
00000000
00000000
;
