#TITLE:Here We Go Now;
#ARTIST:Whac-A-Me;
#GENRE:HARD PSY;
#BANNER:Here We Go Now.png;
#BACKGROUND:Here We Go Now-bg.png;
#CDTITLE:./CDTitles/bm IIDX 32 Pinky Crush.png;
#MUSIC:Here We Go Now.ogg;
#SAMPLESTART:91.765;
#SAMPLELENGTH:15;
#DISPLAYBPM:85:170;
#BPMS:0=85,12=170,24=85,26=170,41=340,41.5=170,41.75=85,42=170,73=255,73.5=170,73.833333=85,74=170,90=85,104=170,108=85,116=170,123=340,123.5=170,123.75=85,124=170,128=85,162=170,190=85,192=170;
#TIMESIGNATURES:0=4=4,24=2=4,26=4=4,102=6=4,108=4=4,128=2=4,130=4=4,190=2=4,192=4=4;

//--------------- dance-single - Fred-104 ----------------
#NOTES:
     dance-single:
     Fred-104:
     Beginner:
     2:
     :
0000
0000
0000
0000
,
0000
0000
0000
0000
,
0000
0000
0000
0000
,
0010
0000
0000
0000
,
0010
0000
0000
0000
,
0010
0000
0000
0000
,
0020
0000
0030
0000
,
0000
0000
1000
0000
,
0000
0000
1000
0000
,
0000
0000
0001
0000
,
0000
0000
0000
0000
,
0000
0000
0001
0000
,
0000
0000
0010
0000
,
0000
0000
0100
0000
,
0000
0000
1000
0000
,
0000
0000
1000
0000
,
0000
0000
0001
0000
,
0000
0000
0100
0000
,
0000
0000
0000
0000
,
0000
0000
0001
0000
,
0000
0000
1000
0000
,
0000
0000
0001
0000
,
0000
0000
1001
0000
,
0000
0000
1000
0000
,
0001
0000
1000
0000
,
0010
0000
0100
0000
,
0200
0000
0000
0000
,
0300
0000
0001
0000
,
1000
0000
0001
0000
,
1000
0000
0000
0000
,
2002
0000
0000
0000
,
3003
0000
0000
0000
,
2000
0000
0000
3000
0000
0000
0000
0000
,
0000
0000
0001
0000
,
0000
0000
0100
0000
,
0000
0000
1000
0000
,
0000
0000
0010
0000
,
0000
0000
0001
0000
,
0000
0000
1000
0000
,
0000
0000
0001
0000
,
0000
0000
1000
0000
,
0000
0000
0010
0000
,
0000
0000
0100
0000
,
0000
0000
0001
0000
,
0000
0000
1000
0000
,
0000
0000
0001
0000
,
0000
0000
1000
0000
,
0000
0000
2000
0000
,
3000
0000
0000
0000
,
0001
0000
0000
0000
,
0010
0000
0000
0000
,
0100
0000
0000
0000
,
1000
0000
0000
0000
,
1000
0000
0000
0000
,
0001
0000
0000
0000
,
1000
0000
0000
0000
,
0001
0000
0001
0000
,
0010
0000
0000
0000
,
1000
0000
1000
0000
,
0100
0000
0000
0000
,
0001
0000
0001
0000
,
1000
0000
0000
0000
,
1000
0000
0001
0000
,
2002
0000
0000
0000
,
3003
0000
0000
0000
;

//--------------- dance-single - Fred-104 ----------------
#NOTES:
     dance-single:
     Fred-104:
     Easy:
     7:
     :
0000
0000
0000
0000
,
0000
0000
0000
0000
,
0000
0000
0000
0000
,
0001
0001
1000
1000
,
0010
0010
0100
0100
,
0001
0010
0100
1000
,
2002
0003
3000
0000
0001
0000
0010
0000
,
0001
0100
0010
1000
,
0001
0010
0100
1000
,
0010
1000
0001
0100
,
0010
0000
0200
0000
0301
0000
0000
0001
,
0000
0000
0001
0000
1000
0000
0000
1000
,
0000
0000
1000
0000
0010
0000
0000
0010
,
0000
0010
0100
0100
,
0100
0100
1001
1000
,
0001
0100
0110
0010
,
1000
0001
1001
1000
,
0100
1000
1010
0010
,
0100
0002
1003
0100
,
1000
0100
0001
0010
,
0001
0010
1000
0001
,
0010
0100
1000
0001
,
0100
0010
1000
0110
,
0001
0110
1000
0101
,
1000
0011
0100
0011
,
1000
0101
1000
0110
,
0001
1000
0020
0030
,
0200
0001
0001
1000
,
1000
0001
0001
1000
,
0301
0000
0001
0000
,
1000
0000
2000
0000
,
3000
0010
1001
0110
,
2002
0000
0000
3003
2000
0000
0000
0000
,
0000
0000
3020
0000
,
0000
0000
0230
0000
,
0000
0000
0302
0000
,
0000
0000
1003
1000
,
0100
0010
0001
0001
,
1000
0010
0010
0100
,
0001
0000
1000
0000
0100
0100
0100
0000
,
0010
0010
0010
0000
0001
0000
0000
0000
,
1000
0000
0010
0000
,
0001
0000
0100
0000
,
1000
0000
0001
0000
,
1000
0000
0001
0001
,
0100
0100
0010
0010
,
1000
1000
0010
0010
,
1001
0000
0110
0000
2002
3000
0003
0000
,
1000
0000
0010
0000
,
1000
1000
0001
0010
,
0100
0000
1000
0000
,
0001
0001
0100
0001
,
0010
0000
0100
0000
,
0010
0010
0001
1000
,
0010
0000
0100
0000
,
0001
0001
0001
0001
,
1001
0110
1001
0000
,
1000
0001
0100
0001
,
1000
0001
0010
0100
,
0010
0100
1000
0001
,
1000
0010
0100
0001
,
1000
0100
1000
0001
,
0100
0010
0100
0001
,
2000
0000
0000
3000
,
1001
0000
0000
0000
;

//--------------- dance-single - Fred-104 ----------------
#NOTES:
     dance-single:
     Fred-104:
     Medium:
     12:
     :
0000
0000
0000
0000
,
0000
0000
0000
0000
,
0000
0000
0000
0000
,
1000
0010
0100
0001
0100
0010
1000
0000
,
0001
0010
0100
1000
0100
0010
0001
0000
,
1000
0010
0100
0010
1000
0100
0010
0001
,
2002
0003
3000
0110
1010
0000
0101
0000
,
1000
0000
0100
0000
0001
0000
0000
0000
1000
0000
0010
0000
0001
0000
0000
0001
,
0010
0100
1000
0000
0011
0000
1010
0000
,
0001
0000
0100
0000
1000
0000
0000
0000
0001
0000
0010
0000
1000
0000
0000
1000
,
0100
0010
0002
0000
1003
0100
1000
0200
,
0000
0301
0100
1000
0001
0100
0001
0200
,
0000
1300
0100
0001
1000
0010
1000
0020
,
0000
0031
0010
1000
0001
0100
0010
1000
,
0100
0000
0000
0010
0000
0000
0011
0000
0000
0000
0000
0000
1001
0000
0000
0000
0000
0000
1000
0000
0000
0000
1000
0000
,
0010
0000
0010
0100
0000
0000
0001
0000
0001
1000
0000
1000
,
0100
0000
0100
0010
0000
0000
0011
0000
0000
0001
0000
0001
,
1000
0000
1000
0010
0000
0000
0100
0000
0100
0001
0000
0001
,
1000
0000
1000
0200
0000
0000
0310
0000
0000
1001
0000
0000
,
0100
1001
0010
1001
,
0100
1001
1000
0110
,
0001
0000
0110
0000
1000
0100
0001
0000
,
1000
0000
0010
0000
0001
0000
0000
0000
0100
0000
0001
0000
1000
0100
0010
0000
,
0001
0100
0010
0000
1000
0001
1000
0000
0001
0000
0010
0100
1000
0000
0010
0100
,
0001
1000
0100
0000
0010
0100
0010
0000
0001
0100
0010
0000
1000
0100
0010
0000
,
0001
0010
0100
0000
1000
0010
0100
0000
0001
1000
0100
0000
0010
0001
1000
0000
,
0001
0010
0200
0000
1000
0000
1300
0000
,
1100
0101
0011
1010
,
0011
0101
1100
1001
,
0001
0010
0001
1000
0010
0100
0001
0000
,
1000
0100
0010
0001
0010
0100
2000
0000
,
3001
0100
0010
1000
0100
0010
0001
1000
,
0020
0000
0000
0030
1001
0000
0000
0000
,
0000
0000
0000
0000
0000
0001
0100
0001
1000
0000
0000
0100
0000
0000
0000
0010
,
0000
0000
0000
0001
0000
0000
0100
0001
1000
0000
0000
0000
0000
0000
0000
0000
,
0000
0000
0000
0000
0000
0001
1000
0001
0010
0000
0000
0100
0000
0000
0000
0010
,
0001
0000
0000
0000
0000
0000
1000
0000
0000
0000
0000
0000
0001
0000
0100
0000
0001
0000
0000
0001
0000
0000
0001
0000
0000
0001
0000
0000
0001
0000
0000
0000
,
0010
0000
0000
0010
0000
0000
0010
0000
0000
0010
0000
0000
0010
0000
0000
0000
0100
0000
0000
0100
0000
0000
0100
0000
0000
0100
0000
0000
0100
0000
0000
0000
,
1000
0000
0000
1000
0000
0000
1000
0000
0000
1000
0000
0000
1000
0000
0000
0000
0001
0000
0000
0001
0000
0000
0100
0000
0000
0100
0000
0000
0010
0000
0000
0000
,
1000
0000
0000
1000
0000
0000
0100
0000
0000
0100
0000
0000
0010
0000
0000
0000
0001
0000
0000
0001
0000
0000
1000
0000
0000
0001
0000
0000
0100
0000
0000
0000
,
0010
0000
0000
0010
0000
0000
1000
0000
0000
0001
0000
0000
0010
0000
0000
0000
0001
0000
0000
0000
0000
0000
0000
0000
0100
0000
0000
0000
0000
0000
0000
0000
,
0001
0100
1000
0010
,
0001
1000
0001
0010
,
0001
0010
1000
0100
,
0001
0000
1000
0000
0100
0010
0001
1000
,
0010
0100
0001
0000
1000
0001
0010
0100
,
1000
0001
0100
0000
0010
1000
0100
0010
,
0001
1000
0010
1000
2002
3000
0003
0110
,
1000
0000
0000
0100
0000
0000
1000
0000
0000
0001
0000
0000
0100
0000
0010
0000
,
1000
0000
0000
0001
0000
0000
0010
0000
0000
0100
0000
0000
0010
0000
0001
0000
,
1000
0000
0000
0010
0000
0000
1000
0000
0000
0001
0000
0000
0100
0000
0001
0000
,
0010
0000
0000
0100
0000
0000
1000
0000
0000
0001
0000
0000
1001
0000
0000
0000
,
1000
0000
0000
0100
0000
0000
0010
0000
0000
0001
0000
0000
0100
0000
0010
0000
,
1000
0000
0000
0001
0000
0000
0010
0000
0000
0100
0000
0000
1000
0000
0001
0000
,
0100
0000
0000
0010
0000
0000
1000
0000
0000
0100
0000
0000
0010
0000
0001
0000
,
1000
0100
0001
1000
0010
0001
1000
0000
,
0001
0100
0000
0001
0100
0000
0010
0000
0000
1000
0000
0000
0100
0000
0010
0000
,
0001
0000
0000
1000
0000
0000
0010
0000
1000
0001
0000
1000
0001
0000
0010
0000
,
0100
0000
0000
1000
0000
0000
0001
0000
0100
0001
0000
0100
0001
0000
1000
0000
,
0001
0000
0000
0010
0000
0000
0100
0000
1000
0001
0000
1000
0001
0000
1000
0000
,
0010
0000
0100
0001
0000
0100
0001
0000
1000
0100
0000
1000
0100
0000
0010
0000
,
0001
0000
1000
0010
0000
1000
0010
0000
0100
0001
0000
0100
0001
0000
0010
0000
,
0100
1000
0001
0100
0010
1000
0100
0010
,
0200
0000
0000
0310
,
1001
0000
0000
0000
;

//--------------- dance-single - Fred-104 ----------------
#NOTES:
     dance-single:
     Fred-104:
     Hard:
     17:
     :
0000
0000
0000
0000
,
0000
0000
0000
0000
,
0000
0000
0000
0000
,
0001
0010
0100
1000
0001
0010
0100
1000
,
0001
0100
0010
1000
0001
0100
0010
1000
,
0001
0010
0001
0010
0100
1000
0100
1000
0001
0100
0001
0100
0010
1000
0010
1000
,
0001
0000
0110
0000
1000
0100
0010
0000
0011
0000
0000
0000
1010
0000
0000
0000
,
0001
1000
0010
0000
0200
0000
0000
0000
0301
1000
0100
0000
0010
0100
0000
0100
,
1000
0010
0100
0000
0020
0000
0030
0000
1010
0000
0000
0000
0101
0000
0000
0000
,
0001
1000
0100
0000
0010
0000
0100
0000
1000
0001
0100
0000
0010
1000
0000
1000
,
0001
0010
0100
0010
0200
0000
0000
0000
1300
0000
0010
0000
0001
0000
0020
0000
,
0000
0130
1000
0100
0001
0010
1000
0020
,
0000
0130
0001
0100
1000
0001
0100
0020
,
0000
0000
0031
0000
0010
0000
1000
0000
0001
0010
0001
0010
0100
1000
0100
1000
,
0001
0000
0000
1000
0000
0000
0001
0000
0000
1000
0000
0000
0001
0000
0000
0000
0000
0000
0000
0000
0000
0000
0000
0000
1001
0000
0000
0000
0000
0000
0000
0000
0000
0000
0000
0000
1000
0000
0000
0000
0100
0000
0000
0000
0010
0000
0000
0000
,
0001
0010
0100
1000
0001
0000
0100
0010
1000
0010
0100
0010
,
1000
0001
0010
0100
1000
0000
1001
0000
0000
0001
0100
0010
,
1000
0010
0100
0001
1000
0000
0100
0010
0001
0010
0100
0010
,
0001
1000
0010
0200
0000
0000
0301
0000
0001
0010
0000
0010
,
0100
1000
0001
1000
0000
0000
0001
0000
0001
0100
0000
0100
,
0010
1000
0001
1000
0000
0000
0100
0000
0100
0010
0000
0010
,
0001
0000
0000
0000
1000
0000
0000
0000
0010
0000
0000
0000
0100
0000
0000
0000
0000
0000
0000
0000
0000
0000
0000
0000
0001
0000
0000
0100
0000
0000
0010
0000
0000
0000
0000
0000
1000
0000
0000
0000
0000
0000
0100
0000
0000
0000
0000
0000
,
0010
0000
0000
0000
0100
0000
0000
0000
1100
0000
0000
0000
0000
0000
0000
0000
0011
0000
0000
0000
0001
0000
1000
0000
1001
0000
1000
0010
1000
0010
1000
0010
,
1000
0000
0001
0010
0001
0010
0001
0010
0100
0000
1000
0000
0001
0000
0100
0000
0110
0000
0000
0000
1001
0000
1000
0100
1000
0000
0001
0100
0001
0100
0001
1000
,
0001
0000
0010
0000
0100
0000
0001
0000
1000
0000
0010
0000
0012
0000
0000
0000
1003
0010
1000
0010
0200
0000
2300
0000
3100
0010
0100
0010
2000
0000
3002
0000
,
0013
0100
0010
0100
0002
0000
0203
0000
0310
0001
0010
0001
2000
0000
0000
0000
3001
0100
0001
0100
0020
0000
2030
0000
3001
0010
0001
0010
0200
0000
2300
0000
,
3001
0100
1000
0001
0010
1000
1001
0000
,
1010
0000
0000
0101
0000
1000
0100
1000
0001
0100
0010
0100
0001
0010
0100
1000
0001
0100
0020
0000
0031
0020
0000
1030
,
0001
0000
0000
0110
0000
1000
0100
0010
0100
1000
0001
0100
0010
1000
0001
0010
0001
0100
0010
1000
0100
0020
0000
0000
,
0031
1000
0100
1000
0001
0100
0010
1000
,
0001
0010
0100
0010
0001
1000
0020
0000
,
0130
0001
1000
0001
0010
0100
1000
0001
0100
0010
1000
0010
0100
0001
1000
0100
,
0020
0000
0000
0030
1001
0000
0000
0000
,
0000
0000
0000
0000
0000
0001
0010
0100
1000
0000
0000
0001
0000
0000
0000
0100
,
0000
0000
0000
0001
0000
0000
0010
0100
0010
0000
0000
0000
0000
0000
0000
0000
,
0000
0000
0000
0000
0000
0001
1000
0010
0100
0000
0000
0001
0000
0000
0000
1000
,
0100
0000
0000
0000
0000
0000
0010
0000
0000
0000
0000
0000
0001
0000
1000
0000
0001
0000
0000
0100
0000
0000
0010
0000
0000
1000
0000
0000
1001
0000
0000
0000
,
1000
0000
0000
0100
0000
0000
0010
0000
0000
0001
0000
0000
1001
0000
0000
0000
1000
0000
0000
0010
0000
0000
0100
0000
0000
0001
0000
0000
1001
0000
0000
0000
,
0001
0000
0000
0010
0000
0000
0100
0000
0000
1000
0000
0000
1001
0000
0000
0000
1100
0000
0000
1000
0001
0000
0100
0000
0000
0010
0000
0000
1000
0000
0000
0000
,
0011
0000
0000
0010
0100
0000
1000
0000
0000
0001
0000
0000
0100
0000
0010
0000
1010
0000
0000
1000
0100
0000
0010
0000
0000
0001
0000
0000
1000
0000
0001
0000
,
0101
0000
0000
0100
0010
0000
1000
0000
0001
1000
0001
1000
0001
0000
0000
0000
2000
0000
0000
0000
0000
0000
3020
0000
0000
0000
0000
0000
0230
0000
0000
0000
,
0000
0302
0000
0000
1003
0000
0100
0000
0020
0000
0000
0032
0000
0000
2003
0000
,
0000
3002
0000
0000
0103
0000
0000
0000
0020
0000
0000
2030
0000
0000
3200
0000
,
0000
0320
0000
0000
0031
0000
1000
0000
0020
0000
0000
2030
0000
0000
3001
0000
,
0000
0010
0100
0010
0200
0000
0000
0000
1300
0000
0010
0000
1000
0000
0100
0000
,
0010
0000
0001
0000
1000
0000
0001
0100
0001
0000
1000
0000
0001
0000
0010
0000
,
0100
0000
1000
0000
0001
0000
1000
0000
0010
0100
0010
1000
0001
0010
0100
1000
,
0001
0100
0010
1000
0010
0100
0001
1000
0100
0000
1100
0000
0101
0000
1001
0000
,
1000
0100
1000
0001
0100
0001
1000
0010
1000
0001
0010
0100
0010
0000
0001
0000
,
0100
0001
1000
0001
0010
0100
0010
0001
1000
0010
1000
0001
0010
0000
0100
0000
,
1000
0001
0100
0001
1000
0001
0010
0100
0010
0001
0100
0010
1000
0000
0001
0000
,
0100
0010
1000
0001
0010
0100
1000
0100
0010
0001
1000
0010
0200
0000
0000
0000
,
0301
1000
0100
1000
0001
0100
0010
1000
0010
0100
0001
1000
0100
0000
1000
0000
,
0001
0100
0010
1000
0010
0100
0001
1000
0100
0010
0001
0010
0100
0000
1000
0000
,
0001
0100
0010
1000
0001
0010
0100
1000
0001
0100
0001
1000
0100
0000
0010
0000
,
0001
0100
0001
0100
0010
1000
0010
1000
0001
0010
0100
1000
0001
0000
0000
0000
,
1000
0100
0000
0100
1000
0001
0100
0001
1000
0100
0010
0100
1000
0001
0100
0010
,
0100
0001
1000
0001
0010
0001
1000
0001
0100
0010
0100
0001
0010
0000
0100
0000
,
1000
0001
0100
0001
0010
0100
1000
0001
0100
0010
1000
0010
0100
0001
1000
0100
,
0010
0100
1000
0001
0100
0010
1000
0100
0010
0100
0000
0100
1000
0001
1000
0001
,
1000
0100
1000
0001
0100
0001
1000
0010
1000
0001
0010
0100
0010
0001
1000
0010
,
0100
0001
1000
0100
1000
0001
0010
0001
1000
0010
1000
0100
0010
0000
0001
0000
,
1000
0000
0010
0000
0100
0000
0001
0000
0010
0100
1000
0001
0100
0001
1000
0100
,
0020
0000
0000
0130
,
1001
0000
0000
0000
;

//--------------- dance-double - Fred-104 ----------------
#NOTES:
     dance-double:
     Fred-104:
     Easy:
     7:
     :
00000000
00000000
00000000
00000000
,
00000000
00000000
00000000
00000000
,
00000000
00000000
00000000
00000000
,
00001000
00001000
00010000
00010000
,
00001000
01010000
00001000
01010000
,
00011000
00001100
00010000
00001100
,
00022000
00030000
00003000
00000000
00100000
00000000
00010000
00000000
,
01000000
00100000
10000000
00010000
,
10000000
10000000
01000000
00010000
,
00001000
00010000
00001000
00000100
,
00000001
00000000
00000002
00000000
00001003
00000000
00000000
00000001
,
00000000
00000000
00000100
00000000
00001000
00000000
00000000
00010000
,
00000000
00000000
01000000
00000000
00100000
00000000
00000000
00010000
,
00000000
10000000
00100000
00010000
,
00001000
00010000
00011000
00001000
,
00010000
00000100
00001000
00000001
,
00000100
00000010
00000100
00001000
,
00010000
00001000
01000000
00010000
,
10000000
00020000
10030000
01000000
,
10000000
01000000
00010000
00001000
,
00010000
00001000
00000010
00000001
,
00000010
00000000
00000001
00000000
00001000
00000010
00001000
00000000
,
00000001
00000010
00000100
00001001
,
00000100
00011000
00010000
00001010
,
00010000
00001100
00010000
00101000
,
00001000
00010010
00010000
00011000
,
00001000
00010000
00002000
00000000
00010000
00000000
00013000
00000000
,
00002000
01000000
00000100
01000000
,
00000100
01000000
00000100
01003000
,
00001000
00010000
00000020
00010030
,
00001000
00001000
00010000
00012000
,
01003000
00100000
00010000
00001000
,
00022000
00000000
00000000
00033000
00020000
00000000
00000000
00000000
,
00000000
00000000
00032000
00000000
,
00000000
00000000
00023000
00000000
,
00000000
00000000
00032000
00000000
,
00000000
00000000
00013000
00001000
,
00000100
00000001
00001000
00000100
,
00000010
00000001
00000100
00001000
,
00010000
00000000
00100000
00000000
10000000
01000000
10000000
00000000
,
00010000
01000000
00010000
00000000
10000000
00000000
00000000
10000000
,
00000000
00000000
01000000
00000000
00100000
00000000
00000000
00100000
,
00000000
00000000
00001000
00000000
00010000
00000000
00000000
00010000
,
00000000
00000000
00000010
00000000
00001000
00000000
00000000
00001000
,
00000000
00000100
00000010
00000001
,
00000100
00001000
00010000
01000000
,
10000000
00010000
01000000
00100000
,
00010000
00000000
00001000
00000000
00022000
00003000
00030000
00000000
,
00010000
00000000
00000000
00001000
00000000
00000000
00010000
00000000
,
00000010
00000000
00000000
00001000
00000000
00000000
00000010
00000000
,
00000100
00000000
00000000
00000001
00000000
00000000
00001000
00000000
,
00000100
00000000
00000000
00000010
00000000
00000000
00000001
00000000
,
00001000
00000000
00000000
00000010
00000000
00000000
00010000
00000000
,
00001000
00000000
00000000
00100000
00000000
00000000
00010000
00000000
,
00100000
00000000
00000000
01000000
00000000
00000000
10000000
00000000
,
00010000
00010000
01000000
01000000
,
10010000
01100000
10010000
00000000
,
10000000
00000000
00000000
01000000
00000000
00000000
00100000
00000000
,
00001000
00000000
00000000
00010000
00000000
00000000
00001000
00000000
,
00010000
00000000
00000000
00000100
00000000
00000000
00010000
00000000
,
00001000
00000000
00000000
00010000
00000000
00000000
00000010
00000000
,
00001000
00000000
00000000
00000001
00000000
00000000
00000010
00000000
,
00000100
00001000
00000100
00010000
,
00022000
00000000
00000000
00033000
,
00011000
00000000
00000000
00000000
;

//--------------- dance-double - Fred-104 ----------------
#NOTES:
     dance-double:
     Fred-104:
     Medium:
     12:
     :
00000000
00000000
00000000
00000000
,
00000000
00000000
00000000
00000000
,
00000000
00000000
00000000
00000000
,
00010000
00001000
00010000
00000010
00001000
00000001
00000010
00000000
,
00000100
00001000
00000001
00000100
00000010
00001000
00000010
00000000
,
00000100
00000001
00001000
00000100
00000010
00001000
00010000
00001000
,
01000000
00000000
00010000
00000000
10010000
01000000
10000000
00000000
10100000
00000000
00000000
00000000
01010000
00000000
00000000
00000000
,
10000000
00000000
01000000
00000000
00010000
00000000
00000000
00000000
00001000
00000000
00000100
00000000
00000001
00000000
00000000
00000001
,
00000010
00000100
00001000
00000000
00000011
00000000
00001100
00000000
,
00000001
00000000
00000010
00000000
00001000
00000000
00000000
00000000
00010000
00000000
00100000
00000000
10000000
00000000
00000000
10000000
,
01000000
00100000
00002000
00000000
00013000
00001000
00000010
00000001
,
00000000
00000001
00001000
00000001
00000100
00001000
00010000
00001000
,
00000000
00001000
00010000
00100000
01000000
00100000
10000000
00010000
,
00000000
00010000
10000000
01000000
00100000
00001000
00010000
00000100
,
00000010
00000000
00000000
00000001
00000000
00000000
00001001
00000000
00000000
00000000
00000000
00000000
00000110
00000000
00000000
00000000
00000000
00000000
00000001
00000000
00000000
00000000
00000001
00000000
,
00000100
00000000
00000100
00001000
00000000
00000000
00010000
00000000
00010000
00001000
00000000
00001000
,
01000000
00000000
01000000
00010000
00000000
00000000
01100000
00000000
00000000
10000000
00000000
10000000
,
00100000
00000000
00100000
00010000
00000000
00000000
00001000
00000000
00001000
00010000
00000000
00010000
,
00000010
00000000
00000010
00020000
00000000
00000000
00031000
00000000
00010000
00001000
00000000
01000000
,
00000000
00010000
00000000
00100000
00000000
00000000
01000000
00000000
10000000
00010000
00000000
10000000
,
00000000
00100000
00000000
00010000
00000000
00000000
00001000
00000000
00010000
00000010
00000000
00001000
,
00000000
00000000
00000001
00000000
00000000
00000000
00000010
00000000
00000000
00000000
00000000
00000000
00000001
00000000
00000000
00000100
00000000
00000000
00001000
00000000
00000000
00000000
00000000
00000000
,
00010000
00000000
01000000
00000000
10000000
00000000
00000000
00000000
01100000
00000000
00010000
00000000
10000000
01000000
00100000
00000000
,
00001000
00010000
00000010
00000000
00001000
00000001
00000010
00000000
00000100
00000000
00001000
00000001
00000100
00000000
00001000
00010000
,
00001000
00010000
00001000
00000000
01000000
00010000
10000000
00000000
01000000
00100000
00010000
00000000
01000000
00100000
10000000
00000000
,
00100000
01000000
00010000
00000000
00100000
01000000
10000000
00000000
00010000
01000000
00100000
00000000
00010000
00001000
00010000
00000000
,
00001000
00010000
00000020
00000000
00010000
00000000
00010030
00000000
,
00001000
00010010
00001000
00101000
,
00010000
00010100
00001000
01001000
,
00010000
00001000
01000000
00010000
10000000
01000000
00100000
00000000
,
00001000
00010000
00000010
00001000
00000010
00000100
00000002
00000000
,
00001003
00000100
00000010
00000001
00001000
00000010
00000100
00001000
,
00020000
00000000
00000000
00030000
00011000
00000000
00000000
00000000
,
00000000
00000000
00000000
00000000
00000000
00001000
01000000
00001000
00010000
00000000
00000000
00100000
00000000
00000000
00000000
01000000
,
00000000
00000000
00000000
00010000
00000000
00000000
10000000
01000000
10000000
00000000
00000000
00000000
00000000
00000000
00000000
00000000
,
00000000
00000000
00000000
00000000
00000000
00100000
00010000
00001000
00010000
00000000
00000000
00000010
00000000
00000000
00000000
00001000
,
00000100
00000000
00000000
00000010
00000000
00000000
00000001
00001000
00000002
00000000
00000000
00000000
00000000
00000000
00000000
00000000
,
00000000
00000000
00000000
00000000
00000003
00000100
00001000
00010000
00002000
00000000
00000000
00023000
00000000
00000000
00000000
00230000
,
00000000
00000000
00000000
00000000
00000000
00000000
20300000
00000000
00000000
00000000
00000000
00000000
30010000
00000000
10000000
00000000
01000000
00000000
00000000
01000000
00000000
00000000
01000000
00000000
00000000
01000000
00000000
00000000
01000000
00000000
00000000
00000000
,
00100000
00000000
00000000
00100000
00000000
00000000
00100000
00000000
00000000
00100000
00000000
00000000
00100000
00000000
00001000
00000000
00010000
00000000
00000000
00010000
00000000
00000000
00010000
00000000
00000000
00010000
00000000
00000000
00010000
00000000
00000000
00000000
,
00000010
00000000
00000000
00000010
00000000
00000000
00000010
00000000
00000000
00001000
00000000
00000000
00000100
00000000
00000010
00000000
00000001
00000000
00000000
00000000
00000000
00000000
00000000
00000000
00000001
00000000
00000000
00000000
00000000
00000000
00000000
00000000
,
00000100
00000100
00001000
00010000
,
01000000
10000000
00010000
00000000
10000000
00000000
10000000
00000000
,
00100000
00100000
00010000
00001000
,
00000010
00000001
00001000
00000000
00000001
00000010
00000100
00001000
,
00000100
00010000
00001000
00000000
01000000
00001000
00010000
00001000
,
00100000
00010000
10000000
00000000
00010000
01000000
00100000
00010000
,
00001000
00000100
00000001
00000010
00000100
00010000
00001000
00011000
,
00010000
00000000
00000000
00001000
00000000
00000000
01000000
00000000
00000000
00010000
00000000
00000000
00100000
00000000
01000000
00000000
,
10000000
00000000
00000000
00010000
00000000
00000000
10000000
00000000
00000000
00100000
00000000
00000000
00010000
00000000
00001000
00000000
,
00010000
00000000
00000000
00000010
00000000
00000000
00001000
00000000
00000000
00000100
00000000
00000000
00000010
00000000
00000001
00000000
,
00001000
00000000
00000000
00000010
00000000
00000000
00000100
00000000
00000000
00001000
00000000
00000000
00011000
00000000
00000000
00000000
,
00010000
00000000
00000000
00001000
00000000
00000000
00000100
00000000
00000000
00000010
00000000
00000000
00001000
00000000
00000001
00000000
,
00000010
00000000
00000000
00000001
00000000
00000000
00000100
00000000
00000000
00000010
00000000
00000000
00000100
00000000
00001000
00000000
,
00010000
00000000
00000000
00001000
00000000
00000000
00010000
00000000
00000000
00100000
00000000
00000000
01000000
00000000
00010000
00000000
,
10000000
01000000
00010000
00001000
00000100
00000001
00001000
00000000
,
00000100
00000010
00000000
00000100
00000010
00000000
00000001
00000000
00000000
00001000
00000000
00000000
00000010
00000000
00010000
00000000
,
00001000
00000000
00000000
01000000
00000000
00000000
00010000
00000000
10000000
01000000
00000000
10000000
01000000
00000000
00100000
00000000
,
00001000
00000000
00000000
00010000
00000000
00000000
00000010
00000000
00001000
00000010
00000000
00001000
00000010
00000000
00000100
00000000
,
00000001
00000000
00000000
00001000
00000000
00000000
00000100
00000000
00000010
00000100
00000000
00000010
00000100
00000000
00001000
00000000
,
00000001
00000000
00000100
00000001
00000000
00000100
00000001
00000000
00001000
00000100
00000000
00001000
00000100
00000000
00010000
00000000
,
00001000
00000000
00100000
00010000
00000000
00100000
00010000
00000000
10000000
00010000
00000000
10000000
00010000
00000000
01000000
00000000
,
00100000
10000000
01000000
00010000
00001000
00000100
00000001
00000010
,
00000200
00000000
00000000
00000310
,
00000011
00000000
00000000
00000000
;

//--------------- dance-double - Fred-104 ----------------
#NOTES:
     dance-double:
     Fred-104:
     Hard:
     17:
     :
00000000
00000000
00000000
00000000
,
00000000
00000000
00000000
00000000
,
00000000
00000000
00000000
00000000
,
00010000
00001000
00010000
00001000
00000100
00000001
00000100
00000001
,
00001000
00000100
00001000
00000100
00000010
00000001
00000010
00000001
,
00001000
00000010
00000100
00000000
00001000
00010000
00100000
00000000
01000000
00010000
01000000
00010000
10000000
01000000
00100000
00010000
,
00100000
00000000
00011000
00000000
00000010
00001000
00000001
00000000
00000110
00000000
00000000
00000000
00001001
00000000
00000000
00000000
,
00000001
00000010
00000100
00000000
00002000
00000000
00000000
00000000
00003100
00010000
00001000
00000000
01000000
00000000
00010000
00100000
,
00000000
00100000
01000000
00000000
20000000
00000000
30000000
00000000
01010000
00000000
00000000
00000000
10100000
00000000
00000000
00000000
,
00010000
10000000
01000000
00000000
00020000
00000000
00000000
00000000
00031000
00010000
00000010
00000000
00001000
00000001
00000000
00000001
,
00000100
00000010
00000100
00000001
00002000
00000000
00000000
00000000
00003001
00000000
00000010
00000000
00000100
00000000
00002000
00000000
,
00000000
00013000
00100000
01000000
10000000
00100000
01000000
00020000
,
00000000
00031000
00000010
00000100
00000001
00000100
00000010
00002000
,
00000000
00000000
00013000
00000000
01000000
00000000
00100000
00000000
10000000
01000000
00100000
00000000
00010000
01000000
00100000
00000000
,
10000000
00000000
00000000
00010000
00000000
00000000
10000000
00000000
00000000
00010000
00000000
00000000
10000000
00000000
00000000
00000000
00000000
00000000
00000000
00000000
00000000
00000000
00000000
00000000
01100000
00000000
00000000
00000000
00000000
00000000
00000000
00000000
00000000
00000000
00000000
00000000
10000000
00000000
00000000
00000000
00100000
00000000
00000000
00000000
01000000
00000000
00000000
00000000
,
00100000
00010000
00001000
00010000
00000010
00000000
00001000
00000100
00000010
00000001
00000010
00000100
,
00001000
00000001
00000100
00001000
00010000
00000000
00011000
00000000
00000000
00010000
00001000
00000100
,
00000010
00000100
00001000
00010000
00001000
00000000
01000000
00010000
00100000
01000000
10000000
00100000
,
01000000
00010000
10000000
02000000
00000000
00000000
13000000
00000000
10000000
01000000
00000000
01000000
,
00010000
00001000
00000010
00000001
00000000
00000000
00000001
00000000
00000001
00000100
00000000
00000100
,
00001000
00010000
00100000
10000000
00000000
00000000
10000000
00000000
10000000
01000000
00000000
01000000
,
00100000
00000000
00000000
00000000
00001000
00000000
00000000
00000000
00010000
00000000
00000000
00000000
00001000
00000000
00000000
00000000
00000000
00000000
00000000
00000000
00000000
00000000
00000000
00000000
00010000
00000000
00000000
00000010
00000000
00000000
00001000
00000000
00000000
00000000
00000000
00000000
00000001
00000000
00000000
00000000
00000000
00000000
00000010
00000000
00000000
00000000
00000000
00000000
,
00001000
00000000
00000000
00000000
00010000
00000000
00000000
00000000
00011000
00000000
00000000
00000000
00000000
00000000
00000000
00000000
00011000
00000000
00000000
00000000
00001000
00000000
01000000
00000000
01010000
00000000
00010000
10000000
00010000
10000000
00010000
10000000
,
00010000
00000000
10000000
01000000
10000000
01000000
10000000
01000000
00100000
00000000
00001000
00000000
00000010
00000000
00000100
00000000
00001100
00000000
00000000
00000000
00001001
00000000
00000001
00000010
00000001
00000000
00001000
00000010
00001000
00000010
00001000
00000010
,
00000100
00000000
00001000
00000000
00010000
00000000
00100000
00000000
01000000
00000000
00010000
00000000
20020000
00000000
30030000
00000000
10000000
01000000
10000000
01000000
00200000
00000000
00302000
00000000
00013000
00001000
00010000
00001000
00000020
00000000
00000230
00000000
,
00001300
00000001
00001000
00000001
00000200
00000000
00002300
00000000
00013000
00001000
00010000
00001000
00020000
00000000
00000000
00000000
00031000
00010000
00001000
00010000
02000000
00000000
03200000
00000000
00310000
10000000
00010000
10000000
00200000
00000000
00320000
00000000
,
00031000
00010000
01000000
10000000
00100000
00010000
00011000
00000000
,
00000110
00000000
00000000
00001001
00000000
00000001
00000010
00000100
00000010
00001000
00010000
00001000
01000000
00100000
10000000
01000000
00100000
00010000
10000000
00000000
10000000
01000000
00000000
01000000
,
00010000
00000000
00000000
00011000
00000000
00000010
00010000
00001000
00010000
00000100
00001000
00000001
00000010
00000100
00000010
00001000
00010000
01000000
00100000
01000000
10000000
00020000
00000000
00000000
,
10030000
01000000
10000000
00010000
01000000
00100000
00010000
00001000
,
00000100
00000010
00001000
00000001
00000010
00000100
00002000
00000000
,
00003001
00000010
00000100
00000000
00010000
00001000
00100000
00000000
00010000
10000000
00010000
10000000
00100000
01000000
00010000
10000000
,
02000000
00000000
00000000
03000000
00011000
00000000
00000000
00000000
,
00000000
00000000
00000000
00000000
00000000
00000010
00000100
00001000
00010000
00000000
00000000
00001000
00000000
00000000
00000000
01000000
,
00000000
00000000
00000000
00010000
00000000
00000000
00100000
01000000
00010000
00000000
00000000
00000000
00000000
00000000
00000000
00000000
,
00000000
00000000
00000000
00000000
00000000
00000010
00001000
00000100
00000010
00000000
00000000
00000100
00000000
00000000
00000000
00001000
,
00010000
00000000
00000000
00000000
00000000
00000000
00100000
00000000
00000000
00000000
00000000
00000000
01000000
00000000
00100000
00000000
00010000
00000000
00000000
10000000
00000000
00000000
00100000
00000000
00000000
00010000
00000000
00000000
00011000
00000000
00000000
00000000
,
00010000
00000000
00000000
00001000
00000000
00000000
00000100
00000000
00000000
00000001
00000000
00000000
00001001
00000000
00000000
00000000
00000001
00000000
00000000
00000010
00000000
00000000
00001000
00000000
00000000
00010000
00000000
00000000
00011000
00000000
00000000
00000000
,
00001000
00000000
00000000
00010000
00000000
00000000
01000000
00000000
00000000
10000000
00000000
00000000
10010000
00000000
00000000
00000000
01100000
00000000
00000000
10000000
00100000
00000000
01000000
00000000
00000000
00001000
00000000
00000000
00010000
00000000
00000000
00000000
,
00011000
00000000
00000000
00010000
00000100
00000000
00000010
00000000
00000000
00000001
00000000
00000000
00001000
00000000
00000100
00000000
00000110
00000000
00000000
00000010
00000001
00000000
00001000
00000000
00000000
00000010
00000000
00000000
00000100
00000000
00001000
00000000
,
00011000
00000000
00000000
00010000
00001000
00000000
00100000
00000000
00010000
10000000
00010000
10000000
00010000
00000000
00000000
00000000
20000000
00000000
00000000
00000000
00000000
00000000
30200000
00000000
00000000
00000000
00000000
00000000
00320000
00000000
00000000
00000000
,
00000000
00032000
00000000
00000000
00003100
00000000
00000001
00000000
00002000
00000000
00000000
00003002
00000000
00000000
00000023
00000000
,
00000000
00002030
00000000
00000000
00013000
00000000
00000000
00000000
00002000
00000000
00000000
00023000
00000000
00000000
02030000
00000000
,
00000000
23000000
00000000
30000000
00010000
00000000
01000000
00000000
00200000
00000000
00000000
20300000
00000000
00000000
32000000
00000000
,
00000000
03010000
00001000
00010000
00002000
00000000
00000000
00000000
00013000
00000000
00001000
00000000
00000010
00000000
00000100
00000000
,
00000010
00000001
00001000
00000001
00000100
00001000
00010000
00100000
,
10000000
00000000
00010000
00000000
00100000
00000000
01000000
00000000
10000000
00010000
01000000
00010000
10000000
01000000
00100000
00010000
,
00100000
00001000
00010000
00000010
00001000
00000001
00000010
00000100
00001000
00000000
00000110
00000000
00011000
00000000
01100000
00000000
,
00010000
10000000
00100000
10000000
00010000
10000000
01000000
00100000
00010000
10000000
00010000
01000000
00001000
00000000
00010000
00000000
,
00000100
00001000
00000100
00000010
00000001
00001000
00000010
00000100
00000010
00001000
00000001
00000010
00000100
00000000
00001000
00000000
,
00000001
00001000
00000010
00010000
00001000
00100000
00001000
00010000
00001000
01000000
00010000
10000000
01000000
00000000
00100000
00000000
,
00001000
00010000
00000010
00001000
00000010
00010000
00001000
00100000
00010000
00100000
00001000
00010000
00000200
00000000
00000000
00000000
,
00001300
00000001
00000010
00000001
00001000
00000010
00001000
00000001
00000010
00000100
00001000
00000100
00010000
00000000
00001000
00000000
,
00100000
00010000
10000000
00010000
01000000
00100000
10000000
00100000
01000000
00010000
10000000
01000000
00100000
00000000
00001000
00000000
,
00010000
00001000
00010000
00000100
00001000
00000100
00000010
00000001
00001000
00000010
00001000
00000001
00000010
00000000
00000100
00000000
,
00010000
00001000
01000000
00000000
00010000
00100000
01000000
00000000
00100000
00010000
10000000
00100000
01000000
00000000
00000000
00000000
,
00010000
00100000
00000000
00100000
00010000
10000000
00100000
10000000
00010000
00100000
01000000
10000000
01000000
00100000
00010000
00000000
,
00100000
00001000
00010000
00000100
00001000
00000001
00000100
00000010
00001000
00000100
00000010
00000001
00001000
00000010
00000100
00000000
,
00000001
00000010
00000001
00000100
00000010
00001000
00000100
00010000
00001000
01000000
00010000
00100000
01000000
10000000
00010000
00000000
,
01000000
00010000
10000000
01000000
00100000
01000000
10000000
00010000
01000000
00001000
00000000
00001000
00010000
00000100
00010000
00000100
,
00001000
00000100
00000010
00000001
00001000
00000010
00001000
00000001
00000010
00000100
00001000
00000100
00010000
00001000
01000000
00000000
,
00010000
00100000
01000000
10000000
00100000
01000000
00010000
10000000
01000000
00100000
00010000
01000000
00001000
00010000
00000100
00000000
,
00001000
00000000
00000100
00000000
00000010
00000000
00000001
00000000
00001000
00000010
00000100
00001000
00010000
00001000
01000000
00010000
,
00200000
00000000
00000000
01300000
,
10010000
00000000
00000000
00000000
;
