#VERSION:0.83;
#TITLE:Hello World;
#ARTIST:MK;
#BANNER:Hello World.png;
#BACKGROUND:Hello World-bg.png;
#CDTITLE:./CDTitles/DANCE aROUND.png;
#MUSIC:Hello World.ogg;
#SAMPLESTART:31.873;
#SAMPLELENGTH:15;
#BPMS:0=128;
#BGSTAGE:3;

//--------------- dance-single - Fred-104 ----------------
#NOTEDATA:;
#STEPSTYPE:dance-single;
#DESCRIPTION:Fred-104;
#DIFFICULTY:Beginner;
#METER:1;
#CREDIT:Fred-104;
#NOTES:
0000
0000
0000
0000
,
0000
0000
0000
0000
,
0000
0000
0000
0000
,
0000
0000
0000
0000
,
0000
0000
0000
0000
,
1000
0000
0000
0000
,
0000
0000
0000
0000
,
1000
0000
0000
0000
,
0000
0000
0000
0000
,
0001
0000
0000
0000
,
0001
0000
0000
0000
,
0001
0000
0000
0000
,
0001
0000
0000
0000
,
1000
0000
0000
0000
,
1000
0000
0000
0000
,
1000
0000
0000
0000
,
0000
0000
0000
0000
,
0001
0000
0000
0000
,
0001
0000
0000
0000
,
0001
0000
0000
0000
,
0001
0000
0000
0000
,
0010
0000
0000
0000
,
0010
0000
0000
0000
,
1000
0000
0000
0000
,
1000
0000
0000
0000
,
0100
0000
0000
0000
,
0100
0000
0000
0000
,
0100
0000
0000
0000
,
0100
0000
0000
0000
,
0001
0000
0000
0000
,
0001
0000
0000
0000
,
1000
0000
0000
0000
,
1000
0000
0000
0000
,
0001
0000
0000
0000
,
0000
0000
0000
0000
,
1000
0000
0000
0000
,
0000
0000
0000
0000
,
0001
0000
0000
0000
,
1000
0000
0000
0000
,
0001
0000
0000
0000
,
0000
0000
0000
0000
,
1000
0000
0000
0000
,
1000
0000
0000
0000
,
1000
0000
0000
0000
,
1000
0000
0000
0000
,
0010
0000
0000
0000
,
0010
0000
0000
0000
,
0001
0000
0000
0000
,
0001
0000
0000
0000
,
0100
0000
0000
0000
,
0100
0000
0000
0000
,
0100
0000
0000
0000
,
0100
0000
0000
0000
,
1000
0000
0000
0000
,
1000
0000
0000
0000
,
0001
0000
0000
0000
,
0001
0000
0000
0000
,
1000
0000
0000
0000
;

//--------------- dance-single - Fred-104 ----------------
#NOTEDATA:;
#STEPSTYPE:dance-single;
#DESCRIPTION:Fred-104;
#DIFFICULTY:Easy;
#METER:4;
#CREDIT:Fred-104;
#NOTES:
0000
0000
0000
0000
,
0000
0000
0000
0000
,
0000
0000
0000
0000
,
0000
0000
0000
0000
,
0000
0000
0000
0000
,
0001
0000
0001
0000
,
0010
0000
0010
0000
,
1000
0000
1000
0000
,
0100
0000
0001
0000
,
1000
1000
1000
1000
,
0100
0100
0010
0010
,
0001
0001
0001
0001
,
0100
0100
0010
0010
,
1000
1000
1000
1000
,
0001
0001
0001
0001
,
1000
0001
1000
0001
,
1000
1000
1001
0000
,
0001
0010
0100
0100
,
0010
0001
1000
0000
,
0001
0001
0100
0010
,
0100
0100
0001
0000
,
1000
1000
0100
0001
,
0100
0010
0100
0000
,
1000
1000
0001
0100
,
0010
1000
0001
0000
,
0001
0001
1000
0010
,
0001
0010
0100
0000
,
0100
0001
1000
0001
,
0010
0100
1000
0000
,
0001
0001
0010
0001
,
1000
0001
0100
0000
,
0010
0010
1000
0001
,
0010
0100
1000
0000
,
1002
0000
0000
0003
,
2000
0000
0000
3000
,
0002
0000
0000
0003
,
2000
0000
0000
3000
,
0001
0001
0001
0001
,
1000
1000
1000
1000
,
0001
1000
0001
1000
,
0001
0001
1001
0000
,
1000
0010
0100
0100
,
0010
1000
0001
0000
,
1000
1000
0100
0010
,
0100
0100
1000
0000
,
0001
0001
0100
1000
,
0100
0010
0100
0000
,
0001
0001
1000
0100
,
0010
0001
1000
0000
,
1000
1000
0001
0010
,
1000
0010
0100
0000
,
0100
1000
0001
1000
,
0010
0100
0001
0000
,
1000
1000
0010
1000
,
0001
1000
0100
0000
,
0010
0010
0001
1000
,
0010
0100
0001
0000
,
2002
0000
0000
0000
,
3003
0000
0000
0000
;

//--------------- dance-single - Fred-104 ----------------
#NOTEDATA:;
#STEPSTYPE:dance-single;
#DESCRIPTION:Fred-104;
#DIFFICULTY:Medium;
#METER:8;
#CREDIT:Fred-104;
#NOTES:
0000
0000
0000
0000
,
0000
0000
0000
0000
,
0000
0000
0000
0000
,
0000
0000
0000
0000
,
0000
0000
0000
0000
,
2000
0000
0000
0010
0000
0010
3010
0000
,
0200
0000
0000
0001
0000
0000
0301
0000
,
2000
0000
0000
0001
0000
0000
3001
0000
,
0020
0000
0000
0100
0000
0000
0130
0000
,
1000
1000
0001
0001
,
1000
0100
0001
0000
1000
0010
0001
0000
,
1000
1000
0001
0001
,
1000
0010
0001
0000
1000
0100
0001
0000
,
0010
0100
0010
0000
0100
1000
0100
0000
,
1000
0001
1000
0000
0001
0100
0001
0000
,
1000
0100
1000
0100
0001
0100
1000
0001
,
1000
0000
1000
0000
0001
0001
1001
0000
,
1000
0000
0010
0000
0100
0000
0000
0000
0010
0000
0000
1000
0000
0000
0100
0000
,
0010
0000
0001
0000
1000
0000
0010
0000
0100
0000
0000
0001
0000
0000
0010
0000
,
0001
0000
1000
0000
0010
0000
0000
0000
0100
0000
0000
0001
0000
0000
0010
0000
,
0001
0000
1000
0000
0010
0000
0100
0000
0001
0000
0000
1000
0000
0000
0100
0000
,
0001
0000
0100
0000
1000
0000
0000
0000
0001
0000
0000
0100
0000
0000
0010
0000
,
1000
0000
0001
0000
0010
0000
1000
0000
0010
0000
0000
0001
0000
0000
1000
0000
,
0001
0000
0001
0000
0001
0000
0100
0000
0010
0000
0000
0100
0000
0000
0001
0000
,
1000
0000
0100
0000
0010
0000
1000
0000
0010
0000
0000
0100
0000
0000
1000
0000
,
0001
0000
0100
0000
0010
0000
0000
0000
1000
0000
0000
0100
0000
0000
0010
0000
,
0001
0000
0100
0000
0010
0000
0001
0000
0010
0000
0000
0100
0000
0000
0010
0000
,
1000
0000
0001
0000
1000
0000
0000
0000
0100
0000
0000
0010
0000
0000
0001
0000
,
0100
0000
0010
0000
1000
0000
0100
0000
0001
0000
0000
0100
0000
0000
0010
0000
,
0001
0000
1000
0000
0010
0000
0000
0000
0100
0000
0000
0010
0000
0000
1000
0000
,
0001
0000
0010
0000
1000
0000
0001
0000
0100
0000
0000
1000
0000
0000
0001
0000
,
1000
0000
0010
0000
0001
0000
0000
0000
1000
0000
0000
0100
0000
0000
0001
0000
,
0010
0000
0100
0000
1000
0000
0001
0000
0100
0000
0000
0010
0000
0000
1000
0000
,
1002
0000
0000
1000
0000
0000
0003
0000
,
2001
0000
0000
0001
0000
0000
3000
0000
,
0002
0000
0000
0010
0000
0000
0010
0000
,
2003
0000
0000
0100
0000
0000
3100
0000
,
0010
0100
0010
0000
0100
1000
0100
0000
,
1000
0001
1000
0000
0001
0100
0001
0000
,
1000
0100
1000
0100
0001
0100
1000
0001
,
1000
0000
1000
0000
0001
0001
1001
0000
,
1000
0000
0010
0000
0100
0000
0000
0000
0010
0000
0000
1000
0000
0000
0100
0000
,
0010
0000
0001
0000
1000
0000
0010
0000
0100
0000
0000
0001
0000
0000
0010
0000
,
0001
0000
1000
0000
0010
0000
0000
0000
0100
0000
0000
0001
0000
0000
0010
0000
,
0001
0000
1000
0000
0010
0000
0100
0000
0001
0000
0000
1000
0000
0000
0100
0000
,
0001
0000
0100
0000
1000
0000
0000
0000
0001
0000
0000
0100
0000
0000
0010
0000
,
1000
0000
0001
0000
0010
0000
1000
0000
0010
0000
0000
0001
0000
0000
1000
0000
,
0001
0000
0001
0000
0001
0000
0100
0000
0010
0000
0000
0100
0000
0000
0001
0000
,
1000
0000
0100
0000
0010
0000
1000
0000
0010
0000
0000
0100
0000
0000
1000
0000
,
0001
0000
0100
0000
0010
0000
0000
0000
1000
0000
0000
0100
0000
0000
0010
0000
,
0001
0000
0100
0000
0010
0000
0001
0000
0010
0000
0000
0100
0000
0000
0010
0000
,
1000
0000
0001
0000
1000
0000
0000
0000
0100
0000
0000
0010
0000
0000
0001
0000
,
0100
0000
0010
0000
1000
0000
0100
0000
0001
0000
0000
0100
0000
0000
0010
0000
,
0001
0000
1000
0000
0010
0000
0000
0000
0100
0000
0000
0010
0000
0000
1000
0000
,
0001
0000
0010
0000
1000
0000
0001
0000
0100
0000
0000
1000
0000
0000
0001
0000
,
1000
0000
0010
0000
0001
0000
0000
0000
1000
0000
0000
0100
0000
0000
0001
0000
,
0010
0000
0100
0000
1000
0000
0001
0000
0100
0000
0000
0010
0000
0000
1000
0000
,
2002
0000
0000
0000
,
3003
0000
0000
0000
;

//--------------- dance-single - Fred-104 ----------------
#NOTEDATA:;
#STEPSTYPE:dance-single;
#DESCRIPTION:Fred-104;
#DIFFICULTY:Hard;
#METER:14;
#CREDIT:Fred-104;
#NOTES:
0000
0000
0000
0000
,
0000
0000
0000
0000
,
0000
0000
0000
0000
,
0000
0000
0000
0000
,
0000
0000
0000
0000
,
0002
0000
0003
0020
0000
0031
0002
0000
,
2003
0000
0000
0010
0000
0000
3001
0000
,
0002
0000
0000
0010
0000
0000
1003
0000
,
0020
0000
0000
0100
0000
0000
0130
0000
,
0001
0000
0000
0000
0011
0000
0000
0000
1000
0000
0000
0000
1100
0000
0000
0001
,
0000
0001
0000
0000
1000
0000
0001
0000
0010
0000
0100
0010
0200
0000
1000
0000
,
1300
0000
0000
0000
0101
0000
0000
0000
0001
0000
0000
0000
1010
0000
0000
1000
,
0000
1000
0000
0000
0001
0000
0010
0000
0100
0000
1000
0001
1000
0001
1000
0000
,
0001
0001
0100
0100
0010
0010
1000
1000
,
0100
0100
0010
0010
0001
0001
1000
1000
,
0001
0100
0001
0100
0010
1000
0010
1000
0001
1000
0001
1000
0001
1000
0001
1000
,
0001
0000
0000
0000
0002
0000
0003
0000
1000
0001
1000
0001
1000
0000
0001
0000
,
0100
0010
0100
0001
0000
0100
0001
0000
1000
0000
0000
0100
0000
0010
0001
0010
,
0000
0001
1000
0000
0000
0010
0100
0000
0001
0000
0000
1000
0000
0100
0010
0000
,
0001
0010
0001
1000
0000
0001
0100
0000
0010
0000
0000
1000
0000
0001
1000
0100
,
0000
0010
0100
0000
0000
1000
0001
0000
0100
0000
0000
0010
0000
1000
0001
0010
,
0001
1000
0001
0100
0000
0010
0100
0000
0001
0000
0000
1000
0000
0100
0010
0100
,
0000
1000
0001
0000
0000
0100
0010
0000
1000
0000
0000
0001
0000
0010
0100
0000
,
0010
0001
1000
0001
0000
0100
0010
0000
1000
0000
0000
0100
0000
0010
0001
1000
,
0000
0010
0100
0000
0010
1000
0010
1000
0001
0000
0010
0100
1000
0100
1000
0000
,
0001
0100
0001
0100
0010
1000
0010
0000
0100
0000
0001
1000
0000
0100
1000
0001
,
0000
0010
0100
0000
1000
0001
0100
0000
0001
0000
1000
0010
0000
0100
0010
0000
,
1000
0001
1000
0100
0000
0010
0100
0000
1000
0000
0001
0100
0000
0001
0010
0001
,
0000
1000
0001
0000
0100
0010
1000
0000
0001
0000
0010
0100
0000
1000
0001
1000
,
0010
0100
0010
1000
0000
0001
1000
0000
0100
0000
0010
0100
0000
1000
0010
0100
,
0000
0001
1000
0000
0001
0010
0100
0000
0010
0000
0001
0100
0000
0010
1000
0000
,
0001
0010
0100
0010
0000
0001
1000
0000
0010
0000
0100
0010
0000
1000
0100
0010
,
0000
0001
1000
0000
0001
0100
0010
1000
0020
0000
1030
0002
0000
1003
0100
0010
,
0002
0000
0000
0010
0000
0000
0003
0000
,
2000
0000
0000
0100
0000
0000
3000
0000
,
0002
0000
0000
0100
0000
0000
1003
0000
,
2000
0000
0000
0010
0000
0000
3001
0000
,
1000
1000
0100
0100
0010
0010
0001
0001
,
0100
0100
0010
0010
1000
1000
0001
0001
,
1000
0100
1000
0100
0010
0001
0010
0001
1000
0001
1000
0001
1000
0001
1000
0001
,
1000
0000
0000
0000
2000
0000
3000
0000
0001
1000
0001
1000
0001
0000
1000
0000
,
0010
0100
0010
1000
0000
0010
1000
0000
0001
0000
0000
0010
0000
0100
1000
0100
,
0000
1000
0001
0000
0000
0100
0010
0000
1000
0000
0000
0001
0000
0010
0100
0000
,
1000
0100
1000
0001
0000
1000
0010
0000
0100
0000
0000
0001
0000
1000
0001
0010
,
0000
0100
0010
0000
0000
0001
1000
0000
0010
0000
0000
0100
0000
0001
1000
0100
,
1000
0001
1000
0010
0000
0100
0010
0000
1000
0000
0000
0001
0000
0010
0100
0010
,
0000
0001
1000
0000
0000
0010
0100
0000
0001
0000
0000
1000
0000
0100
0010
0000
,
0100
1000
0001
1000
0000
0010
0100
0000
0001
0000
0000
0010
0000
0100
1000
0001
,
0000
0100
0010
0000
0100
0001
0100
0001
1000
0000
0100
0010
0001
0010
0001
0000
,
1000
0010
1000
0010
0100
0001
0100
0000
0010
0000
1000
0001
0000
0010
0001
1000
,
0000
0100
0010
0000
0001
1000
0010
0000
1000
0000
0001
0100
0000
0010
0100
0000
,
0001
1000
0001
0010
0000
0100
0010
0000
0001
0000
1000
0010
0000
1000
0100
1000
,
0000
0001
1000
0000
0010
0100
0001
0000
1000
0000
0100
0010
0000
0001
1000
0001
,
0100
0010
0100
0001
0000
1000
0001
0000
0010
0000
0100
0010
0000
0001
0100
0010
,
0000
1000
0001
0000
1000
0100
0010
0000
0100
0000
1000
0010
0000
0100
0001
0000
,
1000
0100
0010
0100
0000
1000
0001
0000
0100
0000
0010
0100
0000
0001
0010
0100
,
0000
1000
0001
0000
1000
0010
0100
0001
0020
0000
0130
0020
0000
0031
0100
0010
,
0220
0000
0000
0000
,
0330
0000
0000
0000
;

//--------------- dance-double - Fred-104 ----------------
#NOTEDATA:;
#STEPSTYPE:dance-double;
#DESCRIPTION:Fred-104;
#DIFFICULTY:Easy;
#METER:4;
#CREDIT:Fred-104;
#NOTES:
00000000
00000000
00000000
00000000
,
00000000
00000000
00000000
00000000
,
00000000
00000000
00000000
00000000
,
00000000
00000000
00000000
00000000
,
00000000
00000000
00000000
00000000
,
00010000
00000000
00001000
00000000
,
01000000
00000000
00010000
00000000
,
10000000
00000000
01000000
00000000
,
00010000
00000000
00001000
00000000
,
00010000
00010000
00001000
00001000
,
00000010
00000001
00001000
00000000
,
00000001
00000001
00000100
00000100
,
00001000
00010000
00001000
00000000
,
00010000
00010000
00001000
00001000
,
00010000
00010000
00001000
00001000
,
00010000
00001000
00010000
00010000
,
00001000
00001000
00011000
00000000
,
00001000
00010000
00100000
01000000
,
00010000
10000000
00010000
00000000
,
10000000
01000000
00100000
00010000
,
00100000
00001000
00010000
00000000
,
00000100
00001000
00000001
00001000
,
00000010
00010000
00001000
00000000
,
00010000
00001000
00000100
00000001
,
00001000
00000100
00000010
00000000
,
00000001
00000001
00000001
00000100
,
00001000
00010000
00001000
00000000
,
01000000
00010000
01000000
00100000
,
10000000
01000000
00100000
00000000
,
00001000
00010000
00001000
00100000
,
00001000
00010000
00000010
00000000
,
00001000
00000100
00000010
00000001
,
00000100
00001000
00010000
00000000
,
00012000
00000000
00000000
00003000
,
00020000
00000000
00000000
00030000
,
00002000
00000000
00000000
00003000
,
00020000
00000000
00000000
00030000
,
00001000
00001000
00010000
00010000
,
00001000
00001000
00010000
00010000
,
00001000
00010000
00001000
00001000
,
00010000
00010000
00011000
00000000
,
00010000
00001000
00000010
00000100
,
00001000
00000001
00001000
00000000
,
00000001
00000100
00000010
00001000
,
00000010
00010000
00001000
00000000
,
01000000
00010000
10000000
00010000
,
00100000
00001000
00010000
00000000
,
00001000
00010000
01000000
10000000
,
00010000
01000000
00100000
00000000
,
10000000
10000000
10000000
01000000
,
00010000
00001000
00010000
00000000
,
00000100
00001000
00000100
00000010
,
00000001
00000100
00000010
00000000
,
00010000
00001000
00010000
00000010
,
00010000
00001000
00100000
00000000
,
00010000
01000000
00100000
10000000
,
01000000
00010000
00001000
00000000
,
00022000
00000000
00000000
00000000
,
00033000
00000000
00000000
00000000
;

//--------------- dance-double - Fred-104 ----------------
#NOTEDATA:;
#STEPSTYPE:dance-double;
#DESCRIPTION:Fred-104;
#DIFFICULTY:Medium;
#METER:8;
#CREDIT:Fred-104;
#NOTES:
00000000
00000000
00000000
00000000
,
00000000
00000000
00000000
00000000
,
00000000
00000000
00000000
00000000
,
00000000
00000000
00000000
00000000
,
00000000
00000000
00000000
00000000
,
00002000
00000000
00000000
00010000
00000000
00010000
00013000
00000000
,
00000020
00000000
00000000
00001000
00000000
00000000
00001030
00000000
,
00000200
00000000
00000000
00000010
00000000
00000000
00000310
00000000
,
00000002
00000000
00000000
00001000
00000000
00000000
00001003
00000000
,
00000001
00000001
00000100
00000100
,
00001000
00010000
00001000
00000000
00010000
00100000
10000000
00000000
,
01000000
01000000
00010000
00010000
,
00001000
00010000
00000010
00000000
00001000
00000001
00001000
00000000
,
00000001
00000100
00001000
00000000
00010000
01000000
10000000
00000000
,
10000000
00100000
00010000
00000000
00001000
00000010
00000001
00000000
,
00000100
00000010
00001000
00000010
00010000
00001000
00010000
00001000
,
00010000
00000000
00010000
00000000
00001000
00001000
00001000
00000000
,
00010000
00000000
00001000
00000000
00100000
00000000
00000000
00000000
00010000
00000000
00000000
10000000
00000000
00000000
00100000
00000000
,
00010000
00000000
00001000
00000000
00010000
00000000
00000000
00000000
01000000
00000000
00000000
10000000
00000000
00000000
00010000
00000000
,
01000000
00000000
00100000
00000000
00010000
00000000
00000000
00000000
00001000
00000000
00000000
00010000
00000000
00000000
00000010
00000000
,
00001000
00000000
00000100
00000000
00000001
00000000
00000000
00000000
00000100
00000000
00000000
00010000
00000000
00000000
00001000
00000000
,
00010000
00000000
00001000
00000000
00100000
00000000
00000000
00000000
01000000
00000000
00000000
10000000
00000000
00000000
00010000
00000000
,
01000000
00000000
10000000
00000000
01000000
00000000
00000000
00000000
00100000
00000000
00000000
10000000
00000000
00000000
00010000
00000000
,
00100000
00000000
01000000
00000000
00010000
00000000
00000000
00000000
00001000
00000000
00000000
00010000
00000000
00000000
00000010
00000000
,
00001000
00000000
00000100
00000000
00000010
00000000
00000000
00000000
00000001
00000000
00000000
00001000
00000000
00000000
00000001
00000000
,
00000100
00000000
00000100
00000000
00000100
00000000
00000000
00000000
00000010
00000000
00000000
00010000
00000000
00000000
00001000
00000000
,
00010000
00000000
00100000
00000000
01000000
00000000
00100000
00000000
10000000
00000000
00000000
00010000
00000000
00000000
10000000
00000000
,
01000000
00000000
00100000
00000000
00001000
00000000
00000000
00000000
00010000
00000000
00000000
00000100
00000000
00000000
00001000
00000000
,
00000100
00000000
00000010
00000000
00000001
00000000
00001000
00000000
00000010
00000000
00000000
00000100
00000000
00000000
00000010
00000000
,
00010000
00000000
00001000
00000000
00100000
00000000
00000000
00000000
00001000
00000000
00000000
00010000
00000000
00000000
00001000
00000000
,
00000010
00000000
00000100
00000000
00001000
00000000
00000010
00000000
00010000
00000000
00000000
00001000
00000000
00000000
01000000
00000000
,
00100000
00000000
00010000
00000000
00001000
00000000
00000000
00000000
00010000
00000000
00000000
00000010
00000000
00000000
00010000
00000000
,
00001000
00000000
00100000
00000000
00010000
00000000
10000000
00000000
00100000
00000000
00000000
01000000
00000000
00000000
00010000
00000000
,
20010000
00000000
00000000
30020000
00000000
00000000
00030000
00000000
,
00200000
00000000
00000000
00302000
00000000
00000000
00003000
00000000
,
00020000
00000000
00000000
00030020
00000000
00000000
00020030
00000000
,
00032000
00000000
00000000
00023000
00000000
00000000
00230000
00000000
,
10300000
01000000
00010000
00000000
00001000
00000100
00000001
00000000
,
00000001
00000010
00001000
00000000
00010000
00100000
10000000
00000000
,
01000000
00100000
00010000
00100000
00001000
00010000
00001000
00010000
,
00001000
00000000
00001000
00000000
00010000
00010000
00010000
00000000
,
00001000
00000000
00010000
00000000
00000010
00000000
00000000
00000000
00001000
00000000
00000000
00000001
00000000
00000000
00000010
00000000
,
00001000
00000000
00010000
00000000
00001000
00000000
00000000
00000000
00000100
00000000
00000000
00000001
00000000
00000000
00001000
00000000
,
00000100
00000000
00000010
00000000
00001000
00000000
00000000
00000000
00010000
00000000
00000000
00001000
00000000
00000000
00100000
00000000
,
00010000
00000000
01000000
00000000
10000000
00000000
00000000
00000000
01000000
00000000
00000000
00001000
00000000
00000000
00010000
00000000
,
00001000
00000000
00010000
00000000
00000010
00000000
00000000
00000000
00000100
00000000
00000000
00000001
00000000
00000000
00001000
00000000
,
00000100
00000000
00000001
00000000
00000100
00000000
00000000
00000000
00000010
00000000
00000000
00000001
00000000
00000000
00001000
00000000
,
00000010
00000000
00000100
00000000
00001000
00000000
00000000
00000000
00010000
00000000
00000000
00001000
00000000
00000000
00100000
00000000
,
00010000
00000000
01000000
00000000
00100000
00000000
00000000
00000000
10000000
00000000
00000000
00010000
00000000
00000000
10000000
00000000
,
01000000
00000000
01000000
00000000
01000000
00000000
00000000
00000000
00100000
00000000
00000000
00001000
00000000
00000000
00010000
00000000
,
00001000
00000000
00000010
00000000
00000100
00000000
00000010
00000000
00000001
00000000
00000000
00001000
00000000
00000000
00000001
00000000
,
00000100
00000000
00000010
00000000
00010000
00000000
00000000
00000000
00001000
00000000
00000000
01000000
00000000
00000000
00010000
00000000
,
01000000
00000000
00100000
00000000
10000000
00000000
00010000
00000000
00100000
00000000
00000000
01000000
00000000
00000000
00100000
00000000
,
00001000
00000000
00010000
00000000
00000010
00000000
00000000
00000000
00010000
00000000
00000000
00001000
00000000
00000000
00010000
00000000
,
00100000
00000000
01000000
00000000
00010000
00000000
00100000
00000000
00001000
00000000
00000000
00010000
00000000
00000000
00000100
00000000
,
00000010
00000000
00001000
00000000
00010000
00000000
00000000
00000000
00001000
00000000
00000000
00100000
00000000
00000000
00001000
00000000
,
00010000
00000000
00000010
00000000
00001000
00000000
00000001
00000000
00000010
00000000
00000000
00000100
00000000
00000000
00001000
00000000
,
00002002
00000000
00000000
00000000
,
00003003
00000000
00000000
00000000
;

//--------------- dance-double - Fred-104 ----------------
#NOTEDATA:;
#STEPSTYPE:dance-double;
#DESCRIPTION:Fred-104;
#DIFFICULTY:Hard;
#METER:14;
#CREDIT:Fred-104;
#NOTES:
00000000
00000000
00000000
00000000
,
00000000
00000000
00000000
00000000
,
00000000
00000000
00000000
00000000
,
00000000
00000000
00000000
00000000
,
00000000
00000000
00000000
00000000
,
00020000
00000000
00000000
00032000
00000000
01003000
02000000
00000000
,
03020000
00000000
00000000
20000000
00000000
00000000
30030000
00000000
,
20000000
00000000
00000000
32000000
00000000
00000000
03020000
00000000
,
00032000
00000000
00000000
00020000
00000000
00000000
00033000
00000000
,
00010000
00000000
00000000
00000000
00001010
00000000
00000000
00000000
00010000
00000000
00000000
00000000
00001100
00000000
00000000
00010000
,
00000000
00010000
00000000
00000000
00001000
00000000
01000000
00000000
00010000
00000000
01000000
00100000
02000000
00000000
00010000
00000000
,
03010000
00000000
00000000
00000000
11000000
00000000
00000000
00000000
00010000
00000000
00000000
00000000
10100000
00000000
00000000
00010000
,
00000000
00010000
00000000
00000000
10000000
00000000
01000000
00000000
00010000
00000000
00001000
00010000
00001000
00000000
00010000
00000000
,
00000100
00000100
00000010
00000010
00000001
00000001
00001000
00001000
,
00000010
00000010
00010000
00010000
00100000
00100000
10000000
10000000
,
00010000
00100000
00010000
00100000
01000000
10000000
01000000
10000000
00010000
01000000
00010000
01000000
00010000
01000000
00010000
01000000
,
00001000
00000000
00000000
00000000
00002000
00000000
00003000
00000000
00010000
00001000
00010000
00001000
00010000
00000000
00010000
00000000
,
00000100
00001000
00000100
00001000
00000000
00000001
00001000
00000000
00000010
00000000
00000000
00010000
00000000
00001000
00100000
00001000
,
00000000
00010000
00001000
00000000
00000000
01000000
00010000
00000000
10000000
00000000
00000000
01000000
00000000
00010000
00001000
00000000
,
00010000
00001000
00010000
00001000
00000000
00000010
00000100
00000000
00001000
00000000
00000000
00000001
00000000
00000100
00000010
00001000
,
00000000
00000010
00010000
00000000
00000000
00001000
00100000
00000000
01000000
00000000
00000000
00010000
00000000
00001000
00010000
00001000
,
00010000
00001000
00100000
00001000
00000000
00100000
00010000
00000000
10000000
00000000
00000000
00010000
00000000
00100000
00001000
00100000
,
00000000
00001000
00010000
00000000
00000000
00001000
00000100
00000000
00000001
00000000
00000000
00001000
00000000
00000100
00000010
00000000
,
00001000
00010000
00001000
00010000
00000000
00000100
00010000
00000000
00001000
00000000
00000000
00010000
00000000
00000010
00001000
00000010
,
00000000
00000100
00000001
00000000
00001000
00000001
00001000
00000100
00000010
00000000
00000001
00001000
00000001
00000100
00000010
00000000
,
00010000
00001000
00010000
00001000
00100000
00010000
00100000
00000000
00010000
00000000
10000000
00100000
00000000
10000000
00010000
10000000
,
00000000
01000000
00100000
00000000
00001000
00010000
00001000
00000000
00010000
00000000
00000010
00001000
00000000
00000010
00001000
00000000
,
00000001
00000010
00000001
00000010
00000000
00000100
00000010
00000000
00000001
00000000
00001000
00000010
00000000
00000100
00000010
00010000
,
00000000
00001000
00010000
00000000
00001000
00100000
00010000
00000000
10000000
00000000
00010000
01000000
00000000
00001000
01000000
00001000
,
00010000
00000100
00010000
00000100
00000000
00010000
00001000
00000000
00010000
00000000
00000010
00001000
00000000
00000010
00000100
00000010
,
00000000
00010000
00001000
00000000
00010000
00000100
00001000
00000000
00000100
00000000
00000010
00000001
00000000
00001000
00000001
00000000
,
00000100
00000010
00000100
00000010
00000000
00000100
00001000
00000000
00010000
00000000
00001000
00100000
00000000
00010000
10000000
00010000
,
00000000
01000000
00100000
00000000
10000000
00010000
00100000
00001000
00010000
00000000
00000000
00001000
00000000
00000100
00000010
00001000
,
00000002
00000000
00000000
00000023
00000000
00000000
00000000
00000000
,
00002030
00000000
00000000
00023000
00000000
00000000
00000000
00000000
,
00032000
00000000
00000000
00023000
00000000
00000000
02030000
00000000
,
23000000
00000000
00000000
30200000
00000000
00310000
00001000
00000000
,
01000000
01000000
00100000
00100000
10000000
10000000
00010000
00010000
,
00100000
00100000
00001000
00001000
00000010
00000010
00000001
00000001
,
00001000
00000010
00001000
00000010
00000100
00000001
00000100
00000001
00001000
00000100
00001000
00000100
00001000
00000100
00001000
00000100
,
00010000
00000000
00000000
00000000
00020000
00000000
00030000
00000000
00001000
00010000
00001000
00010000
00001000
00000000
00001000
00000000
,
01000000
00010000
01000000
00010000
00000000
10000000
00010000
00000000
00100000
00000000
00000000
00001000
00000000
00010000
00000010
00010000
,
00000000
00001000
00010000
00000000
00000000
00000100
00001000
00000000
00000001
00000000
00000000
00000100
00000000
00001000
00010000
00000000
,
00001000
00010000
00001000
00010000
00000000
00100000
01000000
00000000
00010000
00000000
00000000
10000000
00000000
01000000
00100000
00010000
,
00000000
00100000
00001000
00000000
00000000
00010000
00000010
00000000
00000100
00000000
00000000
00001000
00000000
00010000
00001000
00010000
,
00001000
00010000
00000010
00010000
00000000
00000010
00001000
00000000
00000001
00000000
00000000
00001000
00000000
00000010
00010000
00000010
,
00000000
00010000
00001000
00000000
00000000
00010000
01000000
00000000
10000000
00000000
00000000
00010000
00000000
01000000
00100000
00000000
,
00010000
00001000
00010000
00001000
00000000
01000000
00001000
00000000
00010000
00000000
00000000
00001000
00000000
00100000
00010000
00100000
,
00000000
01000000
10000000
00000000
00010000
10000000
00010000
01000000
00100000
00000000
10000000
00010000
10000000
01000000
00100000
00000000
,
00001000
00010000
00001000
00010000
00000010
00001000
00000010
00000000
00001000
00000000
00000001
00000010
00000000
00000001
00001000
00000001
,
00000000
00000100
00000010
00000000
00010000
00001000
00010000
00000000
00001000
00000000
00100000
00010000
00000000
00100000
00010000
00000000
,
10000000
00100000
10000000
00100000
00000000
01000000
00100000
00000000
10000000
00000000
00010000
00100000
00000000
01000000
00100000
00001000
,
00000000
00010000
00001000
00000000
00010000
00000010
00001000
00000000
00000001
00000000
00001000
00000100
00000000
00010000
00000100
00010000
,
00001000
01000000
00001000
01000000
00000000
00001000
00010000
00000000
00001000
00000000
00100000
00010000
00000000
00100000
01000000
00100000
,
00000000
00001000
00010000
00000000
00001000
01000000
00010000
00000000
01000000
00000000
00100000
10000000
00000000
00010000
10000000
00000000
,
01000000
00100000
01000000
00100000
00000000
01000000
00010000
00000000
00001000
00000000
00010000
00000010
00000000
00001000
00000001
00001000
,
00000000
00000100
00000010
00000000
00000001
00001000
00000010
00010000
00002000
00000000
00000000
00023000
00000000
00031000
01000000
00010000
,
20020000
00000000
00000000
00000000
,
30030000
00000000
00000000
00000000
;
