#TITLE:Heatstroke(Fred-Special);
#ARTIST:TAG feat. Angie Lee;
#BANNER:Heatstroke(Fred-Special).png;
#BACKGROUND:Heatstroke(Fred-Special)-bg.png;
#CDTITLE:./CDTitles/DDR X2.png;
#MUSIC:Heatstroke(Fred-Special).ogg;
#SAMPLESTART:70.3;
#SAMPLELENGTH:15;
#DISPLAYBPM:140;
#BPMS:0=139.4,4=140;
#BGSTAGE:16;

//--------------- dance-single - Fred-104 ----------------
#NOTES:
     dance-single:
     Fred-104:
     Challenge:
     14:
     :
0000
0000
0000
0000
,
0000
0000
0000
0000
,
0000
0000
0000
0000
,
1000
0010
1000
0010
0100
0010
0100
0010
0100
0001
0100
0001
1000
0001
1000
0001
,
1000
0000
0000
0000
0000
0000
0000
0000
0000
0001
0000
0000
0000
0000
0000
0000
0000
0000
1000
0000
0000
0000
0000
0000
0001
0000
0000
0000
0100
0000
0000
0000
0010
0000
0000
0000
1000
0000
0000
0000
0000
0000
0000
0000
0000
0000
0000
0000
,
0001
0000
0000
0100
0001
0100
0000
0010
0000
1000
0000
0010
0000
0100
0010
0000
,
1000
0000
0000
0100
1000
0100
0000
0010
0000
0001
0000
0010
0000
0100
0010
0000
,
1000
0000
0000
0010
0100
0010
0000
0001
0000
1000
0000
0001
0000
0100
0010
0000
,
1000
0000
0000
0010
0100
1000
0000
0100
0000
0001
0000
1000
0000
0100
0010
0000
,
0001
0000
1000
0010
0000
0100
0000
1000
0000
0100
0000
0010
0000
1000
0001
0000
,
1000
0000
0100
0001
0000
0100
0000
0010
0000
0001
0000
0100
0000
0001
1000
0000
,
0001
0000
0100
0010
0000
0001
0000
0010
0000
1000
0000
0001
0000
0100
0001
0000
,
0100
0000
0000
0000
0100
0000
0000
0000
0010
0000
0000
0000
0000
0000
0000
0000
0100
0000
0000
0000
0100
0000
0000
0000
0010
0000
0000
0000
0000
0000
0000
0000
0000
1000
0000
0000
0000
0000
0000
0000
0000
0000
0001
0000
0000
0000
0000
0000
,
1001
0000
0010
0000
,
0100
0000
1000
0010
,
0001
0000
0100
0000
,
1000
0000
0010
0100
,
0001
0000
0001
0100
0001
0100
0000
0100
0000
1000
0000
1000
0000
0100
0001
0000
,
0001
0000
0100
0001
0100
0001
0000
0100
0000
1000
0000
0100
0000
0001
0100
0010
,
1000
0000
0010
1000
0010
1000
0000
0010
0000
0001
0000
0010
0000
0010
1000
0000
,
1000
0000
1000
0010
1000
0010
0000
0001
0000
0010
0000
1000
0000
0010
0100
0001
,
1000
0000
0000
0100
0000
0000
0010
0000
0001
0100
0000
0100
0010
0000
1000
0000
,
0100
0010
0000
0010
0001
0000
1000
0000
0001
0100
0000
0010
0100
0000
0001
0000
,
1000
0000
0000
0100
0000
0000
0010
0000
0001
0100
0000
0010
1000
0000
1000
0000
,
0001
0100
0000
1000
0001
0000
0001
0000
0001
0010
0000
1000
0001
0000
0001
0000
,
1000
0000
0000
0010
0001
0000
0010
0000
0100
0000
0000
0001
0010
0000
0100
0000
,
1000
0000
0010
0000
1000
0000
0100
0000
0000
0000
0010
0001
1000
0000
0001
0000
,
1000
0000
0000
0010
0000
0000
0100
0000
0000
0000
1000
0000
0100
0000
0001
0000
,
1000
0000
1000
0000
0000
0010
0000
0000
0001
0000
0000
0100
0000
0000
1000
0000
,
0001
0000
0100
0010
0000
0100
0000
1000
0000
0001
0000
0010
0000
0100
0010
0000
,
1000
0000
0001
0010
0000
0100
0000
0001
0000
0100
0000
0010
0000
0001
1000
0000
,
0001
0000
0100
0010
0000
0001
0000
0010
0000
0100
0000
0010
0000
1000
0001
0000
,
1000
0000
0001
0010
0000
1000
0000
0010
0000
0001
0000
1000
0000
0100
0010
0001
,
1000
0000
0100
0010
0000
0001
0000
0100
0000
0010
0000
1000
0001
0010
0100
0000
,
1000
0000
0001
0100
0000
0010
0000
0100
0000
0001
0000
0010
0001
0100
0010
1000
,
0001
0000
0010
0100
0000
1000
0000
0010
0000
0100
0000
0001
0000
1000
0100
0000
,
0001
0000
0100
1000
0000
0010
0000
0100
0001
0000
1000
0000
0001
0000
0100
0000
,
0001
0010
0000
0100
1000
0000
0001
0000
0100
0000
0000
0000
0100
0000
0010
0000
,
0100
0001
0000
0100
0010
0000
1000
0000
0100
0010
0000
0001
0010
0000
0100
0000
,
1000
0100
0010
0001
0100
0010
1000
0010
0100
0001
0010
0100
1000
0001
0100
0010
,
1000
0000
0000
0001
0000
0000
0001
0100
0010
0000
1000
0100
0010
0000
0000
0000
,
0001
0000
0010
0000
0100
0000
1000
0000
0100
0010
0000
1000
0001
0000
0100
0000
,
1000
0000
0010
0000
0100
0000
0001
0000
1000
0000
0001
0100
0010
0000
0010
0000
,
1000
0000
0000
0100
0000
0000
0010
0000
0000
0000
1000
0000
0000
0000
0010
0000
,
0000
0000
0001
0000
0000
0000
1000
0000
0000
0000
0001
0000
0100
0010
0000
0100
,
0001
0000
0010
0000
0100
0000
1000
0000
0001
0100
0000
1000
0001
0000
0010
0000
,
0100
0001
1000
0010
0100
0010
0001
0010
,
1000
0000
0000
0010
0000
0000
1000
0000
0000
0000
0100
0000
0000
0000
0001
0000
,
0000
0010
0000
1000
0000
0001
1000
0100
,
0110
0000
1000
0000
,
0010
0000
0001
0010
,
0100
0000
0001
0000
,
1000
0000
0010
0100
,
0001
0000
0001
0100
0010
0100
0000
0001
0000
0010
0000
0100
0000
1000
0001
0000
,
1000
0000
0100
0010
0001
1000
0000
0001
0000
0100
0000
0010
0000
1000
0001
0100
,
0010
0000
0100
1000
0001
0010
0000
0100
0000
0010
0000
1000
0000
0001
0100
0000
,
0001
0000
1000
0010
0100
0001
0000
0100
0000
1000
0000
0100
0000
0010
1000
0001
,
2000
0000
0000
0000
,
3000
0000
0000
0000
;

//--------------- dance-double - Fred-104 ----------------
#NOTES:
     dance-double:
     Fred-104:
     Challenge:
     14:
     :
00000000
00000000
00000000
00000000
,
00000000
00000000
00000000
00000000
,
00000000
00000000
00000000
00000000
,
00010000
01000000
00010000
01000000
00001000
00010000
00001000
00010000
00000100
00001000
00000100
00001000
00000100
00000010
00000100
00000010
,
00000001
00000000
00000000
00000000
00000000
00000000
00000000
00000000
00000000
00001000
00000000
00000000
00000000
00000000
00000000
00000000
00000000
00000000
00001000
00000000
00000000
00000000
00000000
00000000
00000100
00000000
00000000
00000000
00000010
00000000
00000000
00000000
00001000
00000000
00000000
00000000
00010000
00000000
00000000
00000000
00000000
00000000
00000000
00000000
00000000
00000000
00000000
00000000
,
00001000
00000000
00000000
00010000
00100000
01000000
00000000
00010000
00000000
10000000
00000000
01000000
00000000
00100000
00010000
00000000
,
01000000
00000000
00000000
00001000
00010000
00001000
00000000
00010000
00000000
00000100
00000000
00001000
00000000
00000001
00000010
00000000
,
00000100
00000000
00000000
00000010
00000001
00000100
00000000
00000010
00000000
00000001
00000000
00000010
00000000
00000100
00000001
00000000
,
00001000
00000000
00000000
00000010
00000001
00000010
00000000
00000100
00000000
00000010
00000000
00001000
00000000
00000100
00010000
00000000
,
00001000
00000000
00010000
00100000
00000000
01000000
00000000
00001000
00000000
00010000
00000000
01000000
00000000
10000000
00010000
00000000
,
10000000
00000000
01000000
00010000
00000000
00001000
00000000
00010000
00000000
00000100
00000000
00000010
00000000
00000001
00001000
00000000
,
00000001
00000000
00000100
00001000
00000000
00000100
00000000
00000010
00000000
00001000
00000000
00000100
00000000
00000010
00000001
00000000
,
00000001
00000000
00000000
00000000
00000100
00000000
00000000
00000000
00001000
00000000
00000000
00000000
00000000
00000000
00000000
00000000
00010000
00000000
00000000
00000000
00100000
00000000
00000000
00000000
10000000
00000000
00000000
00000000
00000000
00000000
00000000
00000000
00000000
00010000
00000000
00000000
00000000
00000000
00000000
00000000
00000000
00000000
00100000
00000000
00000000
00000000
00000000
00000000
,
01100000
00000000
10000000
00000000
,
00100000
00000000
00001000
00000010
,
00000001
00000000
00000100
00000000
,
00001000
00000000
01000000
10000000
,
00010000
00000000
10000000
01000000
00010000
01000000
00000000
10000000
00000000
00100000
00000000
01000000
00000000
00001000
00010000
00000000
,
00000100
00000000
00001000
00000010
00000100
00000001
00000000
00000010
00000000
00001000
00000000
00000010
00000000
00000001
00000100
00000010
,
00000100
00000000
00001000
00010000
00100000
01000000
00000000
00010000
00000000
10000000
00000000
00100000
00000000
00010000
00001000
00000000
,
00010000
00000000
00000010
00001000
00000010
00000100
00000000
00000001
00000000
00000100
00000000
00000010
00000000
00010000
00001000
00010000
,
00001000
00000000
00000000
00010000
00000000
00000000
00100000
00000000
10000000
00010000
00000000
00100000
01000000
00000000
00100000
00000000
,
00001000
00010000
00000000
00000010
00010000
00000000
00000100
00000000
00010000
00001000
00000000
00010000
00000010
00000000
00001000
00000000
,
00000100
00000000
00000000
00010000
00000000
00000000
00001000
00000000
00000100
00000010
00000000
00000010
00001000
00000000
00001000
00000000
,
00000001
00000100
00000000
00000100
00001000
00000000
00001000
00000000
00000001
00000010
00000000
00000010
00001000
00000000
00001000
00000000
,
00000001
00000000
00000000
00000001
00000100
00000000
00000010
00000000
00001000
00000000
00000000
00000100
00010000
00000000
00001000
00000000
,
00100000
00000000
01000000
00000000
10000000
00000000
00010000
00000000
00000000
00000000
00010000
01000000
00010000
00000000
10000000
00000000
,
00010000
00000000
00000000
01000000
00000000
00000000
00100000
00000000
00000000
00000000
00010000
00000000
00001000
00000000
00000100
00000000
,
00000010
00000000
00001000
00000000
00000000
00000001
00000000
00000000
00000100
00000000
00000000
00001000
00000000
00000000
00010000
00000000
,
00001000
00000000
00100000
00010000
00000000
01000000
00000000
00100000
00000000
01000000
00000000
10000000
00000000
01000000
00100000
00000000
,
10000000
00000000
00010000
10000000
00000000
01000000
00000000
00100000
00000000
00001000
00000000
00010000
00000000
00010000
00001000
00000000
,
00010000
00000000
00000100
00001000
00000000
00000100
00000000
00000010
00000000
00000001
00000000
00000100
00000000
00001000
00000100
00000000
,
00000010
00000000
00001000
00000001
00000000
00001000
00000000
00000001
00000000
00000010
00000000
00000100
00000000
00010000
00001000
00010000
,
00001000
00000000
00100000
00010000
00000000
01000000
00000000
00001000
00000000
00010000
00000000
00001000
00010000
01000000
10000000
00000000
,
00010000
00000000
01000000
00100000
00000000
10000000
00000000
00100000
00000000
01000000
00000000
00010000
00100000
00001000
00010000
00001000
,
00000010
00000000
00000100
00001000
00000000
00000001
00000000
00000100
00000000
00001000
00000000
00010000
00000000
00100000
01000000
00000000
,
00010000
00000000
10000000
01000000
00000000
00100000
00000000
00010000
10000000
00000000
00010000
00000000
01000000
00000000
00100000
00000000
,
10000000
00100000
00000000
00100000
00001000
00000000
00010000
00000000
00001000
00000000
00000000
00000000
01000000
00000000
00001000
00000000
,
00010000
00000100
00000000
00000100
00000001
00000000
00001000
00000000
00000001
00000010
00000000
00000100
00000010
00000000
00000001
00000000
,
00001000
00000001
00000100
00000010
00000100
00000001
00001000
00000010
00010000
00001000
00100000
00001000
00010000
00000010
00001000
00000010
,
00010000
00000000
00000000
00001000
00000000
00000000
00100000
00010000
01000000
00000000
00100000
10000000
00010000
00000000
00000000
00000000
,
10000000
00000000
00010000
00000000
00100000
00000000
01000000
00000000
00010000
10000000
00000000
00100000
00010000
00000000
10000000
00000000
,
01000000
00000000
00100000
00000000
00001000
00000000
00010000
00000000
00001000
00000000
01000000
00001000
01000000
00000000
00001000
00000000
,
00010000
00000000
00000000
00001000
00000000
00000000
00000010
00000000
00000000
00000000
00000100
00000000
00000000
00000000
00001000
00000000
,
00000000
00000000
00000010
00000000
00000000
00000000
00000100
00000000
00000000
00000000
00001000
00000000
00010000
00100000
00000000
10000000
,
00010000
00000000
01000000
00000000
00100000
00000000
00010000
00000000
10000000
01000000
00000000
00010000
10000000
00000000
00010000
00000000
,
10000000
00100000
01000000
00100000
00010000
00001000
00000100
00000010
,
00001000
00000000
00000000
00000100
00000000
00000000
00000001
00000000
00000000
00000000
00000010
00000000
00000000
00000000
00001000
00000000
,
00000000
00000001
00000000
00000010
00000000
00001000
00010000
00001000
,
00011000
00000000
00000010
00000000
,
00001000
00000000
00000001
00000100
,
00001000
00000000
00010000
00000000
,
00001000
00000000
00000010
00000001
,
00001000
00000000
00001000
00000001
00000100
00000010
00000000
00001000
00000000
00000100
00000000
00010000
00000000
00001000
00100000
00000000
,
00010000
00000000
10000000
00100000
01000000
00100000
00000000
10000000
00000000
00010000
00000000
10000000
00000000
01000000
00100000
01000000
,
10000000
00000000
00010000
01000000
10000000
01000000
00000000
00010000
00000000
00100000
00000000
01000000
00000000
00010000
00001000
00000000
,
00010000
00000000
00000100
00001000
00000001
00000010
00000000
00000001
00000000
00000100
00000000
00001000
00000000
00000100
00000010
00001000
,
00000002
00000000
00000000
00000000
,
00000003
00000000
00000000
00000000
;
