#VERSION:0.83;
#TITLE:Haunted Rhapsody(Fred-Special);
#ARTIST:Architect ft. Jasmine Nii;
#BANNER:Haunted Rhapsody(Fred-Special).png;
#BACKGROUND:Haunted Rhapsody(Fred-Special)-bg.png;
#CDTITLE:./CDTitles/DDR II.png;
#MUSIC:Haunted Rhapsody(Fred-Special).ogg;
#SAMPLESTART:66.6;
#SAMPLELENGTH:15;
#DISPLAYBPM:155;
#BPMS:0=154.2,4=155;
#STAGE:14;

//--------------- dance-single - Fred-104-CSP ----------------
#NOTEDATA:;
#CHARTNAME:Fred-104-CSP;
#STEPSTYPE:dance-single;
#DESCRIPTION:Fred-104-CSP;
#DIFFICULTY:Challenge;
#METER:16;
#CREDIT:Fred-104;
#NOTES:
0000
0000
0000
0000
,
0000
0000
0000
0000
,
0000
0000
0000
0000
,
0000
0000
0000
0000
,
0000
0000
0000
0000
,
1000
0000
0010
0000
0100
0000
0001
0010
,
0011
1010
0202
0303
,
1001
0100
1001
0010
,
1001
0100
1001
0010
,
1000
1000
0001
0001
,
1000
0000
0000
0000
0000
0000
0100
0000
0000
0000
0000
0000
0010
0000
0000
0000
0000
0000
0001
0000
0000
0000
0000
0000
1000
0000
0000
0100
0000
0000
0010
0000
0000
0001
0000
0000
1000
0000
0010
0000
0100
0000
0001
0000
0100
0000
0010
0000
,
1000
0000
0010
0100
0010
0000
1000
0000
0001
0000
0010
0100
0010
0000
0001
0000
,
0011
0000
0001
0000
0101
0000
0001
0000
1001
0000
0000
1000
0010
0000
0100
0000
,
0001
0000
1000
0100
1000
0000
0001
0000
1000
0000
0001
0010
0001
0000
1000
0000
,
0001
0100
0010
1000
0010
0000
0100
0000
0101
0000
0000
0001
1000
0000
0010
0000
,
1000
0000
0001
0010
0001
0000
0010
0000
0100
0000
0010
0100
0010
0000
0100
0000
,
1100
0000
1000
0000
1010
0000
1000
0000
1001
0000
0000
0001
0100
0000
0010
0000
,
0100
0000
0001
0010
0000
0010
0200
0000
1000
0000
0000
0000
0001
0000
0000
0000
,
1300
0000
0010
0000
0100
0000
0001
0000
1000
0000
0000
0100
0010
0000
0001
0000
,
0011
0010
0100
0000
1010
0010
0100
0000
,
0101
0100
0010
0000
1100
0100
0010
0000
,
0002
0000
0203
0000
2300
0000
3200
0000
0000
0302
0000
0000
,
0023
0000
0000
0000
0000
0000
0000
0000
2030
0000
0000
0000
0000
0000
0000
0000
3020
0000
0000
0000
0000
0000
0000
0000
0031
0000
0000
0000
0000
0000
0000
0000
0000
0001
0000
0000
1000
0000
0000
0000
0000
0000
0010
0000
0000
0000
0000
0000
,
1010
1000
0100
0000
0011
0001
0100
0000
,
1100
1000
0010
0000
0101
0001
0010
0000
,
0001
0000
1000
0100
0000
0100
0020
0000
0001
0000
0000
0000
1000
0000
0000
0000
,
0031
0000
0000
0000
0000
0000
0100
0000
0000
0000
0000
0000
0010
0000
0000
0000
0000
0000
1000
0000
0000
0000
0000
0000
0001
0000
0000
0100
0000
0000
0010
0000
0000
1000
0000
0000
0001
0000
0010
0000
0100
0000
1000
0000
0100
0000
0010
0000
,
0001
0000
0100
0010
0100
0000
0001
0100
0001
0000
1000
0100
1000
0000
0001
0000
,
1000
0100
0010
0000
0100
0010
0001
0000
0010
0001
1000
0000
0001
1000
0100
0000
,
2100
3010
0102
0013
,
1000
0000
0001
0100
0001
0000
1000
0000
0001
0000
0010
0100
1000
0000
0001
0000
,
1000
0100
1000
0000
0100
0000
0010
0000
0001
0100
0001
0000
0100
0000
0010
0000
,
1000
0010
0100
0000
0001
0100
0010
0000
1010
0000
0010
0000
0100
0000
0001
0000
,
1000
0000
0001
0010
0000
0010
0200
0000
1000
0000
0000
0000
0010
0000
0000
0000
,
1300
0000
0010
0000
0100
0000
0001
0000
0011
0000
0000
1000
0010
0000
0100
0000
,
0001
0100
0001
0000
1000
0100
1000
0000
0001
0010
0001
0000
1000
0010
1000
0000
,
0001
0000
0100
0010
0100
0000
0001
0000
1001
0000
0000
0000
0100
0000
0010
0000
,
2000
0000
3200
0000
0302
0000
0203
0000
0000
2300
0000
0000
,
3020
0000
0000
0000
0000
0000
0000
0000
0032
0000
0000
0000
0000
0000
0000
0000
0023
0000
0000
0000
0000
0000
0000
0000
1030
0000
0000
0000
0000
0000
0000
0000
0000
0001
0000
0000
0100
0000
0000
0000
0000
0000
0010
0000
0000
0100
0000
0000
,
0010
1000
0010
0000
0100
0001
0100
0000
0001
0010
0001
0000
1000
0100
1000
0000
,
1100
0000
1000
0000
1010
0000
0000
0100
0001
0000
0001
0000
0010
0000
0001
0000
,
1000
0000
0001
0100
0000
0010
0100
0000
0101
0000
0000
0000
1100
0000
0000
0000
,
0100
0000
0000
0000
0000
0000
0100
0000
0000
0000
0000
0000
0001
0000
0000
0010
0000
0000
0100
0000
0000
1000
0000
0000
0001
0000
0000
0100
0000
0000
0010
0000
0000
1000
0000
0000
0001
0000
0100
0000
0010
0000
1000
0000
0000
0000
0000
0000
,
0001
0100
0001
0100
0001
0100
0001
0100
0010
1000
0010
1000
0001
1000
0001
1000
,
0001
0000
1000
0100
0010
0000
0100
0010
0001
0000
1000
0000
0001
0000
0100
0000
,
0001
0000
0010
0001
0000
0010
0100
0000
0110
0000
0100
0000
1100
0000
0000
0000
,
1100
0100
0011
0100
1010
1000
1001
0000
,
0001
0100
0001
0100
0010
1000
0010
1000
0001
0010
0001
0010
0100
1000
0100
1000
,
0001
0010
0100
1000
0001
0100
0010
1000
0001
0000
0100
0000
0010
0000
0100
0000
,
0001
0000
0101
0000
1001
0000
1000
0000
1100
0000
1001
0000
,
0001
0000
0100
0010
1000
0000
0001
0010
0100
0000
0100
0000
1000
0000
0001
0000
,
0100
0000
0001
0100
0010
0000
1000
0000
0100
0010
0001
0000
0010
0100
1000
0000
,
0001
0100
0001
0100
0010
1000
0010
1000
0001
0000
1000
0100
0010
0000
0001
0000
,
1000
0000
0001
1000
0100
0000
1000
0001
0100
0000
0001
1000
0010
0000
0100
0000
,
0001
0010
0100
0000
1000
0100
0010
0000
0101
0000
0001
0000
1100
0000
1000
0000
,
0001
0010
0100
1000
0010
0000
0100
0000
0001
1000
0100
1000
0001
0000
1000
0000
,
0100
0000
0010
0001
0100
0000
0010
1000
0100
0000
0010
0001
0100
0000
0010
0000
,
1000
0010
1000
0010
1000
0100
0010
0001
1000
0100
1000
0100
1000
0010
0100
0001
,
1000
0000
0000
0000
0000
0000
0000
0000
0100
0000
0000
0000
0000
0000
0000
0000
0010
0000
0000
0000
0000
0000
0000
0000
0001
0000
0000
0000
0000
0000
0000
0000
0010
0000
0000
0000
0000
0000
0000
0000
0100
0000
0000
0000
0000
0000
0000
0000
1000
0000
0000
0000
0000
0000
0000
0000
0000
0000
0000
0000
0000
0000
0000
0000
0000
0000
0000
0000
0000
0000
0000
0000
0001
0000
0000
0000
0000
0000
0000
0000
0000
0000
0000
0000
0000
0000
0000
0000
0000
0000
0000
0000
0000
0000
0000
0000
0200
0000
0000
0300
0000
0000
0000
0000
0000
0000
0000
0000
0000
0000
0000
0000
0000
0000
0000
0000
0000
0000
0000
0000
0200
0000
0000
0300
0000
0000
0000
0000
0000
0000
0000
0000
0000
0000
0000
0000
0000
0000
0000
0000
0000
0000
0000
0000
2000
0000
0000
0000
0000
0000
0000
0000
0000
0000
0000
0000
0000
0000
0000
0000
0000
0000
0000
0000
0000
0000
0000
0000
0000
0000
0000
0000
0000
0000
0000
0000
0000
0000
0000
0000
0000
0000
0000
0000
0000
0000
0000
0000
0000
0000
0000
0000
,
3001
0010
0001
1000
0001
0100
0010
1000
,
0001
0000
0100
0010
1000
0000
0100
0000
0101
0000
0000
0000
1100
0000
0000
0000
,
0101
0100
0010
1000
1100
0100
0010
0001
,
1001
0000
0000
0000
0000
0000
1000
0000
0000
0000
0000
0000
0001
0000
0000
0000
0000
0000
0001
0000
0000
0000
0000
0000
1000
0000
0000
0100
0000
0000
0010
0000
0000
0001
0000
0000
1000
0000
0010
0000
0100
0000
0001
0000
0100
0000
0010
0000
,
2000
0010
3001
1001
,
1000
0100
0010
0001
0100
0010
1000
0100
0010
0001
0010
0100
1000
0010
0100
0001
,
2000
0000
0000
0000
,
0000
0000
0000
0000
,
3000
0000
0000
0000
;

//--------------- dance-double - Fred-104-CDP ----------------
#NOTEDATA:;
#CHARTNAME:Fred-104-CDP;
#STEPSTYPE:dance-double;
#DESCRIPTION:Fred-104-CDP;
#DIFFICULTY:Challenge;
#METER:16;
#CREDIT:Fred-104;
#NOTES:
00000000
00000000
00000000
00000000
,
00000000
00000000
00000000
00000000
,
00000000
00000000
00000000
00000000
,
00000000
00000000
00000000
00000000
,
00000000
00000000
00000000
00000000
,
00000001
00000000
00001000
00000000
00000010
00000000
00010000
00001000
,
00101000
00010010
02002000
03003000
,
00011000
00000010
00001001
00000100
,
00011000
00100000
10010000
01000000
,
10000000
00010000
00001000
00000001
,
00001000
00000000
00000000
00000000
00000000
00000000
00000100
00000000
00000000
00000000
00000000
00000000
00000010
00000000
00000000
00000000
00000000
00000000
00000001
00000000
00000000
00000000
00000000
00000000
00001000
00000000
00000000
00000100
00000000
00000000
00000010
00000000
00000000
00000001
00000000
00000000
00001000
00000000
00000100
00000000
00000010
00000000
00000001
00000000
00000000
00000000
00000000
00000000
,
00001000
00000000
00000001
00000100
00000001
00000000
00001000
00000000
00000001
00000000
00001000
00000100
00001000
00000000
00000001
00000000
,
00000101
00000100
00000110
00000000
00001100
00000100
00000110
00000000
,
00000001
00000000
00000100
00000010
00001000
00000000
00000100
00000000
00010000
00000000
00001000
01000000
00010000
00000000
00100000
00000000
,
00001000
00010000
00001000
00010000
00001000
00000000
00010000
00000000
00010010
00000000
00000000
00000000
00101000
00000000
00000000
00000000
,
00010000
00000000
00001000
00010000
00001000
00000000
00100000
00000000
00001000
00000000
00010000
00001000
00010000
00000000
00000010
00000000
,
00010010
00010000
00011000
00000000
00011000
00001000
01001000
00000000
,
00010000
00000000
01000000
10000000
00000000
01000000
00020000
00000000
10000000
00000000
00000000
00000000
00130000
00000000
00000000
00000000
,
01000000
00000000
00010000
00000000
10000000
00000000
01000000
00000000
00100000
00000000
00000000
00001000
00010000
00000000
00000100
00000000
,
00001100
00001000
00000010
00000000
00000101
00000001
00000010
00000000
,
00001001
00000010
00011000
01000000
,
20010000
00000000
32000000
00000000
03020000
00000000
00032000
00000000
00000000
00003020
00000000
00000000
,
00000032
00000000
00000203
00000000
00002300
00000000
00023000
00000000
00000000
00130000
00000000
00000000
,
11000000
01000000
00100000
00000000
01010000
01000000
00100000
00000000
,
10010000
01000000
00011000
00000010
,
00001001
00000000
00000001
00000100
00000000
00000010
00002000
00000000
00000010
00000000
00000000
00000000
00103000
00000000
00000000
00000000
,
00001000
00000000
00000000
00000000
00000000
00000000
00010000
00000000
00000000
00000000
00000000
00000000
00001000
00000000
00000000
00000000
00000000
00000000
01000000
00000000
00000000
00000000
00000000
00000000
00010000
00000000
00000000
00100000
00000000
00000000
01000000
00000000
00000000
10000000
00000000
00000000
00010000
00000000
01000000
00000000
00100000
00000000
10000000
00000000
00100000
00000000
01000000
00000000
,
00010000
00000000
01000000
00100000
01000000
00000000
00010000
00000000
10000000
00000000
01000000
00100000
01000000
00000000
00100000
00000000
,
00001000
00010000
00001000
00000000
00010000
00000010
00010000
00000000
00000010
00001000
00000010
00000000
00000100
00000001
00000100
00000000
,
00000102
00000013
00002100
00003010
,
00000100
00000000
00000001
00000100
00000010
00000000
00001000
00000000
00000100
00000000
00010000
00001000
00010000
00000000
00000100
00000000
,
00010000
00001000
00000010
00000000
00010000
00001000
00100000
00000000
00001000
00010000
00001000
00000000
01000000
00001000
00010000
00000000
,
00001000
00000000
00010000
00000100
00001000
00000000
00000001
00000000
00000100
00000000
00000010
00001000
00000100
00000000
00000010
00000000
,
00001000
00000000
00010000
00100000
00000000
00100000
02000000
00000000
00010000
00000000
00000000
00000000
10000000
00000000
00000000
00000000
,
03010000
00000000
01000000
00000000
00100000
00000000
10000000
00000000
11000000
00000000
00000000
00100000
00010000
00000000
01000000
00000000
,
00001000
00000000
00010000
00001000
00000100
00000000
00000100
00000010
00000001
00000000
00000001
00000100
00000010
00000000
00001000
00000000
,
00001010
00000100
00010100
00010000
00011000
00000000
00001000
01000000
,
00020000
00000000
02030000
00000000
23000000
00000000
30200000
00000000
00000000
00320000
00000000
00000000
,
00032000
00000000
00003020
00000000
00000032
00000000
00000103
00000000
00000000
00011000
00000000
00000000
,
00100000
00000000
00010000
10000000
00100000
00000000
10000000
01000000
00100000
00000000
00010000
00100000
10000000
00000000
00100000
00010000
,
01000000
00000000
00100000
00000000
10100000
00000000
00000000
10000000
00010000
00000000
01000000
00000000
01001000
00000000
00001000
00000000
,
00010000
00000000
00000100
00001000
00000000
00000100
00000010
00000000
00000011
00000000
00000000
00000000
00001010
00000000
00000000
00000000
,
00000001
00000000
00000000
00000000
00000000
00000000
00000100
00000000
00000000
00000000
00000000
00000000
00000010
00000000
00000000
00000000
00000000
00000000
00001000
00000000
00000000
00000000
00000000
00000000
00000010
00000000
00000000
00010000
00000000
00000000
00001000
00000000
00000000
00010000
00000000
00000000
00001000
00000000
00100000
00000000
00010000
00000000
01000000
00000000
00000000
00000000
00000000
00000000
,
00010000
01000000
00010000
01000000
00010000
01000000
00010000
01000000
00100000
10000000
00100000
10000000
00010000
10000000
00010000
10000000
,
01000000
00000000
00100000
00001000
00010000
00000000
00000100
00001000
00000010
00000000
00000100
00000000
00000001
00000000
00001000
00000000
,
00000001
00000000
00000010
00000100
00000000
00001000
00000100
00000000
00000110
00000000
00000010
00000000
00000011
00000000
00000000
00000000
,
00001001
00000100
00010100
00010000
00011000
00100000
01100000
00000000
,
00010000
01000000
00010000
01000000
00100000
10000000
00100000
10000000
01000000
00100000
01000000
00100000
00010000
00001000
00010000
00001000
,
00010000
00000000
00000010
00001000
00000100
00000000
00010000
00000100
00001000
00000000
00000010
00000000
00000100
00000000
00000001
00000000
,
00000001
00000000
00000010
00000000
00001000
00000000
00010000
00000000
01000000
00000000
10000000
00000000
,
00010000
00000000
10000000
00010000
00100000
00000000
00010000
10000000
01000000
00000000
00100000
00000000
00001000
00000000
00001000
00000000
,
00010000
00000000
00000010
00001000
00000100
00000000
00010000
00000000
00001000
00000000
00000100
00000010
00000100
00000000
00000010
00000000
,
00000001
00000010
00001000
00000000
00000010
00000001
00000100
00000000
00000001
00000000
00000100
00000000
00000010
00000000
00001000
00000000
,
00000001
00000000
00000010
00000100
00001000
00000000
00010000
00001000
00000100
00000000
00000010
00010000
00001000
00000000
00010000
00000000
,
00001000
00100000
00010000
00000000
00100000
01000000
00100000
00000000
00110000
00000000
00010000
00000000
11000000
00000000
10000000
00000000
,
00010000
00000000
01000000
00100000
10000000
00000000
01000000
00000000
00100000
00000000
00001000
00010000
00001000
00000000
01000000
00000000
,
00001000
00000000
00010000
00000100
00001000
00000000
00000100
00010000
00001000
00000000
00010000
00000010
00001000
00000000
00000010
00000000
,
00000100
00000001
00000100
00000001
00000100
00000010
00001000
00000010
00000100
00000010
00001000
00000100
00010000
00001000
00100000
00010000
,
01000000
00000000
00000000
00000000
00000000
00000000
00000000
00000000
00100000
00000000
00000000
00000000
00000000
00000000
00000000
00000000
01000000
00000000
00000000
00000000
00000000
00000000
00000000
00000000
00100000
00000000
00000000
00000000
00000000
00000000
00000000
00000000
01000000
00000000
00000000
00000000
00000000
00000000
00000000
00000000
00100000
00000000
00000000
00000000
00000000
00000000
00000000
00000000
01000000
00000000
00000000
00000000
00000000
00000000
00000000
00000000
00000000
00000000
00000000
00000000
00000000
00000000
00000000
00000000
00000000
00000000
00000000
00000000
00000000
00000000
00000000
00000000
00010000
00000000
00000000
00000000
00000000
00000000
00000000
00000000
00000000
00000000
00000000
00000000
00000000
00000000
00000000
00000000
00000000
00000000
00000000
00000000
00000000
00000000
00000000
00000000
00200000
00000000
00000000
00300000
00000000
00000000
00000000
00000000
00000000
00000000
00000000
00000000
00000000
00000000
00000000
00000000
00000000
00000000
00000000
00000000
00000000
00000000
00000000
00000000
00200000
00000000
00000000
00300000
00000000
00000000
00000000
00000000
00000000
00000000
00000000
00000000
00000000
00000000
00000000
00000000
00000000
00000000
00000000
00000000
00000000
00000000
00000000
00000000
20000000
00000000
00000000
00000000
00000000
00000000
00000000
00000000
00000000
00000000
00000000
00000000
00000000
00000000
00000000
00000000
00000000
00000000
00000000
00000000
00000000
00000000
00000000
00000000
00000000
00000000
00000000
00000000
00000000
00000000
00000000
00000000
00000000
00000000
00000000
00000000
00000000
00000000
00000000
00000000
00000000
00000000
00000000
00000000
00000000
00000000
00000000
00000000
,
30010000
01000000
10000000
01000000
00010000
00001000
00010000
00001000
,
00010000
00000000
00000100
00010000
00001000
00000000
00010000
00000000
00011000
00000000
00000000
00000000
00000110
00000000
00000000
00000000
,
00001001
00001000
00000010
00000100
00000101
00000001
00000010
00000100
,
00000110
00000000
00000000
00000000
00000000
00000000
00000010
00000000
00000000
00000000
00000000
00000000
00001000
00000000
00000000
00000000
00000000
00000000
00000100
00000000
00000000
00000000
00000000
00000000
00010000
00000000
00000000
00000100
00000000
00000000
00001000
00000000
00000000
00000100
00000000
00000000
00010000
00000000
00001000
00000000
00010000
00000000
00001000
00000000
00100000
00000000
00010000
00000000
,
00200000
10000000
00301000
00011000
,
00010000
00000010
00001000
00000010
00000100
00000001
00000010
00000100
00001000
00000100
00010000
00001000
00100000
00010000
10000000
00100000
,
02000000
00000000
00000000
00000000
,
00000000
00000000
00000000
00000000
,
03000000
00000000
00000000
00000000
;
