#VERSION:0.83;
#TITLE:Hastur;
#ARTIST:USAO;
#GENRE:MOOMBAHCORE;
#BANNER:Hastur.png;
#BACKGROUND:Hastur-bg.png;
#CDTITLE:./CDTitles/RB VOLZZA.png;
#MUSIC:Hastur.ogg;
#SAMPLESTART:82.876;
#SAMPLELENGTH:15;
#BPMS:0=118,51=236,116=118,131.5=236,132=118,195=236,260=118;
#STOPS:51=0.127,51.5=0.127,131.5=0.127,195=0.127,195.5=0.127;
#BGSTAGE:28;

//--------------- dance-single - Fred-104 ----------------
#NOTEDATA:;
#STEPSTYPE:dance-single;
#DESCRIPTION:Fred-104;
#DIFFICULTY:Beginner;
#METER:6;
#CREDIT:Fred-104;
#NOTES:
0000
0000
0000
0000
,
0000
0000
0000
0000
,
0000
0000
0000
0000
,
0000
0000
0000
0000
,
0000
0000
0000
0000
,
1000
1000
0100
0000
,
0010
0001
0010
0000
,
0001
0001
0100
0000
,
0010
1000
0010
0000
,
1000
1000
1000
1000
,
0100
0100
0100
0100
,
0010
0010
0010
0010
,
0001
0000
0001
0000
0001
0000
0002
0003
,
1001
0000
1000
0000
,
0010
0000
0000
0000
,
1000
0000
0100
0000
,
1000
0000
0000
0000
,
0001
0000
0010
0000
,
0001
0000
0000
0000
,
0200
0000
0000
0000
,
0000
0000
0000
0300
,
0001
0000
0001
0000
,
0010
0000
0000
0000
,
0001
0000
1000
0000
,
0010
0000
0000
0000
,
1000
0000
0100
0000
,
1000
0000
0000
0000
,
1000
0000
0001
0000
,
1000
1000
2000
3000
,
1001
0000
0001
0000
,
0100
0000
0010
0000
,
1000
0000
0100
0000
,
0001
0000
0010
0000
,
1000
0001
0000
0001
,
0010
0001
0000
1000
,
0100
0010
0000
0001
,
1000
0001
1000
0001
,
2002
0000
0000
3003
,
0200
0000
0000
0300
,
0020
0000
0000
0030
,
0002
0000
0000
0003
,
1000
0010
0100
0000
,
0001
0001
0010
0000
,
0010
0001
0001
0000
,
0100
0010
0100
0000
,
0001
0000
0010
0000
,
0001
0000
1000
0000
,
0100
0100
0100
0100
,
0010
0000
0010
0000
0010
0000
0020
0030
,
1001
0000
1000
0000
,
0100
0000
0010
0000
,
0001
0000
0001
0000
,
0100
0000
0001
0000
,
1001
0000
0000
0000
,
0110
0000
0000
0000
,
1001
0000
0000
0000
,
0110
0000
0000
0000
,
1001
0000
0010
0000
,
0001
0000
0001
0000
,
0010
0000
0001
0000
,
0100
0000
0001
0000
,
1001
0000
0000
0000
,
0110
0000
0000
0000
,
1001
0000
0100
0000
,
0100
0000
0200
0300
,
1001
1000
0010
0000
,
0001
0001
0010
0001
,
0100
0010
0100
0000
,
0001
0000
0001
0000
0010
0000
0002
0003
,
0001
1000
0000
1000
,
0100
0010
0000
0001
,
0100
0001
0000
1000
,
0001
1000
1000
2002
,
3003
0000
0000
0000
;

//--------------- dance-single - Fred-104 ----------------
#NOTEDATA:;
#STEPSTYPE:dance-single;
#DESCRIPTION:Fred-104;
#DIFFICULTY:Easy;
#METER:10;
#CREDIT:Fred-104;
#NOTES:
0000
0000
0000
0000
,
0000
0000
0000
0000
,
0000
0000
0000
0000
,
0000
0000
0000
0000
,
0000
0000
0000
0000
,
1000
0000
0000
0100
0000
0000
0010
0000
0001
0000
0000
0000
0201
0000
0000
0000
,
0301
0000
0000
0010
0000
0000
0001
0000
0100
0000
0000
0000
0120
0000
0000
0000
,
1030
0000
0000
0010
0000
0000
0001
0000
0100
0000
0000
0000
2001
0000
0000
0000
,
3001
0000
0000
0100
0000
0000
1000
0000
0010
0000
0000
0000
0012
0000
0000
0000
,
1003
0000
1001
0000
0001
1000
0010
0000
,
1000
0000
0110
0000
0100
0001
1000
0000
,
0001
1000
0001
1000
0010
1000
0010
1000
,
0100
0010
0100
0010
0001
1000
0002
2003
,
3001
0000
1001
0000
,
1000
0100
0100
0001
,
0010
0000
1001
0000
,
0001
0010
0010
1000
,
0100
0000
1010
0000
,
1000
0100
1000
0001
,
1001
0000
0000
0001
0000
0010
0000
0001
,
0000
1000
0010
0100
,
0001
0010
0001
0000
,
1000
0100
0010
0000
,
0001
1000
0100
1000
,
0100
1000
0001
0000
,
0100
0001
0010
0000
,
0001
0100
0010
0000
,
1000
0100
0001
0100
,
1000
0010
2002
3003
,
1000
0000
0000
0010
0000
0000
1000
0000
0001
0000
0100
0000
0001
0000
0000
0000
,
0010
0000
0000
0100
0000
0000
1000
0000
0010
0000
0100
0000
0001
0000
0000
0000
,
0100
0000
0000
1000
0000
0000
0100
0000
0001
0000
0010
0000
0100
0000
0000
0000
,
1000
0000
0000
0000
0000
0000
0000
0000
0000
0000
0000
0000
0010
0000
0000
0000
0000
0000
0000
0000
0100
0000
0000
0000
0000
0000
0000
0000
0010
0000
0000
0000
0000
0000
0000
0000
0000
0000
0000
0000
1000
0000
0000
0000
0000
0000
0000
0000
0001
0000
0000
0000
0000
0000
0000
0000
2000
3000
0000
0000
0000
0000
0000
0000
,
0001
0000
1001
0000
1000
0010
0110
0000
,
1000
0000
1001
0000
0001
0100
0110
0000
,
1000
0000
1100
0000
0100
0010
0011
0000
,
0001
0000
0000
1000
0000
0100
0000
1000
0000
0000
0010
0000
0110
0000
0000
0000
,
1001
1000
0100
0100
,
0001
0001
0010
0010
,
1000
1000
0100
0100
,
0001
0001
0010
0010
,
1000
0000
0100
0000
1000
0001
0010
0100
,
1000
0000
0001
0000
0100
0010
1000
0100
,
0010
0000
0001
0000
0100
0001
0010
0001
,
0100
0000
0010
0000
1000
0010
0001
0100
,
1000
0000
1010
0000
1000
0001
0010
0100
,
1000
0000
1001
0000
0001
0100
0010
1000
,
0001
0010
0001
0010
0100
1000
0100
1000
,
0001
0100
0010
1000
0001
0010
0200
0320
,
0031
0100
0001
0000
,
1000
0001
0010
0001
,
0100
0010
1000
0000
,
0001
0010
0100
0010
,
0001
0000
0000
0101
0000
0000
0100
0000
,
0010
0000
0000
1010
0000
0000
1000
0000
,
0100
0000
0000
0010
0000
0010
0000
0001
,
0000
1000
0010
1000
,
0100
0010
0001
0100
,
0010
1000
0001
0000
,
0100
0010
0001
0010
,
0100
0001
1000
0000
,
1100
0000
0000
0100
0000
0000
0010
0000
,
0101
0000
0000
0100
0000
0000
0010
0000
,
0001
0000
0000
0100
0000
0010
0000
0100
,
0000
0001
2002
3003
,
0001
0000
1001
0000
1000
0010
0100
0001
,
1000
0100
0001
0100
1000
0001
0010
0000
,
0001
0000
1001
0000
1000
0010
0001
0010
,
1000
0000
0000
0000
0000
0000
0000
0000
0000
0000
0000
0000
0001
0000
0000
0000
0000
0000
0000
0000
1000
0000
0000
0000
0000
0000
0000
0000
0010
0000
0000
0000
0000
0000
0000
0000
0000
0000
0000
0000
0100
0000
0000
0000
0000
0000
0000
0000
0010
0000
0000
0000
0000
0000
0000
0000
2000
3000
0000
0000
0000
0000
0000
0000
,
0001
0000
1001
0000
1000
0010
0100
0001
,
0100
0000
0110
0000
0001
0100
0010
0100
,
0001
0000
1001
0000
1000
0100
0010
0001
,
1000
0000
0000
0010
0000
0000
1000
0000
0000
0001
0000
0010
0100
0000
2000
0000
,
3000
0000
0000
0000
;

//--------------- dance-single - Fred-104 ----------------
#NOTEDATA:;
#STEPSTYPE:dance-single;
#DESCRIPTION:Fred-104;
#DIFFICULTY:Medium;
#METER:14;
#CREDIT:Fred-104;
#NOTES:
0000
0000
0000
0000
,
0000
0000
0000
0000
,
0000
0000
0000
0000
,
0000
0000
0000
0000
,
0000
0000
0000
0000
,
1001
0000
0000
0010
0000
1000
0000
0001
0000
0001
0000
0100
0000
0010
0100
0000
,
0001
0000
0000
1000
0000
0010
1000
0100
0010
0000
0000
0001
0000
0100
0010
1000
,
0001
0000
0010
0001
0000
0100
0000
0001
0000
0001
1000
0000
0100
0000
0010
0001
,
0010
0000
0001
0100
0000
0010
0000
0100
0000
0010
1000
0000
0001
0000
1000
0000
,
1100
0010
0001
0000
0101
0010
1000
0000
,
1010
0100
0001
0000
0011
0100
1000
0000
,
0001
0010
0001
0100
0010
1000
0100
0010
,
0001
0000
0000
0000
0100
0000
0000
0000
0001
0000
0000
0000
0100
0000
0000
0000
0010
0000
0000
0000
1000
0000
0000
0000
0010
0000
0000
0000
1000
0000
0000
0000
0100
0000
0000
0000
0010
0000
0000
0000
0001
0000
0000
0000
1000
0000
0000
0000
0002
0003
0000
0000
0000
0000
0000
0000
2000
3000
0000
0000
0000
0000
0000
0000
,
1001
0000
1000
0000
0010
1000
0010
1000
,
0000
0100
0001
0100
0000
1000
0001
0000
,
1000
0000
1000
0000
0100
0010
0100
0010
,
0000
0001
0100
0010
0000
1000
0100
0000
,
0010
0000
0100
0000
0010
0001
1000
0001
,
0000
0100
0010
1000
0000
0001
1000
0000
,
0001
0000
1000
0100
0000
0010
0000
0001
,
0000
0100
1000
0000
0100
0000
0101
0000
,
1001
0000
0001
0010
0000
0001
0100
0001
,
0000
1000
0000
0010
0100
0001
0100
0000
,
0110
0000
0010
1000
0000
0010
1000
0100
,
0000
0010
0000
0001
0100
0010
0100
0000
,
1001
0000
1000
0100
0000
0010
0001
0100
,
0000
0001
0000
0010
0100
1000
0001
0000
,
1000
0000
0010
1000
0001
1000
0100
0010
,
0000
0001
0000
1000
0000
0010
0200
0000
,
0301
0000
0100
0000
0010
0100
0000
0100
0001
1000
0001
1000
0200
0000
0320
0000
,
0031
0000
0100
1000
0000
0100
0001
1000
0001
0000
0100
0000
0010
1000
0010
1000
,
0010
0000
1000
0000
0100
0010
0001
0000
1000
0001
1000
0001
0000
0010
0001
0000
,
1000
0000
0000
0000
0000
0000
0000
0000
0000
0000
0000
0000
1010
0000
0000
0000
0000
0000
0000
0000
1010
0000
0000
0000
0000
0000
0000
0000
1010
0000
0000
0000
0000
0000
0000
0000
0001
0000
0000
0000
1000
0000
0000
0000
0000
0000
0000
0000
0010
0000
0000
0000
0000
0000
0000
0000
2002
3003
0000
0000
0000
0000
0000
0000
,
1100
0010
0001
0000
0101
0010
1000
0001
,
1001
0100
0010
0000
0110
0001
1000
0010
,
1010
0100
0001
0000
0011
0100
1000
0010
,
0110
0000
0000
0011
0000
0011
0000
0011
0000
1000
0010
0000
0220
0000
0330
0000
,
1002
0100
0100
0103
,
2001
0010
0010
3010
,
0210
0001
0001
0301
,
0120
1000
1000
1030
,
0001
0000
0010
0000
0001
0100
0010
1000
0000
0100
0000
0010
0000
0001
0000
0000
,
1000
0000
0100
0000
1000
0010
0100
0010
0000
1000
0000
0010
0000
0001
0000
0000
,
0010
0000
0100
0000
0001
1000
0100
0001
0000
0100
0000
0010
0000
0001
0000
0000
,
1000
0000
0001
0000
0100
0010
1000
0010
0000
0100
0000
0010
0000
1000
0000
0000
,
0011
0100
1000
0010
1010
0100
0001
0010
,
1100
0100
0010
0001
0101
0100
0010
1000
,
1001
0010
0100
1000
1001
0010
0100
0001
,
1000
0000
0000
0000
0100
0000
0000
0000
1000
0000
0000
0000
0100
0000
0000
0000
0010
0000
0000
0000
0001
0000
0000
0000
0010
0000
0000
0000
0001
0000
0000
0000
1000
0000
0000
0000
0010
0000
0000
0000
0100
0000
0000
0000
0001
0000
0000
0000
2000
3000
0000
0000
0000
0000
0000
0000
0002
0003
0000
0000
0000
0000
0000
0000
,
1001
0000
0100
0000
0010
0001
1000
0010
,
0000
1000
0100
0010
0000
0100
1000
0000
,
0001
0000
1000
0000
0010
1000
0100
1000
,
0000
0001
0010
0001
0000
0100
0010
0000
,
1001
0000
0000
0100
0000
0010
0001
0100
,
0010
0000
0000
0100
0000
0010
1000
0010
,
0100
0000
0001
0100
0000
1000
0000
0010
,
0000
0001
1000
0000
1010
0000
0101
0000
,
1001
0000
0010
0000
0001
0010
0001
1000
,
0000
0100
0010
0001
0000
0100
0010
0000
,
1000
0000
0001
0000
0100
1000
0100
0010
,
0000
1000
0001
0010
0000
0001
1000
0000
,
1001
0000
0000
0100
0000
1000
0010
0100
,
0001
0000
0000
0100
0000
0010
1000
0001
,
0010
0000
0001
0100
0000
0010
1000
0100
,
0000
0110
0000
0110
0000
2000
0002
3003
,
1001
0000
0000
0000
0110
0000
0001
1000
0100
0000
1000
0000
0001
0010
0100
1000
,
0001
0100
0010
0200
0000
0302
0000
2003
0000
3200
0310
0000
0001
1000
0001
0010
,
0001
0000
0000
0000
1100
0000
0010
0100
0001
0000
1000
0000
0100
0010
0001
0010
,
0001
0100
0010
1000
0000
1010
0000
1010
0000
0001
1000
0000
0010
0100
0010
0100
,
0001
0000
0000
0100
0010
0000
0110
0000
0010
1000
0100
1000
0010
1000
0100
0010
,
0001
0000
0100
0020
0000
0032
0000
0023
0000
2030
3001
0000
0010
0001
1000
0010
,
0100
0000
0000
0001
0100
0000
0110
0000
0010
0100
1000
0100
0010
0100
1000
0001
,
0101
0000
0000
1100
0000
0000
0101
0000
0100
0000
0010
0000
1000
0010
0100
0002
,
0003
0000
0000
0000
;

//--------------- dance-single - Fred-104 ----------------
#NOTEDATA:;
#STEPSTYPE:dance-single;
#DESCRIPTION:Fred-104;
#DIFFICULTY:Hard;
#METER:17;
#CREDIT:Fred-104;
#NOTES:
0000
0000
0000
0000
,
0000
0000
0000
0000
,
0000
0000
0000
0000
,
0000
0000
0000
0000
,
0000
0000
0000
0000
,
1000
1000
0000
0010
0000
1000
0000
0001
0010
0100
0000
1000
0000
0001
1000
0000
,
1001
0000
0000
0011
0000
0001
0100
0010
1000
0000
0000
1010
0000
1000
0100
0010
,
0002
0000
0103
2000
0000
3100
0000
0002
0000
0013
0200
0000
1300
0000
0001
0010
,
0200
0000
1300
0200
0000
0310
0000
0200
0000
1300
0002
0000
0203
0000
0320
0000
,
1030
0010
0100
0001
0000
1000
0100
0010
0000
0001
0100
0010
1000
0001
0010
0000
,
0001
0010
0100
1000
0000
0001
0100
0010
0000
1000
0100
0010
0001
1000
0010
0000
,
1000
0100
0010
0001
0010
0100
1000
0001
0100
0010
0100
0001
0010
0100
0010
0001
,
1000
0000
0000
0000
0100
0000
0000
0000
0010
0000
0000
0000
0001
0000
0000
0000
1000
0000
0000
0000
0100
0000
0000
0000
0010
0000
0000
0000
0001
0000
0000
0000
1000
0000
0100
0000
1000
0000
0100
0000
1000
0000
0100
0000
1000
0000
0100
0000
0020
0030
0000
0000
0000
0000
0000
0000
0220
0330
0000
0000
0000
0000
0000
0000
,
1001
0000
1100
0000
1000
0010
0001
0010
,
0100
0010
1000
0001
0010
0100
1000
0000
,
0001
0000
1001
0000
1000
0100
0001
0100
,
0010
1000
0010
0001
1000
0010
0100
0000
,
0001
0000
1001
0000
1000
0100
0010
1000
,
0001
0100
0010
0001
1000
0001
1000
0000
,
0010
0100
1000
0100
0000
0001
0000
0010
,
0000
0001
0100
0000
0001
1000
0001
0000
,
1000
0100
0010
0001
0000
0100
0010
0001
,
0000
0010
0100
0001
1000
0100
0010
0000
,
0001
0100
1000
0100
0000
0010
1000
0100
,
0000
0010
0001
1000
0001
1000
0200
0000
,
1300
0100
0010
1000
0000
0010
0100
1000
,
0000
0001
0100
0010
1000
0001
1000
0000
,
0001
0100
0001
0100
1000
0100
1000
0100
,
0001
0010
0001
0010
1000
0010
0002
0000
,
1003
0100
0010
0100
1000
0001
0000
1000
0001
0000
0010
0000
0011
0000
0110
0000
,
1000
0010
0010
0100
0010
0010
0000
1000
0100
0010
0001
0000
0101
0000
0001
0100
,
0001
0010
0010
1000
0100
0100
0000
0001
1000
0010
0001
0010
0100
0010
1000
0000
,
0001
0000
0000
0000
0010
0000
0000
0000
0100
0000
0000
0000
1000
0000
0000
0000
0000
0000
0000
0000
1100
0000
0000
0000
0000
0000
0000
0000
0011
0000
0000
0000
0000
0000
0000
0000
1001
0000
0000
0000
1000
0000
0000
0000
0010
0000
0000
0000
0100
0000
0000
0000
0001
0000
0000
0000
0202
0303
0000
0000
0000
0000
0000
0000
,
1001
0000
1000
0100
0110
0000
0010
0000
0001
0100
0010
0100
0101
0000
0001
0000
,
1000
0000
0010
0100
0101
0000
0001
0000
1000
0100
0010
0001
0100
0010
0100
0001
,
1000
0000
0001
0010
0110
0000
0010
0000
0001
0100
0010
1000
0100
0100
0100
0100
,
1000
0000
0001
0000
0010
0000
0100
0000
0000
0000
0010
0000
0000
0000
0001
0000
0000
0000
0100
0010
0100
0000
0000
0000
2002
0000
0000
0000
3003
0000
0000
0000
,
1100
0000
0000
0000
0101
0000
0000
0000
1010
0000
0000
0000
0011
0000
0001
1000
,
0100
0000
0010
0001
0000
1000
0000
0010
0000
0100
0010
0000
1000
0100
0100
0001
,
1000
0000
0010
0100
0000
0001
0000
0100
0000
0010
1000
0000
0001
1000
0010
0010
,
0001
0000
1000
0010
0000
0100
0000
0001
0000
1000
0001
0000
1000
0100
0100
0001
,
1000
0000
0001
0100
0001
0010
0100
0010
0000
0001
0010
0100
0000
1000
0001
0100
,
0001
0000
1000
0010
1000
0100
1000
0010
0000
0100
0001
0100
0000
0001
0010
0100
,
0010
0000
0001
0100
1000
0100
0001
0010
0000
1000
0010
0001
0000
0100
0010
1000
,
0001
0000
0100
1000
0100
0010
1000
0001
0000
1000
0100
1000
0000
0001
0010
0100
,
1001
0000
0001
0100
0010
0100
0010
0100
0010
0100
0001
1000
0100
0010
0100
0000
,
1001
0000
1000
0100
0010
0100
0010
0100
1000
0001
0100
0010
1000
0001
0010
0000
,
0001
1000
0001
0100
0001
0010
0100
1000
0010
1000
0100
1000
0001
0100
0010
1000
,
0001
0000
0000
0000
0010
0000
0000
0000
0100
0000
0000
0000
1000
0000
0000
0000
0001
0000
0000
0000
0100
0000
0000
0000
0010
0000
0000
0000
1000
0000
0000
0000
0001
0000
0100
0000
0001
0000
0100
0000
0001
0000
0100
0000
0001
0000
0100
0000
0020
0030
0000
0000
0000
0000
0000
0000
0220
0330
0000
0000
0000
0000
0000
0000
,
1001
0000
0110
0000
0001
1000
0010
1000
,
0100
0000
0010
0000
0001
0000
0010
0000
0100
0000
1000
0001
1000
0000
0000
0000
,
1100
0000
1001
0000
1000
0100
0010
0100
,
0001
0000
0100
0000
1000
0000
0001
0000
0100
0000
0010
1000
0010
0000
0000
0000
,
1001
0000
0001
0100
0000
0100
0010
1000
,
1100
0000
1000
0100
0000
0100
0010
0001
,
0011
0010
0001
0200
0000
2300
0000
3200
,
0000
0000
0301
0010
0001
0000
0000
0000
1010
0000
0000
0000
1001
0000
0000
0000
,
0110
0000
1100
0100
0001
0100
1000
0010
,
0100
0000
0001
0000
0010
0000
0001
0000
0010
0001
1000
0001
0100
0000
0000
0000
,
1001
0000
0110
0100
0001
1000
0001
0010
,
0100
0000
1000
0000
0010
0000
0100
0000
0010
1000
0001
0010
0100
0000
0000
0000
,
1010
0000
1000
1100
0000
0010
0100
0001
,
0101
0100
0001
0011
0000
0010
0100
1000
,
1010
0100
0001
0101
0000
0001
0100
0110
,
0000
1100
0000
0101
0000
0100
2002
3003
,
1001
0000
0000
0000
1000
0000
0100
0000
0010
0000
0001
0000
0100
0000
0010
0000
1000
0000
0001
0000
0010
0000
0001
0000
1000
0001
1000
0001
1000
0000
0001
0000
,
1000
0000
0010
0000
0001
0000
0020
0000
0000
0000
0230
0000
0000
0000
0302
0000
0000
0000
1003
0000
0001
0000
0100
0000
0010
1000
0010
1000
0010
0000
0100
0000
,
0110
0000
0000
0000
1000
0000
0010
0000
0100
0000
0001
0000
1000
0000
0001
0000
0010
0000
0100
0000
0010
0000
0001
0000
1000
0001
1000
0001
1000
0000
0100
0000
,
0010
0000
0001
0000
0100
0000
0002
0000
0000
0000
0203
0000
0000
0000
2300
0000
0000
0000
3100
0000
0110
0000
0000
0000
1000
0001
0100
0001
2000
0000
3000
0000
,
1100
0000
0010
0100
0110
0000
1001
0000
1000
0100
1000
0100
0001
0100
1000
0010
,
1000
0001
0100
0010
1000
0000
1001
0000
0000
0000
1100
0000
0000
0000
0201
0000
0000
0000
0310
0000
0200
0000
0000
0000
0301
0010
0001
0010
0001
0000
1000
0000
,
0100
0010
0100
0010
0001
0000
0100
0000
0110
0000
0000
0000
1000
0000
0010
0000
1000
0000
0100
0000
0010
0000
0001
1000
0001
0000
0100
0000
0100
0000
0100
0000
,
0001
0000
0010
0000
0010
0000
1000
0000
0100
0000
0100
0000
0001
0000
1000
0000
0001
0010
0001
0010
0001
0010
0001
0010
0100
0000
1000
0000
0001
0000
0200
0000
,
0300
0000
0000
0000
;

//--------------- dance-double - Fred-104 ----------------
#NOTEDATA:;
#STEPSTYPE:dance-double;
#DESCRIPTION:Fred-104;
#DIFFICULTY:Easy;
#METER:10;
#CREDIT:Fred-104;
#NOTES:
00000000
00000000
00000000
00000000
,
00000000
00000000
00000000
00000000
,
00000000
00000000
00000000
00000000
,
00000000
00000000
00000000
00000000
,
00000000
00000000
00000000
00000000
,
00000010
00000000
00001000
00000000
00000100
00010000
00012000
00000000
,
00013000
00000000
00100000
00000000
10000000
00010000
20010000
00000000
,
31000000
00000000
00100000
00000000
00010000
00001000
00021000
00000000
,
00030100
00000000
00000010
00000000
00000001
00000100
00000120
00000000
,
00000130
00000000
00001001
00000000
00000001
00001000
00000010
00000000
,
00010000
00000000
00011000
00000000
00001000
00010000
00100000
00000000
,
01000000
00010000
10000000
00000000
01000000
00100000
00010000
00000000
,
00001000
00001000
00010000
00010000
00001000
00001000
00010000
00010000
,
00010000
00000000
00011000
00000000
,
00010000
00001000
00000100
00000010
,
00000100
00000000
00001001
00000000
,
00000001
00000010
00001000
00010000
,
00001000
00000000
00011000
00000000
,
00001000
00010000
00100000
10000000
,
01000000
00000000
00000000
00100000
00000000
00001000
00000000
00010000
,
00000000
00100000
10000000
00010000
,
01000000
00001000
00010000
00000000
,
00001000
00010000
00000010
00000000
,
00001000
00000001
00001000
00000000
,
00000001
00000010
00001000
00000000
,
00010000
00100000
10000000
00000000
,
00010000
00100000
01000000
00000000
,
00100000
00001000
00010000
00001000
,
00000100
00000001
00002002
00003003
,
00001000
00000000
00000001
00000010
00000001
00001000
00000010
00000000
,
00001000
00000000
00000100
00010000
00001000
01000000
00100000
00000000
,
01000000
00000000
00000000
00010000
00000000
00000000
00001000
00000000
00000010
00000000
00001000
00000000
00000100
00000000
00000000
00000000
,
00010000
00000000
00000000
00000000
00000000
00000000
00000000
00000000
00000000
00000000
00000000
00000000
00001000
00000000
00000000
00000000
00000000
00000000
00000000
00000000
01000000
00000000
00000000
00000000
00000000
00000000
00000000
00000000
00001000
00000000
00000000
00000000
00000000
00000000
00000000
00000000
00000000
00000000
00000000
00000000
00010000
00000000
00000000
00000000
00000000
00000000
00000000
00000000
00001000
00000000
00000000
00000000
00000000
00000000
00000000
00000000
00020000
00030000
00000000
00000000
00000000
00000000
00000000
00000000
,
00011000
00000000
00000100
00000000
00000010
00000001
00000101
00000000
,
00000011
00000000
00000001
00000000
00000100
00001000
00011000
00000000
,
00001000
00010000
01000000
00000000
10000000
00010000
10000000
00000000
,
00010000
00000000
00000000
00100000
00000000
01000000
00000000
10000000
00000000
00000000
00100000
00000000
01100000
00000000
00000000
00000000
,
10000000
10000000
01000000
01000000
,
00010000
00010000
00001000
00001000
,
00000010
00000010
00000001
00000001
,
00000100
00000100
00001000
00001000
,
00001001
00000000
00000010
00000000
00000001
00000100
00001000
00010000
,
01000000
00000000
10000000
00000000
00100000
01000000
00010000
01000000
,
00100000
00000000
10000000
00000000
01000000
00010000
00001000
00010000
,
00001000
00000000
00000100
00000000
00000001
00001000
00000001
00000010
,
00000001
00000000
00001001
00000000
00000001
00001000
00000010
00000100
,
00000010
00000000
00001010
00000000
00000001
00000100
00000010
00000100
,
00001000
00010000
00100000
00000000
10000000
01000000
00100000
00000000
,
00001000
00010000
00000100
00001000
00000001
00000100
00000010
00000010
,
00010000
00001000
00010000
00000000
,
00001000
00010000
00100000
01000000
,
00010000
00100000
01000000
00000000
,
10000000
00100000
00010000
00001000
,
00010000
00000000
00000000
00011000
00000000
00000000
00001000
00000000
,
00010000
00000000
00000000
00010010
00000000
00000000
00000010
00000000
,
00001000
00000000
00000000
00000100
00000000
00000100
00000000
00000010
,
00000000
00000001
00002002
00003003
,
00000001
00000010
00000010
00000001
,
00000100
00000010
00001000
00000000
,
00000100
00010000
01000000
00010000
,
00001000
00100000
00001000
00000000
,
00011000
00000000
00000000
00001000
00000000
00000000
00100000
00000000
,
00110000
00000000
00000000
01000000
00000000
00000000
00100000
00000000
,
10000000
00000000
00000000
01000000
00000000
01000000
00000000
00100000
,
00000000
00001000
00022000
00033000
,
00010000
00000000
00011000
00000000
00000100
00000100
00000010
00000001
,
00000100
00000000
00000000
00000001
00000000
00000010
00000000
00000001
00000000
00000000
00000100
00000000
00000010
00000000
00010000
00000000
,
00001000
00000000
00011000
00000000
00001000
00010000
00100000
01000000
,
00010000
00000000
00000000
10000000
00000000
01000000
00000000
00100000
00000000
00000000
01000000
00000000
01100000
00000000
00000000
00000000
,
10000000
00000000
10010000
00000000
01000000
00001000
00010000
00001000
,
00001000
00000000
00010010
00000000
00010000
00001000
00000100
00000001
,
00000010
00000000
00000110
00000000
00000100
00000100
00010000
00001000
,
00100000
00000000
00000000
01000000
00000000
00000000
01000000
00000000
00000000
00100000
00000000
01000000
10000000
00000000
00020000
00000000
,
00030000
00000000
00000000
00000000
;

//--------------- dance-double - Fred-104 ----------------
#NOTEDATA:;
#STEPSTYPE:dance-double;
#DESCRIPTION:Fred-104;
#DIFFICULTY:Medium;
#METER:14;
#CREDIT:Fred-104;
#NOTES:
00000000
00000000
00000000
00000000
,
00000000
00000000
00000000
00000000
,
00000000
00000000
00000000
00000000
,
00000000
00000000
00000000
00000000
,
00000000
00000000
00000000
00000000
,
00001000
00000000
00000000
01000000
00000000
01000000
00000000
00100000
00000000
00100000
00000000
10000000
00000000
01000000
00100000
00000000
,
01000000
00000000
00000000
00010000
00000000
00001000
00000010
00000000
00000100
00000000
00000000
00000010
00000000
00000001
00001000
00000000
,
00000001
00000000
00000001
00000100
00000000
00000010
00000000
00000100
00000000
00000001
00000100
00000000
00000010
00000000
00001000
00000100
,
00000010
00000000
00001000
00010000
00000000
00100000
00000000
10000000
00000000
00010000
00100000
00000000
01000000
00000000
10000000
00000000
,
00110000
01000000
10000000
00000000
10100000
01000000
00010000
00000000
,
00101000
00010000
00000100
00000000
00000110
00001000
00000001
00000000
,
00001000
00000010
00001000
00000010
00010000
00001000
00010000
00001000
,
00100000
00000000
00000000
00000000
00001000
00000000
00000000
00000000
00100000
00000000
00000000
00000000
00000000
00000000
00000000
00000000
00010000
00000000
00000000
00000000
10000000
00000000
00000000
00000000
00010000
00000000
00000000
00000000
00000000
00000000
00000000
00000000
01000000
00000000
00000000
00000000
00100000
00000000
00000000
00000000
10000000
00000000
00000000
00000000
01000000
00000000
00000000
00000000
00200000
00300000
00000000
00000000
00000000
00000000
00000000
00000000
02000000
03000000
00000000
00000000
00000000
00000000
00000000
00000000
,
10010000
00000000
10000000
00000000
01000000
00010000
00001000
00010000
,
00000000
00001000
00000100
00000010
00000000
00001000
00000001
00000000
,
00001001
00000000
00000001
00000000
00000010
00000001
00001000
00000010
,
00000000
00010000
00001000
00100000
00000000
00010000
10000000
00000000
,
10010000
00000000
00010000
00000000
10000000
01000000
00100000
00001000
,
00000000
00010000
00100000
01000000
00000000
00010000
01000000
00000000
,
00001000
00000000
00010000
00001000
00000000
00000100
00000000
00000010
,
00000000
00001000
00000001
00000000
00001000
00000000
00000100
00000000
,
00001001
00000000
00000001
00000100
00000000
00000010
00001000
00000100
,
00000000
00010000
00001000
00010000
01000000
00000000
00100000
00000000
,
01100000
00000000
01000000
00100000
00000000
00010000
00100000
10000000
,
00000000
00100000
00010000
10000000
00100000
00000000
01000000
00000000
,
01100000
00000000
01000000
00100000
00000000
10000000
01000000
00010000
,
00000000
00001000
00000100
00000010
00000100
00000000
00000001
00000000
,
00001000
00000000
00000001
00000010
00000000
00001000
00010000
00001000
,
00000000
00010000
00000000
00100000
00000000
10000000
00020000
00000000
,
10030000
00000000
00010000
10000000
00000000
01000000
10000000
00000000
00100000
10000000
01000000
00100000
00002000
00000000
00023000
00000000
,
00030100
00000000
00000010
00000100
00000000
00000010
00000001
00000001
00001000
00000000
00000010
00000000
00000100
00000001
00000100
00000001
,
00000100
00000000
00001000
00000000
00010000
00001000
00000000
00010000
01000000
00100000
00010000
00100000
00000000
01000000
10000000
00000000
,
00010000
00000000
00000000
00000000
00000000
00000000
00000000
00000000
00000000
00000000
00000000
00000000
10100000
00000000
00000000
00000000
00000000
00000000
00000000
00000000
00110000
00000000
00000000
00000000
00000000
00000000
00000000
00000000
00011000
00000000
00000000
00000000
00000000
00000000
00000000
00000000
00001000
00000000
00000000
00000000
00010000
00000000
00000000
00000000
00000000
00000000
00000000
00000000
00000100
00000000
00000000
00000000
00000000
00000000
00000000
00000000
00000220
00000330
00000000
00000000
00000000
00000000
00000000
00000000
,
00000001
00000010
00000011
00000000
00000100
00000010
00000110
00000100
,
00000010
00010000
00010010
00000000
00001000
00100000
00101000
00001000
,
01000000
00100000
01100000
00000000
10000000
01000000
01100000
00100000
,
00001000
00000000
00000000
00011000
00000000
00010010
00000000
00001010
00000000
00000010
00000100
00000000
00002002
00000000
00003003
00000000
,
00002000
00000010
00000001
00003100
,
00020000
01000000
10000000
00130000
,
00002000
00000100
00000001
00003010
,
00020000
00100000
10000000
01030000
,
00011000
00000000
00001000
00000000
00010000
00001000
00000100
00000010
00000000
00001000
00000000
00000001
00000000
00000010
00000000
00000000
,
00001001
00000000
00001000
00000000
00000001
00000010
00000001
00000100
00000000
00001000
00000000
00010000
00000000
00001000
00000000
00000000
,
00101000
00000000
00010000
00000000
01000000
00010000
10000000
01000000
00000000
00010000
00000000
01000000
00000000
10000000
00000000
00000000
,
01100000
00000000
00010000
00000000
10000000
00100000
00010000
00001000
00000000
00000100
00000000
00000010
00000000
00001000
00000000
00000000
,
00000001
00000000
00000001
00000100
00000000
00000010
00001000
00000100
00000000
00010000
00001000
00010000
00001000
00010000
00010000
00000000
,
00001000
00000000
00100000
00010000
00000000
01000000
00100000
10000000
00000000
01000000
00100000
00010000
10000000
00010000
00010000
00000000
,
01000000
00100000
10000000
01000000
00100000
00001000
00000010
00000001
,
00000100
00000000
00000000
00000000
00000010
00000000
00000000
00000000
00000100
00000000
00000000
00000000
00000010
00000000
00000000
00000000
00001000
00000000
00000000
00000000
00000001
00000000
00000000
00000000
00001000
00000000
00000000
00000000
00000001
00000000
00000000
00000000
00000010
00000000
00000000
00000000
00000100
00000000
00000000
00000000
00010000
00000000
00000000
00000000
00001000
00000000
00000000
00000000
00020000
00030000
00000000
00000000
00000000
00000000
00000000
00000000
00002000
00003000
00000000
00000000
00000000
00000000
00000000
00000000
,
00011000
00000000
00001000
00000000
00100000
00010000
10000000
00010000
,
00000000
00100000
00000000
01000000
00000000
10000000
00100000
00000000
,
01100000
00000000
10000000
00000000
00100000
01000000
00010000
10000000
,
00000000
01000000
00000000
00010000
00000000
00001000
00010000
00000000
,
00011000
00000000
00000000
00010000
00000000
00001000
00000100
00000001
,
00000010
00000000
00000000
00000100
00000000
00010000
00001000
00000100
,
00000001
00000000
00000010
00001000
00000000
00010000
00000000
00100000
,
00000000
01000000
00010000
00000000
10000000
00000000
01000000
00000000
,
10010000
00000000
00010000
00000000
10000000
01000000
00100000
00001000
,
00000000
00010000
00000100
00010000
00000000
00001000
00010000
00000000
,
00011000
00000000
00100000
00000000
00001000
00010000
00000010
00001000
,
00000000
00000001
00000100
00001000
00000000
00000100
00000010
00000000
,
00001001
00000000
00000000
00000001
00000000
00000100
00000010
00000100
,
00001000
00000000
00000000
00010000
00000000
00100000
01000000
00100000
,
10000000
00000000
01000000
00100000
00000000
00010000
10000000
00100000
,
00000000
01000000
00000000
00001000
00000000
00010000
00002000
00003000
,
00011000
00000000
00000000
00000000
00001000
00000000
00010000
00100000
10000000
00000000
00010000
00000000
10000000
00010000
01000000
00001000
,
00010000
00001000
00000010
00000001
00000000
00000010
00000000
00000100
00000000
00010000
00001000
00000000
00000100
00000001
00000010
00000100
,
00010000
00000000
00000000
00000000
00011000
00000000
00001000
00010000
00001000
00000000
00010000
00000000
00000100
00010000
00001000
00010000
,
01000000
00100000
00010000
00100000
00000000
00010000
00000000
01000000
00000000
00100000
10000000
00000000
00010000
00100000
00010000
00100000
,
01000000
00000000
00000000
00100000
01000000
00000000
10010000
00000000
00010000
10000000
01000000
10000000
00010000
10000000
00100000
10000000
,
00010000
00000000
01000000
00100000
00000000
00010000
00000000
00001000
00000000
00000100
00000010
00000000
00010000
00001000
00000100
00000001
,
00000010
00000000
00000000
00000100
00000010
00000000
00000011
00000000
00000001
00000100
00000001
00000010
00000001
00000100
00000001
00001000
,
00000010
00000000
00000000
00001010
00000000
00000000
00011000
00000000
00010000
00000000
00001000
00000000
00010000
00001000
00000010
00000002
,
00000003
00000000
00000000
00000000
;

//--------------- dance-double - Fred-104 ----------------
#NOTEDATA:;
#STEPSTYPE:dance-double;
#DESCRIPTION:Fred-104;
#DIFFICULTY:Hard;
#METER:17;
#CREDIT:Fred-104;
#NOTES:
00000000
00000000
00000000
00000000
,
00000000
00000000
00000000
00000000
,
00000000
00000000
00000000
00000000
,
00000000
00000000
00000000
00000000
,
00000000
00000000
00000000
00000000
,
00010000
00000100
00000000
00000010
00000000
00000001
00000000
00000100
00000010
00001000
00000000
00000100
00000000
00010000
00001000
00000000
,
00011000
00000000
00000000
00101000
00000000
00100000
00010000
01000000
00100000
00000000
00000000
11000000
00000000
00100000
01000000
00010000
,
10000000
00000000
00100000
00010000
00000000
00001000
00000000
00000010
00000000
00000001
00000010
00000000
00000100
00000000
00001000
00000001
,
00001000
00000000
00000001
00000010
00000000
00000100
00000000
00001000
00000000
00000100
00010000
00000000
00001000
00000000
00100000
00000000
,
00110000
00000000
00010000
01000000
00010000
01000000
00010000
01000000
00010000
10000000
01000000
00100000
00001000
00010000
00001000
00000000
,
00011000
00000000
00001000
00000010
00001000
00000010
00001000
00000010
00000100
00000001
00000010
00000100
00010000
00001000
00000100
00000000
,
00000001
00000100
00000010
00001000
00000100
00010000
00001000
00100000
00010000
01000000
00100000
10000000
01000000
00100000
00010000
10000000
,
00100000
00000000
00000000
00000000
10000000
00000000
00000000
00000000
00100000
00000000
00000000
00000000
10000000
00000000
00000000
00000000
00010000
00000000
00000000
00000000
01000000
00000000
00000000
00000000
00010000
00000000
00000000
00000000
01000000
00000000
00000000
00000000
00001000
00000000
00010000
00000000
00001000
00000000
00010000
00000000
00001000
00000000
00010000
00000000
00001000
00000000
00010000
00000000
00002000
00003000
00000000
00000000
00000000
00000000
00000000
00000000
00022000
00033000
00000000
00000000
00000000
00000000
00000000
00000000
,
00000110
00000000
00000001
00000000
00000100
00000010
00001000
00000010
,
00000000
00000001
00000010
00001000
00000000
00000001
00000010
00000000
,
00011000
00000000
00001000
00000000
00010000
00100000
10000000
00010000
,
00000000
10000000
01000000
10000000
00000000
00100000
01000000
00000000
,
01100000
00000000
10000000
00000000
01000000
00010000
00001000
00000100
,
00000000
00000010
00001000
00000001
00000000
00000010
00000100
00000000
,
00001000
00000001
00000100
00000001
00000000
00000010
00000000
00001000
,
00000000
00010000
00001000
00000000
00010000
00001000
00010000
00000000
,
00001000
00010000
01000000
10000000
00000000
00010000
00100000
01000000
,
00000000
00010000
01000000
10000000
00010000
10000000
01000000
00000000
,
00100000
00010000
01000000
00001000
00000000
00010000
00001000
00010000
,
00000000
00001000
00000010
00000001
00000010
00000100
00001000
00000000
,
00000001
00000100
00000010
00001000
00000000
00000100
00010000
00001000
,
00000000
00100000
00010000
10000000
00100000
01000000
00010000
00000000
,
10000000
01000000
10000000
01000000
00010000
01000000
00010000
00001000
,
00010000
00001000
00000010
00000001
00000010
00000001
00002000
00000000
,
00003001
00001000
00000001
00000010
00000100
00000010
00000000
00000001
00000000
00000100
00000010
00000000
00001010
00000000
00000100
00000000
,
00010000
00001000
00100000
00010000
00100000
01000000
00000000
01000000
10000000
00010000
10000000
00000000
11000000
00000000
01100000
00000000
,
00010000
10000000
00010000
00100000
01000000
00100000
00000000
00001000
00010000
00001000
00000010
00000001
00001000
00000001
00000100
00000000
,
00000010
00000000
00000000
00000000
00000000
00000000
00000000
00000000
00000100
00000000
00000000
00000000
00000010
00000000
00000000
00000000
00000000
00000000
00000000
00000000
00000110
00000000
00000000
00000000
00000000
00000000
00000000
00000000
00011000
00000000
00000000
00000000
00000000
00000000
00000000
00000000
00100000
00000000
00000000
00000000
01000000
00000000
00000000
00000000
00000000
00000000
00000000
00000000
10000000
00000000
00000000
00000000
00000000
00000000
00000000
00000000
20020000
30030000
00000000
00000000
00000000
00000000
00000000
00000000
,
10000000
00000000
01000000
00100000
01100000
00000000
00001000
00000000
00010000
00001000
00000100
00000001
00000011
00000000
00001000
00000000
,
00000001
00000000
00001000
00000100
00000110
00000000
00001000
00000000
00000001
00000100
00000010
00000100
00001000
00010000
00100000
01000000
,
00100000
00000000
10000000
00100000
10100000
00000000
00010000
00000000
10000000
01000000
00100000
00001000
00010000
00001000
00010000
00001000
,
00010000
00000000
00000100
00000000
00001000
00000000
00000010
00000000
00000000
00000000
00000100
00000000
00000000
00000000
00000001
00000000
00000000
00000000
00000100
00000010
00000100
00000000
00000000
00000000
00000220
00000000
00000000
00000000
00000330
00000000
00000000
00000000
,
00021000
00000000
00000000
00000000
00100000
00000000
00000000
00000000
00001000
00000000
00000000
00000000
00130000
00000000
00001000
00010000
,
00000100
00000000
00001000
00000010
00000000
00000001
00000000
00000010
00000000
00000100
00000001
00000000
00001000
00000001
00000010
00000001
,
00001000
00000000
00000001
00000100
00000000
00000010
00000000
00000001
00000000
00000010
00000100
00000000
00000001
00001000
00000100
00010000
,
00001000
00000000
00100000
01000000
00000000
00100000
00000000
00001000
00000000
00010000
00001000
00000000
00010000
00100000
01000000
00010000
,
10000000
00000000
10000000
01000000
00100000
01000000
10000000
01000000
00000000
00100000
01000000
00100000
00000000
00001000
00010000
00000100
,
00000010
00000000
00000001
00001000
00000010
00000100
00001000
00010000
00000000
00010000
00001000
00010000
00000000
00000100
00010000
00001000
,
01000000
00000000
00100000
00010000
00001000
00000100
00000010
00001000
00000000
00000100
00000010
00000001
00000000
00000100
00000010
00001000
,
00000001
00000000
00000100
00001000
00010000
00100000
10000000
01000000
00000000
00100000
00001000
00010000
00000000
00100000
10000000
00010000
,
10010000
00000000
00010000
01000000
00100000
10000000
00100000
10000000
00100000
00010000
00001000
00000010
00000001
00001000
00000001
00000000
,
00001001
00000000
00001000
00000100
00000010
00000001
00000010
00000001
00000010
00001000
00010000
00100000
10000000
00010000
10000000
00000000
,
10000000
01000000
00100000
00001000
00010000
00001000
00100000
00010000
00100000
00001000
00010000
00001000
00000100
00000001
00000100
00000010
,
00001000
00000000
00000000
00000000
00000010
00000000
00000000
00000000
00001000
00000000
00000000
00000000
00000010
00000000
00000000
00000000
00010000
00000000
00000000
00000000
00001000
00000000
00000000
00000000
00010000
00000000
00000000
00000000
00001000
00000000
00000000
00000000
00010000
00000000
00001000
00000000
00010000
00000000
00001000
00000000
00010000
00000000
00001000
00000000
00010000
00000000
00001000
00000000
00020000
00030000
00000000
00000000
00000000
00000000
00000000
00000000
02200000
03300000
00000000
00000000
00000000
00000000
00000000
00000000
,
10010000
00000000
11000000
00000000
00010000
10000000
01000000
00010000
,
00001000
00000000
00100000
00000000
00001000
00000000
00010000
00000000
00000100
00000000
00000010
00000100
00000010
00000000
00000000
00000000
,
00000110
00000000
00001001
00000000
00000001
00000100
00001000
00000100
,
00000010
00000000
00001000
00000000
00000100
00000000
00000010
00000000
00001000
00000000
00010000
00001000
00010000
00000000
00000000
00000000
,
00011000
00000000
00001000
00010000
00000000
00001000
01000000
00100000
,
10100000
00000000
10000000
01000000
00000000
00100000
00010000
00100000
,
00101000
00001000
00010000
00002000
00000000
00003200
00000000
00000302
,
00000000
00000000
00000013
00000100
00000010
00000000
00000000
00000000
00000001
00000000
00000000
00000000
00001001
00000000
00000000
00000000
,
00011000
00000000
00001000
00010000
00100000
10000000
00100000
01000000
,
00000000
00000000
00100000
00000000
10000000
00000000
00010000
00000000
00100000
00010000
00100000
00010000
00100000
00000000
00000000
00000000
,
10010000
00000000
00010000
01000000
00001000
00010000
00000100
00000010
,
00000000
00000000
00000100
00000000
00001000
00000000
00000001
00000000
00000100
00000010
00000100
00000010
00000100
00000000
00000000
00000000
,
00000101
00000000
00000100
00000010
00000000
00000010
00001000
00000100
,
00010100
00010000
00001000
00011000
00000000
00100000
00010000
01000000
,
01010000
00100000
10000000
11000000
00000000
01000000
00010000
00011000
,
00000000
00001100
00000000
00000101
00000000
00000100
00002002
00003003
,
00000110
00000000
00000000
00000000
00001000
00000000
00000001
00000000
00001000
00000000
00000100
00000000
00010000
00000000
00001000
00000000
00010000
00000000
00001000
00000000
00010000
00000000
00100000
00000000
01000000
00100000
01000000
00100000
10000000
00000000
00010000
00000000
,
00100000
00000000
01000000
00000000
00010000
00000000
00002000
00000000
00000000
00000000
00023000
00000000
00000000
00000000
00032000
00000000
00000000
00000000
00003010
00000000
00000100
00000000
00000000
00000000
00001000
00000100
00001000
00000100
00000010
00000000
00000001
00000000
,
00001001
00000000
00000000
00000000
00001000
00000000
00000010
00000000
00000100
00000000
00000001
00000000
00000100
00000000
00001000
00000000
00010000
00000000
00100000
00000000
01000000
00000000
00100000
00000000
10000000
00100000
10000000
00100000
01000000
00000000
00010000
00000000
,
10000000
00000000
01000000
00000000
00010000
00000000
00002000
00000000
00000000
00000000
00003020
00000000
00000000
00000000
00000032
00000000
00000000
00000000
00001003
00000000
00001001
00000000
00000000
00000000
00000001
00001000
00000001
00001000
00000002
00000000
00000003
00000000
,
00000101
00000000
00000100
00000010
00001010
00000000
00000100
00000000
00000001
00001000
00000100
00010000
00001000
00100000
00010000
00100000
,
00010000
10000000
00100000
00000000
10000000
00000000
12000000
00000000
00000000
00000000
03100000
00000000
00000000
00000000
00210000
00000000
00000000
00000000
00301000
00000000
00020000
00000000
00000000
00000000
00031000
00010000
00001000
00010000
00001000
00000000
00010000
00000000
,
00000010
00000100
00000010
00000100
00000010
00000000
00001000
00000000
00001001
00000000
00000000
00000000
00001000
00000000
00000100
00000000
00001000
00000000
00000010
00000000
00000100
00000000
00000001
00001000
00000001
00000000
00001000
00000000
00001000
00000000
00001000
00000000
,
00000010
00000000
00000100
00000000
00001000
00000000
00010000
00000000
00100000
00000000
10000000
00000000
00010000
00000000
00100000
00000000
00010000
10000000
00010000
10000000
00010000
10000000
00010000
10000000
01000000
00000000
00010000
00000000
00001000
00000000
00020000
00000000
,
00030000
00000000
00000000
00000000
;
