#TITLE:Happy Wedding;
#ARTIST:ASKA;
#GENRE:HOUSE;
#BANNER:Happy Wedding.png;
#BACKGROUND:Happy Wedding-bg.png;
#CDTITLE:./CDTitles/bm IIDX 7th style.png;
#MUSIC:Happy Wedding.ogg;
#SAMPLESTART:49.524;
#SAMPLELENGTH:15;
#BPMS:0=126;
#STAGE:2;

//--------------- dance-single - Fred-104 ----------------
#NOTES:
     dance-single:
     Fred-104:
     Beginner:
     1:
     :
0000
0000
0000
0000
,
0000
0000
0000
0000
,
0000
0000
0000
0000
,
0000
0000
0000
0000
,
0000
0000
0000
0000
,
0000
0000
0000
0000
,
1000
0000
0000
0000
,
0000
0000
0000
0000
,
0001
0000
0000
0000
,
0000
0000
0000
0000
,
1000
0000
0000
0000
,
0000
0000
0000
0000
,
0001
0000
0000
0000
,
0000
0000
0000
0000
,
1000
0000
0000
0000
,
0000
0000
0000
0000
,
0001
0000
0000
0000
,
0000
0000
0000
0000
,
1000
0000
0000
0000
,
0000
0000
0000
0000
,
0001
0000
0000
0000
,
0000
0000
0000
0000
,
1000
0000
0000
0000
,
0000
0000
0000
0000
,
0001
0000
0000
0000
,
0000
0000
0000
0000
,
1000
0000
0000
0000
,
0001
0000
0000
0000
,
1000
0000
0000
0000
,
0000
0000
0000
0000
,
0001
0000
0000
0000
,
1000
0000
0000
0000
,
0001
0000
0000
0000
,
0000
0000
0000
0000
,
1000
0000
0000
0000
,
0010
0000
0000
0000
,
1000
0000
0000
0000
,
0000
0000
0000
0000
,
0001
0000
0000
0000
,
0100
0000
0000
0000
,
0001
0000
0000
0000
,
0000
0000
0000
0000
,
1000
0000
0000
0000
,
0000
0000
0000
0000
,
0000
0000
0000
0000
,
0000
0000
0000
0000
,
0001
0000
0000
0000
,
0000
0000
0000
0000
,
1000
0000
0000
0000
,
0000
0000
0000
0000
,
0001
0000
0000
0000
,
1000
0000
0000
0000
,
0001
0000
0000
0000
,
0000
0000
0000
0000
,
1000
0000
0000
0000
,
0010
0000
0000
0000
,
1000
0000
0000
0000
,
0000
0000
0000
0000
,
0001
0000
0000
0000
,
1000
0000
0000
0000
,
0001
0000
0000
0000
,
0000
0000
0000
0000
,
1000
0000
0000
0000
,
0100
0000
0000
0000
,
1000
0000
0000
0000
,
2002
0000
0000
0000
0000
0000
0000
3003
;

//--------------- dance-single - Fred-104 ----------------
#NOTES:
     dance-single:
     Fred-104:
     Easy:
     4:
     :
0000
0000
0000
0000
,
0000
0000
0000
0000
,
0000
0000
0000
0000
,
0000
0000
0000
0000
,
0000
0000
0000
0000
,
0000
0000
0000
0000
,
1000
1000
1000
1000
,
0001
0000
1000
0000
,
0001
0000
1000
0000
,
1001
0000
0000
0000
,
0001
0000
1000
0000
,
0010
0100
0010
0000
,
1000
0000
0010
0000
,
1000
0100
1000
0000
,
0001
0000
1000
0000
,
0001
0000
0100
0000
,
0010
0000
1000
0000
,
0001
0001
0001
0001
,
1000
0000
0010
0000
,
1000
0100
0010
0000
,
0001
0000
1000
0000
,
0001
1000
0001
1000
,
0001
0000
0010
0000
,
0100
0000
1000
0000
,
0010
0000
1000
0000
,
0100
0100
0100
0100
,
0100
0000
1000
0000
,
0001
1000
0010
0100
,
0001
0000
1000
0000
,
0100
0010
0001
1000
,
0001
0000
1000
0000
,
0010
1000
0100
1000
,
0001
0000
1000
0000
,
0001
0100
0001
0100
,
1000
0000
0010
0000
,
1000
0010
0001
1000
,
0001
0000
1000
0000
,
0100
1000
0001
0100
,
0010
0000
0100
0000
,
0001
0010
0100
1000
,
0001
0000
0100
0000
,
0010
0010
1000
1000
,
2002
0000
0000
0000
,
0000
0000
0000
0000
,
3003
0000
0000
0000
,
0002
0023
0230
2300
,
3001
0100
0000
0100
,
0010
1000
0001
1000
,
0100
0010
0001
1000
,
0001
0001
1000
1000
,
0002
0003
0200
0300
,
0010
1000
0100
0010
,
0200
0300
2000
3000
,
0001
0010
0001
0010
,
2000
3000
0200
0300
,
1000
0100
1000
0100
,
0002
0003
2000
3000
,
0001
0100
0010
1000
,
0001
0010
0001
1000
,
0001
0010
0100
1000
,
0001
0100
0010
1000
,
0100
1000
0010
1000
,
0001
1000
0100
1000
,
0010
1000
0100
0010
,
0001
0100
0010
1000
,
2002
0000
0000
0000
0000
0000
0000
3003
;

//--------------- dance-single - Fred-104 ----------------
#NOTES:
     dance-single:
     Fred-104:
     Medium:
     7:
     :
0000
0000
0000
0000
,
0000
0000
0000
0000
,
0000
0000
0000
0000
,
0000
0000
0000
0000
,
0000
0000
0000
0000
,
0000
0000
0000
0000
,
0001
0100
1000
0010
,
0001
1000
0010
0100
,
0001
0000
0010
0002
0000
1003
0001
1000
,
0000
1001
0000
0001
0100
0010
1000
0000
,
0002
0000
0100
0000
0103
0000
0001
0010
,
0002
0000
2003
0000
3010
1000
0010
0000
,
2000
0000
3100
0000
1000
0010
1000
0000
,
0001
0000
1000
0000
0001
0100
0010
0000
,
2002
3003
1000
0100
,
0010
0100
0010
0000
0001
0100
0001
0000
,
0010
0000
0100
0000
0010
0001
0010
0000
,
0001
1000
0001
0000
0100
0010
0100
0000
,
2002
0000
3003
0000
1000
0010
1000
0100
,
2000
3020
0230
0302
,
2003
0000
3001
0000
0100
0001
0010
0000
,
0002
0000
0203
0000
0310
1000
0001
0000
,
1001
0000
1000
0100
0010
0000
0001
0100
,
0020
0000
0230
0000
0302
0000
1003
0001
,
2000
0000
3001
0000
0100
0010
0100
0001
,
0010
0000
0001
0000
1000
0001
1000
0000
,
0001
0010
1000
0100
,
0001
0000
1000
0000
0001
0100
0001
0000
,
1000
0100
0001
0010
,
1000
0000
0001
0000
0100
0010
0100
0000
,
0001
0000
0010
0001
0000
0100
0001
0100
,
0000
0010
1000
0000
0001
0010
0001
0000
,
1000
0000
0010
0100
0000
0010
1000
0010
,
0000
0100
0001
0000
1000
0001
1000
0000
,
0001
0010
1000
0100
,
0001
1000
0001
0000
0100
0010
0100
0000
,
0001
0010
1000
0100
,
0001
0010
0001
0000
1000
0100
1000
0000
,
0010
0000
1000
0100
0000
0010
0100
0010
,
0000
0001
1000
0001
0100
0000
0010
0000
,
1000
0000
0100
0010
0000
0001
1000
0001
,
0000
0100
0010
0000
0100
0000
0001
0000
,
2002
0000
0000
0000
,
0000
0000
0000
0000
,
3003
0000
0000
0000
,
2000
3200
0320
0032
,
1003
1100
0010
0001
,
0100
0101
0010
0001
,
1000
1001
0010
0100
,
1000
1010
2002
3003
,
1000
0000
0100
1000
0000
0010
1000
0010
,
0000
0100
0001
0000
1000
0001
0010
0000
,
0001
0000
0100
0010
0000
1000
0001
0010
,
0000
0001
0100
0000
0010
0100
0010
0000
,
1000
0100
0001
0010
,
1000
0010
1000
0000
0001
0100
0001
0000
,
1000
0010
0001
0100
,
1000
0100
1000
0000
0001
0010
0001
0000
,
1000
0000
0001
0100
0000
0001
0010
0001
,
0000
0100
0010
0000
0100
0001
1000
0000
,
0001
0000
0010
0100
0000
1000
0010
0100
,
0000
0010
1000
0000
0001
1000
0100
0000
,
1000
0010
0100
0001
,
0010
0000
0100
0000
1000
0010
1000
0000
,
0100
0000
1000
0000
0010
0000
0100
0001
,
0000
1001
0000
1000
0010
0100
0001
1000
;

//--------------- dance-single - Fred-104 ----------------
#NOTES:
     dance-single:
     Fred-104:
     Hard:
     11:
     :
0000
0000
0000
0000
,
0000
0000
0000
0000
,
0000
0000
0000
0000
,
0000
0000
0000
0000
,
0000
0000
0000
0000
,
0000
0000
0000
0000
,
1000
1100
1010
1100
,
0001
0101
0011
0101
,
1000
0100
0010
0200
0000
1300
0001
2000
,
0000
3020
0000
0130
0001
0100
0110
0000
,
2001
0000
3001
1000
0100
1000
0001
1000
,
0020
0000
0230
0000
0301
1000
0002
0000
,
2003
0000
3100
0010
0001
0010
0100
0010
,
0002
0000
0203
0000
1300
0100
0001
1000
,
0002
0000
0103
0010
1000
0010
0100
0010
,
2000
0010
0002
3003
,
0002
0000
0103
0010
0100
0001
0100
0010
,
1000
0100
0020
0000
0031
0010
0001
1000
,
0002
0000
0103
0001
0100
0010
0100
0001
,
2000
3020
0032
0203
,
2300
0000
0000
0000
3001
0000
0100
0001
0100
0000
0010
0000
0100
0000
0001
0000
,
0010
0100
2000
0000
3020
0000
1030
0001
,
2000
0000
3100
0001
0100
1000
0100
0010
,
0002
0000
0203
0000
0320
0000
1030
0010
,
2000
0000
3010
0100
1000
0100
0010
1000
,
0001
0010
0100
1000
0100
0010
0002
0000
,
1003
0100
0010
0002
0000
0103
0010
2000
,
0000
3001
0010
0100
0010
0001
1000
0001
,
0100
0010
1000
0002
0000
1003
0100
0020
,
0000
0130
1000
0001
0100
0010
0100
0001
,
1000
0001
0010
0200
0000
1300
0010
0200
,
0000
0310
1000
0001
1000
0100
0010
0001
,
0100
0010
0001
0020
0000
0130
0001
0010
,
0000
0110
0000
0100
1000
0001
0100
0010
,
1000
0000
0100
0000
0010
0000
0001
1000
0001
0000
0100
0000
0010
0000
0100
0000
,
0001
0010
0100
0010
0001
1000
0001
0100
,
0010
0000
1000
0000
0001
0000
0010
0001
0010
0000
0001
0000
0100
0000
0010
0000
,
0100
0001
0100
0010
1000
0100
1000
0001
,
1000
0000
0001
0000
0100
0000
0010
0100
0010
0000
1000
0000
0001
0000
0010
0000
,
0100
0000
1000
0000
0100
0000
0010
0100
0010
0000
0100
0000
1000
0000
0001
0000
,
0010
0000
0001
0000
1000
0000
0100
1000
0100
0000
1000
0000
0010
0000
1000
0000
,
0001
0000
0000
0000
0000
0000
0100
0000
0000
0000
0000
0000
0001
0000
0000
0000
0000
0000
0010
0000
0000
0000
0100
0000
0010
0000
0000
0000
0000
0000
0100
0000
0000
1000
0000
0000
0100
0000
0000
0000
0000
0000
1000
0000
0000
0000
0000
0000
,
2001
0000
0000
0000
,
3020
0000
0000
0000
,
0230
0000
0000
0000
,
0302
2003
3200
0320
,
0031
0010
0000
0100
0000
1000
0010
0100
,
0010
1000
0000
0100
0000
1000
0001
0010
,
0001
0100
0010
0100
0001
0100
0010
0100
,
0001
0010
0100
1000
0001
1000
1001
0000
,
0001
0100
0010
0100
0001
0010
0100
1000
,
0010
0100
0001
1000
0001
0100
0010
0000
,
1000
0100
0010
0100
1000
0010
1000
0100
,
0010
0001
0010
0100
0010
0001
0100
0000
,
0001
1000
0010
0100
0001
0010
0100
1000
,
0010
0100
1000
0100
0010
1000
0001
1000
,
0100
1000
0010
0100
0001
1000
0100
0010
,
0001
0100
1000
0001
0010
1000
0001
0000
,
1000
0000
0100
0000
0010
0000
0001
0100
0001
0000
0010
0000
0001
0000
0100
0000
,
0010
0000
0100
0000
0001
0000
1000
0100
1000
0000
0010
0000
0100
0000
0001
0000
,
0010
0000
0100
0000
0010
0000
0001
0100
0001
0000
0100
0000
0010
0000
0100
0000
,
0001
0000
1000
0000
0100
0000
1000
0010
1000
0000
0010
0000
0100
0000
0001
0000
,
0010
0000
0001
0000
1000
0000
0100
1000
0100
0000
0010
0000
0100
0000
0010
0000
,
0001
0000
0100
0000
0010
0000
0100
0001
0100
0000
0010
0000
1000
0000
0100
0000
,
1000
0010
0001
0100
1000
0010
0001
0100
,
0000
1100
0000
1001
0001
0100
0010
1000
;

//--------------- dance-double - Fred-104 ----------------
#NOTES:
     dance-double:
     Fred-104:
     Easy:
     4:
     :
00000000
00000000
00000000
00000000
,
00000000
00000000
00000000
00000000
,
00000000
00000000
00000000
00000000
,
00000000
00000000
00000000
00000000
,
00000000
00000000
00000000
00000000
,
00000000
00000000
00000000
00000000
,
00001000
00001000
00001000
00001000
,
00010000
00000000
00001000
00000000
,
00100000
00000000
00001000
00000000
,
00011000
00000000
00000000
00000000
,
00001000
00000000
00010000
00000000
,
00100000
00010000
00001000
00000000
,
00010000
00000000
00100000
00000000
,
00010000
00001000
00000100
00000000
,
00001000
00000000
00010000
00000000
,
01000000
00000000
00010000
00000000
,
00001000
00000000
00000100
00000000
,
00001000
00001000
00001000
00001000
,
00010000
00000000
01000000
00000000
,
00010000
00001000
00000010
00000000
,
00001000
00000000
00010000
00000000
,
00100000
00010000
00001000
00010000
,
01000000
00000000
00010000
00000000
,
00001000
00000000
00000100
00000000
,
00001000
00000000
00010000
00000000
,
00001000
00001000
00001000
00001000
,
00001000
00000000
00010000
00000000
,
00001000
00100000
00001000
00100000
,
00010000
00000000
01000000
00000000
,
00100000
10000000
00010000
10000000
,
00010000
00000000
10000000
00000000
,
01000000
10000000
01000000
00100000
,
00010000
00000000
01000000
00000000
,
00001000
00100000
00001000
00010000
,
00001000
00000000
00100000
00000000
,
00001000
00010000
00000100
00010000
,
00000100
00000000
00001000
00000000
,
00000100
00000010
00000100
00000010
,
00000001
00000000
00001000
00000000
,
00000001
00000100
00000001
00000100
,
00000010
00000000
00001000
00000000
,
00000100
00000100
00010000
00010000
,
00022000
00000000
00000000
00000000
,
00000000
00000000
00000000
00000000
,
00033000
00000000
00000000
00000000
,
00002000
00023000
02030000
23000000
,
30010000
00010000
10000000
10000000
,
00010000
01000000
00100000
10000000
,
01000000
00100000
00010000
01000000
,
00010000
10000000
10010000
00000000
,
20000000
30000000
02000000
03000000
,
00100000
01000000
00100000
00001000
,
00020000
00030000
00002000
00003000
,
00010000
00000010
00010000
00000010
,
00002000
00003000
00000200
00000300
,
00001000
00000001
00001000
00000001
,
00000020
00000030
00000002
00000003
,
00000100
00000010
00001000
00000100
,
00010000
00001000
00010000
00000000
,
00001000
00100000
00001000
00100000
,
00010000
10000000
00010000
00000000
,
10000000
01000000
10000000
00100000
,
01000000
00100000
01000000
00000000
,
00010000
01000000
00010000
00100000
,
00001000
00010000
00001000
00000000
,
00022000
00000000
00000000
00000000
00000000
00000000
00000000
00033000
;

//--------------- dance-double - Fred-104 ----------------
#NOTES:
     dance-double:
     Fred-104:
     Medium:
     7:
     :
00000000
00000000
00000000
00000000
,
00000000
00000000
00000000
00000000
,
00000000
00000000
00000000
00000000
,
00000000
00000000
00000000
00000000
,
00000000
00000000
00000000
00000000
,
00000000
00000000
00000000
00000000
,
10000000
01000000
00010000
00100000
,
10000000
00010000
10000000
01000000
,
00100000
00000000
00001000
00020000
00000000
00031000
00010000
00001000
,
00000000
00011000
00000000
00010000
00001000
00000000
00010000
00000000
,
00001000
00000000
00000010
00000000
00000100
00000000
00000010
00001000
,
00000010
00000100
00000002
00000003
,
00000200
00000000
00000310
00000000
00001000
00000100
00001000
00000000
,
00000010
00000000
00010000
00000000
00001000
00010000
00001000
00000000
,
00022000
00033000
00010000
01000000
,
00100000
10000000
00100000
00000000
10000000
01000000
10000000
00000000
,
00100000
00000000
10000000
00000000
01000000
00100000
01000000
00000000
,
00100000
00010000
00100000
00000000
00001000
00000000
00010000
00000000
,
00022000
00000000
00033000
00000000
00010000
00001000
00010000
00000000
,
00000020
00002030
00003020
00002030
,
00003001
00000000
00001000
00000000
00000001
00000010
00000100
00000000
,
00000020
00000032
00001003
00000100
,
00011000
00000000
00001000
00010000
00001000
00000000
01000000
00010000
,
02000000
00000000
03200000
00000000
20300000
00000000
30010000
10000000
,
00020000
00000000
01030000
00000000
00100000
01000000
00100000
00000000
,
10000000
00000000
01000000
00000000
00100000
00010000
00100000
00000000
,
00001000
00010000
00001000
01000000
,
00001000
00000000
00010000
00000000
00001000
00010000
00001000
00000000
,
00000100
00000001
00001000
00000001
,
00000100
00000000
00000001
00000000
00000010
00000100
00000010
00000000
,
00000001
00000000
00000100
00000001
00000000
00000100
00000010
00000100
,
00000000
00010000
00001000
00000000
00010000
00100000
00010000
00000000
,
01000000
00000000
00100000
10000000
00000000
00010000
10000000
00010000
,
00000000
10000000
01000000
00000000
00100000
00010000
00100000
00000000
,
00001000
00010000
00001000
00100000
,
00001000
00010000
00001000
00000000
00010000
00000100
00010000
00000000
,
00000100
00001000
00000100
00010000
,
00000100
00001000
00000100
00000000
00000010
00000001
00000010
00000000
,
00000001
00000000
00000100
00000010
00000000
00001000
00000100
00001000
,
00000000
00000100
00010000
00001000
00010000
00000000
00001000
00000000
,
00010000
00000000
00001000
00100000
00000000
00010000
10000000
00010000
,
00000000
00100000
01000000
00000000
10000000
00000000
00100000
00000000
,
22000000
00000000
00000000
00000000
,
00000000
00000000
00000000
00000000
,
33000000
00000000
00000000
00000000
,
00200000
02300000
03020000
00032000
,
00013000
00011000
00001000
00010000
,
00000010
00001010
00000100
00001000
,
00000001
00001001
00000010
00010000
,
00001000
00010000
00022000
00033000
,
00001000
00000000
00010000
00001000
00000000
00000100
00001000
00010000
,
00000000
01000000
00010000
00000000
00001000
00010000
00100000
00000000
,
00010000
00000000
00001000
00010000
00000000
01000000
00010000
00001000
,
00000000
00000100
00001000
00000000
00010000
00001000
00000010
00000000
,
00001000
00010000
00100000
10000000
,
00010000
10000000
00010000
00000000
01000000
00100000
01000000
00000000
,
00010000
10000000
01000000
00100000
,
00001000
00000000
00010000
00000000
00001000
00010000
00001000
00000000
,
00010000
00000000
00001000
00000100
00000000
00001000
00010000
01000000
,
00000000
00010000
00001000
00000000
00010000
00100000
00010000
00000000
,
00001000
00000000
00000010
00001000
00000000
00010000
00001000
00000100
,
00000000
00001000
00010000
00000000
01000000
10000000
01000000
00000000
,
00010000
00001000
00010000
00100000
,
00010000
00000000
00001000
00000000
00000010
00000001
00000010
00000000
,
00001000
00000000
00010000
00000000
00001000
00000000
00000100
00000001
,
00000000
00001001
00000000
00000001
00000100
00000010
00001000
00000100
;

//--------------- dance-double - Fred-104 ----------------
#NOTES:
     dance-double:
     Fred-104:
     Hard:
     11:
     :
00000000
00000000
00000000
00000000
,
00000000
00000000
00000000
00000000
,
00000000
00000000
00000000
00000000
,
00000000
00000000
00000000
00000000
,
00000000
00000000
00000000
00000000
,
00000000
00000000
00000000
00000000
,
00000001
00000011
00001001
00001010
,
00000010
00010000
00001000
00010000
,
00001000
00010000
00100000
00020000
00000000
00031000
00010000
02000000
,
00000000
03020000
00000000
00031000
00010000
00001000
00011000
00000000
,
00020010
00000000
00031000
00010000
00000100
00010000
00001000
00010000
,
00000200
00000000
00002300
00000000
00003001
00001000
00000002
00000000
,
00000103
00000000
00000010
00001000
00000100
00010000
00001000
00100000
,
00020000
00000000
20030000
00000000
30010000
00000000
01000000
00100000
,
02000000
00000000
03010000
00100000
10000000
00100000
01000000
00100000
,
00020000
01000000
20000000
30030000
,
02000000
00000000
03100000
00001000
00010000
00001000
01000000
00001000
,
00010000
00001000
00000200
00000000
00000301
00001000
00000001
00000000
,
00000020
00000000
00000031
00000010
00001000
00010000
00001000
00000100
,
00002000
00023000
02030000
03020000
,
00031000
00000000
00000000
00000000
00010000
00000000
00001000
00010000
00001000
00000000
00010000
00000000
00100000
00000000
00010000
00000000
,
00001000
00000010
00002000
00000000
00023000
00000000
00031000
00010000
,
00002000
00000000
00013000
00001000
01000000
00001000
00010000
00001000
,
00200000
00000000
00302000
00000000
00023000
00000000
00031000
00000010
,
00000002
00000000
00000103
00000010
00001000
00000010
00000100
00000001
,
00000010
00001000
00010000
00000000
01000000
10000000
00020000
00000000
,
10030000
01000000
00010000
00002000
00000000
00013000
01000000
00020000
,
00000000
00031000
00010000
00100000
00010000
00001000
00010000
01000000
,
00010000
00001000
00000100
00002000
00000000
00013000
00100000
00020000
,
00000000
00031000
00000010
00001000
00010000
00001000
00000100
00001000
,
00010000
00100000
00010000
00002000
00000000
00013000
01000000
00020000
,
00000000
00031000
00010000
00100000
00010000
00001000
00000100
00001000
,
00010000
00001000
00000010
00002000
00000000
00013000
00100000
00010000
,
00000000
00011000
00000000
00001000
00010000
00000100
00001000
00000001
,
00001000
00000000
00000100
00000000
00000010
00000000
00000001
00000000
00001000
00000000
00000001
00000100
00000001
00000000
00000010
00000000
,
00000001
00000100
00001000
00010000
00100000
10000000
00010000
00000000
,
10000000
00000000
01000000
00000000
00100000
00000000
01000000
00000000
10000000
00000000
00010000
01000000
00010000
00000000
10000000
00000000
,
01000000
00100000
00001000
00010000
00000100
00000010
00000001
00000000
,
00001000
00000000
00000001
00000000
00000010
00000000
00000100
00000000
00000010
00000000
00000001
00001000
00000001
00000000
00000100
00000000
,
00000001
00000010
00001000
00010000
01000000
10000000
00010000
00000000
,
01000000
00000000
00100000
00000000
10000000
00000000
00100000
00000000
01000000
00000000
00010000
00100000
00010000
00000000
01000000
00000000
,
00001000
00000000
00000000
00000000
00000000
00000000
00010000
00000000
00000000
00000000
00000000
00000000
00001000
00000000
00000000
00000000
00000000
00000000
00010000
00000000
00000000
00000000
00001000
00000000
00010000
00000000
00000000
00000000
00000000
00000000
00000100
00000000
00000000
00001000
00000000
00000000
00000100
00000000
00000000
00000000
00000000
00000000
00000010
00000000
00000000
00000000
00000000
00000000
,
00000012
00000000
00000000
00000000
,
00002003
00000000
00000000
00000000
,
00003002
00000000
00000000
00000000
,
00000203
00000320
00002030
00023000
,
00031000
00010000
00002000
00000000
01000000
00000000
00003100
00000000
,
00010000
00001000
00020000
00000000
00000010
00000000
00130000
00000000
,
00001000
00010000
00001000
00100000
00001000
00010000
00001000
00100000
,
00001000
00010000
00000010
00001000
00000100
00000010
00001001
00000000
,
00000001
00000100
00001000
00010000
00001000
00000100
00001000
00010000
,
00100000
00010000
00001000
00000010
00001000
00010000
00001000
00000000
,
00010000
01000000
00010000
00001000
00010000
00100000
00010000
00001000
,
00000010
00001000
00010000
00001000
00000100
00001000
00010000
00000000
,
00001000
00010000
00100000
00010000
00001000
00010000
01000000
00010000
,
00001000
00000100
00001000
00010000
00001000
00000010
00001000
00000000
,
00010000
00001000
00000100
00001000
00010000
00100000
00010000
00001000
,
00010000
01000000
00010000
00001000
00000010
00001000
00010000
00000000
,
00001000
00000000
00010000
00001000
00010000
00000000
00000100
00000000
00001000
00000000
00000010
00000000
00000100
00000000
00000001
00000000
,
00001000
00000100
00000010
00000001
00000100
00001000
00010000
00000000
,
00001000
00000000
00100000
00010000
00100000
00000000
00010000
00000000
10000000
00000000
00100000
00000000
01000000
00000000
00010000
00000000
,
10000000
01000000
00010000
00001000
00010000
00100000
10000000
00000000
,
00010000
00000000
01000000
00100000
01000000
00000000
00010000
00000000
10000000
00000000
01000000
00000000
00100000
00000000
00001000
00000000
,
00010000
00100000
10000000
01000000
00010000
00001000
00010000
00000000
,
00001000
00000000
00000100
00000010
00000100
00000000
00000010
00000000
00000001
00000000
00001000
00000000
00000001
00000000
00000100
00000000
,
00000000
00000110
00000000
00001000
00010000
00001000
00100000
01000000
;
