#TITLE:はおち~♡カンフー娘の鉄拳フルコース!!;
#ARTIST:もえよ!功夫娘々☆Prim;
#TITLETRANSLIT:Haochi~ kung-fu musume no tekken full course!!;
#ARTISTTRANSLIT:Moeyo! Osamu otto musume musume Prim;
#BANNER:Haochi~ kung-fu musume no tekken full course!!.png;
#BACKGROUND:Haochi~ kung-fu musume no tekken full course!!-bg.png;
#CDTITLE:./CDTitles/RB groovin'!! Upper.png;
#MUSIC:Haochi~ kung-fu musume no tekken full course!!.ogg;
#SAMPLESTART:51.593;
#SAMPLELENGTH:15;
#BPMS:0=157;
#BGSTAGE:5;

//--------------- dance-single - Fred-104 ----------------
#NOTES:
     dance-single:
     Fred-104:
     Beginner:
     3:
     :
0000
0000
0000
0000
,
0000
0000
0000
0000
,
0000
0000
0000
0000
,
0000
0000
0000
0000
,
0000
0000
0000
0000
,
1000
0000
0000
0000
,
0001
0000
0010
0000
,
0100
0000
0000
2002
,
0000
0000
0000
3003
,
0000
0000
0000
0000
,
1000
0000
0100
0000
,
0001
0000
0000
0000
,
0001
0000
0100
0000
,
1000
0000
0001
0000
,
1000
0000
0010
0000
,
0001
0000
0000
0000
,
0001
0000
0010
0000
,
1000
0000
0001
0000
,
1000
0000
0100
0000
,
1000
0000
0001
0000
,
0100
0000
0100
0000
,
0010
0000
0100
0000
,
0100
0000
0001
0000
,
1000
0000
0001
0000
,
1000
0000
0001
0000
,
1000
1000
1000
0000
,
0002
0000
0000
0003
,
1000
0000
0001
0000
,
0200
0000
0000
0300
,
0010
0000
0010
0000
,
2000
0000
0000
3000
,
0001
0000
0010
0000
,
0100
0000
0100
0000
,
1001
0000
0000
0000
,
0001
0000
0010
0000
,
0001
0000
0010
0000
,
0100
0000
1000
0000
,
0002
0000
0000
0003
,
1000
0000
0010
0000
,
1000
0000
0010
0000
,
0100
0000
0001
0000
,
1001
0000
0000
0000
,
0001
0000
0001
0000
,
0100
0000
0100
0000
,
1000
0000
1000
0000
,
0010
0000
0010
0000
,
0001
0000
1000
0000
,
0001
0000
1000
0000
,
0010
0000
1000
0000
,
0002
0000
0000
0003
,
2002
0000
3003
0000
,
2000
0000
0000
3000
,
0200
0000
0000
0300
,
0020
0000
0000
0030
,
0002
0000
0000
0003
,
2000
0000
0000
3000
,
0002
0000
0000
0003
,
1000
0000
0001
0000
,
0100
0000
0001
0000
,
0100
0000
0010
0000
,
0100
0000
0000
0000
,
1001
0000
0000
0000
,
0000
0000
0000
0000
,
0002
0003
2000
3000
,
0002
0003
2000
3000
,
0100
0000
0000
0000
,
0010
0000
0001
0000
,
2000
3000
0002
0003
,
1000
0000
1000
0000
,
2002
0000
0000
0000
,
3003
0000
0000
0000
;

//--------------- dance-single - Fred-104 ----------------
#NOTES:
     dance-single:
     Fred-104:
     Easy:
     6:
     :
0000
0000
0000
0000
,
0000
0000
0000
0000
,
0000
0000
0000
0000
,
0000
0000
0000
0000
,
0000
0000
0000
0000
,
0001
0000
0010
0100
,
0010
0001
1000
0000
,
0001
0000
1000
0000
1000
0000
0000
2002
,
0000
0000
0000
3003
,
1000
0100
0110
1001
,
0001
1000
0001
0100
,
0020
0030
0200
0300
,
0001
1000
0001
1000
,
0200
0300
0020
0030
,
0100
1000
0001
0100
,
0020
0030
0200
0300
,
0001
1000
0002
0003
,
1000
0001
0010
0100
,
2000
0000
3002
0000
,
0103
0010
0100
0000
,
0002
0000
2003
0000
,
3100
0010
0001
0000
,
2000
3002
2003
3002
,
1003
0000
0001
0000
,
0100
0100
0010
0000
,
0100
0100
0100
0100
,
0100
0000
0001
0000
,
1000
0000
0001
0010
,
0100
0000
1000
0000
,
0001
0001
1000
0001
,
0001
0000
0100
0000
,
0010
0010
0100
0010
,
0010
0000
0100
0001
,
1000
0001
1001
0000
,
1000
0000
0100
0000
,
0001
0100
1000
0000
,
0001
0100
1000
0000
,
1000
0100
0001
0000
,
1000
0000
0010
0000
,
0001
0010
1000
0000
,
0001
0010
1000
0010
,
0001
0000
0000
2002
0000
0000
3003
0000
,
1000
0000
0100
0000
,
0001
0010
1000
0000
,
0001
1000
0010
0100
,
0002
0000
2003
3100
,
0020
0030
0200
0300
,
1000
0000
0000
0001
0000
0000
0010
0000
,
0001
1000
1000
0001
,
0100
0010
0100
0100
,
2002
0000
3003
0000
,
2000
0000
3200
0000
,
0301
0100
2000
3001
,
2000
0000
3020
0000
,
0031
0010
1000
0001
,
0010
0010
0100
0100
,
1000
0001
1000
0001
,
1001
0000
0001
0000
,
0010
0100
0010
0001
,
1000
0010
0100
0100
,
0002
0003
1000
1000
,
1001
0000
0000
0000
,
0000
0000
0000
0000
,
0100
0100
0010
0010
,
0100
0001
1000
0001
,
1001
0000
0001
0000
,
1000
0100
0010
0100
,
1000
0000
0001
0000
,
1000
0001
0100
0010
,
2002
0000
0000
0000
,
3003
0000
0000
0000
;

//--------------- dance-single - Fred-104 ----------------
#NOTES:
     dance-single:
     Fred-104:
     Medium:
     11:
     :
0000
0000
0000
0000
,
0000
0000
0000
0000
,
0000
0000
0000
0000
,
0000
0000
0000
0000
,
0000
0000
0000
0000
,
0001
0100
1000
0100
0001
1000
0001
0000
,
1000
0100
0010
0001
1000
0010
0100
0000
,
0001
0100
1000
0100
0001
0000
1000
2002
,
0000
0000
0000
3003
,
1100
0101
1010
0011
,
1000
0001
0100
0010
1000
0001
0010
0200
,
0000
1300
0001
0200
0000
0310
1000
0001
,
0010
0100
0010
0001
1000
0010
0100
0020
,
0000
1030
0010
0002
0000
0013
0100
0001
,
1000
0001
0010
0100
1000
0001
0100
2000
,
0000
3100
0010
0200
0000
0301
1000
0100
,
0010
0100
0010
1000
0020
0000
0031
2000
,
0000
3001
0010
0100
1000
0001
0100
0010
,
0100
0001
1000
0100
1000
0001
0100
0010
,
1000
0000
0000
0100
0000
0010
0000
0000
0001
0000
0000
0100
0000
0010
0000
0200
,
0000
0000
0301
0000
1000
0000
0001
0000
0010
0000
0100
0000
2000
0000
0000
3001
,
0100
0000
0010
0000
0100
0000
0001
0000
1000
0000
0001
0000
1000
0001
1000
0000
,
0100
0010
0002
0000
0103
0010
2000
0000
,
3001
0000
1000
0000
0001
0000
0100
0000
0010
0000
1000
0001
1000
0000
0100
0000
,
0010
0001
0000
0010
0001
0000
1000
0000
0001
0000
0100
0000
0010
0000
0000
0000
,
1010
0101
1100
0011
,
1000
0100
1000
0001
0100
0010
1000
0001
,
0010
0100
0010
0200
0000
1300
0010
0100
,
0001
0100
0010
1000
0001
0010
0100
0010
,
0100
1000
0010
2000
0000
3100
0010
0001
,
1000
0001
0100
0001
0100
1000
0100
0010
,
0100
0002
0000
1003
0100
0010
0001
2000
,
0000
3001
0200
0000
0310
0100
0001
1000
,
0100
0000
0000
0010
0000
0000
0001
0000
0011
0000
0000
0000
0001
0000
1000
0000
,
0001
0100
0000
0100
0010
0100
0000
0101
,
0000
0001
1000
0100
0001
0100
1000
0001
,
0100
0010
2000
0000
3100
0010
0002
0000
,
1003
0001
0200
0000
0010
0000
0310
0000
,
1000
0002
0000
0013
0100
0020
0000
0031
,
0100
0010
1000
0010
0100
0001
1000
0000
,
1100
0000
0011
0000
1000
0010
0001
0010
,
1000
1000
0001
2002
0000
0000
3003
0000
,
0001
0020
0000
1030
0010
0002
0003
1001
,
0000
1000
0010
1000
0001
0010
0100
1000
,
0001
0100
0010
1000
0010
0100
0001
1000
,
0100
0010
0002
0000
0100
0000
0103
0000
,
0010
1000
0002
0000
0013
0001
2000
0000
,
3001
0010
0000
0110
0000
0100
1000
0002
,
0000
0103
0010
1000
0001
0010
0100
1000
,
0010
0000
0100
0000
0001
0010
0100
0000
,
2200
0000
3300
0000
,
1000
0001
0000
0100
0000
0001
0000
0010
,
0000
0110
0000
1100
0000
0110
0000
1001
,
0000
0001
0000
0010
0000
0100
0000
1000
,
0000
1010
0000
0101
0000
1100
0000
0001
,
1000
0001
0100
0010
1000
0010
0100
0001
,
1000
0100
0100
0010
0001
1000
1001
0000
,
1000
0200
0000
0301
0100
2000
3000
1001
,
0000
0001
0100
0010
1000
0001
0010
0100
,
1000
0010
0200
0000
0301
0010
0200
0000
,
1300
0001
0100
0001
1000
0100
0010
0000
,
0011
0000
0000
0000
0000
0000
0000
0000
0000
0000
0000
0101
0000
0000
1010
0000
,
0000
1100
0000
0000
0000
0000
1001
0000
0000
0000
1000
0000
0001
0000
1000
0000
,
1010
0101
1100
0011
,
1000
1000
0001
0100
0010
0100
0110
0000
,
0001
0100
0000
0010
0000
1000
0000
0100
,
0000
1100
0000
0101
0000
1010
0000
0001
,
1000
0100
0001
0000
1000
0010
0002
0000
,
2003
0000
3020
0000
0031
0010
2000
3000
,
2002
0000
0000
0000
,
3003
0000
0000
0000
;

//--------------- dance-single - Fred-104 ----------------
#NOTES:
     dance-single:
     Fred-104:
     Hard:
     15:
     :
0000
0000
0000
0000
,
0000
0000
0000
0000
,
0000
0000
0000
0000
,
0000
0000
0000
0000
,
0000
0000
0000
0000
,
1000
0010
0100
0010
0100
0000
0002
0000
0010
0000
0203
0000
0010
0000
0301
0000
,
1000
0100
1000
0100
0010
0000
0001
0000
1000
0000
0001
0100
0010
0000
1000
0000
,
0001
0010
0100
0010
0001
0000
1000
0000
0010
0100
0001
0100
0010
0000
2002
0000
,
0000
0000
0000
3003
,
1100
0000
0000
0000
0011
0000
0000
0000
0001
1000
0010
0100
0001
1000
0010
0100
,
0001
0000
1000
0001
0010
0000
0100
0000
1000
0000
0010
0000
0100
0000
2000
0000
,
0000
0000
3100
0000
0001
0000
2000
0000
0000
0000
3001
0010
0100
1000
0001
0100
,
0001
0000
0100
0010
0100
0000
0001
0000
1000
0000
0100
0000
0010
0000
2000
0000
,
0000
0000
3010
0000
0001
0000
0020
0000
0000
0000
0130
1000
0001
0000
1000
0000
,
0001
0100
1000
0001
0010
0100
0010
2000
,
0000
0000
3001
0000
0010
0000
0200
0000
0000
0000
1300
0000
0010
1000
0001
1000
,
0100
0010
0001
1000
0020
0000
0031
0020
,
0000
0000
0130
0000
0010
0000
1000
0000
0001
0010
0100
1000
0001
1000
0100
0010
,
0001
0000
1000
0010
0100
0000
0001
0000
1000
0000
0001
1000
0100
0000
1000
0001
,
0100
0001
1000
0100
0000
0010
0001
1000
0010
0100
0001
1000
0000
0100
0000
0120
,
0000
0000
0031
1000
0001
0100
0000
0010
1000
0000
0001
0010
0100
1000
0000
0001
,
0100
0010
0100
0010
1000
0010
1000
0010
0100
0000
0001
1000
0001
0100
0001
0100
,
0001
0001
1000
1000
0010
0010
0100
0100
,
0001
0000
0100
0001
1000
0000
0001
0010
0100
0000
1000
0001
1000
0010
0100
0001
,
1000
0100
0000
0100
0010
0000
0001
1000
0010
0100
0001
0010
0100
1000
0001
0000
,
1100
0000
0000
0000
0101
0000
0000
0000
1000
0010
1000
0010
0100
0000
0001
0000
,
1000
0000
0001
0010
0100
0000
1000
0000
0001
0000
0100
0000
0010
0000
0100
0000
,
1000
0000
0100
0000
0001
0000
2000
0000
0000
0000
3100
0000
0010
0001
0010
0001
,
0010
0100
1000
0001
0100
1000
0001
0010
,
0200
0000
0000
0000
0301
0000
0010
0000
0100
0000
1000
0001
0100
0000
0001
1000
,
0100
0010
0001
1000
0001
0100
1000
0001
,
0010
0200
0000
0301
1000
0100
0001
2000
,
0000
0000
3010
0000
0001
0000
1000
0010
1000
0000
0001
1000
0001
1000
0100
0010
,
0001
0000
0000
0100
0000
0000
0010
0000
0110
0000
0000
0000
1000
0001
1000
0001
,
1000
0200
0000
0301
0100
2000
3000
1001
,
0000
0000
0001
0010
0100
0000
1000
0000
0001
0100
0001
0100
0010
0000
1000
0000
,
0001
0000
0010
0100
1000
0000
0001
0000
1000
0000
0010
0100
0001
0000
1000
0000
,
0001
0000
0010
0100
1000
0000
0001
0000
0100
0000
0010
1000
0001
0000
0010
0001
,
1000
0000
0020
0000
0000
0000
0031
0010
0100
0000
0020
0000
0000
0000
1030
0000
,
0001
0010
0100
0010
0100
0000
1000
0000
0001
0000
0100
0000
0010
1000
0010
1000
,
0001
0000
0000
0000
0110
0000
0000
0000
1000
0010
0100
0000
0001
0000
1000
0000
,
0100
0000
0010
0000
0100
0000
0110
0000
0000
0000
0010
0000
0001
1000
0001
1000
,
0001
0000
0100
0000
0010
0000
1000
0001
0010
0000
0100
0000
1000
0000
1001
0000
,
0000
0000
0001
1000
0010
0000
0100
0000
0001
1000
0100
1000
0001
0000
0010
0000
,
0100
1000
0100
0001
0100
0010
0001
1000
,
0010
0100
0010
0000
1000
0000
0001
0000
0010
0000
0100
1000
0001
0000
0100
0001
,
1000
0010
0100
1000
0001
0010
0100
0001
,
1000
0100
0001
2000
0000
3010
0001
2000
,
0000
0000
3001
0000
0100
0000
0010
0000
1000
0000
0100
0000
0010
0001
0010
0001
,
0010
0000
0001
1000
0010
0100
0001
0000
1000
0100
1000
0100
0010
0001
0010
0002
,
2000
0000
0000
0000
0000
0000
3003
0000
0002
2003
3002
2003
3002
0000
0203
0320
,
1030
0001
0010
0100
0001
1000
0010
0100
,
1000
0001
0100
1000
0001
0010
0100
0010
,
1000
0100
0010
1000
0001
0100
1000
0001
,
0010
0000
0100
1000
0100
0000
1000
0000
0001
0000
0100
0000
1000
0000
0100
0000
,
0001
0000
1000
0100
0010
0000
0100
0010
0001
0000
0010
0001
1000
0000
0001
0000
,
0100
0000
0010
1000
0010
1000
0010
0000
1000
0001
1000
0001
0010
0100
0010
0100
,
1000
0200
0000
0301
0100
0020
0030
0011
,
0000
0000
0001
1000
0010
0000
0100
0000
0010
1000
0100
0010
0001
0000
1000
0000
,
0001
0000
0010
0000
0100
0000
1000
0000
0001
0100
0010
0000
1000
0100
0010
0000
,
0100
1000
0001
0000
0100
0001
1000
0000
0001
0000
0010
0100
1000
0000
0001
0000
,
1001
0000
0000
0000
0000
0000
0000
0000
0000
0000
0000
1010
0000
0000
0101
0000
,
0000
1100
0000
0000
0000
0000
0101
0000
0000
0000
0001
1000
0001
1000
0001
0000
,
0011
0000
0000
0000
1100
0000
0000
0000
0001
0100
0001
0100
0010
0000
1000
0000
,
0001
0000
0010
0100
0010
0100
1000
0000
0001
0100
0001
0100
0010
1000
0001
0000
,
1000
0000
0000
0000
0000
0000
0000
0000
0100
0000
0000
0000
0000
0000
0000
0000
0010
0000
0000
0000
0000
0000
0000
0000
0001
0000
0000
0000
0000
0000
0000
0000
1000
0000
0000
0000
0000
0000
0000
0000
0001
0000
0000
0000
0000
0000
0000
0000
0200
0300
0000
0000
0000
0000
0000
0000
0200
0300
0000
0000
0000
0000
0000
0000
,
1000
0000
0001
0100
0010
1000
0001
0000
0010
0000
0100
1000
0100
1000
0100
0010
,
0100
1000
0001
0100
0010
1000
1001
0000
,
1000
0100
1000
0100
0010
0001
0010
0001
1000
0010
0100
0001
1000
0001
0010
0100
,
2000
0000
0000
0000
,
3000
0000
0000
0000
;

//--------------- dance-double - Fred-104 ----------------
#NOTES:
     dance-double:
     Fred-104:
     Easy:
     8:
     :
00000000
00000000
00000000
00000000
,
00000000
00000000
00000000
00000000
,
00000000
00000000
00000000
00000000
,
00000000
00000000
00000000
00000000
,
00000000
00000000
00000000
00000000
,
00010000
10000000
00010000
00000000
01000000
00000000
00100000
00000000
,
10000000
00010000
10000000
00000000
01000000
00000000
00100000
00000000
,
00001000
00010000
00001000
00000000
00010000
00000000
00000000
00022000
,
00000000
00000000
00000000
00033000
,
00001000
00010000
00010010
00011000
,
00010000
00001000
00010000
00000100
,
00000010
00000000
00000001
00000000
00001000
00000001
00001000
00000000
,
00000010
00000100
00001000
00010000
,
00100000
00000000
01000000
00000000
00010000
10000000
00010000
00000000
,
00100000
01000000
00100000
00010000
,
01000000
00000000
00001000
00000000
00010000
00001000
00010000
00000000
,
00001000
00010000
00000010
00010000
,
00002000
00000000
00000000
00000000
00013000
00001000
00010000
00001000
,
00010000
00001000
00000010
00000100
,
00001000
00000000
00000001
00000000
00000100
00000010
00000100
00000000
,
00000001
00001000
00000100
00010000
,
00001000
00000000
00001000
00000000
00010000
00001000
00010000
00000000
,
00001000
00010000
00100000
10000000
,
01000000
00000000
00100000
00000000
00001000
00010000
00001000
00000000
,
00010000
00100000
01000000
00010000
,
00110000
00000000
11000000
00000000
00010000
10000000
00010000
00000000
,
20000000
00000000
32000000
00000000
,
03100000
00000000
00000000
00001000
00000000
00000000
00010000
00000000
,
00001000
00010000
00000010
00010000
,
00000010
00000000
00000000
00001000
00000000
00000000
00000001
00000000
,
00000020
00000000
00000230
00000000
,
00020300
00000000
00031000
00010000
,
00001000
00010000
00000010
00001000
,
00000001
00000010
00001001
00000000
,
00000002
00000000
00000203
00000000
,
00001300
00010000
01000000
10000000
,
00010000
01000000
00100000
00010000
,
00002000
00000000
00000000
00000000
00013000
00001000
00010000
00000000
,
00002000
00000000
00023000
00000000
,
00030010
00001000
00000001
00000010
,
00000110
00001100
00010100
00011000
,
00001000
00000000
00000000
00022000
00000000
00000000
00033000
00000000
,
00002000
00000000
00023000
00000000
,
01030000
00100000
00010000
10000000
,
00100000
00010000
00001000
00010000
,
00200000
00000000
01300000
00010000
,
20000000
00000000
32000000
00000000
,
03100000
00010000
00100000
00001000
,
00010000
00000010
00010000
00001000
,
00100000
00000000
00010000
00000000
01000000
00100000
01000000
00000000
,
20020000
00000000
30030000
00000000
,
10000000
01000000
00010000
00001000
,
00010000
00001000
00000100
00000001
,
00001000
00000001
00000010
00001000
,
00010000
00100000
01000000
00010000
,
10000000
01000000
00100000
00001000
,
00010000
00000000
00001000
00000000
00010000
00001000
00010000
00000000
,
00011000
00000000
00010000
00000000
,
00000010
00010000
00001000
00100000
,
00010000
01000000
00001000
00010000
,
00000100
00000000
00001000
00000000
00000100
00000010
00000100
00000000
,
00001001
00000000
00000000
00000000
,
00000000
00000000
00000000
00000000
,
00000001
00000100
00001000
00010000
,
00100000
00000000
01000000
00000000
00010000
10000000
00010000
00000000
,
10010000
00000000
10000000
00000000
01000000
00100000
01000000
00000000
,
00100000
00000000
00001000
00000000
00010000
00000010
00010000
00000000
,
00001000
00000000
00000010
00000000
00000001
00000010
00000001
00000000
,
00000010
00000000
00000100
00000000
00010000
00001000
00010000
00000000
,
00022000
00000000
00000000
00000000
,
00033000
00000000
00000000
00000000
;

//--------------- dance-double - Fred-104 ----------------
#NOTES:
     dance-double:
     Fred-104:
     Medium:
     12:
     :
00000000
00000000
00000000
00000000
,
00000000
00000000
00000000
00000000
,
00000000
00000000
00000000
00000000
,
00000000
00000000
00000000
00000000
,
00000000
00000000
00000000
00000000
,
00010000
00001000
00000010
00000100
00001000
00000001
00000100
00001000
,
00010000
00100000
01000000
00010000
00001000
00000010
00000100
00000001
,
00001000
00000100
00000010
00000001
00000100
00001000
00010000
00022000
,
00000000
00000000
00000000
00033000
,
00101000
00010010
01001000
00010100
,
00001000
00010000
01000000
00100000
00010000
10000000
00100000
00020000
,
00000000
00031000
00010000
00000200
00000000
00000310
00000001
00001000
,
00000010
00000100
00001000
00010000
00100000
10000000
00010000
00200000
,
00000000
01300000
00100000
00002000
00000000
00013000
00100000
01000000
,
00010000
00100000
01000000
00100000
00010000
10000000
00100000
00020000
,
00000000
00031000
00000010
00000002
00000000
00000013
00000100
00001000
,
00000001
00000100
00001000
00010000
00002000
00000000
00013000
02000000
,
00000000
03100000
00010000
10000000
01000000
00100000
00001000
00010000
,
00001000
00000100
00000010
00001000
00000001
00000010
00000100
00000010
,
00000001
00000000
00000000
00000100
00000000
00001000
00000000
00000000
00010000
00000000
00000000
00001000
00000000
00010000
00000000
01000000
,
00000000
00000000
10000000
00000000
00010000
00000000
00100000
00000000
01000000
00000000
00100000
00000000
00001000
00000000
00000000
00000010
,
00000100
00000000
00001000
00000000
00000001
00000000
00000100
00000000
00000010
00000000
00000100
00000000
00001000
00010000
00001000
00000000
,
00010000
00100000
01000000
00010000
10000000
01000000
00100000
00010000
,
00100000
00000000
00001000
00000000
00010000
00000000
00001000
00000000
00000010
00000000
00000001
00001000
00000001
00000000
00000100
00000000
,
00000010
00001000
00000000
00000010
00001000
00000000
00000001
00000000
00000010
00000000
00000100
00000000
00010000
00000000
00001000
00000000
,
00011000
00010010
01001000
00011000
,
00001000
00010000
00100000
01000000
00100000
00010000
00001000
01000000
,
00001000
00010000
00001000
00000020
00000000
00000031
00000010
00000100
,
00010000
00001000
00000010
00000100
00000010
00001000
00010000
00001000
,
02000000
00000000
03010000
10000000
01000000
00100000
00002000
00000000
,
00013000
00001000
00000100
00000001
00000100
00000010
00001000
00000001
,
00000010
00000200
00000000
00010300
00001000
00000100
00000001
00002000
,
00000000
00000000
00003001
00000000
00000010
00000000
00000100
00000000
00010000
00000000
00001000
00000000
00010000
00001000
00010000
00000000
,
00001000
00000000
00000000
01000000
00000000
00000000
00010000
00000000
10010000
00000000
00000000
00000000
10000000
00000000
01000000
00000000
,
10000000
00200000
00000000
00310000
00001000
00000200
00000000
00000320
,
00000000
00001030
00000001
00000010
00000100
00010000
00001000
00010000
,
00000010
00001000
00000010
00010000
00001000
00100000
00010000
00100000
,
01000000
20000000
00100000
00000000
01000000
00000000
30100000
00000000
,
10000000
02000000
00000000
03010000
00001000
00000200
00000000
00000301
,
00001000
00000100
00000010
00000001
00000010
00000100
00010000
00001000
,
00011000
00000000
00010010
00000000
00010000
00001000
00000010
00001000
,
00010000
00010000
00001000
00022000
00000000
00000000
00033000
00000000
,
00001000
00010000
00000000
01000000
00100000
00010000
00000000
10010000
,
00000000
10000000
01000000
00010000
01000000
10000000
01000000
00100000
,
00001000
00010000
00000010
00001000
00000010
00000100
00000001
00001000
,
00000100
00000020
00000001
00000000
00000100
00000000
00000031
00000000
,
00001000
00000010
00000100
00001000
00010000
00100000
01000000
00010000
,
00100000
01000000
00000000
11000000
00000000
10000000
01000000
00020000
,
00000000
00031000
00010000
01000000
10000000
00010000
01000000
00001000
,
00010000
00000000
00001000
00000000
00000010
00000001
00000010
00000000
,
00002002
00000000
00003003
00000000
,
00000001
00000010
00000000
00000100
00000000
00010000
00000000
00001000
,
00000000
00010010
00000000
00101000
00000000
10010000
00000000
11000000
,
00000000
00100000
00000000
00001000
00000000
00010000
00000000
00000010
,
00000000
00011000
00000000
00010010
00000000
00000101
00000000
00001000
,
00000100
00000010
00000001
00001000
00000010
00000001
00000010
00001000
,
00000001
00000100
00001000
00010000
01000000
10000000
10010000
00000000
,
00010000
00200000
00000000
10300000
00100000
00020000
00030000
10010000
,
00000000
10000000
00100000
01000000
00100000
00010000
00001000
00000100
,
00000010
00001000
00000010
00000100
00000001
00001000
00000100
00000010
,
00000001
00000100
00001000
00010000
00100000
10000000
00010000
00000000
,
10010000
00000000
00000000
00000000
00000000
00000000
00000000
00000000
00000000
00000000
00000000
11000000
00000000
00000000
01100000
00000000
,
00000000
00101000
00000000
00000000
00000000
00000000
00011000
00000000
00000000
00000000
00010000
00000000
00001000
00000000
00010000
00000000
,
00011000
00001100
00000101
00000110
,
00001000
00000001
00000010
00000100
00010000
00001000
00011000
00000000
,
00001000
00010000
00000000
00100000
00000000
10000000
00000000
00010000
,
00000000
11000000
00000000
01010000
00000000
10100000
00000000
00010000
,
10000000
00100000
00010000
00001000
00000100
00000001
00000010
00000000
,
00000101
00000000
00001100
00000000
00000001
00000100
00001000
00010000
,
00002000
00000000
00000000
00000000
,
00003000
00000000
00000000
00000000
;

//--------------- dance-double - Fred-104 ----------------
#NOTES:
     dance-double:
     Fred-104:
     Hard:
     15:
     :
00000000
00000000
00000000
00000000
,
00000000
00000000
00000000
00000000
,
00000000
00000000
00000000
00000000
,
00000000
00000000
00000000
00000000
,
00000000
00000000
00000000
00000000
,
00001000
00010000
00001000
00010000
00001000
00000000
00010000
00000000
00100000
00000000
10000000
00000000
00010000
10000000
00010000
00000000
,
00100000
01000000
00100000
01000000
10000000
00000000
00010000
00000000
01000000
00000000
00100000
00010000
00001000
00000000
00000100
00000000
,
00000010
00000100
00000001
00000100
00000001
00000000
00001000
00000000
00000100
00000010
00000001
00000010
00000001
00000000
00002002
00000000
,
00000000
00000000
00000000
00003003
,
00000001
00000000
00000100
00000000
00001000
00000000
00000000
00000000
00010000
00001000
00010000
00000000
00100000
01000000
00020000
00000000
,
10030000
00000000
00010000
10000000
00010000
00000000
00100000
00000000
01000000
00000000
00010000
00000000
00001000
00000000
00000020
00000000
,
00000000
00000000
00000130
00000000
00001000
00000000
00000002
00000000
00000000
00000000
00000103
00000010
00000100
00000010
00001000
00000010
,
00001000
00000000
00000001
00000100
00000001
00000000
00000010
00000000
00000100
00000000
00010000
00000000
00001000
00000000
00000200
00000000
,
00000000
00000000
00000310
00000000
00001000
00000000
00000002
00000000
00000000
00000000
00000013
00000100
00000010
00000000
00000001
00000000
,
00001000
00000100
00000010
00001000
00010000
01000000
10000000
02000000
,
00000000
00000000
03100000
00000000
00001000
00000000
00020000
00000000
00000000
00000000
00031000
00000000
00000010
00000001
00000010
00000001
,
00000010
00000100
00001000
00000001
00000200
00000000
00001300
00020000
,
00000000
00000000
00130000
00000000
01000000
00000000
00010000
00000000
10000000
00000000
01000000
00100000
00010000
00000000
00100000
00000000
,
00001000
00000000
00010000
00000000
00100000
00000000
01000000
00000000
00010000
00000000
00100000
01000000
00100000
00000000
00001000
00010000
,
00000100
00001000
00000100
00001000
00000000
00000010
00001000
00000010
00001000
00000100
00010000
00000100
00000000
00010000
00000000
00002000
,
00000000
00000000
01003000
00010000
01000000
00001000
00000000
00010000
00001000
00000000
00100000
00010000
00100000
00001000
00000000
00010000
,
00000010
00001000
00000010
00001000
00000010
00010000
00000010
00010000
00001000
00000000
00100000
00010000
01000000
00000000
00001000
00000000
,
00020000
00001000
00030020
00001000
00020030
00001000
00030200
00001000
,
00010300
00000000
00001000
00010000
00000100
00000000
00001000
00000010
00010000
00000000
00001000
00100000
00010000
00000000
01000000
00001000
,
00010000
00000100
00000000
00001000
00000100
00000000
00010000
00001000
01000000
00010000
01000000
00001000
00010000
00001000
00010000
00000000
,
00010010
00000000
00000000
00000000
00101000
00000000
00000000
00000000
00010000
00001000
00010000
00001000
00010000
00000000
00000010
00000000
,
00001000
00000000
00000001
00000010
00000100
00000000
00010000
00000000
00001000
00000000
00010000
00000000
00100000
00000000
01000000
00000000
,
00010000
00000000
10000000
00000000
01000000
00000000
00200000
00000000
00000000
00000000
00301000
00000000
00010000
00000010
00001000
00000000
,
00000010
00000100
00000001
00001000
00000100
00010000
00001000
00010000
,
00100000
00000000
01000000
00000000
00010000
00000000
00200000
00000000
00000000
00000000
01300000
10000000
00100000
00000000
01000000
00000000
,
00001000
00000000
00010000
00000100
00010000
00000000
00001000
00000000
00010000
00000000
00000100
00000000
00000010
00000000
00000001
00000000
,
00001000
00000020
00000000
00000130
00001000
00010000
00100000
20000000
,
00000000
00000000
30010000
00000000
00100000
00000000
01000000
00100000
00001000
00000000
00010000
00001000
00010000
00000010
00001000
00000001
,
00000100
00000000
00000000
00000010
00000000
00000000
00010000
00000000
00011000
00000000
00000000
00000000
00010000
00001000
00010000
00001000
,
00010000
00002000
00000000
00003010
00000001
00002000
00003000
00001001
,
00000000
00000000
00000001
00000100
00000001
00000000
00000100
00000000
00001000
00010000
00001000
00010000
00001000
00000000
00010000
00000000
,
01000000
00100000
00010000
00001000
00000100
00000010
00000001
00001000
,
00000010
00000000
00010000
00001000
00010000
00000000
01000000
00000000
10000000
00000000
00010000
01000000
00100000
00000000
10000000
01000000
,
00100000
00002000
00000000
00013000
00100000
02000000
00000000
03010000
,
10000000
01000000
10000000
01000000
00100000
00000000
00001000
00000000
00010000
00000000
00001000
00000100
00000010
00000100
00000010
00000000
,
00001010
00000000
00000000
00000000
00001001
00000000
00000000
00000000
00000001
00000010
00000100
00000000
00001000
00000000
00000100
00000000
,
00010000
00000000
00010000
00000000
00001000
00000000
00011000
00000000
00000000
00000000
00001000
00000000
01000000
00010000
01000000
00010000
,
01000000
00200000
00000000
10300000
00100000
00010000
00001000
00011000
,
00000000
00000000
00010000
00001000
00010000
00000000
00001000
00000000
00000010
00000001
00000010
00000001
00000010
00000000
00000100
00000000
,
00001000
00000010
00000100
00001000
00010000
00100000
01000000
00010000
,
00100000
01000000
00100000
00000000
00010000
00000000
01000000
00000000
00001000
00000000
00010000
00000100
00001000
00000000
00000001
00000000
,
00000100
00000010
00000001
00000010
00001000
00000001
00000100
00001000
,
00010000
01000000
10000000
02000000
00000000
03100000
00001000
00020000
,
00000000
00000000
00031000
00000000
01000000
00000000
00001000
00000000
00010000
00000000
00000100
00000000
00001000
00000100
00001000
00000100
,
00000010
00000000
00000001
00001000
00000010
00001000
00000001
00000000
00001000
00000100
00001000
00000100
00010000
00001000
00010000
00002000
,
00020000
00000000
00000000
00000000
00000000
00000000
00033000
00000000
00002000
00023000
00032000
00023000
00032000
00000000
02003000
03002000
,
01003000
00100000
00010000
00001000
00000100
00000010
00001000
00000100
,
00000010
00000001
00000010
00000100
00010000
01000000
00100000
00001000
,
00010000
00100000
10000000
00010000
00100000
01000000
00100000
00001000
,
00000010
00000100
00001000
00000001
00000100
00001000
00010000
00100000
,
01000000
00010000
10000000
00100000
00001000
00000010
00000100
00000001
,
00001000
00000000
00000100
00000010
00000001
00001000
00000010
00000000
00010000
00001000
00010000
00001000
00100000
00010000
00100000
00010000
,
00100000
02000000
00000000
13000000
01000000
00010000
00001000
00011000
,
00000000
00000000
00010000
00000100
00001000
00000000
00000100
00000000
00000010
00000001
00000010
00000001
00001000
00000000
00000010
00000000
,
00010000
00001000
00000100
00000010
00001000
00000001
00000100
00001000
,
00010000
00001000
00010000
00000000
00100000
01000000
00010000
00000000
10000000
00000000
01000000
00100000
00001000
00000000
00010000
00000000
,
00011000
00000000
00000000
00000000
00000000
00000000
00000000
00000000
00000000
00000000
00000000
00010100
00000000
00000000
01001000
00000000
,
00000000
00010010
00000000
00000000
00000000
00000000
00101000
00000000
00000000
00000000
00001000
00010000
00001000
00010000
00001000
00000000
,
00011000
00000000
00000000
00000000
01100000
00000000
00000000
00000000
10000000
00010000
10000000
00010000
00100000
00000000
00001000
00000000
,
00010000
00000000
00000100
00001000
00000100
00001000
00000100
00000000
00000010
00000001
00001000
00000001
00000100
00000010
00001000
00000000
,
00000001
00000000
00000000
00000000
00000000
00000000
00000000
00000000
00000100
00000000
00000000
00000000
00000000
00000000
00000000
00000000
00001000
00000000
00000000
00000000
00000000
00000000
00000000
00000000
00010000
00000000
00000000
00000000
00000000
00000000
00000000
00000000
00100000
00000000
00000000
00000000
00000000
00000000
00000000
00000000
10000000
00000000
00000000
00000000
00000000
00000000
00000000
00000000
02000000
03000000
00000000
00000000
00000000
00000000
00000000
00000000
02000000
03000000
00000000
00000000
00000000
00000000
00000000
00000000
,
00010000
00000000
10000000
01000000
00100000
00010000
00100000
00000000
00001000
00000000
00010000
00000010
00001000
00000001
00000010
00000100
,
00001000
00000001
00000100
00001000
00010000
00100000
01000000
00000000
,
10010000
00000000
00000000
00000000
00011000
00000000
00000000
00000000
00010000
00001000
00100000
00010000
10000000
00100000
01000000
00000000
,
02020000
00000000
00000000
00000000
,
03030000
00000000
00000000
00000000
;
