#TITLE:華爛漫 -Flowers-(Fred-Special);
#ARTIST:TЁЯRA;
#TITLETRANSLIT:Flowers(Fred-Special);
#ARTISTTRANSLIT:TERRA;
#BANNER:Hana Ranman -Flowers-(Fred-Special).png;
#BACKGROUND:Hana Ranman -Flowers-(Fred-Special)-bg.png;
#CDTITLE:./CDTitles/DS SuperNOVA.png;
#MUSIC:Hana Ranman -Flowers-(Fred-Special).ogg;
#SAMPLESTART:88.497;
#SAMPLELENGTH:15;
#BPMS:0=159.7,4=160,168=140,168.25=120,168.5=100,168.75=80,169=86.957,169.25=100,169.5=120,169.75=140,170=160;
#TIMESIGNATURES:0=4=4,168=3=4,171=4=4;
#STAGE:29;

//--------------- dance-single - Fred-104-CSP ----------------
#NOTES:
     dance-single:
     Fred-104:
     Challenge:
     14:
     :
0000
0000
0000
0000
,
0000
0000
0000
0000
,
0000
0000
0000
0000
,
0000
0000
0000
0000
,
0000
0000
0000
0000
,
0000
0000
0000
0000
,
1000
0000
0100
1000
0100
0000
0010
0000
0001
0000
1000
0001
1000
0000
0001
0000
,
0011
0001
0101
0000
1010
1000
1100
0000
,
0001
0000
0100
0010
0100
0000
0001
0000
1000
0000
0100
0010
0100
0000
0010
0000
,
0011
0000
0001
0000
1001
0000
1000
0000
0010
0000
1000
0100
1000
0000
1000
0001
,
1000
0000
1000
0100
0001
0000
1000
0010
,
0000
0000
0010
0000
0001
0000
1000
0000
0001
0000
0100
0010
0100
0000
0001
0000
,
1001
0000
0001
0100
1000
0000
0001
0010
,
0000
0000
0010
0000
1000
0000
0001
0000
1000
0100
1000
0100
0010
0001
0010
0001
,
1000
0000
1000
0100
0010
0000
1000
0010
,
0000
0000
0100
0000
1000
0000
0001
0000
0100
0001
0100
0001
0010
0001
0010
0100
,
1000
0000
0001
0100
0010
0000
0100
0001
,
0000
0000
1000
0000
0001
0000
0100
0000
0001
1000
0001
1000
0010
0100
0001
0100
,
0002
0023
2030
3002
,
0203
0000
0000
0000
1300
0000
0100
0000
0001
0100
0000
0100
0020
0000
0000
0000
,
2030
3200
0302
0203
,
2300
0000
0000
0000
3010
0000
0100
0000
0001
0100
0000
0001
0100
0010
1000
0010
,
2000
3200
0320
2030
,
3020
0000
0031
1001
0000
0100
0010
1000
,
2200
0000
3300
0202
0000
0303
2002
3003
,
0220
0330
2000
3020
,
0032
0000
1003
0010
0002
0000
1003
0100
,
0001
0000
0000
0100
1000
0000
0010
0000
0200
0000
0000
0000
0301
0000
0100
0000
,
2000
0000
3001
0010
2000
0000
3001
0100
,
1000
0000
0000
0100
0001
0000
0010
0000
0200
0000
0000
0000
1300
0000
0010
0000
,
0002
0000
1003
0100
0002
0000
1003
0010
,
0001
0000
0000
0010
1000
0000
0001
0000
0200
0000
0000
0000
1300
0000
0100
0000
,
0002
0000
1003
0010
0002
0000
1003
0100
,
0001
0000
0000
0100
1000
0000
0010
0000
0110
0000
0000
0000
1001
0000
0000
0000
,
2100
0000
0000
0000
0000
0000
0000
0000
3020
0000
0000
0000
0000
0000
0000
0130
,
0001
0000
0000
0000
1000
0000
0000
0000
1002
0000
0000
0000
0000
0000
0000
1003
,
0002
0000
0203
0310
,
1010
0000
0000
0000
0101
0000
0000
0000
1000
0000
0001
0100
0010
0000
1000
0100
,
0010
0000
0000
0001
0010
0000
0100
0000
1000
0000
0000
0001
0100
0000
0010
0000
,
1000
0000
0001
1000
0100
0000
1000
0000
1010
0000
0000
0000
0110
0000
0100
0000
,
0001
0000
0000
0010
0100
0000
1000
0000
0001
0000
0000
1000
0010
0000
0100
0000
,
0011
0001
0101
0001
1010
1000
1100
0000
,
2002
0000
0000
0000
0000
0000
0000
0000
0000
0000
0000
0000
0000
0000
0000
3003
1000
0000
0000
0000
0100
0000
0000
0000
0010
0000
0000
0000
0000
0000
0000
0000
,
1000
0000
0100
0000
0010
0000
0000
0000
1000
0000
0100
0000
0010
0000
0000
0001
,
0100
0010
0100
0000
0001
0100
0010
0000
,
0001
0000
0100
0000
0010
0000
0000
0000
0001
0000
0100
0000
0010
0000
0000
1000
,
0010
0100
0001
0000
1000
0100
1100
0000
,
0001
0000
0100
0000
0101
0000
0000
0000
1000
0000
0100
0000
0110
0000
0000
0010
,
0001
1000
0001
0000
1000
0010
1010
0000
,
0001
0000
0010
0000
0011
0000
0000
0000
1000
0000
0010
0000
0110
0000
0000
0100
,
0001
0000
1000
0000
0001
0100
0010
0100
0001
0000
0010
0000
0001
0000
0100
0010
,
0100
0000
0001
0000
1000
0000
0100
0010
0100
0000
1000
0000
0001
0100
0001
0100
,
0001
0000
0100
0000
0110
0000
0000
0000
1010
0000
1000
0000
0100
0000
0010
0100
,
0010
0000
0001
0000
1000
0000
0001
0100
0001
0000
1000
0000
0010
0100
0010
0100
,
0010
0000
1000
0000
1100
0000
0000
0000
0010
0000
0010
0000
0001
0000
0100
0001
,
0100
0000
0010
0000
1000
0000
0100
1000
0100
0000
0010
0000
0001
1000
0001
1000
,
0001
0000
0100
0000
0110
0000
0000
0000
0010
0000
1000
0000
0001
0000
1000
0100
,
1000
0000
0001
0000
1000
0000
0001
0010
0001
0000
1000
0000
0001
0100
0001
0100
,
0001
0100
0001
0100
0010
1000
0010
1000
0010
1000
0010
1000
0001
0000
0100
0000
,
1000
0100
0000
0001
0100
0001
1000
0100
,
0001
0100
0000
1000
0100
1000
0001
0100
,
1000
0000
0100
0000
0000
0000
0001
0000
0100
0000
0001
0000
1000
0000
0001
0100
,
0010
0000
1000
0100
0010
0000
0001
0000
1000
0001
1000
0001
1000
0000
0010
0000
,
0001
0010
0000
1000
0010
1000
0001
0010
,
1000
0010
0000
0001
0010
0001
1000
0010
,
0001
0010
0000
1000
0010
1000
0001
0100
,
0010
0000
1000
0000
0001
1000
0001
1000
0001
1000
0001
1000
0001
0000
0000
0000
,
1000
0100
0001
1000
0010
0001
1000
0100
,
0001
0010
1000
0000
0000
0000
0000
0000
;

//--------------- dance-double - Fred-104-CDP ----------------
#NOTES:
     dance-double:
     Fred-104:
     Challenge:
     14:
     :
00000000
00000000
00000000
00000000
,
00000000
00000000
00000000
00000000
,
00000000
00000000
00000000
00000000
,
00000000
00000000
00000000
00000000
,
00000000
00000000
00000000
00000000
,
00000000
00000000
00000000
00000000
,
00000001
00000100
00000001
00000000
00001000
00000000
00000100
00000000
00000010
00000100
00000010
00000000
00000001
00000000
00001000
00000000
,
00001010
00011000
00110000
10010000
,
00010000
01000000
00010000
00000000
01000000
00000000
00100000
00000000
10000000
01000000
10000000
00000000
00100000
00000000
01000000
00000000
,
01010000
00000000
00000000
00000000
00011000
00000000
00000000
00000000
00000100
00000000
00000010
00000100
00000010
00000000
00000001
00001000
,
00000001
00000000
00000001
00000100
00001000
00000000
00010000
01000000
,
00000000
00000000
01000000
00000000
10000000
00000000
01000000
00000000
00010000
00000000
00001000
00010000
00001000
00000000
00000100
00000000
,
00000001
00000000
00000001
00000010
00001000
00000000
00010000
00100000
,
00000000
00000000
10000000
00000000
00100000
00000000
00010000
00000000
00001000
00010000
00001000
00010000
00001000
00010000
00001000
00010000
,
00001000
00000000
00000001
00000100
00001000
00000000
00010000
01000000
,
00000000
00000000
10000000
00000000
01000000
00000000
00010000
00000000
00001000
00010000
00001000
00010000
00000100
00001000
00000100
00001000
,
00000001
00000000
00000001
00000010
00001000
00000000
00010000
00100000
,
00000000
00000000
10000000
00000000
00100000
00000000
00010000
00000000
00001000
00010000
00001000
00010000
00000010
00001000
00000010
00001000
,
00000010
00000000
00000000
00000010
00001000
00000000
00000000
00001000
00000001
00000000
00000000
00000001
00000100
00000000
00000010
00000000
,
00002000
00000000
00000000
00000000
00003100
00000000
00010000
00000000
00001000
00100000
00000000
00100000
02000000
00000000
00000000
00000000
,
03100000
00000000
00000000
00100000
10000000
00000000
00000000
10000000
00010000
00000000
00000000
00010000
01000000
00000000
00001000
00000000
,
00020000
00000000
00000000
00000000
00031000
00000000
00000100
00000000
00000001
00000100
00000000
00000100
00000010
00000000
00001000
00000001
,
00001000
00000000
00000000
00000001
00000100
00000000
00000000
00000100
00001000
00000000
00000000
00001000
00010000
00000000
01000000
00000000
,
00100000
10000000
01000000
01100000
00000000
00011000
00000000
00000110
,
00000202
00000000
00000303
00002200
00000000
00003300
00000220
00000330
,
00002002
00003003
00000002
00002003
,
00003001
00000000
00000001
00000100
00001000
00000000
00010000
01000000
,
10000000
00000000
00000000
01000000
00010000
00000000
10000000
00000000
00010000
00000000
00000000
00000000
10000000
00000000
00100000
00000000
,
00010000
00000000
10000000
00100000
00010000
00000000
00001000
00000010
,
00000001
00000000
00000000
00000010
00001000
00000000
00000001
00000000
00000100
00000000
00000000
00000000
00000001
00000000
00000100
00000000
,
00001000
00000000
00000001
00000100
00001000
00000000
00010000
01000000
,
10000000
00000000
00000000
01000000
00010000
00000000
00100000
00000000
01000000
00000000
00000000
00000000
10000000
00000000
00100000
00000000
,
00010000
00000000
10000000
00100000
00010000
00000000
00001000
00000010
,
00000001
00000000
00000000
00000010
00001000
00000000
00000010
00000000
00000110
00000000
00000000
00000000
00001001
00000000
00000000
00000000
,
00021000
00000000
00000000
00000000
00000000
00000000
00000000
00000000
00030020
00000000
00000000
00000000
00000000
00000000
00000000
00010030
,
00001000
00000000
00000000
00000000
00100000
00000000
00000000
00000000
02100000
00000000
00000000
00000000
00000000
00000000
00000000
03010000
,
20000000
00000000
30200000
00300000
,
01100000
00000000
00000000
00000000
00011000
00000000
00000000
00000000
00000110
00000000
00000100
00000010
00000100
00000000
00000001
00000000
,
00001000
00000000
00000000
00000001
00000010
00000000
00000100
00000000
00000010
00000000
00000000
00000001
00000100
00000000
00000010
00000000
,
00001000
00000000
00000100
00010000
00001000
00000000
00010000
00000000
00011000
00000000
00000000
00000000
00101000
00000000
00100000
00000000
,
00010000
00000000
00000000
10000000
01000000
00000000
00100000
00000000
00001000
00000000
00000000
00010000
00000100
00000000
00001000
00000000
,
00001010
00000010
00000110
00000100
00000101
00000000
00001001
00000000
,
00000220
00000000
00000000
00000000
00000000
00000000
00000000
00000000
00000000
00000000
00000000
00000000
00000000
00000000
00000000
00000330
00000100
00000000
00000000
00000000
00000010
00000000
00000000
00000000
00000100
00000000
00000000
00000000
00000000
00000000
00000000
00000000
,
00000001
00000000
00000100
00000000
00000010
00000000
00000000
00000000
00001000
00000000
00000100
00000000
00000010
00000000
00000000
00000001
,
00000100
00001000
00010000
00000000
01000000
10000000
00010000
00000000
,
01000000
00000000
00100000
00000000
00010000
00000000
00000000
00000000
00001000
00000000
00000100
00000000
00000010
00000000
00000000
00001000
,
00010000
00100000
01000000
00000000
00010000
10000000
01000000
00100000
,
01000000
00000000
10000000
00000000
00010000
00000000
01000000
00000000
10000000
00000000
01000000
00000000
00010000
00000000
00000000
00001000
,
00010000
00000100
00001000
00010000
00000100
00001000
00000001
00000100
,
00001000
00000000
00000100
00000000
00000001
00000000
00001000
00000000
00000001
00000000
00000010
00000000
00000100
00000000
00000000
00000010
,
00000001
00000000
00001000
00000000
00000001
00000100
00000000
00000100
00000001
00000000
00000010
00000000
00000001
00000000
00000000
00000000
,
00000100
00000010
00001000
00000000
00000100
00000000
00000000
00000000
00010000
00001000
00100000
00000000
00010000
00000000
00100000
00010000
,
00100000
00000000
01000000
00000000
01100000
00000000
00000000
00000000
00100000
10000000
01000000
00000000
00100000
00000000
00000000
00000000
,
00001000
00010000
00001000
00000000
00000010
00000000
00000000
00000000
00010000
00001000
00010000
00000000
00000100
00000000
00000010
00000100
,
00000010
00000000
00000001
00000000
00001001
00000000
00000000
00000000
00001000
00000100
00000010
00000000
00000001
00000000
00000000
00000000
,
00000100
00000010
00001000
00000000
00000100
00000000
00000000
00000000
00010000
00001000
01000000
00000000
00001000
00000000
00010000
00000100
,
00001000
00000000
00000100
00000000
00010100
00000000
00000000
00000000
00001000
00100000
00010000
00000000
10000000
00000000
00000000
00000000
,
01000000
00100000
00010000
00000000
00001000
00000000
00000000
00000000
00000100
00000010
00000001
00000000
00000100
00000010
00000100
00000010
,
00000100
00000010
00000100
00000010
00001000
00000001
00001000
00000001
00001000
00000001
00001000
00000001
00001000
00000000
00000100
00000000
,
00000001
00000100
00000000
00001000
00010000
01000000
00010000
01000000
,
10000000
01000000
00000000
00010000
01000000
00010000
00001000
00000100
,
00000001
00000000
00000100
00000000
00000000
00000000
00001000
00000000
00010000
00000000
00001000
00000000
00010000
00000000
00100000
00010000
,
00100000
00000000
00010000
10000000
00100000
00000000
01000000
00000000
00010000
01000000
00010000
01000000
00010000
00000000
00100000
00000000
,
10000000
00100000
00000000
00010000
00001000
00000010
00001000
00000010
,
00000001
00000010
00000000
00001000
00000010
00001000
00010000
00100000
,
10000000
00100000
00000000
00010000
00001000
00010000
00001000
00000010
,
00000100
00000000
00000001
00000000
00001000
00000001
00001000
00000001
00001000
00000001
00001000
00000001
00001000
00000000
00000000
00000000
,
00000001
00000010
00001000
00010000
01000000
10000000
00100000
00010000
,
00001000
00000100
00000001
00000000
00000000
00000000
00000000
00000000
;
