#TITLE:蠅の王;
#ARTIST:BEMANI Sound Team "あさき";
#TITLETRANSLIT:Hae no ou;
#ARTISTTRANSLIT:Asaki;
#BANNER:Hae no ou.png;
#BACKGROUND:Hae no ou-bg.png;
#CDTITLE:./CDTitles/GITADORA NEX+AGE.png;
#MUSIC:Hae no ou.ogg;
#SAMPLESTART:83.4;
#SAMPLELENGTH:15;
#BPMS:0=110;
#TIMESIGNATURES:0=4=4,48=3=4,51=4=4,55=5=4,60=4=4,140=3=4,143=4=4,151=3=4,154=4=4,206=6=4,212=4=4;
#BGSTAGE:14;

//--------------- dance-single - Fred-104 ----------------
#NOTES:
     dance-single:
     Fred-104:
     Beginner:
     2:
     :
0000
0000
0000
0000
,
0000
0000
0000
0000
,
0000
0000
0000
0000
,
1000
0000
0000
0000
,
0000
0000
0000
0000
,
0001
0000
0000
0000
,
0000
0000
0000
0000
,
1000
0000
0000
0000
,
0100
0000
0000
0000
,
0010
0000
0000
0000
,
0001
0000
0000
0000
,
1000
0000
0000
0000
,
0000
0000
0000
0001
,
0000
0000
0000
0001
,
0000
0000
0000
0000
,
1000
0000
0000
0000
,
0010
0000
0000
0000
,
0001
0000
0000
0000
,
0100
0000
0000
0000
,
1000
0000
0000
0000
,
0001
0000
0000
0000
,
1000
0000
0000
0000
,
0001
0000
0000
0000
,
1000
0000
0000
0000
,
0010
0000
0000
0000
,
0100
0000
0000
0000
,
0001
0000
0000
0000
,
1000
0000
0000
0000
,
0001
0000
0000
0000
,
1000
0000
0000
0000
,
0001
0000
0001
0000
,
0100
0000
0000
0000
,
0010
0000
0000
0000
,
0100
0000
0000
0000
,
0001
0000
1000
0000
,
1000
0000
0000
0001
,
0000
0000
0000
1000
,
0000
0000
0000
0001
,
0000
0000
0001
0000
,
1000
0000
1000
0000
,
0001
0000
0010
0000
,
0100
0000
1000
0000
,
0001
0000
0100
0000
,
0100
0000
0001
0000
,
0001
0000
1000
0000
,
1000
0000
0001
0000
,
0001
0000
1000
0000
,
0100
0000
0001
0000
,
0010
0000
0100
0000
,
0010
0000
0100
0000
,
0010
0000
1000
0000
,
0001
0000
1000
0000
,
0000
0000
0000
0000
,
2002
0000
0000
0000
,
3003
0000
0000
0000
;

//--------------- dance-single - Fred-104 ----------------
#NOTES:
     dance-single:
     Fred-104:
     Easy:
     8:
     :
0000
0000
0000
0000
,
0000
0000
0000
0000
,
0000
0000
0000
0000
,
0001
0000
0010
0000
0100
0100
0100
0000
,
1000
0000
0001
1000
0001
0000
0100
0000
,
0010
1000
0010
0000
1000
0000
0100
0000
,
0010
0001
0010
0000
0001
1000
0001
0000
,
1000
0000
0000
1000
0000
0000
1000
0000
0000
1000
0000
0000
0001
0000
0000
0001
,
0000
0000
0001
0000
0000
0001
0000
0000
0001
0000
0100
0000
0010
0000
0000
0000
,
0100
0010
0100
0000
0001
1000
0001
0000
,
0010
0000
0000
0100
0000
0000
1000
0000
0010
0000
0100
0000
0001
0000
0000
0000
,
1001
0000
1000
0100
0010
0000
0001
0001
,
0000
0001
0000
0000
1000
0000
0001
0000
1000
0000
0000
0000
1001
0000
0000
0000
,
0001
0000
1000
0000
0010
0000
0000
0000
0100
0000
0100
0000
0000
0100
0000
0100
,
0010
0010
0100
0010
0100
0000
0110
0000
,
1001
1100
1001
0101
,
0001
0010
0100
0000
1000
0010
0100
0000
,
0001
0001
1000
0000
0100
0010
0100
0000
,
1000
0001
1000
0100
0010
0010
0010
0000
,
1001
0011
1001
1010
,
0001
0010
0001
0000
1000
0010
0100
0000
,
0010
1000
0100
0000
0010
0010
0010
0000
,
0001
1000
0001
0100
0110
0000
0110
0000
,
1001
0000
0001
0000
0010
0100
1000
0000
,
1001
0000
1000
0000
0010
0100
0001
0000
,
1001
0000
1000
0000
0100
0010
0001
0000
,
1000
0010
0001
0010
1000
0010
1000
0000
,
1001
0000
0001
0010
0100
0000
1100
0000
,
0001
0000
0000
0100
0000
0000
0100
0000
0110
0000
0000
0000
1001
0000
0000
0000
,
1000
0100
0001
0000
1000
0010
0001
0000
,
0010
0010
0100
0100
1000
0001
1001
0000
,
0001
0010
0100
0000
1000
1000
1010
0000
,
0001
0100
0010
0000
1000
1000
1100
0000
,
0001
1000
0100
0000
0010
0010
0011
0000
,
0001
1001
0110
1001
,
2000
0000
0000
3200
,
0000
0300
0110
0000
1001
0000
0002
0000
,
0100
0100
0000
0100
0103
0000
0001
0000
,
0110
0000
0000
0000
1001
0000
0000
0000
1000
0000
0000
1000
0000
0000
1000
0000
,
0100
0000
0000
0100
0000
0000
0100
0000
0000
0000
0010
0000
0000
0000
0001
0000
,
0001
0000
0000
1000
0000
0000
0001
0000
0100
0000
0000
0010
0000
0000
0100
0000
,
0001
0000
0000
0010
0000
0000
0100
0000
1000
0000
0000
0000
0001
0000
0000
0000
,
0100
0010
0110
0000
1000
0000
0100
0000
,
0010
0000
0100
0000
1000
0000
0010
0000
0100
0000
0000
0100
0000
0000
0100
0000
,
0110
0000
0000
0000
0001
0000
0000
0000
1000
0000
0000
1000
0000
0000
0100
0000
,
0110
0001
0110
1001
,
2000
0000
0000
0000
3200
0000
0000
0000
0310
0000
0000
0001
0000
0000
0001
0000
,
1000
0000
0000
0010
0000
0000
0100
0000
0001
0000
0000
0001
0000
0000
0001
0000
,
0010
0000
0100
0000
1000
0000
0000
0000
0001
0000
0000
1000
0000
0000
0100
0000
,
0010
0000
0000
0100
0000
0000
1000
0000
0001
0000
0000
0000
0100
0000
0000
0000
,
1000
0000
0000
0000
0010
0000
0000
0000
0001
0000
0000
0001
0000
0000
0001
0000
,
1000
0000
0001
0000
0100
0000
0010
0100
0010
0000
0000
0000
0220
0000
0000
0000
,
0000
0000
0000
0330
,
2002
0000
0000
0000
,
3003
0000
0000
0000
;

//--------------- dance-single - Fred-104 ----------------
#NOTES:
     dance-single:
     Fred-104:
     Medium:
     13:
     :
0000
0000
0000
0000
,
0000
0000
0000
0000
,
0000
0000
0000
0000
,
0001
0010
0001
0010
0001
0000
1000
0100
1000
0100
1000
0000
0001
0100
0010
1000
,
0010
0100
0001
0000
1000
0001
0010
0001
1000
0000
0001
0100
0010
1000
0001
1000
,
0001
0000
1000
0100
1000
0010
1000
0000
0001
0010
0001
0100
0010
1000
0001
0000
,
0010
0001
1000
0010
1000
0000
0001
0010
0100
1000
0010
0100
0010
1000
0100
0010
,
0001
0000
0010
0001
0000
1000
0010
1000
0000
0001
0000
1000
0100
0010
0000
0001
,
0000
0000
1000
0001
0000
0010
0000
0001
1000
0000
0000
0010
0100
0000
0010
0000
,
1000
0000
0001
0010
0001
0000
1000
0010
1000
0010
1000
0000
0100
0010
0001
0000
,
1000
0000
0010
1000
0000
0001
1000
0000
0100
0000
0010
0001
1000
0010
0100
0000
,
0110
0000
0000
0010
1000
0000
0001
0000
0010
0000
0100
1000
0100
0000
1100
0000
,
0000
1100
0000
0000
1000
0001
1000
0001
1000
0000
1001
0000
0011
0000
0000
0001
,
1000
0000
0010
0000
0100
0000
0001
0010
0100
0000
0110
0000
0000
0110
0000
0100
,
1000
0001
1000
0010
0100
0000
0001
0000
0010
0000
0100
0000
1100
0000
0000
0000
,
1010
1000
1010
0000
0011
0001
0011
0000
,
0001
0000
1000
0010
0100
0000
0001
0000
1000
0000
1000
0000
0100
0010
0000
0010
,
0100
1000
0001
1000
0010
0010
0100
0001
,
0010
0000
0100
1000
0100
0000
1100
0000
1000
0000
1100
0000
1000
0001
1000
0000
,
1100
0000
1000
0000
1100
0000
0000
0000
0101
0000
0001
0000
0100
0001
0000
0001
,
0100
0000
0010
0000
0100
0000
1000
0000
0100
0000
0001
1000
0000
0001
1000
0000
,
0100
0010
0001
1000
1010
1000
1010
0000
,
1001
0000
1000
0100
0010
0000
0001
0100
0110
0000
0000
0000
1010
0000
0000
0000
,
1001
0000
1000
0000
0100
0010
0100
0000
0010
0001
1000
0010
0100
0000
0001
0000
,
1000
0000
0001
0000
0010
0100
1000
0000
0001
0100
0010
1000
0001
0010
0100
0000
,
1000
0000
0001
0100
0001
1000
0100
0000
0010
0100
1000
0100
1000
0000
1001
0000
,
1000
0010
1000
0010
0100
0001
0100
0001
1000
0001
0010
0100
1000
0000
1001
0000
,
0012
0000
0000
0000
2003
0000
3010
0100
0010
0000
0110
0000
1001
0000
0000
0000
,
1000
0100
0000
0100
0000
0100
1000
0000
0101
0000
1000
0001
1000
0000
0001
0000
,
0100
0010
0100
0000
0001
0000
0100
0000
0110
0000
1001
0000
1000
0000
0001
0000
,
0010
0100
0000
0100
1000
0100
0000
0100
1000
0001
1000
0000
0001
1000
0001
0000
,
1000
0000
0100
0000
0010
0001
1000
0000
1010
0000
1010
0000
1010
0000
0000
0000
,
0001
0100
0000
0010
1000
0000
0001
0000
0011
0000
1001
0000
1000
0000
0001
0000
,
0100
0010
0100
0010
0000
1000
0100
0000
1100
0000
0011
0000
1000
0000
0001
0000
,
1000
0000
0000
0000
0001
0000
0000
0000
1000
0000
0000
0000
0010
0000
0000
0000
0000
0000
0000
0000
0000
0000
0000
0000
0100
0000
0000
0001
0000
0000
0100
0000
0000
0001
0000
0000
1000
0000
0000
0100
0000
0000
0010
0000
0000
0001
0000
0000
,
1000
0000
0000
0001
0000
0000
0010
0000
0110
0000
1000
0000
0001
0000
0000
1000
,
0000
0000
0010
0000
0110
0000
0000
0000
1001
0000
0000
0000
1000
0000
0000
0100
,
0000
0000
0010
0000
0011
0000
1000
0001
1000
0000
0010
0000
1000
0000
0001
0000
,
1000
0000
0000
0000
0001
0000
0000
0000
1000
0000
0000
0000
0001
0000
0000
0000
0000
0000
0000
0000
0000
0000
0000
0000
1001
0000
0000
0000
0000
0000
0000
0000
0000
1000
0000
0000
0000
0000
0000
0000
0000
0000
0100
0000
0000
0000
0000
0000
,
0010
0000
0000
0001
0000
0000
1000
0000
0000
0000
0010
0000
0100
0000
0001
1000
,
0100
0000
0000
0100
0000
0000
0100
0000
0010
0000
0000
0001
0000
0000
1000
0000
,
0010
0000
0000
0001
0000
0000
1000
0000
0100
0000
0010
0000
1000
0000
0001
0010
,
0100
0000
1000
0000
0001
1000
0010
0000
0100
0000
0001
0100
0010
0000
0100
0000
,
0101
0000
1000
0000
0001
0000
0010
0000
0110
0000
0000
0100
0000
0000
1000
0000
,
1010
0000
0001
0000
1000
0000
0100
0000
0010
0000
0000
0001
0000
0000
1000
0000
,
1001
0001
0010
0000
0110
0000
1100
0000
,
0002
0000
0000
0000
2003
0000
0000
0000
3100
0000
0000
0100
0000
0000
0010
0000
,
0011
0000
0000
1000
0000
0000
0001
0000
0101
0000
0000
1000
0000
0000
0100
0000
,
0110
0000
0001
0000
1000
0010
1000
0000
1001
0000
0000
1000
0000
0000
0100
0000
,
0110
0000
0000
0001
0000
0000
0100
0010
0110
0000
1000
0001
0010
0000
0001
1000
,
0010
0000
0100
0001
1000
0000
0100
0000
0110
0000
0000
0110
0000
0000
0010
0001
,
1000
0010
0100
0001
1000
0100
0010
0001
2000
0000
0000
0000
0002
0000
0000
0000
,
0000
0000
0000
3003
,
0220
0000
0000
0000
,
0330
0000
0000
0000
;

//--------------- dance-single - Fred-104 ----------------
#NOTES:
     dance-single:
     Fred-104:
     Hard:
     17:
     :
0000
0000
0000
0000
,
0000
0000
0000
0000
,
0000
0000
0000
0000
,
1000
0100
0001
0100
1000
0000
0001
0100
1000
0100
0001
0000
1000
0010
0100
1000
,
0001
0010
0100
0000
0001
0010
1000
0010
0001
0000
1000
0010
0001
1000
0100
0001
,
1000
0000
0001
1000
0010
0100
0001
0000
1000
0001
0010
0100
0001
1000
0010
0000
,
0001
0000
1000
0000
0010
0000
0001
0000
1000
0000
0000
0000
0100
0000
0001
0000
1000
0000
0100
0010
0001
0000
1000
0000
0001
0000
0100
0000
0010
0000
0100
0001
,
1000
0100
0010
0001
0100
0010
0001
1000
0100
0010
0100
0001
1000
0001
0100
0001
,
0010
0000
0100
0000
0001
0000
1000
0000
0010
0000
0100
0000
0010
0000
0001
0000
1000
0000
0000
0000
0010
0000
0100
0000
1000
0000
0100
0000
0001
0000
1000
0001
,
1000
0100
0010
0001
0100
0010
1000
0100
0001
1000
0010
0100
0001
0100
1000
0001
,
0100
0000
0000
0000
0000
0000
1000
0000
0000
0100
0000
0000
0010
0000
0000
0100
0000
0000
0001
0000
0000
0000
0000
0000
1001
0000
0000
0000
0000
0000
0001
0000
0010
0000
0100
0000
1000
0000
0010
0000
0100
0000
0001
0000
0100
0000
0001
0000
,
1000
0000
0001
0100
1000
0000
0100
0010
1000
0000
0100
0010
0001
0000
0101
0000
,
0000
0000
0000
1001
0000
0000
0000
0000
0000
0000
0000
0000
0001
0000
0000
0100
0000
0000
0010
0000
0000
1000
0000
0000
0001
0000
0010
0000
0100
0000
1000
0000
0000
0000
0000
0000
0110
0000
0000
0000
0000
0000
0001
0000
0000
0010
0000
0000
,
1000
0000
0010
0000
0001
1000
0000
0010
0100
0000
1001
0000
0000
1010
0000
0010
,
0100
0000
0000
0001
0000
0000
1000
0000
0000
0001
0000
0000
0010
0000
0000
0100
0000
0000
1000
0000
0010
0000
0100
0000
0001
0000
0010
0000
1000
0000
0001
0000
0100
0000
1000
0000
2002
0000
0000
0000
0000
0000
3003
0000
0000
0000
0000
0000
,
1100
0000
0001
0000
0110
0000
1000
0001
0100
1000
0100
0000
0010
0100
0001
1000
,
0200
0000
0001
0000
0010
0000
1300
0000
0101
0000
1010
0000
0001
0010
0000
0200
,
1000
0000
0320
0000
0001
0000
0230
0000
1000
0000
1300
0000
0001
1000
0010
1000
,
0001
0000
1000
0100
0010
0000
0011
0000
0110
0000
0110
0000
1000
0001
1000
0001
,
0100
0000
0010
0000
1001
0000
0001
1000
0100
0001
0100
0000
0010
0001
1000
0020
,
0100
0000
2030
0000
0100
0000
3002
0000
0100
0000
0103
0001
1000
0100
0010
0001
,
2000
0010
0001
3100
1100
1000
1100
0000
,
0101
0000
0000
0000
0000
0000
1001
0000
0000
1000
0000
0000
0100
0000
0000
0000
0000
0000
0010
0000
0000
0010
0000
0000
0001
0000
1000
0000
0010
0000
0100
0000
0010
0000
1000
0000
0100
0000
0010
0000
0001
0000
0100
0000
0010
0000
1000
0000
,
0001
0000
0100
0010
0001
1000
0100
0010
1000
0100
0010
0001
0011
0000
1001
0000
,
0001
0001
1000
0100
0010
1000
0001
0100
0010
0001
1000
0100
0010
0001
0011
0000
,
1000
1000
0001
0100
1000
0001
0010
0100
1000
0100
0001
0010
0110
0000
1001
0000
,
0001
0100
1000
0100
0101
0001
1000
0100
0010
0010
0010
0010
0011
0000
0001
1000
,
0010
0001
0000
0010
0100
0010
1000
0001
0010
0000
0110
0000
2200
0000
3300
0000
,
0001
0100
1000
0001
0010
1000
0001
0100
0110
0000
0010
1000
1100
0000
1001
0000
,
1000
0010
0100
0010
1000
0001
0010
0100
1100
0000
0101
0000
0011
0000
1010
0000
,
1001
0000
0001
0000
0010
0000
0100
0000
1100
0000
1000
0000
0001
0000
1000
0000
0001
0010
0001
0010
0100
1000
0100
1000
0001
0100
0001
0100
0010
1000
0010
1000
,
0001
0100
1000
0001
0010
1000
0010
0100
0101
0000
1010
0000
2002
0000
3003
0000
,
1000
0010
0100
1000
0001
0010
0100
0001
0011
0000
1100
0000
0101
0000
1001
0000
,
0001
0000
0010
0000
1000
0000
0001
0000
0100
0000
0010
0000
0100
0000
1000
0000
1001
0000
0000
0000
0110
0000
0000
0000
1001
0000
0001
0100
0001
0000
1000
0000
,
0100
0000
0000
0000
0000
0000
0000
0000
0100
0000
0000
0000
0000
0000
0000
0000
0100
0000
0000
0000
0000
0000
0000
0000
0110
0000
0000
0000
0000
0000
0000
0000
0000
0000
0000
0000
0000
0000
0000
0000
0000
0000
0000
0000
0000
0000
0000
0000
0001
0000
0000
0010
0000
0000
0001
0000
0000
0010
0000
0000
0100
0000
0000
1000
0000
0000
0100
0000
0000
1000
0000
0000
0001
0000
0000
0100
0000
0000
0010
0000
0000
1000
0000
0000
0010
0000
0000
0100
0000
0000
0001
0000
0000
1000
0000
0000
,
0001
0000
0100
0001
0000
1000
0100
0000
0110
0000
0010
0001
1000
0000
0001
0100
,
0000
0000
0010
0000
1000
0000
0000
0000
1001
0000
0000
0000
1000
0001
1000
0001
0020
0000
0000
0000
0000
0000
0000
0000
0031
0000
0000
0000
0100
0000
0010
0000
,
0001
0010
1000
0000
1001
0000
0001
0010
0200
0000
0320
0000
0130
0000
0010
0000
,
0100
0000
0000
0000
0100
0000
0000
0000
0100
0000
0000
0000
0110
0000
0000
0000
0000
0000
0000
0000
0000
0000
0000
0000
1001
0000
0000
0000
0000
0000
0001
0000
0000
0010
0000
0000
0000
0000
0000
0010
0000
0000
1000
0000
0000
0000
0000
0000
,
0001
0000
0001
0100
0000
0100
0010
0000
0010
0000
0001
1000
0010
0000
0100
0001
,
1001
0000
1000
0001
0000
0001
1000
0000
0100
0000
0100
0010
0000
0010
1000
0000
,
0001
0000
0001
0100
0000
0100
1000
0000
0001
0000
0100
0001
0010
0000
0100
0000
,
1000
0010
0100
0001
0010
0100
1000
0100
0010
0000
0001
1000
0010
0000
0100
0000
,
0101
0000
1000
0100
0010
0001
1000
0000
1001
0000
1000
0001
0100
0000
0010
0000
,
1010
0000
1000
0100
0001
0100
1000
0000
0001
0000
0100
0001
1000
0000
0100
0000
,
0110
0000
0010
0010
0001
0000
1001
0000
1100
0100
1000
0010
0110
0100
0001
0010
,
0100
0000
1000
0000
0100
0000
0010
0000
0001
0000
0100
0000
0010
0000
1000
0000
0001
0000
0010
0000
0100
0000
1000
0000
0001
0000
0000
0000
0000
0000
0100
0000
0000
1000
0000
0000
0000
0000
0000
0100
0000
0000
0010
0000
0000
0100
0000
0000
,
0110
0000
1000
0100
0010
0001
1000
0000
1001
0000
0001
0010
1000
0010
0100
1000
,
1100
0000
1000
0000
0001
0000
1000
0000
0010
0100
0010
0100
0001
0100
0001
0000
0101
0000
0000
0000
1000
0000
0001
0000
0100
0000
0010
0000
1000
0000
0000
0000
,
0110
0000
0000
0000
0001
0000
0010
0000
0100
1000
0100
1000
0001
0100
0001
0100
0001
0000
0000
0000
1000
0000
0001
0000
0010
0000
0000
0000
1000
0000
0010
0000
,
0001
0000
0010
0000
0100
0000
1000
0000
0010
0000
0100
0000
0001
0000
0100
0000
0101
0000
0000
0000
0000
0000
1001
0000
0000
0000
0000
0000
0001
0100
0010
1000
,
0001
0000
0000
0000
0010
0000
0000
0000
1000
0000
0000
0000
0001
0000
0000
0000
0100
0000
0000
0000
1000
0000
0000
0000
0001
0000
0000
0000
0100
0000
0000
0000
1000
0000
0000
0000
0001
0000
0000
0000
0010
0000
0000
0000
1000
0000
0000
0000
0001
0000
0000
0000
0000
0000
0000
0000
0000
0000
0000
0000
0000
0000
0000
0000
0000
0000
1000
0000
0000
0002
0000
0000
2000
0000
0000
0000
0000
0000
0000
0000
0000
0000
0000
0000
0000
0000
0000
0000
0000
0000
0000
0000
0000
0000
0000
0000
,
0000
0000
0000
3003
,
0220
0000
0000
0000
,
0330
0000
0000
0000
;

//--------------- dance-double - Fred-104 ----------------
#NOTES:
     dance-double:
     Fred-104:
     Easy:
     8:
     :
00000000
00000000
00000000
00000000
,
00000000
00000000
00000000
00000000
,
00000000
00000000
00000000
00000000
,
00010000
00000000
00000010
00000000
00010000
00001000
00010000
00000000
,
00100000
00000000
10000000
01000000
00010000
00000000
00001000
00000000
,
00010000
00001000
00000100
00000000
00000001
00000000
00000010
00000000
,
00000100
00001000
00000100
00000000
00010000
00001000
00010000
00000000
,
00001000
00000000
00000000
00010000
00000000
00000000
00100000
00000000
00000000
10000000
00000000
00000000
01000000
00000000
00000000
00010000
,
00000000
00000000
00001000
00000000
00000000
00000010
00000000
00000000
00000001
00000000
00000100
00000000
00001000
00000000
00000000
00000000
,
00010000
00001000
01000000
00000000
00010000
01000000
00100000
00000000
,
10000000
00000000
00000000
01000000
00000000
00000000
00100000
00000000
00001000
00000000
00010000
00000000
00000100
00000000
00001000
00000000
,
00001001
00000000
00001000
00000000
00000001
00000000
00001000
00001000
,
00000000
00001000
00000000
00000000
00000010
00000000
00010000
00000000
00001000
00000000
00000000
00000000
00011000
00000000
00000000
00000000
,
01000000
00000000
00000000
00000000
10000000
00000000
00000000
00000000
00010000
00000000
00010000
00000000
00000000
10000000
00000000
10000000
,
00010000
00010000
10000000
01000000
00100000
00000000
00011000
00000000
,
00010000
00010010
00001000
00101000
,
00010000
00001000
00010000
00000000
00000100
00001000
00000100
00000000
,
00000010
00001000
00010000
00000000
00001000
00001000
00010000
00000000
,
00100000
01000000
00010000
00100000
01000000
10000000
00010000
00000000
,
00100000
00011000
00000010
00011000
,
00010000
00001000
00100000
00000000
00010000
01000000
00100000
00000000
,
10000000
01000000
00100000
00000000
00001000
00001000
00001000
00000000
,
00010000
00001000
00000100
00000010
00001010
00000000
00001010
00000000
,
00001001
00000000
00000001
00000000
00000100
00001000
00010000
00000000
,
00011000
00000000
00001000
00000000
00010000
00100000
10000000
00000000
,
11000000
00000000
00100000
00000000
00001000
00010000
00001000
00000000
,
00010000
00001000
00000010
00001000
00010000
00001000
00010000
00000000
,
00011000
00000000
00010000
00000100
00000010
00000000
00000011
00000000
,
00000001
00000000
00000000
00000100
00000000
00000000
00000010
00000000
00001000
00000000
00000000
00000000
00001100
00000000
00000000
00000000
,
00010000
00001000
01000000
00000000
00001000
00010000
00000010
00000000
,
00010000
00010000
00001000
00001000
00010000
00100000
01100000
00000000
,
00010000
10000000
01000000
00000000
00100000
00100000
00110000
00000000
,
00001000
00010000
00000010
00000000
00000100
00000100
00000101
00000000
,
00001000
00000001
00000100
00000000
00001000
00010000
00011000
00000000
,
01000000
00011000
00000110
00001001
,
00000002
00000000
00000000
00000203
,
00000000
00000300
00001100
00000000
00011000
00000000
00020000
00000000
,
00001000
00001000
00000000
00001000
00031000
00000000
00010000
00000000
,
00000110
00000000
00000000
00000000
00001001
00000000
00000000
00000000
00000001
00000000
00000000
00000010
00000000
00000000
00000100
00000000
,
00010000
00000000
00000000
00001000
00000000
00000000
00010000
00000000
00000000
00000000
00001000
00000000
00000000
00000000
00100000
00000000
,
00100000
00000000
00000000
01000000
00000000
00000000
10000000
00000000
00010000
00000000
00000000
00010000
00000000
00000000
01000000
00000000
,
00100000
00000000
00000000
00010000
00000000
00000000
00001000
00000000
00010000
00000000
00000000
00000000
00000100
00000000
00000000
00000000
,
00001000
00000101
00001000
00000001
,
00000010
00000000
00000100
00000000
00010000
00000000
00001000
00000000
00010000
00000000
00000000
00010000
00000000
00000000
00010000
00000000
,
00011000
00000000
00000000
00000000
00001000
00000000
00000000
00000000
01000000
00000000
00000000
00010000
00000000
00000000
00100000
00000000
,
00101000
00001000
00011000
01100000
,
00020000
00000000
00000000
00000000
20030000
00000000
00000000
00000000
31000000
00000000
00000000
00100000
00000000
00000000
00010000
00000000
,
00100000
00000000
00000000
00001000
00000000
00000000
00010000
00000000
00000010
00000000
00000000
00001000
00000000
00000000
00000001
00000000
,
00000010
00000000
00000100
00000000
00001000
00000000
00000000
00000000
00000001
00000000
00000000
00000100
00000000
00000000
00001000
00000000
,
00010000
00000000
00000000
00100000
00000000
00000000
10000000
00000000
01000000
00000000
00000000
00000000
00010000
00000000
00000000
00000000
,
00001000
00000000
00000000
00000000
00010000
00000000
00000000
00000000
00001000
00000000
00000000
00001000
00000000
00000000
00001000
00000000
,
00010000
00000000
00000100
00000000
00010000
00000000
00001000
01000000
00001000
00000000
00000000
00000000
00022000
00000000
00000000
00000000
,
00000000
00000000
00000000
00033000
,
00022000
00000000
00000000
00000000
,
00033000
00000000
00000000
00000000
;

//--------------- dance-double - Fred-104 ----------------
#NOTES:
     dance-double:
     Fred-104:
     Medium:
     13:
     :
00000000
00000000
00000000
00000000
,
00000000
00000000
00000000
00000000
,
00000000
00000000
00000000
00000000
,
00010000
00000010
00001000
00000010
00010000
00000000
00000100
00001000
00000100
00001000
00000100
00000000
00010000
00001000
01000000
00010000
,
01000000
00100000
10000000
00000000
00010000
00100000
00001000
00010000
00001000
00000000
01000000
00001000
00010000
00001000
00000010
00000001
,
00000010
00000000
00000100
00001000
00000100
00010000
00001000
00000000
00010000
00001000
01000000
00001000
00010000
00001000
00100000
00000000
,
00010000
10000000
00010000
10000000
01000000
00000000
00010000
00001000
00010000
00000100
00000010
00000000
00000001
00001000
00000010
00000000
,
00010000
00000000
00001000
00010000
00000000
00100000
01000000
00100000
00000000
10000000
00000000
01000000
00100000
00001000
00000000
00010000
,
00000000
00000000
00001000
01000000
00000000
00001000
00000000
00010000
00000100
00000000
00000000
00010000
00001000
00000000
00010000
00000000
,
00100000
00000000
01000000
00010000
10000000
00000000
01000000
00100000
00010000
00100000
00001000
00000000
00010000
00001000
00000100
00000000
,
00000001
00000000
00000010
00000100
00000000
00001000
00000100
00000000
00010000
00000000
00001000
00010000
00001000
00010000
00001000
00000000
,
00011000
00000000
00000000
00001000
00010000
00000000
00100000
00000000
10000000
00000000
01000000
00100000
00010000
00000000
00110000
00000000
,
00000000
00101000
00000000
00000000
00001000
00010000
00001000
00010000
00001000
00000000
00011000
00000000
00011000
00000000
00000000
00010000
,
00001000
00000000
00000010
00000000
00000001
00000000
00001000
00000010
00010000
00000000
00011000
00000000
00000000
00010100
00000000
00010000
,
00001000
01000000
00001000
00010000
01000000
00000000
00100000
00000000
00010000
00000000
10000000
00000000
10010000
00000000
00000000
00000000
,
10100000
00100000
00110000
00000000
01010000
01000000
11000000
00000000
,
10000000
00000000
00010000
00100000
01000000
00000000
00100000
00000000
00001000
00000000
00001000
00000000
00010000
00001000
00000000
00001000
,
00000100
00000001
00001000
00000100
00000010
00000010
00000001
00000100
,
00001000
00000000
00010000
00001000
00010000
00000000
00011000
00000000
00010000
00000000
00010100
00000000
00000100
00001000
00000001
00000000
,
00001100
00000000
00000100
00000000
00001100
00000000
00000000
00000000
00000101
00000000
00000100
00000000
00000001
00000100
00000000
00000100
,
00000010
00000000
00000100
00000000
00001000
00000000
00010000
00000000
00100000
00000000
10000000
01000000
00000000
10000000
01000000
00000000
,
00100000
00001000
00010000
00001000
00101000
00001000
00101000
00000000
,
00011000
00000000
00010000
00001000
00000100
00000000
00000010
00001000
00001001
00000000
00000000
00000000
00000110
00000000
00000000
00000000
,
00011000
00000000
00001000
00000000
00010000
00100000
01000000
00000000
00010000
00100000
00000000
01000000
10000000
00000000
10010000
00000000
,
00010000
00000000
10000000
00000000
00010000
01000000
00001000
00000000
00010000
00001000
00000000
00000010
00000100
00001000
00000100
00000000
,
00000010
00000000
00000001
00000000
00001000
00000010
00000100
00000000
00001000
00010000
00100000
10000000
00010000
00100000
01000000
00000000
,
10000000
01000000
10000000
01000000
00100000
00010000
00100000
00001000
00010000
00001000
00000100
00000001
00001000
00000000
00001100
00000000
,
00000120
00000000
00000000
00000000
00000031
00000000
00000100
00001000
00010000
00000000
00001000
00000000
01001000
00000000
00000000
00000000
,
00001000
00010000
00000000
01000000
00000000
10000000
00010000
00000000
10010000
00000000
10000000
00010000
01000000
00000000
00100000
00000000
,
10000000
00100000
00010000
00000000
00001000
00000000
00010000
00000000
00010010
00000000
00001010
00000000
00001001
00000000
00001000
00000000
,
00000001
00000010
00000000
00000010
00000100
00010000
00000000
00010000
00001000
00100000
00010000
00000000
00100000
01000000
10000000
00000000
,
00010000
00000000
01000000
00000000
00100000
00010000
00001000
00000000
00011000
00000000
00011000
00000000
00011000
00000000
00000000
00000000
,
00010000
00001000
00000000
00000100
00000010
00000000
00000100
00000000
00000101
00000000
00001010
00000000
00000001
00000000
00001000
00000000
,
00000100
00010000
00000100
00010000
00000000
00001000
01000000
00000000
01010000
00000000
10100000
00000000
10000000
00000000
01000000
00000000
,
00100000
00000000
00000000
00000000
00001000
00000000
00000000
00000000
00010000
00000000
00000000
00000000
00001000
00000000
00000000
00000000
00000000
00000000
00000000
00000000
00000000
00000000
00000000
00000000
00010000
00000000
00000000
00001000
00000000
00000000
00010000
00000000
00000000
00001000
00000000
00000000
00000100
00000000
00000000
00000001
00000000
00000000
00000100
00000000
00000000
00001000
00000000
00000000
,
00010000
00000000
00000000
00010000
00000000
00000000
00010000
00000000
00011000
00000000
01000000
00000000
00001000
00000000
00000000
00010000
,
00000000
00000000
00100000
00000000
10100000
00000000
00000000
00000000
11000000
00000000
00000000
00000000
00100000
00000000
00000000
00001000
,
00000000
00000000
00010000
00000000
00010010
00000000
00000010
00001000
00000100
00000000
00010000
00000000
00001000
00000000
00010000
00000000
,
00100000
00000000
00000000
00000000
01000000
00000000
00000000
00000000
00010000
00000000
00000000
00000000
10000000
00000000
00000000
00000000
00000000
00000000
00000000
00000000
00000000
00000000
00000000
00000000
01100000
00000000
00000000
00000000
00000000
00000000
00000000
00000000
00000000
00001000
00000000
00000000
00000000
00000000
00000000
00000000
00000000
00000000
00010000
00000000
00000000
00000000
00000000
00000000
,
00001000
00000000
00000000
00010000
00000000
00000000
00000100
00000000
00000000
00000000
00000010
00000000
00000001
00000000
00000100
00001000
,
00010000
00000000
01000000
10000000
00000000
00100000
01000000
00000000
00100000
00000000
00000000
00010000
00000000
00000000
00001000
00000000
,
00000100
00000000
00000000
00000001
00000000
00000000
00001000
00000000
00000100
00000000
00000001
00000000
00001000
00000000
00000010
00000100
,
00000010
00000000
00000001
00000000
00000100
00001000
00010000
00000000
00001000
00000000
00100000
00010000
10000000
00000000
01000000
00000000
,
01100000
00000000
00001000
00000000
00010000
00000000
00000010
00000000
00001010
00000000
00000000
00000001
00000000
00000010
00001000
00000000
,
00011000
00000000
00010000
00000000
01000000
00000000
00100000
00000000
00010000
00000000
00000000
10000000
00000000
00000000
00100000
00000000
,
01100000
00010000
10000000
00000000
01100000
00000000
00011000
00000000
,
00000002
00000000
00000000
00000000
00002003
00000000
00000000
00000000
00003001
00000000
00000000
00000010
00000000
00000000
00000010
00000000
,
00000110
00000000
00000000
00010000
00000000
00000000
00001000
00000000
01001000
00000000
00000000
10000000
00000000
00000000
01000000
00000000
,
01100000
00000000
00100000
00000000
00001000
00010000
00001000
00000000
00011000
00000000
00000000
00000010
00000000
00000000
00001000
00000000
,
00001001
00000000
00000000
00000001
00000000
00000000
00000010
00000100
00001100
00000000
00000001
00000100
00001000
00000000
00010000
01000000
,
10000000
00000000
01000000
00100000
00001000
00010000
00001000
00000000
00011000
00000000
00000000
00011000
00000000
00000000
00010000
00001000
,
00000100
00000010
00001000
00000100
00000010
00000001
00000100
00001000
00020000
00000000
00000000
00000000
00002000
00000000
00000000
00000000
,
00000000
00000000
00000000
00033000
,
00002002
00000000
00000000
00000000
,
00003003
00000000
00000000
00000000
;

//--------------- dance-double - Fred-104 ----------------
#NOTES:
     dance-double:
     Fred-104:
     Hard:
     17:
     :
00000000
00000000
00000000
00000000
,
00000000
00000000
00000000
00000000
,
00000000
00000000
00000000
00000000
,
00010000
00001000
00000010
00001000
00010000
00000000
00001000
00010000
00100000
00010000
00001000
00000000
00010000
00000100
00001000
00000001
,
00000100
00000010
00001000
00000000
00000001
00000010
00001000
00000010
00000001
00000000
00001000
00000001
00000100
00000010
00000100
00001000
,
00010000
00000000
00001000
00010000
01000000
00010000
00001000
00000000
01000000
00010000
00001000
00010000
01000000
00001000
00010000
00000000
,
00001000
00010000
01000000
00100000
01000000
00000000
10000000
00010000
01000000
10000000
01000000
00100000
00010000
00001000
00000100
00000001
,
00001000
00000100
00000010
00000001
00000100
00000010
00001000
00000100
00000010
00000100
00001000
00000010
00000100
00001000
00010000
00001000
,
01000000
00000000
00010000
10000000
01000000
00100000
00001000
00010000
00000010
00000000
00010000
00001000
00000100
00000010
00001000
00000000
,
00000001
00000100
00000010
00001000
00000100
00000010
00001000
00010000
00001000
01000000
00001000
00010000
00100000
01000000
10000000
01000000
,
00010000
00000000
00000000
00000000
00000000
00000000
00100000
00000000
00000000
01000000
00000000
00000000
00000000
00000000
00000000
00010000
00000000
00000000
00001000
00000000
00000000
00000000
00000000
00000000
00011000
00000000
00000000
00000000
00000000
00000000
00010000
00000000
00001000
00000000
00010000
00000000
00000010
00000000
00001000
00000000
00000001
00000000
00001000
00000000
00000001
00000000
00000010
00000000
,
00000100
00000000
00001000
00000001
00000100
00000000
00000010
00000100
00001000
00000000
00010000
00001000
00010000
00000000
00011000
00000000
,
00000000
00000000
00000000
01100000
00000000
00000000
00000000
00000000
00000000
00000000
00000000
00000000
00010000
00000000
00000000
01000000
00000000
00000000
00100000
00000000
00000000
10000000
00000000
00000000
00010000
00000000
10000000
00000000
00010000
00000000
10000000
00000000
00000000
00000000
00000000
00000000
00100000
00000000
00000000
01000000
00000000
00000000
00000000
00000000
00000000
01000000
00000000
00000000
,
00001000
00000000
00001000
00000000
00010000
00000100
00000000
00000100
00001000
00000000
00001100
00000000
00000000
00000101
00000000
00000001
,
00001000
00000000
00000000
00000001
00000000
00000000
00000100
00000000
00000000
00000001
00000000
00000000
00000010
00000000
00000000
00000100
00000000
00000000
00010000
00000000
00001000
00000000
00010000
00000000
00001000
00000000
00100000
00000000
00001000
00000000
00010000
00000000
00001000
00000000
01000000
00000000
00020000
00000000
00000000
00000000
00000000
00000000
00030000
00000000
00000000
00000000
00000000
00000000
,
10010000
00000000
10000000
00000000
11000000
00000000
01000000
00100000
00001000
00010000
00001000
00000000
00010000
00001000
00000100
00000001
,
00000020
00000000
00000230
00000000
00020300
00000000
00032000
00003000
01001000
00000000
10010000
00000000
10000000
01000000
00000000
00100000
,
00002000
00000000
00023000
00000000
00230000
00000000
00320000
00000000
00031000
00000000
00001000
00000000
00010000
00001000
00000010
00000001
,
00001000
00000000
00000010
00000100
00001000
00000000
00011000
00000000
01001000
00000000
01010000
00000000
00010000
10000000
01000000
10000000
,
00010000
00000000
10000000
00000000
11000000
00000000
01000000
00100000
00010000
00100000
00001000
00000000
00010000
00001000
00000100
00000010
,
00002000
00000000
00003200
00000000
00000320
00000000
00002030
00000000
00013000
00000000
01000000
10000000
00010000
01000000
00100000
00010000
,
00002000
00000000
00003200
00000000
00000302
00000000
00000013
00000001
00000011
00000000
00000010
00000000
00000011
00000000
00000000
00000000
,
00001001
00000000
00000000
00000000
00000000
00000000
00000001
00000000
00000000
00000100
00000000
00000000
00001000
00000000
00000000
00000000
00000000
00000000
00010000
00000000
00000000
00100000
00000000
00000000
10000000
00000000
00010000
00000000
00100000
00000000
01000000
00000000
00010000
00000000
00001000
00000000
00010000
00000000
00000010
00000000
00001000
00000000
00000001
00000000
00000100
00000000
00000010
00000000
,
00001000
00000000
00000001
00001000
00000100
00000010
00001000
00010000
01000000
00100000
10000000
00100000
00010000
00000000
10010000
00000000
,
10000000
10000000
00010000
01000000
00100000
00010000
00001000
00010000
00100000
00010000
00001000
00000100
00000001
00001000
00001001
00000000
,
00001000
00001000
00000001
00000010
00000100
00000010
00001000
00010000
01000000
00100000
10000000
00100000
01000000
00000000
10010000
00000000
,
11000000
01000000
00100000
00001000
00011000
00010000
00000100
00001000
00000001
00000100
00001000
00000100
00000001
00000000
00001000
00000001
,
00000010
00000100
00000000
00000100
00010000
00001000
00010000
00001000
00011000
00000000
01001000
00000000
02020000
00000000
03030000
00000000
,
00010000
01000000
00100000
10000000
01000000
00100000
00010000
00100000
00101000
00000000
00001000
00010000
00010010
00000000
00001001
00000000
,
00001000
00000100
00000010
00000001
00000010
00000100
00001000
00000100
00010100
00000000
00011000
00000000
01001000
00000000
01010000
00000000
,
00010000
00000000
01000000
00000000
10000000
00000000
01000000
00000000
00010000
00000000
10000000
00000000
01000000
00000000
00100000
00000000
00001000
00010000
00001000
00010000
00001000
00010000
00001000
00000000
00010000
00000100
00010000
00000100
00001000
00000001
00001000
00000000
,
00000001
00001000
00000010
00010000
00001000
00100000
00010000
00100000
01100000
00000000
11000000
00000000
02020000
00000000
03030000
00000000
,
10000000
00100000
01000000
00100000
00010000
00001000
00000100
00000001
00000011
00000000
00001010
00000000
00011000
00000000
00101000
00000000
,
00001000
00010000
00100000
01000000
10000000
01000000
00010000
10000000
11000000
00000000
00110000
00000000
00101000
00000000
00001000
00000000
,
00010000
00000000
00000000
00000000
00000000
00000000
00000000
00000000
00010000
00000000
00000000
00000000
00000000
00000000
00000000
00000000
00010000
00000000
00000000
00000000
00000000
00000000
00000000
00000000
00011000
00000000
00000000
00000000
00000000
00000000
00000000
00000000
00000000
00000000
00000000
00000000
00000000
00000000
00000000
00000000
00000000
00000000
00000000
00000000
00000000
00000000
00000000
00000000
00010000
00000000
00000000
00000010
00000000
00000000
00010000
00000000
00000000
00000010
00000000
00000000
00010000
00000000
00000000
00000010
00000000
00000000
00001000
00000000
00000000
00000000
00000000
00000000
00000001
00000000
00000000
00000010
00000000
00000000
00000001
00000000
00000000
00000010
00000000
00000000
00000001
00000000
00000000
00000010
00000000
00000000
00000001
00000000
00000000
00000000
00000000
00000000
,
00000010
00000000
00000000
00001000
00000000
00000000
00010000
00000000
00011000
00000000
00001000
00010000
00100000
00000000
00000000
01000000
,
00000000
00000000
00000000
00000000
00010000
00000000
00000000
00000000
10010000
00000000
00000000
00000000
00010000
00100000
00010000
00100000
00020000
00000000
00000000
00000000
00000000
00000000
00000000
00000000
10030000
00000000
00000000
00000000
00000000
00000000
00100000
00000000
,
00000000
00010000
00001000
00000000
00011000
00000000
00010000
00001000
00000020
00000000
00000230
00000000
00001300
00000000
00000001
00000000
,
00000100
00000000
00000000
00000000
00001000
00000000
00000000
00000000
00010000
00000000
00000000
00000000
00011000
00000000
00000000
00000000
00000000
00000000
00000000
00000000
00000000
00000000
00000000
00000000
10010000
00000000
00000000
00000000
00000000
00000000
10000000
00000000
00000000
01000000
00000000
00000000
00000000
00000000
00000000
00010000
00000000
00000000
00001000
00000000
00000000
00000000
00000000
00000000
,
00010000
00000000
00100000
00010000
00000000
00001000
00000100
00000000
00000001
00000000
00000010
00000000
00000100
00000000
00010000
00001000
,
00020000
00000000
00000000
00032000
00000000
00000000
02003000
00000000
03010000
00000000
00100000
10000000
00000000
00100000
01000000
00000000
,
10000000
00000000
00100000
01000000
00000000
10000000
01000000
00010000
10000000
00000000
01000000
00100000
00001000
00000000
00010000
00000000
,
00001000
00010000
00001000
00000100
00000010
00000000
00001000
00000001
00001001
00000000
00000001
00000010
00001000
00000000
00010000
00000000
,
00011000
00000000
00001000
00010000
00100000
00000000
10000000
00000000
11000000
00000000
01000000
00100000
00001000
00000000
00010000
00000000
,
00011000
00000000
00010000
00001000
00000010
00001000
00010000
00000000
00001000
00000000
00010000
00000010
00001000
00000000
00000100
00000000
,
00000110
00000000
00000010
00000010
00000001
00000000
00001001
00000000
00000110
00000000
00010000
00001000
00011000
00000000
00001000
00100000
,
00001000
00000000
00010000
00000000
00100000
00000000
01000000
00000000
00010000
00000000
10000000
00000000
01000000
00000000
00100000
00000000
00010000
00000000
00100000
00000000
00001000
00000000
00010000
00000000
00001000
00000000
00000000
00000000
00000000
00000000
00010000
00000000
00000000
00001000
00000000
00000000
00000000
00000000
00000000
00000010
00000000
00000000
00000001
00000000
00000000
00000000
00000000
00000000
,
00001001
00000000
00000001
00000100
00001000
00010000
00001000
00000000
01001000
00000000
01000000
00010000
00100000
01000000
10000000
00000000
,
00010000
00000000
01000000
00000000
00100000
00000000
00010000
00000000
00001000
00010000
00001000
00010000
00001000
00000000
00010000
00000000
00011000
00000000
00000000
00000000
00010000
00000000
00001000
00000000
00000010
00000000
00000100
00000000
00000010
00000000
00000000
00000000
,
00000011
00000000
00000000
00000000
00000001
00000000
00001000
00000000
00000100
00010000
00000100
00010000
00001000
00010000
00001000
00010000
00001000
00000000
00000000
00000000
00010000
00000000
00100000
00000000
00010000
00000000
00000000
00000000
00001000
00000000
00010000
00000000
,
01000000
00000000
00100000
00000000
00010000
00000000
01000000
00000000
00100000
00000000
10000000
00000000
00010000
00000000
00000000
00000000
10010000
00000000
00000000
00000000
00000000
00000000
00010000
00000000
00000000
00000000
00000000
00000000
10000000
01000000
10000000
01000000
,
00100000
00000000
00000000
00000000
00010000
00000000
00000000
00000000
00100000
00000000
00000000
00000000
00001000
00000000
00000000
00000000
00010000
00000000
00000000
00000000
00001000
00000000
00000000
00000000
00000100
00000000
00000000
00000000
00000010
00000000
00000000
00000000
00001000
00000000
00000000
00000000
00000001
00000000
00000000
00000000
00000010
00000000
00000000
00000000
00000100
00000000
00000000
00000000
00000010
00000000
00000000
00000000
00000000
00000000
00000000
00000000
00000000
00000000
00000000
00000000
00000000
00000000
00000000
00000000
00000000
00000000
00001000
00000000
00000000
00020000
00000000
00000000
00002000
00000000
00000000
00000000
00000000
00000000
00000000
00000000
00000000
00000000
00000000
00000000
00000000
00000000
00000000
00000000
00000000
00000000
00000000
00000000
00000000
00000000
00000000
00000000
,
00000000
00000000
00000000
00033000
,
20020000
00000000
00000000
00000000
,
30030000
00000000
00000000
00000000
;
