#TITLE:HELL FLAME;
#ARTIST:DJ Myosuke;
#BANNER:HELL FLAME.png;
#BACKGROUND:HELL FLAME-bg.png;
#CDTITLE:./CDTitles/WACCA.png;
#MUSIC:HELL FLAME.ogg;
#SAMPLESTART:88.8;
#SAMPLELENGTH:15;
#BPMS:0=200;
#BGSTAGE:14;

//--------------- dance-single - Fred-104 ----------------
#NOTES:
     dance-single:
     Fred-104:
     Beginner:
     6:
     :
0000
0000
0000
0000
,
0000
0000
0000
0000
,
0000
0000
0000
0000
,
0000
0000
0000
0000
,
0000
0000
0000
0000
,
0000
0000
0000
0000
,
1000
1000
1000
0000
,
0001
0001
0001
0000
,
0100
0100
0100
0100
,
0200
0000
0000
0300
,
0010
0000
0001
0000
,
1000
0000
0001
0001
,
0001
0000
1000
0000
,
0010
0000
0100
0100
,
0100
0000
0001
0000
,
1000
0000
0001
0001
,
0001
0000
1000
0000
,
2002
0000
0000
3003
,
0001
0000
0100
0000
,
0001
0001
0001
0000
,
1000
0000
0010
0000
,
0100
0100
0010
0000
,
0100
0000
0001
0000
,
1000
0001
1000
0000
,
0001
0000
1000
0000
,
0002
0000
0000
0003
,
1000
0000
0010
0000
,
0100
0000
0100
0000
,
0001
0000
1000
0000
,
0001
0000
0010
0000
,
0010
0000
1000
0000
,
1000
0000
0100
0000
,
0100
0000
0001
0000
,
0002
0000
0000
0003
,
1000
0000
0010
0000
,
0100
0000
0001
0001
,
1000
0000
0010
0000
,
0100
0000
0010
0010
,
1000
0000
0001
0000
,
1000
0000
0100
0100
,
1000
0000
0001
0000
,
2000
0000
0000
3000
,
0001
0000
0100
0000
,
0001
0000
0100
0100
,
0100
0000
0010
0000
,
0100
0000
0010
0010
,
1000
0000
0001
0000
,
1000
0000
0010
0100
,
0010
0000
1000
0000
,
0001
0000
0000
0000
,
1001
0000
0000
0000
,
0000
0000
0000
0000
,
1000
0000
0000
0000
,
0001
0000
1000
0000
,
1001
0000
0000
0000
,
0000
0000
0000
0000
,
0001
0000
0000
0000
,
1000
0000
0001
0000
,
1001
0000
0000
0000
,
0001
0000
0100
0000
,
0010
0000
0000
0000
,
1000
0000
0100
0000
,
0010
0000
0000
0000
,
0001
0000
0100
0000
,
1000
0000
0001
0000
,
0010
0000
1000
1000
,
0001
0000
0100
0000
,
0001
0000
1000
0010
,
1000
0000
0001
0000
,
0100
0100
0100
0010
,
0100
0000
0001
0000
,
1000
0000
0001
0000
,
1000
1000
0001
0001
,
2002
0000
0000
3003
,
1000
0000
0010
0000
,
0100
0100
0100
0100
,
0100
0000
0001
0000
,
1000
1000
1000
1000
,
1000
0000
0001
0000
,
0100
0100
0100
0100
,
0010
0000
0100
0000
,
0001
0000
0000
1000
,
0001
0000
0100
0000
,
0010
0000
1000
1000
,
1000
0000
0001
0000
,
1000
1000
0010
0010
,
1000
0000
0001
0000
,
0100
0100
0100
0100
,
0010
0000
0100
0000
,
2002
0000
0000
3003
,
0001
0000
1000
0000
,
0010
0010
0100
0000
,
0001
0000
1000
0000
,
0100
1000
0001
0000
,
1000
0000
0010
0000
,
0100
0000
0001
0000
,
1000
0000
0001
0000
,
1001
0000
0000
0000
,
2002
0000
0000
0000
,
0000
0000
0000
0000
,
3003
0000
0000
0000
;

//--------------- dance-single - Fred-104 ----------------
#NOTES:
     dance-single:
     Fred-104:
     Easy:
     10:
     :
0000
0000
0000
0000
,
0000
0000
0000
0000
,
0000
0000
0000
0000
,
0000
0000
0000
0000
,
0000
0000
0000
0000
,
0000
0000
0000
0000
,
1000
1000
1000
0001
,
0100
0001
1000
0010
,
0100
0010
0100
0000
0001
1000
0001
0000
,
2002
0000
0000
3003
,
1000
0010
1000
0000
0010
0000
0010
0000
,
0100
0000
0001
0000
1000
0001
1000
0000
,
0001
0100
0001
0000
0100
0000
0010
0000
,
0100
0000
0100
0000
0010
1000
0010
0000
,
1000
0100
1000
0000
0010
0000
0100
0000
,
0001
0000
1000
0000
0001
1000
0001
0000
,
1000
1000
0010
0100
,
0001
1000
0001
1001
,
1000
0000
0000
0010
0000
0010
0100
0000
,
0001
1000
0001
0001
,
0100
0000
0000
0001
0000
0010
0001
0000
,
1000
0010
0100
0100
,
0001
0000
0001
0000
1000
0010
0100
0000
,
0010
0100
0010
0000
0100
0001
0100
0000
,
0001
0100
0010
0100
,
2002
0000
0000
3003
,
1010
0000
0000
0010
0000
0000
0100
0000
,
0001
1000
0001
0010
,
0001
0000
0000
1000
0000
0000
0001
0000
,
0100
0000
0010
0000
0100
0010
0100
0000
,
0001
0000
0000
1000
0000
0000
0010
0000
,
0100
0100
0010
1000
,
0100
0000
0010
0000
0001
1000
0001
0000
,
2002
0000
0000
3003
,
1000
0000
0000
0100
0000
0000
0010
0000
,
0000
0001
0000
0000
0100
0000
0010
0000
,
0100
0000
0001
0000
0000
1000
0000
0000
,
0010
0000
0000
0100
0000
0000
0100
0000
,
0001
0001
1000
1000
,
0010
0000
0100
0000
0001
1000
0001
0000
,
1000
0000
0010
0000
0100
0000
0001
1000
,
0002
0000
0000
1003
,
0010
0000
1000
0100
0000
1000
0100
0000
,
0010
0000
0001
0000
1000
0000
0001
0100
,
0001
0000
0100
0000
0010
0100
0000
0010
,
1000
0000
0010
0000
2000
3000
0002
0003
,
1000
0000
0010
0100
0000
0001
0100
0000
,
0001
0000
1000
0000
0100
1000
0100
0000
,
1000
0010
1000
0000
0001
0100
0001
0000
,
1000
0001
0100
0100
,
0220
0000
0000
0000
,
0000
0000
0000
0000
,
0330
0000
0000
0000
,
0001
0000
0000
0000
0001
0000
0100
0000
0000
0000
0100
0000
,
0220
0000
0000
0000
,
0000
0000
0000
0000
,
0330
0000
0000
0000
,
1000
0000
0000
0000
1000
0000
0100
0000
0000
0000
0100
0000
,
0001
0000
1000
0010
,
0100
0000
0001
1000
,
0100
0000
0010
0001
,
1000
0000
0001
0100
,
0010
0010
1000
0001
,
0100
0100
0010
1000
,
0001
0100
0001
0000
1000
0100
1000
0000
,
0001
0100
0001
0000
1000
0000
1001
0000
,
0001
0000
0000
0100
0000
0010
0100
0000
,
0001
0100
0000
0001
0100
0000
0001
0000
,
1000
0000
0000
0100
0000
0010
0100
0000
,
1000
0010
0000
0100
0010
0000
0001
0000
,
0010
0100
0010
1000
,
0001
0100
0010
1000
,
0001
0100
0001
0000
1000
0100
1000
0000
,
2002
0000
0000
3003
,
1000
0000
0000
0000
0010
0000
0000
0000
0100
0000
0000
0100
0000
0000
0100
0000
,
0001
0000
0000
0000
1000
0000
0000
0000
0001
0000
0000
0001
0000
0000
0010
0000
,
0001
0000
0000
0000
0100
0000
0000
0000
0010
0000
0000
0010
0000
0000
0100
0000
,
0010
0000
1000
0000
0001
1000
0002
0000
,
1003
0000
0000
0000
0100
0000
0000
0000
1000
0000
0000
0010
0000
0000
0100
0000
,
0010
0000
0000
0000
0100
0000
0000
0000
0001
0000
0000
1000
0000
0000
0010
0000
,
0100
0000
0000
0000
0001
0000
0000
0000
1000
0000
0000
0100
0000
0000
0100
0000
,
0010
0000
0001
0000
0000
0000
1000
0000
0000
0001
0000
0000
1001
0000
0000
0000
,
0001
0000
0000
0000
0100
0000
0000
0000
0001
0000
0000
1000
0000
0000
0010
0000
,
0100
0000
0000
0000
0010
0000
0000
0000
1000
0000
0000
0100
0000
0000
0010
0000
,
0001
0000
0000
0000
0100
0000
0000
0000
0010
0000
0000
0100
0000
0000
0010
0000
,
1000
0000
0010
0000
0100
0001
2000
0000
,
3001
0000
0100
0000
0001
0100
0001
0100
,
0010
0000
1000
0000
0100
1000
0020
0000
,
1030
0000
0000
1000
0000
0000
0001
0000
0000
0001
0000
0000
0100
0000
0010
0000
,
0100
0000
0000
0001
0000
0000
1000
0000
0000
0001
0000
0000
2000
0000
0000
0000
,
3001
0000
0000
0000
0100
0000
0000
0000
0010
0000
0000
0100
0000
0000
0010
0000
,
0100
0000
0000
0000
0001
0000
0000
0000
1000
0000
0000
0100
0000
0000
1000
0000
,
0100
0000
0000
0000
0010
0000
0000
0000
0001
0000
0000
1000
0000
0000
0010
0000
,
0100
0000
0010
0000
1000
0001
1000
0000
,
1001
0000
0100
0010
,
1000
0000
0010
0001
,
1000
0000
0100
0001
,
2000
0000
0000
3000
,
2002
0000
0000
0000
,
0000
0000
0000
0000
,
3003
0000
0000
0000
;

//--------------- dance-single - Fred-104 ----------------
#NOTES:
     dance-single:
     Fred-104:
     Medium:
     13:
     :
0000
0000
0000
0000
,
0000
0000
0000
0000
,
0000
0000
0000
0000
,
0000
0000
0000
0000
,
0000
0000
0000
0000
,
0000
0000
0000
0000
,
1000
0100
1000
0010
1000
0100
0010
0001
,
0100
0001
0010
0001
1000
0001
0100
0001
,
1000
0100
0010
0100
0001
0100
1000
0001
,
2002
0000
0000
3003
,
1000
1000
1000
0010
0100
0000
0001
0010
,
0000
0100
0010
0000
0001
1000
0001
0000
,
1000
0010
0100
0010
0100
0000
0001
0100
,
0000
1000
0100
0000
0001
1000
0001
0000
,
0100
0000
0010
0010
1000
0010
0100
0001
,
0000
1000
0100
0000
0010
0100
0010
0000
,
0001
0100
0001
0100
0010
1000
0010
1000
,
0002
0010
1003
1001
,
0001
0000
0100
0100
0010
0010
1000
0100
,
0010
0001
1000
0010
0100
0001
2000
0000
,
3001
0000
0000
0001
0100
0000
0010
0000
1000
0000
0100
0000
0010
0000
0001
0000
,
1000
0010
0100
0010
1000
0001
0200
0000
,
0301
0000
0100
0100
0010
0010
1000
0100
,
0010
0100
1000
0010
0100
0001
0200
0000
,
0301
0100
0010
1000
0001
0001
1000
0001
,
2002
0000
0000
3003
,
1000
0000
0100
1000
0000
0100
0001
0100
,
1000
0010
0000
0010
0100
0001
0010
0001
,
0001
0000
0010
0001
0000
0010
1000
0010
,
0001
0100
0001
0100
0010
1000
0100
0010
,
0100
0000
1000
0010
0000
0100
0001
0100
,
0001
0100
0010
0100
1000
0100
0010
0100
,
0001
0010
0100
1000
0010
0100
0010
0010
,
2000
0000
0000
3001
,
1000
0010
0100
0010
0000
1000
0100
0000
,
0010
0001
0000
1000
0001
0000
0100
0010
,
0100
0001
0100
0000
0001
0100
0000
0010
,
1000
0000
0100
0010
0000
0001
1000
0001
,
0100
0001
1000
0100
0000
0010
0100
0000
,
1000
0100
0000
0010
0001
0000
1000
0001
,
0100
0010
0100
0010
1000
0010
0100
0001
,
0002
0203
0320
1030
,
0001
0100
0001
0100
0001
0100
0001
0010
,
0100
0010
0100
0010
0100
1000
0100
0000
,
0010
0001
0010
0001
0010
0001
1000
0001
,
1000
0100
1000
0000
2020
3030
0202
0303
,
0001
0100
0010
0100
0010
1000
0001
1000
,
0100
0010
0001
0100
0010
1000
0001
0000
,
1000
0001
0100
0010
1000
0010
0100
0001
,
0200
0000
0301
0100
0010
0100
0010
0000
,
2002
0000
0000
0000
,
0000
0000
3003
0100
,
0010
0000
0000
0000
,
1000
0000
0100
0000
0010
0000
0001
0000
1000
0000
0001
0000
,
2002
0000
0000
0000
,
0000
0000
3003
0100
,
0010
0000
0000
0000
,
0001
0000
0100
0000
0010
0000
1000
0000
0001
0000
1000
0000
,
0100
1000
1000
0010
,
0100
0000
0001
0000
1000
0000
0001
0100
,
0001
0100
0100
0010
,
1000
0000
0100
0000
0010
0000
0001
0100
,
0010
0100
0001
1000
,
0100
0100
1000
0001
,
1000
0100
0010
0100
0010
0001
1000
0010
,
0100
0100
0100
0000
0001
0000
1001
0000
,
1000
0010
0010
1000
0010
0010
1000
0000
,
0001
0010
0010
0001
0010
0010
0001
0000
,
1000
0100
0100
1000
0100
0100
1000
0000
,
0001
0100
0100
0001
0100
0100
0001
0000
,
1000
0100
1000
0100
1000
0100
0010
0100
,
0010
0000
0000
0001
0000
0000
1000
0000
0000
0010
0000
0000
0100
0000
0000
0001
,
1000
0000
0000
0100
0000
0000
1000
0000
0000
1000
0001
0000
1000
0000
0001
0000
,
0020
0000
0000
0130
,
0110
0000
0000
0000
1000
0000
0000
0000
0001
0000
0000
0100
0000
0000
0001
0000
,
1000
0000
0100
0000
0000
0000
0010
0000
0001
0000
0000
0100
0000
0000
0010
0000
,
0100
0000
0010
0000
0000
0000
1000
0000
0010
0000
0000
1000
0000
0000
0100
0000
,
0010
0001
1000
0000
0001
1000
0002
0000
,
0103
0000
0000
0000
1001
0000
0000
0000
0001
0000
0000
0001
0000
0000
1000
0000
,
0010
0000
0100
0000
0000
0000
0010
0000
1000
0000
0000
0100
0000
0000
1000
0000
,
0001
0000
0100
0000
0000
0000
0010
0000
0100
0000
0000
0001
0000
0000
1000
0000
,
0100
0000
0010
0000
0000
0000
0001
0000
0000
1000
0000
0000
1001
0000
0000
0000
,
0001
0000
0100
0000
0010
0000
0100
0000
0001
0000
0000
0100
0000
0000
0010
0000
,
1000
0000
0010
0000
0100
0000
0010
0000
0100
0000
0000
0010
0000
0000
0100
0000
,
0001
0000
0100
0000
0001
0000
1000
0000
0100
0000
0000
0010
0000
0000
0001
0000
,
1000
0010
0100
0001
1000
1000
0200
0000
,
1300
0000
0000
0000
1010
0000
0000
0000
0010
0000
0000
0100
0000
0000
0010
0000
,
0100
0000
0000
0000
0000
0000
0000
0000
0001
0000
0000
0000
0000
0000
0000
0000
1000
0000
0000
0000
0000
0000
0000
0000
0001
0000
0000
0000
0000
0000
0000
0000
1000
0000
0000
0000
0000
0000
0000
0000
0200
0300
0000
0000
0000
0000
0000
0000
0200
0300
0000
0000
0000
0000
0000
0000
0000
0000
0000
0000
0000
0000
0000
0000
,
0001
0000
0000
0100
0000
0000
1000
0000
0000
0100
0000
0000
0001
0000
0010
0000
,
0100
0000
0000
0001
0000
0000
0100
0000
0000
1000
0000
0000
0010
0000
0100
0000
,
0001
0000
0000
0000
1001
0000
0000
0000
0001
0000
0000
0100
0000
0000
0001
0000
,
1000
0000
0100
0000
0000
0000
0010
0000
0001
0000
0000
1000
0000
0000
0010
0000
,
0010
0000
0100
0000
0000
0000
0010
0000
1000
0000
0000
0010
0000
0000
0100
0000
,
0001
0100
0001
0000
1000
0010
0100
0000
,
0110
0000
0001
0100
,
1000
0000
0010
1000
,
0100
0000
0001
1000
,
0002
0000
0000
0003
,
2002
0000
0000
0000
,
0000
0000
0000
0000
,
3003
0000
0000
0000
;

//--------------- dance-single - Fred-104 ----------------
#NOTES:
     dance-single:
     Fred-104:
     Hard:
     16:
     :
0000
0000
0000
0000
,
0000
0000
0000
0000
,
0000
0000
0000
0000
,
0000
0000
0000
0000
,
0000
0000
0000
0000
,
0000
0000
0000
0000
,
0001
0000
0100
0000
0001
0000
0100
0000
0010
0000
1000
0000
0001
0000
1000
0100
,
1000
0000
0100
0000
0010
0000
0001
0000
1000
0010
1000
0010
1000
0000
0001
0000
,
1000
0100
1000
0000
0001
0100
0001
0000
0100
0010
0100
0000
0001
1000
0001
0000
,
2002
0000
0000
3003
,
0001
0001
0001
1000
0100
0010
0001
0100
,
0010
0000
1000
0000
0100
0000
0010
0000
0001
0000
1000
0001
2000
0000
0000
0000
,
3001
0100
1000
0001
0010
1000
0001
0100
,
1000
0000
0001
0000
0010
0000
1000
0000
0001
0000
0100
0010
0200
0000
0000
0000
,
0302
0000
0000
0000
1003
0010
0100
0000
0001
0000
0100
0000
0010
0000
1000
0000
,
0100
0000
0010
0000
0001
0000
0100
0000
0010
1000
0010
1000
0020
0000
0000
0000
,
1030
0010
0100
0001
0010
1000
0010
0001
,
2000
0100
3001
1001
,
0110
0000
0000
0000
0001
0100
0001
0000
1000
0100
1000
0000
0010
0000
0100
0000
,
0001
0000
1000
0000
0001
0100
0001
0000
1000
0000
1000
0000
1001
0000
0000
0000
,
0110
0000
0000
0010
0100
0000
0001
0000
1000
0100
1000
0000
0100
0000
0010
0000
,
0001
0000
0100
0000
0001
0100
0001
0000
1000
0000
0100
0000
1100
0000
0000
0000
,
1001
0000
0000
0000
0001
0100
0020
0000
1030
0010
0200
0000
0301
0000
0001
0000
,
1000
0000
0010
0000
0100
0010
0100
0000
0001
0000
1000
0000
1010
0000
0000
0000
,
0001
0100
0001
0000
0100
0000
0010
0000
1000
0100
1000
0100
0010
0000
0001
0000
,
2002
0000
0000
3003
,
0101
0000
0000
0000
0100
0000
0100
0000
0000
0000
0010
0000
1000
0000
0100
0010
,
0100
0000
0010
0000
0001
0100
0001
0000
1000
0000
0100
0000
1000
0000
0010
0000
,
1000
0100
0100
0001
0100
0100
1000
0010
,
1000
0010
1000
0000
1001
0000
0001
0000
1000
0000
1010
0000
0001
0000
0011
0000
,
0010
0000
0100
0000
0001
0000
0010
0000
0100
0000
1000
0000
0001
0000
1000
0010
,
1000
0000
0001
0000
1000
0100
1000
0000
0001
0000
1000
0010
1000
0000
0100
0000
,
0010
0000
0100
0000
0100
0000
0100
0000
1000
0000
0001
0000
1000
0001
1000
0001
,
2000
0000
0000
3001
,
0001
0100
0100
1000
0100
0100
0001
0100
,
0100
1000
0100
0100
0001
1000
0010
0100
,
0001
0010
0010
1000
0010
0010
0001
0010
,
0010
1000
0010
0010
0001
1000
0200
0000
,
1300
0010
0001
1000
0100
0001
1000
0010
,
0001
1000
0100
0001
1000
0100
0020
0000
,
0031
0000
0100
0000
0100
0000
0010
0000
0100
0000
0100
0000
0001
0000
1000
0100
,
2000
0010
3001
1001
,
1000
0100
0010
1000
0010
0100
1000
0100
,
0010
0000
1000
0000
0010
0000
0100
0000
1000
0000
0001
1000
0001
0000
0100
0000
,
0001
0100
0010
0001
0010
0100
0001
0010
,
0100
1000
1100
0000
0202
0303
2002
3003
,
0001
0010
0100
0001
0100
0010
0001
1000
,
0001
0000
1000
0001
1000
0000
0100
0000
0010
0000
0010
0000
0001
0100
0001
0100
,
0010
0000
1000
0000
0001
0000
0100
0000
0001
0010
0100
1000
0001
0000
0000
0000
,
0200
0000
2300
3200
0302
1003
1010
0000
,
2002
0000
0000
0000
,
0000
0000
3003
1000
,
2200
0000
0000
3300
,
1000
0000
0100
0000
0001
0000
1000
0000
0010
0000
0001
0000
,
2002
0000
0000
0000
,
0000
0000
3003
0001
,
0202
0000
0000
0303
,
0001
0000
0100
0000
1000
0000
0001
0000
0010
0000
1000
0000
,
1001
0000
0000
0000
0001
0000
0100
0000
0010
0000
1000
0010
0000
0010
0100
0000
,
0001
0000
0010
0000
0000
0000
0010
0000
0100
0000
1000
0100
0000
1000
0010
0000
,
0100
0000
0001
0000
0000
0000
0100
0000
0010
0000
1000
0001
0000
0001
0010
0000
,
0100
0000
0010
0000
0000
0000
0010
0000
0001
0000
0100
0010
0000
0010
1000
0000
,
0001
0000
0100
0000
0001
0000
0000
0000
1000
0000
0010
0100
0000
0010
0100
0000
,
0001
0000
0010
0000
0000
0000
0010
0000
0001
0000
1000
0100
0000
1000
0100
0000
,
0010
0000
0001
0000
0000
0000
1000
0000
0001
0000
0100
0001
0000
0100
0001
0000
,
0100
0000
0010
0100
0010
0000
1000
0000
0001
0000
0000
0000
1001
0000
0000
0000
,
0100
0000
0000
0000
0010
0000
0010
0000
1000
0000
0100
0010
0000
0001
0100
0000
,
0001
0000
0100
0000
0000
0000
0100
0000
0010
0000
1000
0010
0000
0100
0010
0000
,
1000
0000
0100
0000
0000
0000
0100
0000
0010
0000
0001
1000
0000
0010
1000
0010
,
0100
0010
0100
0000
0001
0000
0001
0000
1000
0000
0100
0000
1000
0000
1000
0000
,
0001
0000
0100
0000
0001
0000
0100
0000
0010
0100
0010
0100
0001
0000
1000
0000
,
0001
0100
0000
0001
0100
0000
0010
1000
0000
0010
1000
0000
0001
0100
0000
0010
,
1000
0000
0100
0010
0000
0001
1000
0000
0001
0000
0010
0000
0001
0100
0010
1000
,
0002
0000
0000
1003
,
1100
0000
0000
0000
0011
0000
0000
0000
1000
0000
0001
0100
0000
0010
1000
0000
,
0001
0000
0100
0000
0000
0000
0100
0000
0001
0000
0010
0100
0000
1000
0001
0000
,
1000
0100
1000
0000
0010
0000
0100
0000
0001
0000
0010
0100
0000
0010
0100
0000
,
1000
0000
0010
0000
1010
0000
0000
0000
1000
0000
0001
1000
0200
0000
0000
0000
,
0320
0000
0000
0000
0031
0000
0100
0000
0001
0000
0010
0100
0000
0010
0001
0000
,
1000
0010
0100
0000
0000
0000
0100
0000
0001
0000
0010
0001
0000
0010
0100
0000
,
1000
0000
0010
0000
0100
0000
0001
0100
0001
0000
0010
0100
0000
1000
0100
0000
,
1000
0000
1000
0000
0000
0000
0001
0000
0000
1000
0000
0000
1001
0000
0000
0000
,
1100
0000
0000
0000
0010
0000
1000
0000
0001
0010
0001
0010
0000
0100
1000
0000
,
0001
0000
0100
0000
0000
0000
0010
0000
0100
0010
0100
0010
0000
1000
0100
0000
,
0010
0000
0001
0000
0000
0000
0100
0000
0001
0100
0001
0100
0000
0010
1000
0000
,
0001
0000
0010
0000
0100
0000
1000
0000
0001
1000
0001
1000
0002
0000
0000
0000
,
1003
0000
0100
0000
0010
0000
0001
0000
1000
0010
1000
0010
0000
0100
0010
0000
,
0100
0000
0001
0000
0000
0000
0001
0000
1000
0100
1000
0100
1000
0000
0000
0000
,
1000
0000
0000
1010
0000
0000
0001
0000
0000
0011
0000
0000
0100
0000
0010
0000
,
0100
0000
0000
0010
0000
0000
1000
0000
0000
0010
0000
0000
0100
0000
0001
0000
,
2000
0000
0000
0000
3010
0000
0100
0000
0001
0000
0000
0010
0000
0000
0100
0000
,
0010
0000
0001
0000
0000
0000
0001
0000
1000
0000
0000
0100
0000
0000
1000
0000
,
0001
0000
0100
0000
0000
0000
0100
0000
0010
0000
0000
0100
0000
0000
0001
0000
,
1000
0100
0001
1000
0010
0001
1001
0000
,
1100
0000
0000
0000
0010
0000
0000
0000
0001
0000
0000
1000
0000
0000
0010
0000
,
0100
0000
0010
0000
0000
0000
0010
0000
1000
0000
0000
0100
0000
0000
0010
0000
,
0001
0000
0100
0000
0000
0000
0100
0000
0010
0000
0000
0100
0000
0000
0001
0000
,
0202
0000
0000
0303
,
2002
0000
0000
0000
,
0000
0000
0000
0000
,
3003
0000
0000
0000
;

//--------------- dance-single - Fred-104 ----------------
#NOTES:
     dance-single:
     Fred-104:
     Challenge:
     18:
     :
0000
0000
0000
0000
,
0000
0000
0000
0000
,
0000
0000
0000
0000
,
0000
0000
0000
0000
,
0000
0000
0000
0000
,
0000
0000
0000
0000
,
1000
0000
1000
0000
0010
0000
0010
0000
0100
0000
0001
0000
1000
0000
0001
1000
,
0100
0000
0100
0000
0010
0000
0010
0000
0001
0100
0010
0100
0001
0000
1000
0000
,
0001
0010
0001
1000
0100
0010
0001
0100
0010
1000
0100
0010
0001
0100
1000
0100
,
0002
0000
0000
0000
0000
0003
1001
0000
,
1000
0000
0100
0010
0001
0000
1000
0000
0100
0010
0001
0000
1000
0000
0010
0100
,
0001
0000
1000
0000
0010
0100
0001
0000
1000
0000
1000
0100
0020
0000
0000
0000
,
0031
0000
0100
0010
1000
0000
0001
0000
0100
0010
1000
0000
0001
0000
0010
0100
,
1000
0000
0001
0000
0010
0100
1000
0000
0001
0000
0001
0100
0002
0000
0000
0000
,
2003
0000
0000
0000
3001
0100
0001
0000
1000
0000
0100
0010
0001
0000
1000
0000
,
0001
0010
0001
0000
0100
0000
0010
1000
0001
0100
0001
0100
0002
0000
0000
0000
,
1003
0000
0100
0010
0001
0000
0100
0010
1000
0000
0001
0010
0100
0000
1000
0001
,
0100
0000
0110
0000
0010
0011
0001
1001
,
1000
0000
0000
0000
0001
0010
0100
0000
1000
0100
0010
0000
0001
0000
1000
0000
,
0100
0000
0100
0000
0100
0010
0100
0000
0100
0000
0100
0000
1001
0000
0000
0000
,
1100
0000
0000
0100
0010
0000
0001
0000
0100
0010
0100
0000
0001
0000
0001
0000
,
1000
0000
1000
0000
1000
0001
1000
0000
0001
0000
0001
0000
1001
0000
0000
0000
,
1001
0000
0000
0000
1000
0200
0001
0000
1300
0020
0001
0000
1030
0000
0010
0000
,
0100
0000
0001
0000
0100
0001
0100
0000
0001
0000
1001
0000
1001
0000
0000
0000
,
1000
0100
0010
0000
0001
0000
0100
0000
0001
0100
0010
1000
0001
0010
0100
0000
,
2002
0000
0000
3003
,
1100
0000
0000
0000
0100
0000
0110
0000
0000
0000
0010
0000
0001
0000
1000
0001
,
0100
0000
0001
0000
1000
0001
0010
0000
0001
0000
0101
0000
1000
0000
0100
0010
,
0001
0000
0100
0000
0110
0000
1000
0000
0100
0000
0110
0000
0010
0000
0001
1000
,
0001
1000
0100
0000
1100
0000
1000
0000
0010
0000
0110
0000
0100
0000
0110
0000
,
0001
0000
0010
0000
0110
0000
1000
0000
0010
0000
0110
0000
0100
0000
0001
1000
,
0100
0000
0010
0000
0100
1000
0001
0000
0100
0000
0001
0100
0010
1000
0000
0001
,
1000
0000
0100
0000
1100
0000
0001
0000
0100
0000
0101
0000
0001
0100
0010
1000
,
0020
0000
0000
0100
0000
0000
0100
0000
0000
0000
0030
0000
0110
0000
0000
0000
,
1000
0000
0001
0100
1000
0000
0100
0000
0001
0010
1000
0000
0010
0000
0001
0100
,
1000
0000
0100
0000
0001
0010
1000
0000
0010
0000
0001
1000
0200
0000
0000
0000
,
1300
0000
0100
0001
0100
0000
1000
0000
0010
0001
0010
0000
1000
0000
0100
0001
,
0100
0000
1000
0000
0010
0001
0010
0000
1000
0000
0100
0010
0002
0000
0000
0000
,
1003
0000
0100
0010
0001
0000
1000
0000
0010
0100
0001
0000
1000
0000
0100
0010
,
0001
0000
1000
0000
0010
0100
0001
0000
1000
0000
0100
0010
0002
0000
0000
0000
,
1003
0000
0001
1000
0100
0000
0010
0000
0100
0010
0001
0000
0100
0000
0010
1000
,
0002
0010
1003
1001
,
1100
0100
0100
0110
0010
0010
0011
0001
,
0001
0000
1001
0000
1000
0000
1000
0000
0001
0000
0100
0010
0100
0000
0001
0000
,
0101
0100
0100
0110
0010
0010
1010
1000
,
1000
0001
1001
0000
0220
0330
2002
3003
,
1000
0100
0001
1000
0010
0001
1000
0001
,
0100
0000
0001
0010
0100
0000
0100
0000
1000
0000
1000
0000
0001
0010
0100
1000
,
0001
0000
0100
0000
0010
0000
1000
0000
0001
0010
0100
0010
0001
0100
0010
1000
,
0001
0100
1000
0001
0010
1000
1001
0000
,
2002
0000
0000
0000
,
0000
0000
0003
3010
,
0110
0000
0000
0000
,
1010
0000
0101
0000
1100
0000
0011
0000
1010
0000
0101
0000
,
2002
0000
0000
0000
,
0000
0000
3000
0103
,
0110
0000
0000
0000
,
0011
0000
1010
0000
0101
0000
1010
0000
0011
0000
1100
0000
,
1001
0000
0000
0000
1000
0000
0010
1000
0100
0000
0010
0001
0100
0001
0100
0010
,
1000
0000
1000
0000
0010
0000
0100
0000
0010
0000
1000
0100
0000
0010
0001
0010
,
0100
0000
1000
0000
0010
0000
0100
0000
0001
0000
1000
0100
0000
0010
0100
1000
,
0001
0000
0001
0000
0100
0000
0010
0000
0100
0000
0001
0010
0000
0010
0100
1000
,
0002
0000
0000
0000
0103
0000
0010
0000
1000
0000
0010
1000
0000
0010
0100
0001
,
0010
0000
0010
0000
0100
0000
1000
0000
0001
0000
0100
0001
0000
1000
0100
0010
,
0001
0000
1000
0000
0010
0000
0100
0000
0001
0000
0010
0100
1000
0010
0100
0001
,
0010
0000
0100
1000
0001
0000
0100
0001
1000
0000
0001
0100
0010
0000
0000
0000
,
1000
0000
0100
0000
0010
0000
0100
0000
1000
0000
0001
0100
0010
0100
0001
1000
,
0001
0000
0001
0000
1000
0000
0010
0000
0100
0000
0010
1000
0010
0100
0010
1000
,
0001
0000
0010
0000
0100
0000
1000
0000
0001
0000
0100
0010
1000
0010
0100
0001
,
1000
0100
0010
0000
0001
0000
1000
0000
0001
0000
0001
0000
0100
0000
0010
0000
,
0100
0000
0001
0000
1000
0000
0100
0000
0010
0001
1000
0001
0100
0010
1000
0010
,
1000
0100
0000
0010
0100
0000
0001
0100
0000
0010
0100
0000
1000
0001
0000
0001
,
1000
0000
0001
0010
0100
0010
0001
0000
1000
0100
0010
0001
0100
0010
1000
0100
,
0020
0000
0000
0001
0000
0000
0001
0000
0000
0001
0000
0000
0031
0000
0000
0000
,
1002
0000
0000
0000
0013
0000
0001
0000
1000
0000
0001
0100
0000
0001
0010
0001
,
0100
0000
0010
0000
0010
0000
1000
0000
0100
0000
1000
0010
0000
0100
0001
0100
,
0010
1000
0100
0000
1000
0000
0100
0000
0010
0000
0001
0100
0000
0100
0010
1000
,
0001
0000
0010
0000
0011
0000
0001
0000
1000
0000
0001
1000
0200
0000
0000
0300
,
0120
0000
0000
0000
0031
0000
1000
0000
0001
0000
0100
0010
0000
1000
0010
0100
,
0001
0100
0001
0000
1000
0000
0010
0000
1000
0000
0100
0010
0001
0100
0001
0100
,
0010
0000
1000
0000
0100
1000
0100
1000
0100
0000
0010
0000
0001
1000
0100
1000
,
0001
0000
1001
0000
0000
0000
1010
0000
0000
0101
0000
0000
1001
0000
0000
0000
,
1100
0000
0000
0000
0110
0000
0000
0000
0001
0010
0100
1000
0010
0100
0001
1000
,
0001
0010
0001
0000
0000
0000
0100
0000
0010
1000
0001
1000
0001
0010
0100
1000
,
0100
0010
0100
0000
0000
0000
0010
0000
0001
1000
0001
0100
0001
0010
0001
1000
,
0100
1000
0001
0000
0010
0000
0001
0000
1000
0100
0001
0100
2000
0000
0000
0000
,
3001
0000
0010
0000
0100
0000
1000
0000
0001
0100
0010
1000
0010
0100
0001
0010
,
0001
0000
0100
0000
0010
0000
1000
0000
0100
0010
0001
1000
0010
0000
0100
0000
,
0101
0000
0000
1001
0000
0000
1010
0000
0000
1001
0000
0000
0001
1000
0010
0000
,
1000
0000
0100
0001
0000
0100
1000
0000
0001
0010
0000
1000
0010
0001
0100
0000
,
0001
0000
0100
0000
0001
0000
0100
0000
0001
0010
0001
1000
0000
0001
1000
0000
,
0010
0000
0010
0000
0100
0000
0001
0000
1000
0100
1000
0010
0000
0100
0001
0000
,
1000
0000
0100
0000
0010
0000
0001
0000
1000
0010
0100
0001
0000
0100
0010
0000
,
1000
0010
0001
1000
0100
0001
1001
0000
,
0110
0000
0000
0000
0010
0000
0000
0000
0100
0000
0001
0010
0000
0010
0100
0000
,
1000
0000
0100
0000
0000
0000
0010
0000
0001
0000
0100
0010
0000
0001
0010
0000
,
0100
0000
0001
0000
0000
0000
0010
0000
0100
0000
1000
0010
0000
0100
0001
0000
,
0022
0000
0000
0033
,
2002
0000
0000
0000
,
0000
0000
0000
0000
,
3003
0000
0000
0000
;

//--------------- dance-double - Fred-104 ----------------
#NOTES:
     dance-double:
     Fred-104:
     Easy:
     10:
     :
00000000
00000000
00000000
00000000
,
00000000
00000000
00000000
00000000
,
00000000
00000000
00000000
00000000
,
00000000
00000000
00000000
00000000
,
00000000
00000000
00000000
00000000
,
00000000
00000000
00000000
00000000
,
00000010
00000010
00001000
00000001
,
00000100
00001000
00010000
01000000
,
10000000
00100000
10000000
00000000
00010000
00100000
00010000
00000000
,
20020000
00000000
00000000
30030000
,
01000000
00100000
01000000
00000000
00010000
00000000
00010000
00000000
,
10000000
00000000
01000000
00000000
00100000
00010000
00100000
00000000
,
00001000
00010000
00001000
00000000
00100000
00000000
00001000
00000000
,
00010000
00000000
00010000
00000000
00000010
00001000
00000010
00000000
,
00001000
00000001
00001000
00000000
00000001
00000000
00000100
00000000
,
00000010
00000000
00001000
00000000
00000001
00000010
00000001
00000000
,
00000100
00000100
00000010
00001000
,
00010000
00010000
00001000
00011000
,
00010000
00000000
00000000
00000100
00000000
00000100
00000010
00000000
,
00000001
00000100
00001000
00000100
,
00000001
00000000
00000000
00001000
00000000
00001000
00000010
00000000
,
00000100
00000001
00000010
00001000
,
00010000
00000000
00001000
00000000
00010000
00001000
00010000
00000000
,
00001000
00100000
00001000
00000000
01000000
00100000
01000000
00000000
,
00100000
00010000
00001000
00000010
,
00000220
00000000
00000000
00000330
,
00001001
00000000
00000000
00000100
00000000
00000000
00000001
00000000
,
00000100
00000010
00001000
00000010
,
00010000
00000000
00000000
00001000
00000000
00000000
00010000
00000000
,
01000000
00000000
00100000
00000000
00001000
00010000
00001000
00000000
,
00000100
00000000
00000000
00000010
00000000
00000000
00001000
00000000
,
00000100
00010000
00001000
00100000
,
00010000
00000000
01000000
00000000
00100000
01000000
00100000
00000000
,
02200000
00000000
00000000
03300000
,
10000000
00000000
00000000
01000000
00000000
00000000
00100000
00000000
,
00000000
00010000
00000000
00000000
01000000
00000000
00100000
00000000
,
10000000
00000000
00010000
00000000
00000000
01000000
00000000
00000000
,
00100000
00000000
00000000
01000000
00000000
00000000
00001000
00000000
,
00010000
00001000
00010000
00010000
,
00000100
00000000
00000010
00000000
00000001
00000100
00000001
00000000
,
00000100
00000100
00000010
00001000
,
00020000
00000000
00000000
00031000
,
00100000
00000000
00010000
00100000
00000000
00100000
00010000
00000000
,
01000000
00000000
00100000
00000000
10000000
00000000
00100000
01000000
,
00100000
00000000
10000000
00000000
01000000
00100000
00000000
01000000
,
00100000
00000000
00010000
00000000
00002000
00003000
00002000
00003000
,
00000010
00000000
00000100
00000001
00000000
00000100
00000010
00000000
,
00001000
00000000
00000001
00000000
00000010
00000100
00000010
00000000
,
00010000
00001000
00010000
00000000
00100000
01000000
00100000
00000000
,
00001000
00010000
00000010
00001000
,
00002002
00000000
00000000
00000000
,
00000000
00000000
00000000
00000000
,
00003003
00000000
00000000
00000000
,
00000001
00000000
00000000
00000000
00000100
00000000
00001000
00000000
00000000
00000000
00010000
00000000
,
20020000
00000000
00000000
00000000
,
00000000
00000000
00000000
00000000
,
30030000
00000000
00000000
00000000
,
10000000
00000000
00000000
00000000
01000000
00000000
00010000
00000000
00000000
00000000
00001000
00000000
,
00000100
00000000
00000010
00000001
,
00001000
00000000
00000010
00010000
,
00001000
00000000
00100000
00010000
,
01000000
00000000
00100000
10000000
,
01000000
01000000
00100000
00001000
,
00010000
00010000
00001000
00000010
,
00000100
00000001
00000100
00000000
00000010
00001000
00000010
00000000
,
00001000
00000100
00001000
00000000
00000001
00000000
00001001
00000000
,
00000100
00000000
00000000
00000010
00000000
00001000
00000100
00000000
,
00001000
00010000
00000000
00001000
00010000
00000000
01000000
00000000
,
00100000
00000000
00000000
10000000
00000000
00100000
01000000
00000000
,
00100000
10000000
00000000
00100000
01000000
00000000
00010000
00000000
,
10000000
01000000
00100000
00001000
,
00010000
00000100
00000010
00000001
,
00000100
00000010
00000100
00000000
00000001
00001000
00000001
00000000
,
00002002
00000000
00000000
00003003
,
00000001
00000000
00000000
00000000
00000100
00000000
00000000
00000000
00000010
00000000
00000000
00000010
00000000
00000000
00001000
00000000
,
00000100
00000000
00000000
00000000
00000010
00000000
00000000
00000000
00000100
00000000
00000000
00000100
00000000
00000000
00000100
00000000
,
00010000
00000000
00000000
00000000
00001000
00000000
00000000
00000000
00100000
00000000
00000000
00100000
00000000
00000000
01000000
00000000
,
00100000
00000000
00010000
00000000
01000000
00010000
02000000
00000000
,
03010000
00000000
00000000
00000000
10000000
00000000
00000000
00000000
01000000
00000000
00000000
00100000
00000000
00000000
00001000
00000000
,
00010000
00000000
00000000
00000000
00100000
00000000
00000000
00000000
00010000
00000000
00000000
00001000
00000000
00000000
00010000
00000000
,
00001000
00000000
00000000
00000000
00000100
00000000
00000000
00000000
00000010
00000000
00000000
00000100
00000000
00000000
00001000
00000000
,
00000001
00000000
00000100
00000000
00000000
00000000
00000010
00000000
00000000
00001000
00000000
00000000
00001001
00000000
00000000
00000000
,
00000010
00000000
00000000
00000000
00001000
00000000
00000000
00000000
00010000
00000000
00000000
00100000
00000000
00000000
01000000
00000000
,
00100000
00000000
00000000
00000000
00001000
00000000
00000000
00000000
00010000
00000000
00000000
00000100
00000000
00000000
00010000
00000000
,
00001000
00000000
00000000
00000000
00010000
00000000
00000000
00000000
01000000
00000000
00000000
00100000
00000000
00000000
00010000
00000000
,
00001000
00000000
00000100
00000000
00000010
00000100
00000020
00000000
,
00001030
00000000
00000001
00000000
00000100
00000010
00001000
00000010
,
00001000
00000000
00000100
00000000
00010000
00001000
00020000
00000000
,
01030000
00000000
00000000
00100000
00000000
00000000
10000000
00000000
00000000
01000000
00000000
00000000
00010000
00000000
00001000
00000000
,
00000100
00000000
00000000
00000001
00000000
00000000
00001000
00000000
00000000
00000010
00000000
00000000
00000200
00000000
00000000
00000000
,
00000301
00000000
00000000
00000000
00000100
00000000
00000000
00000000
00000010
00000000
00000000
00000010
00000000
00000000
00000010
00000000
,
00001000
00000000
00000000
00000000
00000001
00000000
00000000
00000000
00000100
00000000
00000000
00000100
00000000
00000000
00000100
00000000
,
00001000
00000000
00000000
00000000
00010000
00000000
00000000
00000000
00100000
00000000
00000000
00100000
00000000
00000000
00100000
00000000
,
01000000
00000000
10000000
00000000
00010000
10000000
00010000
00000000
,
10010000
00000000
10000000
00100000
,
00010000
00000000
00001000
00010000
,
01000000
00000000
10000000
01000000
,
00020000
00000000
00000000
00030000
,
00022000
00000000
00000000
00000000
,
00000000
00000000
00000000
00000000
,
00033000
00000000
00000000
00000000
;

//--------------- dance-double - Fred-104 ----------------
#NOTES:
     dance-double:
     Fred-104:
     Medium:
     13:
     :
00000000
00000000
00000000
00000000
,
00000000
00000000
00000000
00000000
,
00000000
00000000
00000000
00000000
,
00000000
00000000
00000000
00000000
,
00000000
00000000
00000000
00000000
,
00000000
00000000
00000000
00000000
,
00001000
00010000
00001000
00100000
00001000
00100000
00010000
00100000
,
01000000
00100000
01000000
10000000
00100000
01000000
00010000
10000000
,
02000000
03020000
00032000
00003200
,
00000302
00000000
00000000
00000003
,
00000001
00000001
00000001
00000100
00000010
00000000
00001000
00000100
,
00000000
00010000
00001000
00000000
00010000
01000000
00100000
00000000
,
10000000
01000000
00100000
00010000
10000000
00000000
00010000
00100000
,
00000000
01000000
00100000
00000000
00001000
00010000
00001000
00000000
,
00010000
00000000
00000100
00001000
00000100
00000010
00000001
00001000
,
00000000
00000001
00000100
00000000
00001000
00000100
00000001
00000000
,
00001000
00000001
00000100
00001000
00000100
00001000
00010000
00001000
,
00020000
01000000
10030000
10010000
,
00010000
00000000
10000000
10000000
00100000
00100000
01000000
00010000
,
10000000
01000000
00100000
01000000
00100000
00001000
00020000
00000000
,
00031000
00000000
00000000
00010000
00001000
00000000
00010000
00000000
00000010
00000000
00001000
00000000
00000100
00000000
00010000
00000000
,
00000010
00001000
00000100
00000010
00000001
00001000
00000010
00000000
,
00000100
00000000
00000001
00000001
00001000
00001000
00000001
00000100
,
00000010
00000100
00000001
00001000
00000100
00010000
00002000
00000000
,
00013000
00100000
01000000
10000000
00100000
01000000
00010000
00000000
,
20020000
00000000
00000000
30030000
,
00100000
00000000
10000000
01000000
00000000
01000000
00010000
01000000
,
10000000
00100000
00000000
00100000
01000000
00010000
00100000
00010000
,
00010000
00000000
10000000
01000000
00000000
00100000
01000000
10000000
,
00100000
00100000
10000000
01000000
10000000
00100000
01000000
00000000
,
00010000
00100000
00001000
00100000
00000000
00001000
00010000
00000100
,
00010000
00001000
00000100
00000001
00001000
00000100
00000010
00000000
,
00000001
00000100
00000001
00000100
00000010
00001000
00000100
00000100
,
00020000
00000000
00000000
00031000
,
00010000
00100000
01000000
00100000
00000000
00010000
10000000
00000000
,
01000000
00100000
00000000
00001000
00010000
00000000
00001000
00010000
,
00000100
00001000
00000100
00000000
00000010
00000001
00000000
00000100
,
00000010
00000000
00001000
00000001
00000000
00000100
00000010
00000100
,
00000001
00001000
00000010
00010000
00000000
00001000
00010000
00000000
,
00100000
01000000
00000000
00100000
00010000
00000000
10000000
00100000
,
01000000
00100000
10000000
01000000
00100000
00010000
01000000
00000000
,
00002000
00023000
00030200
00000310
,
00000100
00000001
00000100
00000001
00000100
00000010
00000100
00000000
,
00000001
00000100
00000001
00000100
00000010
00001000
00000100
00000000
,
00010000
00001000
00100000
00010000
10000000
00100000
01000000
00000000
,
00010000
01000000
00100000
00000000
22000000
33000000
00220000
00330000
,
01000000
00100000
10000000
01000000
00100000
01000000
00100000
00001000
,
00010000
00001000
00000100
00000010
00001000
00000001
00000010
00000000
,
00000100
00000010
00000001
00001000
00000001
00000100
00001000
00000100
,
00001000
00000000
00010000
01000000
10000000
00010000
01000000
00000000
,
02200000
00000000
00000000
00000000
,
00000000
00000000
03300000
10000000
,
00010000
00000000
00000000
00000000
,
10000000
00000000
01000000
00000000
00010000
00000000
00001000
00000000
00000010
00000000
00000001
00000000
,
00000220
00000000
00000000
00000000
,
00000000
00000000
00000330
00000001
,
00001000
00000000
00000000
00000000
,
00000001
00000000
00000100
00000000
00001000
00000000
00010000
00000000
00100000
00000000
10000000
00000000
,
00010000
01000000
01000000
00100000
,
10000000
00000000
01000000
00000000
01000000
00000000
00100000
01000000
,
00010000
00001000
00001000
00000100
,
00000001
00000000
00001000
00000000
00000010
00000000
00000100
00000001
,
00000100
00000001
00000100
00000010
,
00001000
00000100
00010000
00001000
,
00010000
00100000
01000000
00000000
10000000
00100000
01000000
00000000
,
00010000
00010000
00010000
00000000
10000000
00000000
10010000
00000000
,
10000000
00100000
00100000
10000000
00100000
00100000
10000000
00000000
,
00010000
00100000
00100000
00010000
00100000
00100000
00010000
00000000
,
00001000
00000100
00000100
00001000
00000100
00000100
00001000
00000000
,
00000001
00000100
00000100
00000001
00000100
00000100
00000001
00000000
,
00001000
00000010
00000100
00000010
00001000
00000001
00000010
00000100
,
00001000
00000000
00000000
00001000
00000000
00000000
00010000
00000000
00000000
00010000
00000000
00000000
01000000
00000000
00000000
01000000
,
00000000
00000000
00100000
00000000
00000000
00100000
00000000
00000000
10000000
00000000
01000000
00000000
00010000
00000000
01000000
00000000
,
20000000
00000000
00000000
30010000
,
10010000
00000000
00000000
00000000
01000000
00000000
00000000
00000000
00100000
00000000
00000000
01000000
00000000
00000000
00100000
00000000
,
10000000
00000000
01000000
00000000
00000000
00000000
00100000
00000000
00001000
00000000
00000000
00010000
00000000
00000000
00001000
00000000
,
00010000
00000000
00000010
00000000
00000000
00000000
00001000
00000000
00000100
00000000
00000000
00010000
00000000
00000000
00001000
00000000
,
00000100
00000001
00001000
00000000
00000010
00001000
00000002
00000000
,
00000103
00000000
00000000
00000000
00000110
00000000
00000000
00000000
00000001
00000000
00000000
00001000
00000000
00000000
00000010
00000000
,
00001000
00000000
00000100
00000000
00000000
00000000
00010000
00000000
00001000
00000000
00000000
00010000
00000000
00000000
01000000
00000000
,
10000000
00000000
00010000
00000000
00000000
00000000
01000000
00000000
00010000
00000000
00000000
10000000
00000000
00000000
01000000
00000000
,
00100000
00000000
00001000
00000000
00000000
00000000
00010000
00000000
00000000
00001000
00000000
00000000
00011000
00000000
00000000
00000000
,
00001000
00000000
00000100
00000000
00000010
00000000
00000000
00000000
00000001
00000000
00000000
00000100
00000000
00000000
00000010
00000000
,
00000100
00000000
00000001
00000000
00000000
00000000
00000100
00000000
00000010
00000000
00000000
00010000
00000000
00000000
00001000
00000000
,
00100000
00000000
00010000
00000000
00000000
00000000
00100000
00000000
01000000
00000000
00000000
10000000
00000000
00000000
00100000
00000000
,
01000000
00010000
10000000
00000000
01000000
00100000
00020000
00000000
,
01030000
00000000
00000000
00000000
00011000
00000000
00000000
00000000
00000100
00000000
00000000
00000010
00000000
00000000
00000001
00000000
,
00001000
00000000
00000000
00000000
00000000
00000000
00000000
00000000
00000010
00000000
00000000
00000000
00000000
00000000
00000000
00000000
00000100
00000000
00000000
00000000
00000000
00000000
00000000
00000000
00000001
00000000
00000000
00000000
00000000
00000000
00000000
00000000
00001000
00000000
00000000
00000000
00000000
00000000
00000000
00000000
00000200
00000300
00000000
00000000
00000000
00000000
00000000
00000000
00000200
00000300
00000000
00000000
00000000
00000000
00000000
00000000
00000000
00000000
00000000
00000000
00000000
00000000
00000000
00000000
,
00000001
00000000
00000000
00000010
00000000
00000000
00001000
00000000
00000000
00010000
00000000
00000000
01000000
00000000
10000000
00000000
,
10000000
00000000
00000000
00100000
00000000
00000000
00010000
00000000
00000000
00001000
00000000
00000000
00000100
00000000
00000001
00000000
,
00001000
00000000
00000000
00000000
00001100
00000000
00000000
00000000
00000001
00000000
00000000
00000100
00000000
00000000
00000010
00000000
,
00000100
00000000
00000001
00000000
00000000
00000000
00001000
00000000
00000100
00000000
00000000
00010000
00000000
00000000
01000000
00000000
,
00100000
00000000
01000000
00000000
00000000
00000000
00100000
00000000
00001000
00000000
00000000
00000010
00000000
00000000
00001000
00000000
,
00010000
00100000
01000000
00000000
10000000
00010000
01000000
00000000
,
10010000
00000000
10000000
01000000
,
00010000
00000000
00001000
00000010
,
00000001
00000000
00000100
00001000
,
00002002
00000000
00000000
00003003
,
00022000
00000000
00000000
00000000
,
00000000
00000000
00000000
00000000
,
00033000
00000000
00000000
00000000
;

//--------------- dance-double - Fred-104 ----------------
#NOTES:
     dance-double:
     Fred-104:
     Hard:
     16:
     :
00000000
00000000
00000000
00000000
,
00000000
00000000
00000000
00000000
,
00000000
00000000
00000000
00000000
,
00000000
00000000
00000000
00000000
,
00000000
00000000
00000000
00000000
,
00000000
00000000
00000000
00000000
,
00001000
00000000
00010000
00000000
00001000
00000000
00100000
00000000
00001000
00000000
00010000
00000000
00100000
00000000
01000000
00100000
,
01000000
10000000
00100000
01000000
00010000
00001000
00010000
01000000
,
00001000
00010000
00000010
00001000
00000100
00010000
00001000
00100000
,
02000000
00000000
00000000
03000000
,
00100000
00100000
00100000
10000000
01000000
00100000
00001000
00010000
,
00100000
00000000
10000000
00000000
01000000
00000000
00100000
00000000
00001000
00000000
00010000
00001000
00020000
00000000
00000000
00000000
,
00030010
00001000
00000100
00000010
00000001
00000100
00000010
00001000
,
00010000
00000000
00100000
00000000
10000000
00000000
00010000
00000000
01000000
00000000
00100000
01000000
00200000
00000000
00000000
00000000
,
20300000
00000000
30010000
00010000
10000000
01000000
00010000
00001000
,
00010000
00000000
00001000
00000000
00000100
00000000
00000001
00000000
00000100
00000010
00000100
00000010
00000200
00000000
00000000
00000000
,
00000301
00000100
00001000
00000100
00000001
00000100
00000010
00001000
,
00020000
00100000
10030000
01100000
,
00011000
00000000
00000000
00000000
00010000
00000100
00010000
00000000
00000100
00001000
00000100
00000000
00010000
00000000
00001000
00000000
,
00000100
00000001
00001000
00000100
00000010
00000010
00000110
00000000
,
00000011
00000000
00000000
00000001
00001000
00000000
00000010
00000000
00000100
00000010
00000100
00000000
00000010
00000000
00001000
00000000
,
00010000
00000000
00001000
00000000
00010000
00001000
00010000
00000000
00100000
00000000
10000000
00000000
10010000
00000000
00000000
00000000
,
01100000
00000000
00000000
00000000
10000000
01000000
00200000
00000000
00310000
01000000
00200000
00000000
10300000
00000000
00100000
00000000
,
01000000
00000000
00100000
00000000
01000000
00010000
01000000
00000000
00001000
00000000
00010000
00000000
00011000
00000000
00000000
00000000
,
00001000
00000000
00001000
00000000
00000100
00000000
00000010
00000000
00000001
00000100
00000010
00000100
00000001
00000000
00000000
00000000
,
00002002
00000000
00000000
00003003
,
00000001
00000000
00001000
00001010
00000000
00010000
00001000
00100000
,
01000000
00010000
00001000
00000100
00000010
00010000
00100000
00010000
,
00001000
00000000
01000000
00100000
00000000
00001000
00010000
01000000
,
00001000
00010000
00000100
00001000
00000010
00010000
00001000
00100000
,
01000000
00000000
00001000
00010000
00000000
00000100
00000010
00000100
,
00001000
00010000
01000000
00100000
00001000
00010000
00000100
00000100
,
00000100
00000000
00000010
00000000
00000100
00000000
00000001
00000000
00001000
00000000
00000001
00000000
00001000
00000010
00001000
00000010
,
00000200
00000000
00000000
00000310
,
00000001
00000100
00001000
00010000
00000000
01000000
10000000
00000000
,
00010000
01000000
00000000
00100000
10000000
01000000
00100000
00001000
,
00010000
00000100
00000010
00000000
00000100
00010000
00000000
00000010
,
00001000
00000100
00000001
00000100
00001000
00010000
02000000
00000000
,
03100000
10000000
00100000
00010000
00000000
00100000
01000000
00000000
,
00100000
00001000
00000000
00010000
00001000
00000010
00000001
00001000
,
00000001
00000100
00001000
00000000
00000100
00000001
00000000
00001000
,
00020000
02030000
03100000
10100000
,
10000000
01000000
00010000
10000000
00100000
00010000
10000000
01000000
,
00010000
00000000
00001000
00000000
00000100
00000000
00000001
00000000
00001000
00000000
00000010
00000100
00000010
00000000
00000000
00000000
,
00000001
00000100
00001000
00000001
00000010
00001000
00010000
00100000
,
10000000
00010000
01010000
00000000
22000000
33000000
02200000
03300000
,
00010000
01000000
10000000
00010000
00100000
10000000
00010000
01000000
,
00100000
00000000
10000000
00000000
10000000
00000000
00100000
00000000
00010000
00000000
00001000
00000000
00010000
00001000
00010000
00001000
,
00010000
00000000
00001000
00000000
00000100
00000000
00000001
00000000
00001000
00000100
00000010
00000001
00000100
00000000
00000000
00000000
,
00000200
00000000
00000302
00000023
00002030
00023000
01030000
00000000
,
20020000
00000000
00000000
00000000
,
00000000
00000000
30030000
00100000
,
01000000
00000000
00000000
00000000
,
10000000
00000000
01000000
00000000
00010000
00000000
00001000
00000000
00000010
00000000
00000001
00000000
,
00002002
00000000
00000000
00000000
,
00000000
00000000
00003003
00000010
,
00000100
00000000
00000000
00000000
,
00000001
00000000
00000100
00000000
00001000
00000000
00010000
00000000
00100000
00000000
10000000
00000000
,
00010000
00000000
01000000
00000000
00100000
00000000
01000000
00000000
00010000
00000000
00000000
10000000
00000000
00000000
01000000
00000000
,
00100000
00000000
00001000
00000000
00000000
00000000
00010000
00000000
00001000
00000000
00000000
00000010
00000000
00000000
00000001
00000000
,
00001000
00000000
00000010
00000000
00000000
00000000
00000100
00000000
00000010
00000000
00000000
00000100
00000000
00000000
00000100
00000000
,
00000001
00000010
00001000
00000000
00010000
01000000
10000000
00000000
,
00010000
00000000
01000000
00000000
00100000
00000000
10000000
00000000
01000000
00000000
00000000
00100000
00000000
00000000
00001000
00000000
,
00010000
00000000
00100000
00000000
00000000
00000000
01000000
00000000
00010000
00000000
00000000
00001000
00000000
00000000
00000100
00000000
,
00000010
00000000
00000001
00000000
00000000
00000000
00001000
00000000
00000001
00000000
00000000
00000100
00000000
00000000
00000010
00000000
,
00001000
00000000
00010000
00001000
00010000
00000000
00100000
00000000
01000000
00000000
00000000
00000000
10010000
00000000
00000000
00000000
,
00100000
00000000
10000000
00000000
01000000
00000000
10000000
00000000
01000000
00000000
00100000
01000000
00000000
00100000
01000000
00000000
,
00100000
00000000
00100000
00000000
00000000
00000000
00001000
00000000
00010000
00000000
00001000
00010000
00000000
00001000
00000100
00000000
,
00001000
00000000
00001000
00000000
00000000
00000000
00000001
00000000
00000100
00000000
00000001
00000010
00000000
00000001
00000100
00000000
,
00000001
00000000
00000001
00000000
00000000
00000000
00000100
00000000
00001000
00000000
00010000
00001000
00000000
00010000
00001000
00000000
,
00010000
00000000
01000000
00000000
10000000
00000000
01000000
00000000
00010000
01000000
00010000
01000000
00100000
00000000
10000000
00000000
,
00100000
10000000
00000000
00010000
01000000
00000000
00001000
00010000
00000000
00000100
00001000
00000000
00000001
00000100
00000000
00000010
,
00001000
00000000
00000001
00000010
00000000
00000100
00000010
00000000
00000001
00000000
00000001
00000000
00000100
00000010
00000100
00000010
,
00002000
00000000
00000000
00013000
,
00011000
00000000
00000000
00000000
00110000
00000000
00000000
00000000
10000000
00000000
00100000
00010000
00000000
00100000
10000000
00000000
,
00010000
00000000
01000000
00000000
00000000
00000000
00100000
00000000
01000000
00000000
00010000
01000000
00000000
10000000
01000000
00000000
,
00010000
00000000
00001000
00000000
00000000
00000000
00010000
00000000
00000100
00000000
00001000
00000100
00000000
00000010
00000100
00000000
,
00001000
00000000
00000001
00000000
00001001
00000000
00000000
00000000
00000001
00000000
00000100
00000010
00000200
00000000
00000000
00000000
,
00000301
00000000
00000000
00000000
00001001
00000000
00000000
00000000
00000010
00000000
00001000
00000100
00000000
00010000
00001000
00000000
,
00100000
00000000
01000000
00000000
00000000
00000000
00100000
00000000
00010000
00000000
00001000
00000010
00000000
00010000
00001000
00000000
,
00100000
00000000
01000000
00000000
00000000
00000000
00001000
00000000
00010000
00000000
00000100
00010000
00000000
00001000
01000000
00000000
,
00100000
00000000
00100000
00000000
00000000
00000000
01010000
00000000
00000000
00101000
00000000
00000000
00011000
00000000
00000000
00000000
,
00010000
00000000
00001000
00000000
00000010
00000000
00000001
00000000
00000100
00000000
00000010
00000100
00000000
00000010
00001000
00000000
,
00000001
00000000
00000100
00000000
00000000
00000000
00000010
00000000
00001000
00000100
00001000
00000010
00000100
00000000
00000000
00000000
,
00000001
00000000
00000010
00000000
00000000
00000000
00001000
00000000
00010000
00000000
00001000
00010000
00000000
00001000
00100000
00000000
,
00010000
00000000
00010000
00000000
01000000
00000000
00100000
00000000
10000000
00100000
01000000
00010000
02000000
00000000
00000000
00000000
,
03100000
00000000
00000000
00000000
10000000
00000000
01000000
00000000
00100000
00000000
01000000
00100000
00000000
00001000
00010000
00000000
,
00000100
00000000
00000100
00000000
00000000
00000000
00000001
00000000
00000100
00000010
00000100
00000010
00001000
00000000
00000000
00000000
,
00001000
00000000
00000000
00000110
00000000
00000000
00010000
00000000
00000000
01001000
00000000
00000000
00010000
00000000
00100000
00000000
,
01000000
00000000
00000000
00100000
00000000
00000000
10000000
00000000
00000000
00010000
00000000
00000000
00100000
00000000
00010000
00000000
,
00001000
00000000
00000000
00000000
00000100
00000000
00000000
00000000
00000010
00000000
00000001
00000100
00000000
00001000
00000100
00000000
,
00000001
00000000
00000010
00000000
00000000
00000000
00001000
00000000
00010000
00000000
00100000
01000000
00000000
00100000
00010000
00000000
,
00001000
00000000
01000000
00000000
00000000
00000000
00010000
00000000
00100000
00000000
00010000
01000000
00000000
10000000
01000000
00000000
,
00010000
10000000
01000000
00010000
00001000
00000010
00000001
00000000
,
00001000
00000000
00000000
00000000
00000010
00000000
00000000
00000000
00000100
00000000
00000000
00000001
00000000
00000000
00001000
00000000
,
00000100
00000000
00000010
00000000
00000000
00000000
00000001
00000000
00000100
00000000
00000000
00001000
00000000
00000000
00010000
00000000
,
01000000
00000000
00100000
00000000
00000000
00000000
10000000
00000000
01000000
00000000
00000000
00010000
00000000
00000000
00001000
00000000
,
00022000
00000000
00000000
00033000
,
00002002
00000000
00000000
00000000
,
00000000
00000000
00000000
00000000
,
00003003
00000000
00000000
00000000
;

//--------------- dance-double - Fred-104 ----------------
#NOTES:
     dance-double:
     Fred-104:
     Challenge:
     18:
     :
00000000
00000000
00000000
00000000
,
00000000
00000000
00000000
00000000
,
00000000
00000000
00000000
00000000
,
00000000
00000000
00000000
00000000
,
00000000
00000000
00000000
00000000
,
00000000
00000000
00000000
00000000
,
00001000
00000000
00000001
00000000
00000010
00000000
00000100
00000000
00000010
00000000
00000001
00000000
00001000
00000000
00000100
00010000
,
00000100
00000000
00010000
00000000
00001000
00000000
00100000
00000000
00010000
00100000
01000000
00100000
00010000
00000000
10000000
00000000
,
00010000
01000000
00100000
10000000
00010000
00100000
01000000
00100000
00010000
00001000
00000100
00000010
00000100
00000010
00000001
00001000
,
00000020
00000000
00000000
00000000
00000000
00000030
00000110
00000000
,
00000001
00000000
00000100
00000010
00000100
00000000
00000010
00000000
00001000
00000100
00001000
00000000
00000100
00000000
00010000
00001000
,
00010000
00000000
01000000
00000000
00100000
01000000
00100000
00000000
10000000
00000000
00010000
10000000
02000000
00000000
00000000
00000000
,
03100000
00000000
10000000
01000000
10000000
00000000
00100000
00000000
01000000
00010000
01000000
00000000
00001000
00000000
00010000
00000100
,
00010000
00000000
00000010
00000000
00001000
00000001
00001000
00000000
00000001
00000000
00000100
00000010
00002000
00000000
00000000
00000000
,
00023000
00000000
00000000
00000000
00130000
01000000
00100000
00000000
00010000
00000000
10000000
01000000
00100000
00000000
00001000
00000000
,
00010000
00001000
00010000
00000000
00001000
00000000
00100000
00010000
01000000
00100000
10000000
00010000
10000000
00000000
00100000
00000000
,
01000000
00000000
00010000
10000000
01000000
00000000
00100000
00010000
00100000
00000000
00001000
00010000
00001000
00000000
00010000
00000000
,
00002000
00000010
00003001
00001001
,
00001000
00000000
00000000
00000000
00000001
00000100
00001000
00000000
00010000
01000000
10000000
00000000
00010000
00000000
01000000
00000000
,
00100000
00000000
10000000
00000000
00010000
01000000
00100000
00000000
10000000
00000000
10000000
00000000
10010000
00000000
00000000
00000000
,
01100000
00000000
00000000
00100000
10000000
00000000
00010000
00000000
10000000
01000000
00100000
00000000
00001000
00000000
00010000
00000000
,
00100000
00000000
00001000
00000000
00000010
00001000
00000010
00000000
00000100
00000000
00000100
00000000
00001001
00000000
00000000
00000000
,
00000110
00000000
00000000
00000000
00000001
00000200
00001000
00000000
00000301
00000020
00001000
00000000
00000031
00000000
00000100
00000000
,
00000010
00000000
00001000
00000000
00010000
00001000
00010000
00000000
00100000
00000000
01000000
00000000
01100000
00000000
00000000
00000000
,
00010000
01000000
00100000
00000000
10000000
00000000
01000000
00000000
00100000
00010000
00100000
00001000
00010000
00001000
01000000
00000000
,
02200000
00000000
00000000
03300000
,
10010000
00000000
00000000
00000000
01000000
00000000
01001000
00000000
00000000
00000000
00001000
00000000
00010000
00000000
00000010
00001000
,
00000010
00000000
00010000
00000000
00000100
00001000
00000100
00000000
00010000
00000000
00011000
00000000
00010000
00000000
00000100
00001000
,
00000100
00000000
00000010
00000000
00000011
00000000
00000100
00000000
00000010
00000000
00001010
00000000
00001000
00000000
00000001
00000100
,
00000010
00001000
00000100
00000000
00001100
00000000
00000100
00000000
00010000
00000000
00011000
00000000
00001000
00000000
00011000
00000000
,
01000000
00000000
00100000
00000000
00110000
00000000
01000000
00000000
00100000
00000000
10100000
00000000
10000000
00000000
00010000
10000000
,
01000000
00000000
00100000
00000000
00010000
00100000
01000000
00000000
00100000
00000000
00001000
00010000
00001000
00010000
00000000
00000010
,
00001000
00000000
00000100
00000000
00001100
00000000
00000001
00000000
00000100
00000000
00000101
00000000
00000001
00000100
00000010
00001000
,
00000002
00000000
00000000
00000100
00000000
00000000
00001000
00000000
00000003
00000000
00000000
00000000
00011000
00000000
00000000
00000000
,
00001000
00000000
00010000
00100000
01000000
00000000
10000000
00000000
00010000
01000000
00100000
00000000
10000000
00000000
01000000
00100000
,
00010000
00000000
00001000
00000000
00010000
00100000
01000000
00000000
00001000
00000000
00010000
00000010
00002000
00000000
00000000
00000000
,
00003010
00000000
00001000
00000010
00000100
00000000
00000010
00000000
00000001
00000010
00000100
00000000
00010000
00000000
00001000
00100000
,
00010000
00000000
00100000
00000000
01000000
00100000
00010000
00000000
00001000
00000000
00010000
00001000
00020000
00000000
00000000
00000000
,
00030010
00000000
00001000
00000001
00000100
00000000
00000010
00000000
00000100
00000001
00001000
00000000
00000010
00000000
00010000
00001000
,
00100000
00000000
01000000
00000000
00100000
00001000
00010000
00000000
00000100
00000000
00000010
00000100
00000020
00000000
00000000
00000000
,
00000130
00000000
00000001
00000010
00000100
00000000
00001000
00000000
00010000
00001000
00010000
00000000
01000000
00000000
00100000
10000000
,
00020000
10000000
00130000
10010000
,
10100000
00100000
01000000
01010000
00010000
00001000
00011000
00001000
,
00000010
00000000
00000110
00000000
00000100
00000000
00000001
00000000
00001000
00000000
00000010
00000100
00000001
00000000
00001000
00000000
,
00001010
00000010
00010000
00011000
00001000
00100000
00110000
00010000
,
10000000
01000000
01100000
00000000
00022000
00033000
00000220
00000330
,
00000001
00000100
00001000
00000001
00000010
00001000
00010000
00001000
,
00000001
00000000
00000000
00000000
00000000
00000000
00000000
00000000
00000100
00000000
00000000
00000000
00000010
00000000
00000000
00000000
00000100
00000000
00000000
00000000
00000000
00000000
00000000
00000000
00000001
00000000
00000000
00000000
00000000
00000000
00000000
00000000
00000020
00000030
00000000
00000000
00000000
00000000
00000000
00000000
00000020
00000030
00000000
00000000
00000000
00000000
00000000
00000000
00001000
00000000
00000000
00000000
00000100
00000000
00000000
00000000
00000010
00000000
00000000
00000000
00000001
00000000
00000000
00000000
,
00001000
00000000
00000010
00000000
00010000
00000000
00001000
00000000
00010000
00001000
00100000
00010000
00100000
00010000
10000000
00010000
,
10000000
01000000
00010000
00001000
00000010
00000001
00001001
00000000
,
00002200
00000000
00000000
00000000
,
00000000
00000000
00003300
00000010
,
00000100
00000000
00000000
00000000
,
00000011
00000000
00001010
00000000
00011000
00000000
01010000
00000000
11000000
00000000
10010000
00000000
,
02020000
00000000
00000000
00000000
,
00000000
00000000
03030000
00100000
,
01000000
00000000
00000000
00000000
,
10100000
00000000
00110000
00000000
00011000
00000000
00001100
00000000
00000101
00000000
00001001
00000000
,
00001100
00000000
00000000
00000000
00000001
00000000
00000100
00000010
00001000
00000000
00000001
00000010
00000100
00001000
00000100
00001000
,
00000100
00000000
00010000
00000000
00001000
00000000
00001000
00000000
01000000
00000000
00010000
00100000
00000000
00010000
10000000
00010000
,
01000000
00000000
00100000
00000000
10000000
00000000
01000000
00000000
00010000
00000000
01000000
10000000
00000000
00100000
01000000
00010000
,
01000000
00000000
00100000
00000000
10000000
00000000
00100000
00000000
00001000
00000000
00010000
00001000
00000000
00001000
00010000
00001000
,
00000020
00000000
00000000
00000000
00000130
00000000
00000001
00000000
00000100
00000000
00000001
00000010
00000000
00000100
00001000
00000001
,
00000100
00000000
00000001
00000000
00000001
00000000
00000100
00000000
00000010
00000000
00001000
00000001
00000000
00000010
00000100
00010000
,
00001000
00000000
00010000
00000000
00001000
00000000
00100000
00000000
01000000
00000000
00100000
00010000
10000000
01000000
00100000
00010000
,
01000000
00000000
00100000
10000000
01000000
00000000
01000000
00100000
00010000
00000000
00001000
00010000
00001000
00000000
00000000
00000000
,
00010000
00000000
00001000
00000000
00000100
00000000
00000001
00000000
00001000
00000000
00000001
00000100
00001000
00000100
00000001
00001000
,
00000001
00000000
00000001
00000000
00000100
00000000
00001000
00000000
00010000
00000000
00001000
00010000
00001000
01000000
00001000
00010000
,
00001000
00000000
00100000
00000000
00100000
00000000
00010000
00000000
00100000
00000000
01000000
10000000
00100000
01000000
00010000
10000000
,
01000000
00000000
00000000
00000000
00100000
00000000
00000000
00000000
00010000
00000000
00000000
00000000
00000000
00000000
00000000
00000000
00200000
00300000
00000000
00000000
00000000
00000000
00000000
00000000
00200000
00300000
00000000
00000000
00000000
00000000
00000000
00000000
10000000
00000000
00000000
00000000
00000000
00000000
00000000
00000000
01000000
00000000
00000000
00000000
00000000
00000000
00000000
00000000
00010000
00000000
00000000
00000000
00000000
00000000
00000000
00000000
00001000
00000000
00000000
00000000
00000000
00000000
00000000
00000000
,
00000100
00000000
00000010
00000000
00000001
00000000
00001000
00000000
00000001
00000100
00000010
00000100
00000001
00001000
00000001
00000000
,
00000001
00000010
00000000
00000010
00001000
00000000
00001000
00010000
00000000
00010000
00100000
00000000
00100000
10000000
00000000
10000000
,
00010000
00000000
01000000
00100000
00000000
01000000
00010000
00000000
00100000
00001000
00010000
00001000
01000000
00010000
00100000
00010000
,
20000000
00000000
00000000
32000000
00000000
00000000
03020000
00000000
00000000
00031000
00000000
00000000
00011000
00000000
00000000
00000000
,
00001100
00000000
00000000
00000000
00000101
00000000
00000100
00000000
00000001
00000000
00000010
00001000
00000000
00000010
00000001
00001000
,
00000001
00000000
00000100
00000000
00000000
00000000
00000100
00000000
00010000
00000000
00000010
00001000
00000000
00000100
00010000
00001000
,
00010000
00000000
00010000
00000000
00000000
00000000
01000000
00000000
00100000
00000000
10000000
00100000
00000000
00100000
00010000
00100000
,
01000000
00000000
00100000
00000000
00110000
00000000
00010000
00000000
10000000
00000000
01000000
00100000
00020000
00000000
00000000
00000000
,
01030000
00000000
00000000
00000000
00011000
00000000
00000000
00000000
00000100
00000000
00000010
00000001
00000000
00001000
00000001
00000100
,
00000001
00000100
00000010
00000000
00000100
00000000
00000010
00000000
00001000
00000000
00000001
00000100
00000000
00000010
00001000
00000100
,
00010000
00000000
00001000
00000000
00010000
00100000
00010000
00100000
01000000
00000000
10000000
00000000
00010000
01000000
00100000
01000000
,
00010000
00000000
10010000
00000000
00000000
00000000
00011000
00000000
00000000
00001100
00000000
00000000
00000110
00000000
00000000
00000000
,
00001001
00000000
00000000
00000000
00000110
00000000
00000000
00000000
00000001
00000010
00000100
00001000
00000010
00000100
00001000
00010000
,
00001000
00000000
00100000
00000000
00000000
00000000
00100000
00000000
00001000
00010000
00100000
01000000
00010000
00100000
01000000
10000000
,
01000000
00000000
01000000
00000000
00000000
00000000
00100000
00000000
00010000
10000000
01000000
00100000
00010000
01000000
00100000
00010000
,
00001000
00000000
00001000
00000000
00000100
00000000
00000010
00000000
00000001
00000100
00000010
00001000
00000020
00000000
00000000
00000000
,
00000130
00000000
00000001
00000000
00001000
00000000
00000100
00000000
00000010
00000001
00000010
00000100
00001000
00000010
00010000
00001000
,
00100000
00000000
00010000
00000000
10000000
00000000
01000000
00000000
10000000
00100000
01000000
00010000
00100000
00000000
00010000
00000000
,
10010000
00000000
00000000
11000000
00000000
00000000
01010000
00000000
00000000
00011000
00000000
00000000
00000010
00000000
00000100
00000000
,
00000001
00000000
00001000
00000100
00000000
00000001
00000100
00000000
00001000
00000100
00000000
00000001
00000100
00000010
00001000
00000000
,
00000001
00000000
00000010
00000000
00000010
00000000
00000001
00000000
00001000
00000001
00000100
00000001
00000000
00001000
00000100
00000000
,
00000010
00000000
00000010
00000000
00000001
00000000
00001000
00000000
00000010
00001000
00000100
00010000
00000000
00010000
00001000
00000000
,
01000000
00000000
01000000
00000000
00010000
00000000
00100000
00000000
01000000
10000000
00010000
01000000
00000000
00100000
01000000
00000000
,
10000000
01000000
00010000
00001000
00000010
00000001
00001001
00000000
,
00000100
00000000
00000000
00000000
00000010
00000000
00000000
00000000
00000001
00000000
00000100
00000010
00000000
00001000
00000100
00000000
,
00001000
00000000
00010000
00000000
00000000
00000000
01000000
00000000
10000000
00000000
00010000
00100000
00000000
01000000
00100000
00000000
,
00001000
00000000
00000010
00000000
00000000
00000000
00000010
00000000
00000100
00000000
00000001
00000100
00000000
00001000
00010000
00000000
,
00022000
00000000
00000000
00033000
,
20020000
00000000
00000000
00000000
,
00000000
00000000
00000000
00000000
,
30030000
00000000
00000000
00000000
;
