#TITLE:HEAVENLY MOON;
#ARTIST:Tatsh;
#BANNER:HEAVENLY MOON.png;
#BACKGROUND:HEAVENLY MOON-bg.png;
#CDTITLE:./CDTitles/jb copious.png;
#MUSIC:HEAVENLY MOON.ogg;
#SAMPLESTART:71.351;
#SAMPLELENGTH:15;
#DISPLAYBPM:92.5:185;
#BPMS:0=185.567,4=185,14=92.5,15=185,21=370,23=185,29=370,31=185,39=92.5,57=185,88=370,89=185,119=370,121=185,258=370,259=185,274=370,275=185,313=370,314=185;
#STOPS:21=0.162,22=0.162,29=0.162,30=0.163,56.9375=1.297,88=0.04,88.25=0.04,88.5=0.041,88.75=0.041,119=0.04,119.25=0.041,119.5=0.04,119.75=0.041,120=0.041,120.25=0.041,120.5=0.081,193=0.973,258=0.162,274=0.162,313=0.04,313.25=0.041,313.5=0.04,313.75=0.041;
#TIMESIGNATURES:0=4=4,12=3=4,15=4=4,55=2=4,57=4=4,193=1=4,194=4=4;
#STAGE:15;

//--------------- dance-single - Fred-104 ----------------
#NOTES:
     dance-single:
     Fred-104:
     Beginner:
     4:
     :
0000
0000
0000
0000
,
0000
0000
0000
0000
,
1000
0000
0001
0000
,
1000
0000
0001
1000
,
0000
0010
0000
1000
,
0000
0002
0003
1000
,
0000
0001
0000
1000
,
0000
0020
0030
0100
,
0000
0100
0000
0010
,
0010
0010
0010
0020
,
0000
0030
0000
2000
,
0000
3000
0000
0002
,
0000
0003
0000
0200
,
0000
0300
0000
1001
,
0000
1000
0000
0001
,
0000
1000
0000
0001
,
0000
1000
0000
0010
,
0000
0100
0000
0100
,
0000
0010
0000
1000
,
0000
0010
0000
1000
,
0000
0001
0001
0001
,
0000
1000
1000
1000
,
0000
0001
0000
0001
,
0000
0010
0000
0010
,
0000
1000
0000
1000
,
0000
0100
0000
0100
,
0000
0001
0000
0001
,
0000
1000
0000
0010
,
0000
1000
0000
0001
,
0000
1000
1000
1000
,
1001
0000
0000
0000
,
0000
2000
0000
0000
,
3000
0200
0000
0000
,
0300
0020
0000
0000
,
0030
0002
0000
0000
,
0003
2000
0000
0000
,
3000
0020
0000
0000
,
0030
0200
0000
0000
,
0300
0002
0000
0000
,
0003
1000
0000
1000
,
0000
0001
0000
0010
,
0000
0100
0000
0100
,
0000
0010
0000
0001
,
0000
1000
0000
0100
,
0000
1000
0000
0100
,
0000
1000
0000
0001
,
0000
0010
0000
0100
,
0000
1000
1000
1000
,
1000
1000
0001
0000
,
0010
0000
0001
0000
,
0100
0100
0100
0000
,
0001
0000
1000
0000
,
0010
0010
0010
0000
,
1000
0000
0001
0000
,
1000
1000
1000
0000
,
0010
0000
2000
0000
,
0000
3000
0001
0000
,
0000
0010
0000
0000
,
0100
0000
1000
0000
,
0000
0100
0000
0000
,
1000
0000
0001
0000
,
0000
1000
0000
0000
,
0001
0000
0100
0000
,
0010
0000
0100
0100
,
0100
0100
0200
0300
,
0010
0000
0001
0000
,
1000
0000
0010
0000
,
1000
0000
0001
0001
,
0001
0001
0002
0003
,
1000
0000
0010
0000
,
1000
0000
0002
0000
,
0000
0003
2000
0000
,
0000
3000
0001
0000
,
1000
0000
0100
0000
,
0010
0000
0001
0000
,
1000
0000
0001
0001
,
0001
0001
2002
0000
,
0000
0000
3003
0000
,
0000
0000
2002
0000
,
0000
0000
3003
0000
,
0000
0000
1000
0000
,
0001
0000
1000
0000
,
0001
2002
0000
0000
,
0000
0000
0000
0000
,
0000
0000
3003
0000
;

//--------------- dance-single - Fred-104 ----------------
#NOTES:
     dance-single:
     Fred-104:
     Easy:
     9:
     :
0000
0000
0000
0000
,
0000
0000
0000
0000
,
1000
1000
0100
1000
,
0001
0000
0001
0000
0100
0100
0010
0000
,
1000
0001
0010
0100
,
0010
0200
0320
1030
,
0001
0010
0100
1000
,
0001
2000
3002
1003
,
0010
0000
0000
0000
0100
0000
0000
0000
0001
0000
0000
0000
1000
0000
0000
1000
,
0000
1000
0001
0000
0100
0000
0110
0000
,
0002
1000
0103
1001
,
0200
0000
0000
0000
0010
0000
0000
0000
0310
0000
0000
0000
0001
0000
0000
0010
,
0000
0000
0010
0000
0100
0000
0000
1000
0000
0000
1000
0000
0010
0000
0000
0100
,
0000
0000
0100
0000
0001
0000
0000
1000
0000
0000
0001
0000
0100
0000
0020
0000
,
0000
0030
1000
0000
0100
0000
1000
0000
,
1000
0010
1000
0001
,
0010
0001
0010
0000
0001
0000
0100
0000
,
0001
0000
1000
0010
1000
0000
0001
0000
,
0100
0010
0100
0000
0001
0000
1000
0000
,
0100
1000
0010
1000
,
0001
0000
1000
0001
1000
0000
1001
0000
,
0000
0000
0010
0100
0010
0000
0220
0000
,
0330
0000
0001
0000
0000
0010
0000
0000
,
0010
0000
0001
0000
0000
1000
0000
0000
,
0100
0000
1000
0000
0000
0010
0000
0000
,
0100
0010
1000
0001
,
1000
0000
0100
0000
0000
1000
0000
0000
,
0010
0000
1000
0000
0000
0100
0000
0000
,
0010
0002
0000
1000
,
0003
0000
0010
0000
0010
0000
1000
0001
,
1000
0001
0000
0000
0000
0000
0000
0000
,
0000
0000
1000
0000
0000
0010
0000
0000
,
1010
0000
0001
0000
0000
0100
0000
0000
,
0110
0000
0010
0000
0000
1000
0000
0000
,
1100
0000
0001
0000
0000
1000
0000
0000
,
1001
0000
0010
0000
0000
0011
0000
0000
,
0001
0000
0100
0000
0000
0110
0000
0000
,
0010
0000
1000
0000
0000
0110
0000
0000
,
0001
0000
1000
0001
1000
0002
0000
0000
,
0103
0000
0020
0000
0000
2030
0000
0000
,
3002
0000
0000
0000
,
0003
0000
1000
0010
1000
0000
0001
0010
,
0001
0000
1000
0001
1000
0000
0010
0100
,
0010
0000
1000
0000
0000
0100
0000
0000
,
0010
0000
0000
0001
0000
0000
0100
0000
,
0000
1000
0000
0000
0100
0000
0000
0001
,
0000
0000
0010
0000
0000
0100
0000
0000
,
1000
0000
0001
0000
1000
0000
0001
1000
,
0001
1000
0001
0000
1001
0000
0010
0000
,
1000
0001
0100
0010
,
0100
0000
0100
0010
0100
0000
0001
0000
,
0010
0001
1000
0100
,
0010
0000
0010
0001
0010
0000
0001
0000
,
1000
0010
1000
0100
,
1000
0000
1000
0001
1000
0000
0000
0000
,
0001
0000
2000
0001
,
3002
0000
1000
0000
1003
0000
0000
0100
,
0000
0000
0010
0000
0000
0001
0000
0000
,
1000
0000
0010
0000
0100
0000
0000
0010
,
0000
0000
1000
0000
0000
0100
0000
0000
,
0010
0001
1000
0001
,
0010
0010
0001
0100
,
0010
1000
1010
0000
,
0101
0000
1000
1000
,
0001
0001
2002
3003
,
0100
0100
0010
0001
,
1000
0010
1000
0100
,
0100
1000
0001
0100
,
0010
1000
2002
3003
,
0100
0100
1000
0010
,
0001
0100
2000
0000
,
0000
0000
0002
0000
,
3003
0000
0001
0001
,
0010
0010
1000
1000
,
0100
0100
0001
1000
,
0010
0000
0100
0000
0001
1000
0001
0000
,
0100
0010
0100
0000
1001
0000
0000
0110
,
0000
2002
0000
0000
,
0000
0000
3003
0000
1001
0000
0000
0110
,
0000
2002
0000
0000
,
0000
3003
1000
0100
,
0010
0001
1000
0010
,
0100
0010
0220
0000
0000
0000
0000
0000
,
0000
0000
0000
0000
,
0000
0000
0330
0000
;

//--------------- dance-single - Fred-104 ----------------
#NOTES:
     dance-single:
     Fred-104:
     Medium:
     13:
     :
0000
0000
0000
0000
,
0000
0000
0000
0000
,
0001
0010
0001
0100
0010
1000
0001
0000
,
1000
0000
0100
0000
0010
0000
0001
0000
0100
0010
2000
0000
3001
0000
0010
0000
,
0100
1000
0010
0100
0001
0000
1000
0100
,
0001
0000
0000
0000
0000
0000
0000
0000
0100
0000
0000
0000
0000
0000
0000
0000
2002
3003
0000
0000
0000
0000
0000
0000
0000
0000
0000
0000
0000
0000
0000
0000
0220
0330
0000
0000
0000
0000
0000
0000
0000
0000
0000
0000
0000
0000
0000
0000
1000
0000
0000
0000
0000
0000
0000
0000
0010
0000
0000
0000
0000
0000
0000
0000
,
0001
0010
1000
0001
0100
0000
0001
0010
,
0100
0000
0000
0000
0000
0000
0000
0000
1000
0000
0000
0000
0000
0000
0000
0000
2002
3003
0000
0000
0000
0000
0000
0000
0000
0000
0000
0000
0000
0000
0000
0000
0220
0330
0000
0000
0000
0000
0000
0000
0000
0000
0000
0000
0000
0000
0000
0000
1000
0000
0000
0000
0000
0000
0000
0000
0001
0000
0000
0000
0000
0000
0000
0000
,
0100
0000
0000
0000
0020
0000
0000
0000
0130
0000
0001
0000
2000
0000
0000
3002
,
0000
0203
0310
1000
0001
0010
0010
0001
,
1000
0000
0010
0000
0200
0000
0000
0000
0310
1000
0001
1000
0100
0000
0010
0000
,
0001
0000
1000
0000
0002
0000
0000
0000
1003
0010
0100
0001
1000
0000
0001
0010
,
0000
0100
1000
0000
0001
0000
0100
0010
0000
1000
0010
0000
0100
0000
0001
0010
,
0000
1000
0010
0001
1000
0000
0100
0001
0000
0100
1000
0010
0100
0000
0002
0000
,
0000
0000
0000
0000
2003
0000
0000
3200
0000
0000
0320
0000
0032
0000
0000
2003
,
0000
0000
3020
0000
0230
0000
0000
0302
0000
0000
0023
0000
0230
0000
0000
2300
,
0000
0000
3020
0000
0230
0000
0000
0302
0000
0000
2003
0000
3020
0000
0000
0032
,
0000
0000
2003
0000
3200
0000
0000
0302
0000
0000
2003
0000
3010
0000
0100
0000
,
0001
0000
1000
0000
0001
0000
0000
0011
0000
0000
0010
0000
1000
0000
0000
1010
,
0000
0000
0010
0000
1000
0000
0000
1100
0000
0000
0001
0000
0100
0000
0000
0101
,
0000
0001
0100
0010
0110
0000
0001
0000
,
1000
0010
0100
0001
0011
0000
0001
1000
,
0002
0003
0000
0000
2000
3000
0000
0000
0002
0003
0000
0000
2000
3000
0000
0000
0001
0000
0000
0000
0000
0000
0000
0000
0000
0000
0000
0000
0000
0000
0000
0000
1000
0000
0000
0000
0000
0000
0000
0000
0010
0000
0000
0000
0000
0000
0000
0000
0000
0000
0000
0000
0000
0000
0000
0000
0100
0000
0000
0000
0000
0000
0000
0000
,
0010
0000
0001
0000
0100
0010
0000
1000
,
0010
0000
0100
0000
0001
0010
0000
1000
,
0010
0000
0001
1000
0100
0010
0001
1000
,
0010
0100
0001
0000
1000
0100
0000
0001
,
0100
0000
1000
0000
0010
0100
0000
0010
,
1000
0010
0002
0000
0100
0000
2003
0000
,
0010
0000
0000
0000
0000
0000
0000
0000
0000
0000
0000
0000
0000
0000
0000
0000
3001
0000
0000
0000
0000
0000
0000
0000
1000
0000
0000
0000
0000
0000
0000
0000
0010
0000
0000
0000
0000
0000
0000
0000
0100
0000
0000
0000
0000
0000
0000
0000
0002
0003
0000
0000
0000
0000
0000
0000
0002
0003
0000
0000
0000
0000
0000
0000
,
2000
3000
0000
0000
0000
0000
0000
0000
2000
3000
0000
0000
0000
0000
0000
0000
0000
0000
0000
0000
0000
0000
0000
0000
0000
0000
0000
0000
0000
0000
0000
0000
0000
0000
0000
0000
0000
0000
0000
0000
0000
0000
0000
0000
0000
0000
0000
0000
0000
0000
0000
0000
0000
0000
0000
0000
0000
0000
0000
0000
0000
0000
0000
0000
,
0000
0000
1000
0000
0010
1000
0000
0010
,
0110
0000
0001
0000
1000
0100
0000
0001
,
1001
0000
0010
0000
0001
0100
0000
0010
,
1010
0000
1000
0001
0010
0200
0000
0310
,
0110
0000
1000
0000
0100
1000
0000
0010
,
0110
0000
1000
0000
0100
0001
0000
0010
,
0011
0000
0001
0000
0100
0010
0000
1000
,
1001
0000
0001
0010
0100
2000
0000
3001
,
1001
0000
1000
0000
0010
1000
0000
0100
,
0010
0000
0001
0010
0100
0000
1000
0010
,
0100
0000
0001
0010
0100
1000
0010
0100
,
0001
1000
0100
1000
0010
0100
0001
1000
,
0001
0000
1000
0100
0010
0001
0100
0010
,
1000
0100
0010
0100
1000
0010
0100
0001
,
0010
0100
0010
0001
1000
0010
0100
0010
,
1000
0001
0010
0100
1000
0010
0100
0001
,
1000
0100
0010
0100
0010
0100
0010
0100
,
1000
0000
0000
0000
0001
0000
0000
0000
1000
0000
0000
0000
0001
0000
0000
0000
2000
3000
0000
0000
0000
0000
0000
0000
0000
0000
0000
0000
0000
0000
0000
0000
0001
0000
0000
0000
0000
0000
0000
0000
0010
0000
0000
0000
0000
0000
0000
0000
0100
0000
0000
0000
0000
0000
0000
0000
1000
0000
0000
0000
0000
0000
0000
0000
,
0020
0000
0000
0100
0000
0000
0130
0000
0001
0000
0000
0000
0101
0000
0000
0000
,
1100
0000
0010
0100
0001
1000
0100
0010
,
0200
0000
0000
1000
0000
0000
1300
0000
0010
0000
0000
0000
1010
0000
0000
0000
,
1001
0000
0001
0010
0100
0010
0001
0100
,
0002
0000
0000
0010
0000
0000
0013
0000
0100
0000
0000
0000
0110
0000
0000
0000
,
1001
0000
0100
0010
0001
0000
1000
0000
,
0010
1000
0001
0000
1000
0100
1000
0100
,
0010
0001
0010
0001
1000
0000
0001
0010
,
0000
0001
1000
0000
0100
1000
0000
0010
,
0100
0000
0010
1000
0001
0000
1000
0100
,
0000
0001
0100
0000
1000
0010
0000
0001
,
0010
0000
1000
0001
0010
0000
0100
0010
,
0000
0001
0100
0000
0010
0100
0000
1000
,
0100
0000
0010
0100
0001
0000
1000
0000
,
0010
0000
0100
0000
0001
1000
0001
1000
,
0100
0000
0000
0000
0000
0000
0000
0000
0010
0000
0000
0000
0000
0000
0000
0000
0100
0000
0000
0000
0000
0000
0000
0000
0010
0000
0000
0000
0000
0000
0000
0000
0002
0003
0000
0000
0000
0000
0000
0000
0000
0000
0000
0000
0000
0000
0000
0000
1001
0000
0000
0000
0000
0000
0000
0000
0000
0000
0000
0000
0000
0000
0000
0000
,
0010
0100
0010
1000
0001
0010
1000
0000
,
0001
0000
1000
0010
0001
0000
1000
0000
,
0010
0100
0001
0000
1000
0000
0100
0000
,
0010
0000
0000
0000
0000
0000
0000
0000
0100
0000
0000
0000
0000
0000
0000
0000
0010
0000
0000
0000
0000
0000
0000
0000
0100
0000
0000
0000
0000
0000
0000
0000
2000
3000
0000
0000
0000
0000
0000
0000
0000
0000
0000
0000
0000
0000
0000
0000
1001
0000
0000
0000
0000
0000
0000
0000
0000
0000
0000
0000
0000
0000
0000
0000
,
0010
0001
1000
0010
0100
0010
1000
0000
,
0001
0010
0100
1000
0002
0000
0000
0000
,
0000
0000
2003
0000
,
3020
0000
0000
0000
1030
0100
1000
0100
,
1000
0100
1000
0100
0010
0001
0010
0001
,
0010
0001
0010
0001
1000
0001
1000
0001
,
0100
0010
0100
0010
1000
0001
0010
0100
,
1000
0010
0100
0001
1000
0000
0000
1010
,
0000
0202
0000
0000
,
0303
0000
0000
0000
0000
0000
0000
0000
0000
0000
0000
0000
0000
0000
0000
0000
0002
0003
0000
0000
2000
3000
0000
0000
0002
0003
0000
0000
2000
3000
0000
0000
0001
0000
0000
0000
0000
0000
0000
0000
0000
0000
0000
0000
0000
0000
0000
0000
0000
0000
0000
0000
0000
0000
0000
0000
0101
0000
0000
0000
0000
0000
0000
0000
,
0000
2200
0000
0000
,
0000
0000
0000
0000
3300
0000
0000
0000
0010
0000
0000
0010
1000
0000
0000
1000
,
0001
0000
0000
0001
0010
0000
0000
0010
0100
0000
0000
0100
1000
0000
0000
1000
,
0001
1000
2002
0000
0000
0000
0000
0000
,
0000
0000
0000
0000
,
0000
0000
3003
0000
;

//--------------- dance-single - Fred-104 ----------------
#NOTES:
     dance-single:
     Fred-104:
     Hard:
     16:
     :
0000
0000
0000
0000
,
0000
0000
0000
0000
,
1000
0100
1000
0010
0100
0001
1000
0100
,
0010
0000
0000
0000
0001
0000
0000
0000
1000
0000
0000
0000
0001
0000
0000
0000
1000
0100
0010
0000
1000
0010
0100
0000
0010
0000
0000
0000
1000
0000
0000
0000
,
0010
0100
0001
0100
1000
0100
0001
1000
,
0010
0000
0000
0000
0000
0000
0000
0000
0100
0000
0000
0000
0000
0000
0000
0000
0220
0330
0000
0000
0000
0000
0000
0000
0000
0000
0000
0000
0000
0000
0000
0000
2002
3003
0000
0000
0000
0000
0000
0000
0000
0000
0000
0000
0000
0000
0000
0000
0001
0000
0000
0000
0000
0000
0000
0000
1000
0000
0000
0000
0000
0000
0000
0000
,
0010
0100
0010
1000
0001
1000
0100
0010
,
0001
0000
0000
0000
0000
0000
0000
0000
1000
0000
0000
0000
0000
0000
0000
0000
0220
0330
0000
0000
0000
0000
0000
0000
0000
0000
0000
0000
0000
0000
0000
0000
2002
3003
0000
0000
0000
0000
0000
0000
0000
0000
0000
0000
0000
0000
0000
0000
0110
0000
0000
0000
0000
0000
0000
0000
1000
0000
0000
0000
0000
0000
0000
0000
,
0002
0000
0000
0000
2003
0000
0000
0000
3010
0000
0100
0000
0002
0000
0000
0023
,
0000
0000
0230
0000
0310
0000
0001
0000
1000
0010
0100
0001
1000
0000
0010
0000
,
0001
0000
0100
0000
2000
0000
0000
0000
3001
0100
0010
0100
1000
0000
0010
0000
,
0100
0000
0010
0000
0002
0000
0000
0000
0103
0010
0100
0001
1000
1000
0100
0010
,
0010
0001
1000
1000
0001
0100
0010
0001
0010
1000
0010
0001
1000
0010
0100
0010
,
0001
1000
0100
0100
0100
0001
1000
0010
0100
0001
1000
0100
0010
0000
0220
0000
,
0000
0000
0000
0000
0000
0000
0000
0000
0000
0000
0000
0000
0000
0000
0000
0330
1000
0000
0000
0000
0000
0000
0000
0000
0001
0000
0000
0000
0100
0000
0000
0000
0000
0000
0000
0000
0001
0000
0000
0000
1000
0000
0000
0000
0000
0000
0000
0000
0100
0000
0000
0000
0000
0000
0000
0000
1000
0000
0000
0000
0010
0000
0000
0000
,
0000
1000
0001
0000
1000
0000
0100
0010
0000
0001
0100
0000
0001
0000
0100
0010
,
0000
1000
0100
0000
1000
0000
0001
0010
0000
0001
0100
0000
0001
0000
0010
0100
,
0000
1000
0010
0000
1000
0000
1100
0000
1100
0000
0000
0000
0001
0000
0101
0000
,
0100
0010
1000
0100
0010
0000
0001
0100
0000
0010
1000
0000
0100
0000
0010
0001
,
0000
1000
0001
0000
1000
0000
0100
0001
0000
0100
0010
0000
1000
0000
0001
0010
,
0000
0001
1000
0000
0100
0000
0110
0000
0110
0000
0000
0000
1000
0000
0010
0000
,
0100
0001
1000
0100
0010
0000
0001
0000
0011
0000
0000
0000
1001
0000
0000
0000
,
0002
0003
0000
0000
0020
0030
0000
0000
0200
0300
0000
0000
2000
3000
0000
0000
0001
0000
0000
0000
0000
0000
0000
0000
0020
0030
0000
0000
0000
0000
0000
0000
0020
0030
0000
0000
0000
0000
0000
0000
0001
0000
0000
0000
0000
0000
0000
0000
0020
0030
0000
0000
0000
0000
0000
0000
0020
0030
0000
0000
0000
0000
0000
0000
,
0001
0000
0000
0000
0000
0000
0000
0000
0010
0000
0000
0000
0000
0000
0000
0000
1000
0000
0000
0000
0000
0000
0000
0000
0020
0030
0000
0000
0000
0000
0000
0000
0020
0030
0000
0000
0000
0000
0000
0000
1000
0000
0000
0000
0000
0000
0000
0000
0020
0030
0000
0000
0000
0000
0000
0000
0020
0030
0000
0000
0000
0000
0000
0000
,
1000
0000
0000
0000
0000
0000
0000
0000
0010
0000
0000
0000
0000
0000
0000
0000
1000
0000
0000
0000
0000
0000
0000
0000
0200
0300
0000
0000
0000
0000
0000
0000
0200
0300
0000
0000
0000
0000
0000
0000
1000
0000
0000
0000
0000
0000
0000
0000
0200
0300
0000
0000
0000
0000
0000
0000
0200
0300
0000
0000
0000
0000
0000
0000
,
1000
0100
0001
1000
1001
0001
0100
0010
,
1000
0000
0000
0000
0000
0000
0000
0000
1000
0000
0000
0000
0001
0000
0000
0000
1000
0000
0000
0000
0000
0000
0000
0000
0200
0300
0000
0000
0000
0000
0000
0000
0200
0300
0000
0000
0000
0000
0000
0000
0001
0000
0000
0000
0000
0000
0000
0000
0200
0300
0000
0000
0000
0000
0000
0000
0200
0300
0000
0000
0000
0000
0000
0000
,
0010
0000
0000
0000
0000
0000
0000
0000
0001
0000
0000
0000
0000
0000
0000
0000
1000
0000
0000
0000
0000
0000
0000
0000
0020
0030
0000
0000
0000
0000
0000
0000
0020
0030
0000
0000
0000
0000
0000
0000
0100
0000
0000
0000
0000
0000
0000
0000
0020
0030
0000
0000
0000
0000
0000
0000
0020
0030
0000
0000
0000
0000
0000
0000
,
1000
0001
2000
0010
0000
0010
3100
0001
,
1000
0000
0000
0000
0000
0000
0000
0000
0010
0000
0000
0000
0000
0000
0000
0000
0001
0000
0000
0000
0000
0000
0000
0000
0010
0000
0000
0000
0000
0000
0000
0000
1000
0000
0000
0000
0000
0000
0000
0000
0001
0000
0000
0000
0000
0000
0000
0000
0200
0300
0000
0000
0020
0030
0000
0000
2000
3000
0000
0000
0002
0003
0000
0000
,
0020
0030
0000
0000
0200
0300
0000
0000
2000
3000
0000
0000
0000
0000
0000
0000
0000
0000
0000
0000
0000
0000
0000
0000
0000
0000
0000
0000
0000
0000
0000
0000
0000
0000
0000
0000
0000
0000
0000
0000
0000
0000
0000
0000
0000
0000
0000
0000
0000
0000
0000
0000
0000
0000
0000
0000
0000
0000
0000
0000
0000
0000
0000
0000
,
0000
0000
0100
0001
1000
1010
0000
0100
,
0101
0000
0010
0001
1000
1100
0000
0001
,
0011
0000
0001
0010
0100
0110
0000
1000
,
1001
0000
0001
0010
0100
2000
0000
3010
,
0110
0110
0001
1000
0001
0101
0000
0100
,
1100
0000
1001
0001
1000
1010
0000
0010
,
0011
0000
1001
1000
0001
0101
0000
0100
,
0110
0000
0010
1000
0001
0200
0010
0010
,
0010
0310
1000
0000
0001
0101
0000
1000
,
1100
1002
1000
0023
,
0100
0000
0000
0000
0031
0000
0100
0000
0001
1000
0001
0000
1000
0000
0100
0010
,
0100
0000
1000
0000
0001
0000
0010
0000
0100
0010
0100
0000
1000
0000
0001
0100
,
0010
0000
0000
0000
0000
0000
0000
0000
0100
0000
0000
0000
0000
0000
0000
0000
1000
0000
0000
0000
0000
0000
0000
0000
0200
0300
0000
0000
0000
0000
0000
0000
0200
0300
0000
0000
0000
0000
0000
0000
0010
0000
0000
0000
0000
0000
0000
0000
0200
0300
0000
0000
0000
0000
0000
0000
0200
0300
0000
0000
0000
0000
0000
0000
,
0001
0000
0000
0000
0000
0000
0000
0000
0200
0300
0000
0000
0000
0000
0000
0000
0200
0300
0000
0000
0000
0000
0000
0000
1000
0000
0000
0000
0000
0000
0000
0000
0200
0300
0000
0000
0000
0000
0000
0000
0200
0300
0000
0000
0000
0000
0000
0000
0010
0000
0000
0000
0000
0000
0000
0000
0200
0300
0000
0000
0000
0000
0000
0000
,
0200
0300
0000
0000
0000
0000
0000
0000
1000
0000
0000
0000
0000
0000
0000
0000
0020
0030
0000
0000
0000
0000
0000
0000
0020
0030
0000
0000
0000
0000
0000
0000
0001
0000
0000
0000
0000
0000
0000
0000
0020
0030
0000
0000
0000
0000
0000
0000
0020
0030
0000
0000
0000
0000
0000
0000
0100
0000
0000
0000
0000
0000
0000
0000
,
0020
0030
0000
0000
0000
0000
0000
0000
0020
0030
0000
0000
0000
0000
0000
0000
1000
0000
0000
0000
0000
0000
0000
0000
0100
0000
0000
0000
0000
0000
0000
0000
0010
0000
0000
0000
0000
0000
0000
0000
0001
0000
0000
0000
0000
0000
0000
0000
0100
0000
0000
0000
0000
0000
0000
0000
0010
0000
0000
0000
0000
0000
0000
0000
,
1000
0001
1000
0100
0010
0001
0100
0010
,
1000
0000
0000
0000
0001
0000
0000
0000
0010
0000
0000
0000
0001
0000
0000
0000
0200
0300
0000
0000
0000
0000
0000
0000
0000
0000
0000
0000
0000
0000
0000
0000
0010
0000
0000
0000
0000
0000
0000
0000
0100
0000
0000
0000
0000
0000
0000
0000
0010
0000
0000
0000
0000
0000
0000
0000
1000
0000
0000
0000
0000
0000
0000
0000
,
0001
0000
0001
0010
0000
1000
0010
0000
0001
0000
0100
0000
0010
0000
0010
0000
,
0001
0000
0100
0010
1000
0001
0010
0100
1000
0000
0001
0000
0100
0000
0001
0000
,
1000
0000
1000
0100
0000
0001
0100
0000
0010
0000
1000
0000
0010
0000
1000
0000
,
0100
0000
0010
0001
1000
0010
0100
0001
1000
0000
0100
0000
0001
0000
0100
0000
,
1000
0000
0010
0100
0000
0001
0100
0000
0001
0000
0100
0000
0010
0000
1000
0000
,
0001
0000
0010
0001
0010
0100
1000
0001
1000
0000
0100
0000
0010
0000
0100
0000
,
0001
0000
0100
0000
0010
0000
1000
0000
0001
0010
0001
0010
0100
1000
0100
1000
,
0001
0100
0010
1000
0100
0010
0001
1000
0001
0000
0100
0000
1000
0000
0001
0000
,
0010
1000
0001
0100
1000
0001
0010
1000
,
0001
0000
0100
0000
0010
0000
1000
0001
1000
0000
0100
0000
0001
0000
1000
0000
,
0010
0001
1000
0100
0001
1000
0010
0001
,
1000
0000
0000
0000
0000
0000
0000
0000
0010
0000
0000
0000
0000
0000
0000
0000
0100
0000
0000
0000
0001
0000
0000
0000
1000
0000
0000
0000
0010
0000
0000
0000
0100
0000
0000
0000
0000
0000
0000
0000
0002
0003
0000
0000
0000
0000
0000
0000
0002
0003
0000
0000
0000
0000
0000
0000
0010
0000
0000
0000
0000
0000
0000
0000
,
0200
0300
0000
0000
0000
0000
0000
0000
0200
0300
0000
0000
0000
0000
0000
0000
1000
0000
0000
0000
0000
0000
0000
0000
0020
0030
0000
0000
0000
0000
0000
0000
0020
0030
0000
0000
0000
0000
0000
0000
0100
0000
0000
0000
0000
0000
0000
0000
0020
0030
0000
0000
0000
0000
0000
0000
0020
0030
0000
0000
0000
0000
0000
0000
,
0100
0000
0001
0000
1000
0010
0100
0001
1000
0000
0000
0000
0010
0000
1000
0000
,
0001
0010
0100
1000
0100
0010
0001
0000
1000
0010
0100
0001
0010
0100
1000
0010
,
0100
0000
0000
0000
0001
0000
0000
0000
1000
0000
0000
0000
0100
0000
0000
0000
0010
0000
0000
0000
0001
0000
0000
0000
1000
0000
0000
0000
0001
0000
0000
0000
2000
3000
0000
0000
0000
0000
0000
0000
0000
0000
0000
0000
0000
0000
0000
0000
1001
0000
0000
0000
0000
0000
0000
0000
0010
0000
0000
0000
0000
0000
0000
0000
,
0100
0010
0001
1000
0001
0010
0100
0001
,
0100
0010
0001
1000
0010
0100
0010
1000
,
0100
0010
1000
0010
0100
1000
0001
0010
,
0100
0000
0000
0000
0000
0000
0000
0000
0010
0000
0000
0000
0000
0000
0000
0000
0001
0000
0000
0000
0010
0000
0000
0000
0001
0000
0000
0000
1000
0000
0000
0000
0200
0300
0000
0000
0000
0000
0000
0000
0000
0000
0000
0000
0000
0000
0000
0000
1001
0000
0000
0000
0000
0000
0000
0000
0001
0000
0000
0000
0000
0000
0000
0000
,
0010
0000
0100
0010
0100
0000
1000
0000
0001
0000
0010
0000
1000
0000
0001
0000
,
0100
1000
0001
0100
0020
0000
0000
0000
,
0000
0000
2030
0000
,
0002
0000
3003
0000
0001
0001
0001
0001
,
1000
1000
1000
1000
0010
0010
0010
0010
,
0100
0100
0100
0100
0001
0001
0010
0010
,
0100
0000
0100
0000
1000
0000
1000
0000
0001
0010
0100
1000
0001
0100
0010
1000
,
0001
1000
0010
0100
0010
1000
0001
0010
0100
0000
0000
0000
0000
0000
1100
0000
,
0000
0202
0000
0000
,
0303
0000
0000
0000
0000
0000
0000
0000
0000
0000
0000
0000
0000
0000
0000
0000
0020
0030
0000
0000
2000
3000
0000
0000
0002
0003
0000
0000
0020
0030
0000
0000
0100
0000
0000
0000
0000
0000
0000
0000
0000
0000
0000
0000
0000
0000
0000
0000
0000
0000
0000
0000
0000
0000
0000
0000
1010
0000
0000
0000
0000
0000
0000
0000
,
0000
0022
0000
0000
,
0000
0000
0000
0000
0033
0000
0000
0000
1000
0010
0000
0010
0100
0010
0000
0010
,
1000
0001
0000
0001
0010
0100
0000
0100
1000
0010
0000
0010
0100
0001
0000
0001
,
1000
0001
2002
0000
0000
0000
0000
0000
,
0000
0000
0000
0000
,
0000
0000
3003
0000
;

//--------------- dance-double - Fred-104 ----------------
#NOTES:
     dance-double:
     Fred-104:
     Easy:
     9:
     :
00000000
00000000
00000000
00000000
,
00000000
00000000
00000000
00000000
,
01000000
01000000
00100000
00001000
,
00001000
00000000
00010000
00000000
00000100
00000100
00001000
00000000
,
00000010
00000010
00001000
00000001
,
00000010
00000200
00000320
00000031
,
00000001
00000100
00001000
00010000
,
00010000
02000000
23000000
30010000
,
10000000
00000000
00000000
00000000
00100000
00000000
00000000
00000000
01000000
00000000
00000000
00000000
00100000
00000000
00000000
00100000
,
00000000
00100000
01000000
00000000
00010000
00000000
00021000
00000000
,
00001000
00002000
00033000
00000120
,
00000100
00000000
00000000
00000000
00000200
00000000
00000000
00000000
00000330
00000000
00000000
00000000
00000001
00000000
00000000
00000010
,
00000000
00000000
00000100
00000000
00000010
00000000
00000000
00001000
00000000
00000000
00000100
00000000
00010000
00000000
00000000
00001000
,
00000000
00000000
00100000
00000000
01000000
00000000
00000000
00100000
00000000
00000000
00010000
00000000
20020000
00000000
00000000
00000000
,
00000000
30030000
00100000
00000000
00100000
00000000
10000000
00000000
,
00100000
01000000
00010000
00001000
,
00010000
00001000
00010000
00000000
00001000
00000000
00001000
00000000
,
00000100
00000000
00000010
00000001
00000010
00000000
00000001
00000000
,
00001000
00000001
00001000
00000000
00000100
00000000
00000010
00000000
,
00000010
00000001
00000100
00000100
,
00000010
00000000
00001000
00010000
00001000
00000000
00011000
00000000
,
00000000
00000000
00100000
01000000
00100000
00000000
02200000
00000000
,
03300000
00000000
20000000
00000000
00000000
32000000
00000000
00000000
,
03200000
00000000
02300000
00000000
00000000
23000000
00000000
00000000
,
30020000
00000000
00230000
00000000
00000000
00302000
00000000
00000000
,
00023000
00030200
00000320
00000032
,
00002003
00000000
00003002
00000000
00000000
00000023
00000000
00000000
,
00002030
00000000
00023000
00000000
00000000
00230000
00000000
00000000
,
20300000
30020000
00000000
02030000
,
00000000
00000000
03100000
00000000
10000000
00000000
00010000
10000000
,
00010000
10000000
00000000
00000000
00000000
00000000
00000000
00000000
,
00000000
00000000
01000000
00000000
00000000
00100000
00000000
00000000
,
01100000
00000000
00010000
00000000
00000000
00001000
00000000
00000000
,
00011000
00000000
00000100
00000000
00000000
00000010
00000000
00000000
,
00000110
00000001
00000010
00000010
,
00000100
00000000
00000010
00000000
00000000
00000100
00000000
00000000
,
00000110
00000000
00010000
00000000
00000000
00001000
00000000
00000000
,
00011000
00000000
00100000
00000000
00000000
01000000
00000000
00000000
,
01100000
00010000
10000000
01000000
,
01000000
00000000
20000000
00000000
00000000
30200000
00000000
00000000
,
02300000
00000000
00010000
00000000
,
13000000
00100000
00100000
01000000
,
00010000
00010000
00001000
00000100
,
00000010
00000000
00000001
00000000
00000000
00000100
00000000
00000000
,
00001000
00000000
00000000
00010000
00000000
00000000
01000000
00000000
,
00000000
00100000
00000000
00000000
10000000
00000000
00000000
01000000
,
00000000
00000000
00010000
00000000
00000000
00000100
00000000
00000000
,
00000010
00000000
00000001
00000000
00000001
00000000
00001000
00000001
,
00001000
00000001
00001000
00000000
00000110
00000000
00000010
00000000
,
00000001
00000100
00000010
00001000
,
00010000
00000000
00001000
00010000
00001000
00000000
00010000
00000000
,
00100000
01000000
00100000
00001000
,
00010000
00000000
01000000
00100000
01000000
00000000
00010000
00000000
,
00100000
10000000
00100000
00010000
,
01000000
00000000
00001000
00010000
00001000
00000000
00000000
00000000
,
00010000
00000000
00000100
00000100
,
00000010
00000100
00000010
00000000
00000200
00000000
00000300
00000200
,
00000000
00000300
00000200
00000000
00000300
00000200
00000000
00000300
,
00000010
00000000
00010010
00000000
00020000
00000000
00030000
00020000
,
00000000
00030000
00020000
00000000
00030000
00020000
00000000
00030000
,
00010000
00000000
01000000
00000000
00200000
00000000
00300000
00200000
,
00000000
00300000
00200000
00000000
00300000
00200000
00000000
00300000
,
10000000
10010000
01000000
00000000
,
00100000
00000000
00001000
00010000
,
00001000
00010000
00001000
00010000
00002000
00000000
00003000
00000000
,
00000010
00000010
00001000
00000001
,
00000010
00000000
00000001
00000100
,
00001000
00000000
00010000
01000000
,
10000000
00010000
20000000
30000000
,
00100000
10000000
00010000
00010000
,
00100000
00001000
00020000
00000000
,
00000000
00000000
00030020
00000000
,
00000230
00000000
00000301
00000001
,
00000010
00000010
00001000
00001000
,
00010000
00010000
00100000
00100000
,
10000000
00000000
10000000
00000000
00010000
01000000
00010000
00000000
,
10000000
00100000
10000000
00000000
00010000
00000000
00000000
10000000
,
00000000
20020000
00000000
00000000
,
00000000
00000000
30030000
00000000
00010000
00000000
00000000
00001000
,
00000000
00022000
00000000
00000000
,
00000000
00033000
00002000
00003020
,
00000032
00000203
00002300
00023000
,
01030000
00100000
02200000
00000000
00000000
00000000
00000000
00000000
,
00000000
00000000
00000000
00000000
,
00000000
00000000
03300000
00000000
;

//--------------- dance-double - Fred-104 ----------------
#NOTES:
     dance-double:
     Fred-104:
     Medium:
     13:
     :
00000000
00000000
00000000
00000000
,
00000000
00000000
00000000
00000000
,
00010000
10000000
00100000
10000000
00010000
01000000
00100000
00000000
,
01000000
00000000
00010000
00000000
00001000
00000000
00010000
00000000
00001000
00010000
00001000
00000000
00010000
00000000
00001000
00000000
,
00000100
00000001
00000100
00000001
00000010
00000000
00000001
00000010
,
00000100
00000000
00000000
00000000
00000000
00000000
00000000
00000000
00010000
00000000
00000000
00000000
00000000
00000000
00000000
00000000
00022000
00033000
00000000
00000000
00000000
00000000
00000000
00000000
00000000
00000000
00000000
00000000
00000000
00000000
00000000
00000000
00022000
00033000
00000000
00000000
00000000
00000000
00000000
00000000
00000000
00000000
00000000
00000000
00000000
00000000
00000000
00000000
00001000
00000000
00000000
00000000
00000000
00000000
00000000
00000000
00010000
00000000
00000000
00000000
00000000
00000000
00000000
00000000
,
01000000
00100000
10000000
00010000
00100000
00000000
01000000
00100000
,
00001000
00000000
00000000
00000000
00000000
00000000
00000000
00000000
00010000
00000000
00000000
00000000
00000000
00000000
00000000
00000000
00020020
00030030
00000000
00000000
00000000
00000000
00000000
00000000
00000000
00000000
00000000
00000000
00000000
00000000
00000000
00000000
00002020
00003030
00000000
00000000
00000000
00000000
00000000
00000000
00000000
00000000
00000000
00000000
00000000
00000000
00000000
00000000
00000100
00000000
00000000
00000000
00000000
00000000
00000000
00000000
00000010
00000000
00000000
00000000
00000000
00000000
00000000
00000000
,
00000001
00000000
00000000
00000000
00002000
00000000
00000000
00000000
00003001
00000000
00000100
00000000
00000020
00000000
00000000
00002030
,
00000000
00023000
00130000
00010000
10000000
00100000
01000000
00100000
,
10000000
00000000
00100000
00000000
00020000
00000000
00000000
00000000
00031000
00010000
00001000
00000000
00010000
00000000
00001000
00000000
,
00000100
00000000
00000001
00000000
00000020
00000000
00000000
00000000
00000130
00000010
00000100
00000000
00000001
00000000
00000010
00000001
,
00000000
00001000
00000010
00000000
00000100
00000000
00000010
00000100
00000000
00001000
00010000
00000000
00001000
00000000
00100000
00010000
,
00000000
10000000
00100000
01000000
00010000
00000000
10000000
01000000
00000000
00100000
01000000
10000000
00010000
00000000
02000000
00000000
,
00000000
00000000
00000000
00000000
03200000
00000000
00000000
20300000
00000000
00000000
32000000
00000000
03200000
00000000
00000000
00302000
,
00000000
00000000
00023000
00000000
00030200
00000000
00000000
00000320
00000000
00000000
00000032
00000000
00000203
00000000
00000000
00000320
,
00000000
00000000
00002030
00000000
00003002
00000000
00000000
00000023
00000000
00000000
00002030
00000000
00023000
00000000
00000000
02030000
,
00000000
23000000
30010000
01000000
01100000
00000000
00100000
10000000
,
00010000
00000000
01000000
00000000
00200000
00000000
00000000
02300000
00000000
00000000
03020000
00000000
00032000
00000000
00000000
00003200
,
00000000
00000000
00000302
00000000
00002003
00000000
00000000
00003020
00000000
00000000
00000230
00000000
00000320
00000000
00000000
00002030
,
00000000
00003002
00000013
00000001
00001001
00000000
00000100
00000000
,
00000010
00010000
00001000
00100000
00110000
00000000
10010000
00000000
,
02000000
03000000
00000000
00000000
00200000
00300000
00000000
00000000
02000000
03000000
00000000
00000000
00200000
00300000
00000000
00000000
01000000
00000000
00000000
00000000
00000000
00000000
00000000
00000000
00000000
00000000
00000000
00000000
00000000
00000000
00000000
00000000
00100000
00000000
00000000
00000000
00000000
00000000
00000000
00000000
10000000
00000000
00000000
00000000
00000000
00000000
00000000
00000000
00000000
00000000
00000000
00000000
00000000
00000000
00000000
00000000
00100000
00000000
00000000
00000000
00000000
00000000
00000000
00000000
,
01000000
00000000
00010000
00000000
00001000
00100000
00000000
00001000
,
00010000
00000000
00000010
00000000
00001000
00000001
00000000
00000010
,
00000100
00000000
00000010
00000001
00001000
00000010
00000100
00000010
,
00001000
00000000
00000002
00000000
00000100
00000100
00000000
00000010
,
00000013
00000000
00002000
00000000
00000100
00000100
00000000
00010000
,
00013000
00002000
00023000
00230000
,
20300000
00000000
00000000
00000000
00000000
00000000
00000000
00000000
00000000
00000000
00000000
00000000
00000000
00000000
00000000
00000000
30010000
00000000
00000000
00000000
00000000
00000000
00000000
00000000
01000000
00000000
00000000
00000000
00000000
00000000
00000000
00000000
00100000
00000000
00000000
00000000
00000000
00000000
00000000
00000000
10000000
00000000
00000000
00000000
00000000
00000000
00000000
00000000
00020000
00030000
00000000
00000000
00000000
00000000
00000000
00000000
00200000
00300000
00000000
00000000
00000000
00000000
00000000
00000000
,
02000000
03000000
00000000
00000000
00000000
00000000
00000000
00000000
20000000
30000000
00000000
00000000
00000000
00000000
00000000
00000000
00000000
00000000
00000000
00000000
00000000
00000000
00000000
00000000
00000000
00000000
00000000
00000000
00000000
00000000
00000000
00000000
00000000
00000000
00000000
00000000
00000000
00000000
00000000
00000000
00000000
00000000
00000000
00000000
00000000
00000000
00000000
00000000
00000000
00000000
00000000
00000000
00000000
00000000
00000000
00000000
00000000
00000000
00000000
00000000
00000000
00000000
00000000
00000000
,
00000000
00000000
01000000
00000000
00010000
00100000
00000000
00001000
,
00011000
00000000
00010000
00000000
00000010
00000100
00000000
00000010
,
00001010
00000000
00000001
00000000
00001000
00000100
00000000
00000010
,
00000110
00000000
00000001
00000100
00001000
00020000
00000000
01030000
,
00100000
00000000
10000000
01000000
00100000
00001000
00000000
00010000
,
00011000
00000000
00010000
00001000
00000100
00000001
00000000
00000010
,
00000110
00000000
00000001
00000010
00000100
00010000
00000000
00001000
,
00011000
00000000
00001000
00010000
01000000
00100000
00000000
10000000
,
10000000
00010000
00200000
00000000
00000000
02300000
00000000
00000000
,
23000000
30100000
00010000
00001000
,
00000010
00000000
00000001
00000010
00000001
00001000
00000010
00000100
,
00000010
00001000
00000001
00000100
00001000
00010000
01000000
10000000
,
00010000
00000000
01000000
00100000
01000000
00100000
10000000
00100000
,
01000000
00010000
01000000
00010000
00001000
00010000
00001000
00000100
,
00001000
00000010
00001000
00000010
00000100
00000010
00000100
00000001
,
00000100
00000001
00000010
00000001
00000100
00000010
00001000
00000010
,
00000100
00000001
00000010
00000100
00010000
00001000
00100000
01000000
,
10000000
00000000
00000000
00000000
00010000
00000000
00000000
00000000
10000000
00000000
00000000
00000000
00010000
00000000
00000000
00000000
20000000
30000000
00000000
00000000
00000000
00000000
00000000
00000000
00000000
00000000
00000000
00000000
00000000
00000000
00000000
00000000
00100000
00000000
00000000
00000000
00000000
00000000
00000000
00000000
10000000
00000000
00000000
00000000
00000000
00000000
00000000
00000000
00010000
00000000
00000000
00000000
00000000
00000000
00000000
00000000
00100000
00000000
00000000
00000000
00000000
00000000
00000000
00000000
,
02000000
00000000
00000000
03200000
00000000
00000000
00302000
00000000
00013000
00000000
00000000
00000000
00011000
00000000
00000000
00000000
,
00010010
00000000
00001000
00000010
00000100
00000001
00001000
00000100
,
00000020
00000000
00000000
00000032
00000000
00000000
00002003
00000000
00003010
00000000
00000000
00000000
00010010
00000000
00000000
00000000
,
00101000
00000000
00010000
01000000
00100000
10000000
01000000
00100000
,
02000000
00000000
00000000
23000000
00000000
00000000
30200000
00000000
01300000
00000000
00000000
00000000
01001000
00000000
00000000
00000000
,
00011000
00000000
00010000
00000100
00001000
00000100
00000010
00000000
,
00000001
00000100
00000010
00000000
00000001
00000001
00000010
00000010
,
00000100
00000100
00010000
00000000
00001000
00010000
00000000
00001000
,
00100000
00000000
00010000
01000000
00000000
00100000
10000000
00000000
,
01000000
00100000
00010000
00100000
01000000
00100000
00000000
10000000
,
00100000
00000000
00001000
00010000
00000000
00000010
00001000
00000000
,
00000100
00000010
00000001
00000010
00000100
00000001
00000000
00000100
,
00000010
00000000
00000100
00001000
00000000
00010000
01000000
00000000
,
00100000
10000000
00010000
10000000
01000000
00000000
00100000
00000000
,
00001000
00010000
00001000
00000000
00010000
00000010
00001000
00000010
,
00001000
00000000
00000000
00000000
00000000
00000000
00000000
00000000
00000010
00000000
00000000
00000000
00000000
00000000
00000000
00000000
00000100
00000000
00000000
00000000
00000000
00000000
00000000
00000000
00000001
00000000
00000000
00000000
00000000
00000000
00000000
00000000
00002000
00003000
00000000
00000000
00000000
00000000
00000000
00000000
00000000
00000000
00000000
00000000
00000000
00000000
00000000
00000000
00001001
00000000
00000000
00000000
00000000
00000000
00000000
00000000
00000000
00000000
00000000
00000000
00000000
00000000
00000000
00000000
,
00000001
00000010
00000100
00000000
00000010
00000001
00001000
00000010
,
00010000
00001000
00010000
00000000
00001000
00010000
01000000
00000000
,
00010000
00001000
00000100
00000000
00000010
00000000
00000001
00000100
,
00000010
00000000
00000000
00000000
00000000
00000000
00000000
00000000
00001000
00000000
00000000
00000000
00000000
00000000
00000000
00000000
00000100
00000000
00000000
00000000
00000000
00000000
00000000
00000000
00010000
00000000
00000000
00000000
00000000
00000000
00000000
00000000
00002000
00003000
00000000
00000000
00000000
00000000
00000000
00000000
00000000
00000000
00000000
00000000
00000000
00000000
00000000
00000000
00011000
00000000
00000000
00000000
00000000
00000000
00000000
00000000
00000000
00000000
00000000
00000000
00000000
00000000
00000000
00000000
,
00001000
00010000
01000000
00000000
00100000
10000000
00100000
01000000
,
00010000
01000000
00010000
00001000
00000200
00000000
00000000
00000000
,
00000000
00000000
00000320
00000000
,
00000032
00000000
00000000
00000000
00000013
00000100
00000010
00000100
,
00000010
00000100
00000010
00000100
00001000
00010000
00001000
00010000
,
00001000
00010000
00001000
00010000
00100000
01000000
00100000
01000000
,
00100000
01000000
00100000
01000000
10000000
00100000
01000000
00010000
,
00100000
00001000
00010000
00100000
01100000
00000000
00000000
00011000
,
00000000
00000220
00000000
00000000
,
00000330
00000000
00000000
00000000
00000000
00000000
00000000
00000000
00000000
00000000
00000000
00000000
00000000
00000000
00000000
00000000
00000020
00000030
00000000
00000000
00000200
00000300
00000000
00000000
00000020
00000030
00000000
00000000
00000200
00000300
00000000
00000000
00000010
00000000
00000000
00000000
00000000
00000000
00000000
00000000
00000000
00000000
00000000
00000000
00000000
00000000
00000000
00000000
00000000
00000000
00000000
00000000
00000000
00000000
00000000
00000000
00011000
00000000
00000000
00000000
00000000
00000000
00000000
00000000
,
00000000
02200000
00000000
00000000
,
00000000
00000000
00000000
00000000
03300000
00000000
00000000
00000000
00010000
00000000
00000000
00010000
10000000
00000000
00000000
10000000
,
01000000
00000000
00000000
01000000
00010000
00000000
00000000
00010000
00001000
00000000
00000000
00001000
00000100
00000000
00000000
00000100
,
00000001
00000010
00000220
00000000
00000000
00000000
00000000
00000000
,
00000000
00000000
00000000
00000000
,
00000000
00000000
00000330
00000000
;

//--------------- dance-double - Fred-104 ----------------
#NOTES:
     dance-double:
     Fred-104:
     Hard:
     17:
     :
00000000
00000000
00000000
00000000
,
00000000
00000000
00000000
00000000
,
00010000
10000000
00100000
00010000
00001000
00010000
00000010
00001000
,
00000100
00000000
00000000
00000000
00000010
00000000
00000000
00000000
00000001
00000000
00000000
00000000
00000100
00000000
00000000
00000000
00000010
00001000
00000100
00000000
00010000
00001000
00100000
00000000
00010000
00000000
00000000
00000000
01000000
00000000
00000000
00000000
,
00100000
10000000
00100000
00010000
01000000
00001000
00010000
00000100
,
00000010
00000000
00000000
00000000
00000000
00000000
00000000
00000000
00000001
00000000
00000000
00000000
00000000
00000000
00000000
00000000
00000220
00000330
00000000
00000000
00000000
00000000
00000000
00000000
00000000
00000000
00000000
00000000
00000000
00000000
00000000
00000000
00022000
00033000
00000000
00000000
00000000
00000000
00000000
00000000
00000000
00000000
00000000
00000000
00000000
00000000
00000000
00000000
01000000
00000000
00000000
00000000
00000000
00000000
00000000
00000000
00100000
00000000
00000000
00000000
00000000
00000000
00000000
00000000
,
10000000
00100000
00010000
01000000
00010000
00001000
00000100
00000001
,
00000100
00000000
00000000
00000000
00000000
00000000
00000000
00000000
00000010
00000000
00000000
00000000
00000000
00000000
00000000
00000000
00000022
00000033
00000000
00000000
00000000
00000000
00000000
00000000
00000000
00000000
00000000
00000000
00000000
00000000
00000000
00000000
00002020
00003030
00000000
00000000
00000000
00000000
00000000
00000000
00000000
00000000
00000000
00000000
00000000
00000000
00000000
00000000
00001000
00000000
00000000
00000000
00000000
00000000
00000000
00000000
00010000
00000000
00000000
00000000
00000000
00000000
00000000
00000000
,
02000000
00000000
00000000
00000000
03200000
00000000
00000000
00000000
10300000
00000000
00100000
00000000
00002000
00000000
00000000
00003020
,
00000000
00000000
00000230
00000000
00000301
00000000
00000010
00000000
00000001
00000010
00000100
00010000
00001000
00000000
00010000
00000000
,
01000000
00000000
00100000
00000000
20000000
00000000
00000000
00000000
30010000
00001000
00000100
00000001
00001000
00000000
00000010
00000000
,
00000001
00000000
00000100
00000000
00002000
00000000
00000000
00000000
00013000
00100000
01000000
10000000
00100000
00000000
01000000
00100000
,
00100000
10000000
00100000
00010000
00001000
00000000
00100000
00001000
00010000
00010000
00000010
00000100
00001000
00000100
00000010
00000100
,
00000010
00000001
00000100
00000010
00001000
00000100
00010000
00001000
01000000
00010000
10000000
01000000
00100000
00000000
02000000
00000000
,
00000000
00000000
00000000
00000000
00000000
00000000
00000000
00000000
00000000
00000000
00000000
00000000
00000000
00000000
00000000
03000000
00000100
00000000
00000000
00000000
00000000
00000000
00000000
00000000
00000010
00000000
00000000
00000000
00000100
00000000
00000000
00000000
00000000
00000000
00000000
00000000
00000100
00000000
00000000
00000000
00000010
00000000
00000000
00000000
00000000
00000000
00000000
00000000
00000100
00000000
00000000
00000000
00000000
00000000
00000000
00000000
00000001
00000000
00000000
00000000
00000010
00000000
00000000
00000000
,
00000000
00000010
00000100
00000000
00001000
00000000
00000010
00001000
00000000
00001000
00000100
00000000
00010000
00000000
00001000
01000000
,
00000000
01000000
00100000
00000000
10000000
00000000
00100000
01000000
00000000
01000000
10000000
00000000
00010000
00000000
10000000
01000000
,
00000000
01000000
00100000
00000000
00001000
00000000
00011000
00000000
00011000
00000000
00000000
00000000
00010000
00000000
00001000
00000000
,
00010000
00001000
00010000
00001000
00010000
00000000
00001000
00100000
00000000
00010000
01000000
00000000
00100000
00000000
10000000
01000000
,
00000000
10000000
00010000
00000000
01000000
00000000
00100000
01000000
00000000
00010000
00100000
00000000
00001000
00000000
00010000
00000010
,
00000000
00001000
00000001
00000000
00000100
00000000
00000010
00000000
00000110
00000000
00000000
00000000
00000001
00000000
00000001
00000000
,
00001000
00000100
00001000
00000100
00000010
00000000
00000100
00000000
00000110
00000000
00000000
00000000
00001010
00000000
00000000
00000000
,
00002000
00003000
00000000
00000000
00020000
00030000
00000000
00000000
00002000
00003000
00000000
00000000
00200000
00300000
00000000
00000000
02000000
03000000
00000000
00000000
00000000
00000000
00000000
00000000
02000000
03000000
00000000
00000000
00000000
00000000
00000000
00000000
00100000
00000000
00000000
00000000
00000000
00000000
00000000
00000000
02000000
03000000
00000000
00000000
00000000
00000000
00000000
00000000
02000000
03000000
00000000
00000000
00000000
00000000
00000000
00000000
10000000
00000000
00000000
00000000
00000000
00000000
00000000
00000000
,
00200000
00000000
00000000
00000000
00000000
00000000
00000000
00000000
00000000
00000000
00000000
00000000
00000000
00000000
00000000
00000000
00320000
00030000
00000000
00000000
00000000
00000000
00000000
00000000
00020000
00030000
00000000
00000000
00000000
00000000
00000000
00000000
00001000
00000000
00000000
00000000
00000000
00000000
00000000
00000000
00020000
00030000
00000000
00000000
00000000
00000000
00000000
00000000
00020000
00030000
00000000
00000000
00000000
00000000
00000000
00000000
00000100
00000000
00000000
00000000
00000000
00000000
00000000
00000000
,
00000020
00000000
00000000
00000000
00000000
00000000
00000000
00000000
00000000
00000000
00000000
00000000
00000000
00000000
00000000
00000000
00002030
00003000
00000000
00000000
00000000
00000000
00000000
00000000
00002000
00003000
00000000
00000000
00000000
00000000
00000000
00000000
00000001
00000000
00000000
00000000
00000000
00000000
00000000
00000000
00002000
00003000
00000000
00000000
00000000
00000000
00000000
00000000
00002000
00003000
00000000
00000000
00000000
00000000
00000000
00000000
00000010
00000000
00000000
00000000
00000000
00000000
00000000
00000000
,
00000200
00000000
00000301
00000100
00000110
00000000
00001000
00010000
,
01000000
00000000
00100000
10000000
00010000
00000000
01000000
00000000
10000000
00000000
00010000
00000000
00100000
00000000
10000000
00000000
,
00010000
01000000
00010000
00001000
00000100
00010000
00001000
00000100
,
00000001
00000010
00000200
00000000
00010000
00000000
01000300
00100000
,
10000000
00000000
00000000
00000000
00000000
00000000
00000000
00000000
00010000
00000000
00000000
00000000
00000000
00000000
00000000
00000000
00100000
00000000
00000000
00000000
00000000
00000000
00000000
00000000
01000000
00000000
00000000
00000000
00000000
00000000
00000000
00000000
00010000
00000000
00000000
00000000
00000000
00000000
00000000
00000000
00001000
00000000
00000000
00000000
00000000
00000000
00000000
00000000
00020000
00030000
00000000
00000000
00002000
00003000
00000000
00000000
00020000
00030000
00000000
00000000
00002000
00003000
00000000
00000000
,
00020000
00030000
00000000
00000000
00000200
00000300
00000000
00000000
00002000
00003000
00000000
00000000
00000000
00000000
00000000
00000000
00000000
00000000
00000000
00000000
00000000
00000000
00000000
00000000
00000000
00000000
00000000
00000000
00000000
00000000
00000000
00000000
00000000
00000000
00000000
00000000
00000000
00000000
00000000
00000000
00000000
00000000
00000000
00000000
00000000
00000000
00000000
00000000
00000000
00000000
00000000
00000000
00000000
00000000
00000000
00000000
00000000
00000000
00000000
00000000
00000000
00000000
00000000
00000000
,
00000000
00000000
00000001
00000010
00001000
00011000
00000000
01000000
,
01100000
00000000
10000000
00100000
00010000
00011000
00000000
00000100
,
00000110
00000000
00000001
00000100
00001000
00011000
00000000
01000000
,
01100000
00000000
00100000
01000000
10000000
00100000
01000000
00010000
,
00011000
00000000
00011000
00001000
00000010
00000011
00000001
00000100
,
00000110
00000000
00000101
00000100
00001000
00011000
00010000
01000000
,
01100000
00000000
10100000
10000000
01000000
01100000
00100000
00001000
,
00011000
00000000
00010000
00001000
00000010
00000001
00000010
00001000
,
00000001
00000100
00000010
00000000
00000001
00001001
00000000
00000100
,
00000110
00002000
00000010
00023000
,
00100000
00000000
00000000
00000000
01030000
00010000
01000000
00000000
00100000
10000000
00100000
00000000
10000000
00010000
10000000
00000000
,
01000000
00100000
01000000
00000000
10000000
00000000
01000000
00000000
00010000
00000000
00001000
00000000
00000100
00000000
00000001
00001000
,
00000001
00000000
00000000
00000000
00000000
00000000
00000000
00000000
00000000
00000000
00000000
00000000
00000000
00000000
00000000
00000000
00000001
00000000
00000000
00000000
00000000
00000000
00000000
00000000
00000020
00000030
00000000
00000000
00000000
00000000
00000000
00000000
00000020
00000030
00000000
00000000
00000000
00000000
00000000
00000000
00000100
00000000
00000000
00000000
00000000
00000000
00000000
00000000
00000020
00000030
00000000
00000000
00000000
00000000
00000000
00000000
00000020
00000030
00000000
00000000
00000000
00000000
00000000
00000000
,
00000001
00000000
00000000
00000000
00000000
00000000
00000000
00000000
00000200
00000300
00000000
00000000
00000000
00000000
00000000
00000000
00000200
00000300
00000000
00000000
00000000
00000000
00000000
00000000
00001000
00000000
00000000
00000000
00000000
00000000
00000000
00000000
00000200
00000300
00000000
00000000
00000000
00000000
00000000
00000000
00000200
00000300
00000000
00000000
00000000
00000000
00000000
00000000
00000010
00000000
00000000
00000000
00000000
00000000
00000000
00000000
00002000
00003000
00000000
00000000
00000000
00000000
00000000
00000000
,
00002000
00003000
00000000
00000000
00000000
00000000
00000000
00000000
00010000
00000000
00000000
00000000
00000000
00000000
00000000
00000000
00002000
00003000
00000000
00000000
00000000
00000000
00000000
00000000
00002000
00003000
00000000
00000000
00000000
00000000
00000000
00000000
00010000
00000000
00000000
00000000
00000000
00000000
00000000
00000000
00200000
00300000
00000000
00000000
00000000
00000000
00000000
00000000
00200000
00300000
00000000
00000000
00000000
00000000
00000000
00000000
01000000
00000000
00000000
00000000
00000000
00000000
00000000
00000000
,
00200000
00300000
00000000
00000000
00000000
00000000
00000000
00000000
00200000
00300000
00000000
00000000
00000000
00000000
00000000
00000000
10000000
00000000
00000000
00000000
00000000
00000000
00000000
00000000
01000000
00000000
00000000
00000000
00000000
00000000
00000000
00000000
00100000
00000000
00000000
00000000
00000000
00000000
00000000
00000000
00001000
00000000
00000000
00000000
00000000
00000000
00000000
00000000
00010000
00000000
00000000
00000000
00000000
00000000
00000000
00000000
00000100
00000000
00000000
00000000
00000000
00000000
00000000
00000000
,
00000010
00000001
00000100
00000010
00000100
00000010
00000100
00000010
,
00001000
00000000
00000000
00000000
00000001
00000000
00000000
00000000
00000010
00000000
00000000
00000000
00000100
00000000
00000000
00000000
00002000
00003000
00000000
00000000
00000000
00000000
00000000
00000000
00000000
00000000
00000000
00000000
00000000
00000000
00000000
00000000
01000000
00000000
00000000
00000000
00000000
00000000
00000000
00000000
00100000
00000000
00000000
00000000
00000000
00000000
00000000
00000000
10000000
00000000
00000000
00000000
00000000
00000000
00000000
00000000
00010000
00000000
00000000
00000000
00000000
00000000
00000000
00000000
,
00100000
00000000
01000000
00100000
00000000
00100000
01000000
00000000
00010000
00000000
00000000
00010000
00001000
00000000
00000000
00001000
,
00000100
00000000
00000010
00000100
00000010
00000001
00001000
00000001
00001000
00000000
00000010
00000000
00000100
00000000
00000010
00000000
,
00001000
00000000
00000001
00000010
00000000
00000010
00000001
00000000
00000100
00000000
00000000
00000100
00001000
00000000
00000000
00001000
,
00010000
00000000
01000000
00010000
00100000
00010000
00100000
01000000
10000000
00000000
00010000
00000000
00100000
00000000
10000000
00000000
,
00100000
00000000
00010000
01000000
00000000
01000000
00010000
00000000
00100000
00000000
00000000
00100000
00001000
00000000
00000000
00001000
,
00000010
00000000
00000100
00000010
00001000
00000010
00000100
00000001
00001000
00000000
00000000
00000000
00001001
00000000
00000000
00000000
,
00000001
00000010
00000001
00000000
00001000
00000010
00001000
00000000
00000001
00000100
00000001
00000100
00000010
00001000
00000010
00000000
,
00001000
00000000
00000000
00000000
00010000
00000000
00000000
00000000
00001000
00000000
00000000
00000000
00010000
00000000
00000000
00000000
01000000
00000000
00000000
00000000
00100000
00000000
00000000
00000000
01000000
00000000
00000000
00000000
00000000
00000000
00000000
00000000
10000000
00000000
00000000
00000000
00000000
00000000
00000000
00000000
00200000
00300000
00000000
00000000
00000000
00000000
00000000
00000000
00200000
00300000
00000000
00000000
00000000
00000000
00000000
00000000
01000000
00000000
00000000
00000000
00000000
00000000
00000000
00000000
,
00020000
00030000
00000000
00000000
00000000
00000000
00000000
00000000
00020000
00030000
00000000
00000000
00000000
00000000
00000000
00000000
00001000
00000000
00000000
00000000
00000000
00000000
00000000
00000000
00000200
00000300
00000000
00000000
00000000
00000000
00000000
00000000
00000200
00000300
00000000
00000000
00000000
00000000
00000000
00000000
00000001
00000000
00000000
00000000
00000000
00000000
00000000
00000000
00002000
00003000
00000000
00000000
00000000
00000000
00000000
00000000
00002000
00003000
00000000
00000000
00000000
00000000
00000000
00000000
,
00000100
00000000
00000000
00000000
00000000
00000000
00000000
00000000
00000010
00000000
00000000
00000000
00000000
00000000
00000000
00000000
00000001
00000000
00000000
00000000
00000000
00000000
00000000
00000000
00000100
00000000
00000000
00000000
00000010
00000000
00000000
00000000
00001000
00000000
00000000
00000000
00000000
00000000
00000000
00000000
00000200
00000300
00000000
00000000
00000000
00000000
00000000
00000000
00000200
00000300
00000000
00000000
00000000
00000000
00000000
00000000
00010000
00000000
00000000
00000000
00000000
00000000
00000000
00000000
,
00002000
00003000
00000000
00000000
00000000
00000000
00000000
00000000
00002000
00003000
00000000
00000000
00000000
00000000
00000000
00000000
00010000
00000000
00000000
00000000
00000000
00000000
00000000
00000000
02000000
03000000
00000000
00000000
00000000
00000000
00000000
00000000
02000000
03000000
00000000
00000000
00000000
00000000
00000000
00000000
00100000
00000000
00000000
00000000
00000000
00000000
00000000
00000000
20000000
30000000
00000000
00000000
00000000
00000000
00000000
00000000
20000000
30000000
00000000
00000000
00000000
00000000
00000000
00000000
,
01000000
00000000
00100000
00000000
00001000
00010000
00001000
00010000
00001000
00000000
00001000
00000000
00010000
00000000
01000000
00000000
,
00010000
00001000
00000010
00010000
00001000
00100000
00001000
00010000
,
00000100
00000000
00001000
00000000
00000010
00000100
00000010
00000100
00000001
00000000
00000000
00000000
00000110
00000000
00000000
00000000
,
00000010
00001000
00000010
00010000
00001000
00010000
00001000
00000000
00010000
00001000
00010000
00001000
00100000
00010000
00100000
00010000
,
01000000
00000000
00000000
00000000
00100000
00000000
00000000
00000000
01000000
00000000
00000000
00000000
00100000
00000000
00000000
00000000
10000000
00000000
00000000
00000000
01000000
00000000
00000000
00000000
00100000
00000000
00000000
00000000
00001000
00000000
00000000
00000000
00020000
00030000
00000000
00000000
00000000
00000000
00000000
00000000
00000000
00000000
00000000
00000000
00000000
00000000
00000000
00000000
00001010
00000000
00000000
00000000
00000000
00000000
00000000
00000000
00000010
00000000
00000000
00000000
00000000
00000000
00000000
00000000
,
00000100
00000000
00000001
00000000
00000010
00000100
00000010
00000000
00000001
00000000
00000100
00000000
00001000
00000000
00010000
00000000
,
01000000
10000000
10010000
00000000
00100000
10000000
01000000
00010000
,
00001000
00000010
00000001
00000000
00000100
00000010
00001000
00010000
,
00001000
00000000
00000000
00000000
00000000
00000000
00000000
00000000
00010000
00000000
00000000
00000000
00000000
00000000
00000000
00000000
01000000
00000000
00000000
00000000
00100000
00000000
00000000
00000000
01000000
00000000
00000000
00000000
00100000
00000000
00000000
00000000
20000000
30000000
00000000
00000000
00000000
00000000
00000000
00000000
00000000
00000000
00000000
00000000
00000000
00000000
00000000
00000000
01100000
00000000
00000000
00000000
00000000
00000000
00000000
00000000
01000000
00000000
00000000
00000000
00000000
00000000
00000000
00000000
,
00010000
00000000
00001000
00010000
00001000
00000000
00010000
00000000
00001000
00000000
00000100
00000000
00000001
00000000
00001000
00000000
,
00000100
00000010
00000001
00000100
00002000
00000000
00000000
00000000
,
00000000
00000000
00023000
00000000
,
02030000
00000000
00000000
00000000
13000000
10000000
01000000
01000000
,
00100000
00100000
00001000
00001000
00010000
00010000
00000100
00000100
,
00000010
00000010
00000001
00000001
00000100
00000010
00000001
00000100
,
00000010
00000000
00001000
00000000
00010000
00000000
00100000
00000000
00010000
00100000
00010000
01000000
00100000
10000000
01000000
00100000
,
01000000
00100000
00001000
00010000
00000100
00001000
00000001
00000100
00000010
00000000
00000000
00000000
00000000
00000000
00011000
00000000
,
00000000
02200000
00000000
00000000
,
03300000
00000000
00000000
00000000
00000000
00000000
00000000
00000000
00000000
00000000
00000000
00000000
00000000
00000000
00000000
00000000
20000000
30000000
00000000
00000000
02000000
03000000
00000000
00000000
00200000
00300000
00000000
00000000
00002000
00003000
00000000
00000000
00010000
00000000
00000000
00000000
00000000
00000000
00000000
00000000
00000000
00000000
00000000
00000000
00000000
00000000
00000000
00000000
00000000
00000000
00000000
00000000
00000000
00000000
00000000
00000000
00000110
00000000
00000000
00000000
00000000
00000000
00000000
00000000
,
00000000
00002002
00000000
00000000
,
00000000
00000000
00000000
00000000
00003003
00000000
00000000
00000000
00000001
00000010
00000000
00000010
00000100
00001000
00000000
00001000
,
00010000
00100000
00000000
00100000
01000000
10000000
00000000
10000000
00100000
00010000
00000000
00010000
00001000
00000010
00000000
00000010
,
00000001
00000100
00000220
00000000
00000000
00000000
00000000
00000000
,
00000000
00000000
00000000
00000000
,
00000000
00000000
00000330
00000000
;
