#TITLE:HAPPY limelight;
#ARTIST:Qrispy Joybox feat.Megumi Tatsumi;
#BANNER:HAPPY limelight.png;
#BACKGROUND:HAPPY limelight-bg.png;
#CDTITLE:./CDTitles/RB limelight.png;
#MUSIC:HAPPY limelight.ogg;
#SAMPLESTART:1.751;
#SAMPLELENGTH:15;
#BPMS:0=137;
#STAGE:16;

//--------------- dance-single - Fred-104 ----------------
#NOTES:
     dance-single:
     Fred-104:
     Beginner:
     1:
     :
0000
0000
0000
0000
,
0000
0000
0000
0000
,
0000
0000
0000
0000
,
1000
0000
0000
0000
,
0001
0000
0000
0000
,
1000
0000
0000
0000
,
0002
0000
0003
0000
,
0100
0000
0000
0000
,
0010
0000
0000
0000
,
0100
0000
0000
0000
,
0020
0000
0030
0000
,
1000
0000
0000
0000
,
0001
0000
0000
0000
,
1000
0000
0000
0000
,
1000
0000
0000
0000
,
0001
0000
0000
0000
,
0001
0000
0000
0000
,
0100
0000
0000
0000
,
0100
0000
0000
0000
,
0010
0000
0000
0000
,
0010
0000
0000
0000
,
1000
0000
0000
0000
,
1000
0000
0000
0000
,
0001
0000
0000
0000
,
1000
0000
0000
0000
,
1001
0000
0000
0000
,
0000
0000
0000
0000
,
1000
0000
0000
0000
,
1000
0000
0000
0000
,
1001
0000
0000
0000
,
1001
0000
0000
0000
,
0100
0000
0000
0000
,
0010
0000
0000
0000
,
0110
0000
0000
0000
,
0000
0000
0000
0000
,
0000
0000
0000
0000
,
1000
0000
0000
0000
,
1000
0000
0000
0000
,
0001
0000
0000
0000
,
0002
0000
0003
0000
,
0001
0000
0000
0000
,
0010
0000
0000
0000
,
0010
0000
0000
0000
,
0000
0000
0000
0000
,
0100
0000
0000
0000
,
0100
0000
0000
0000
,
1000
0000
0000
0000
,
2000
0000
3000
0000
,
0001
0000
0000
0000
,
0001
0000
0000
0000
,
1001
0000
0000
0000
,
0000
0000
0000
0000
,
2000
0000
3000
0000
,
0002
0000
0003
0000
,
2000
0000
3000
0000
,
0002
0000
0000
0000
,
0003
0000
0000
0000
;

//--------------- dance-single - Fred-104 ----------------
#NOTES:
     dance-single:
     Fred-104:
     Easy:
     4:
     :
0000
0000
0000
0000
,
0000
0000
0000
0000
,
0000
0000
0000
0000
,
1000
0000
0010
0000
,
1000
1000
0001
1000
,
1000
0000
0010
0000
,
2002
0000
0000
3003
,
0001
0000
0100
0000
,
0001
0001
1000
0010
,
0010
0000
0100
0000
,
0220
0000
0000
0330
,
0001
0001
1000
0001
,
1000
0010
0200
0000
,
0310
1000
1000
0001
,
1000
0100
0020
0000
,
0031
0100
0001
0100
,
1000
0010
2000
0000
,
3010
0000
0001
0000
,
1000
0001
1000
0001
,
1001
0000
0001
0000
,
0100
0010
1000
0010
,
0100
0000
0001
0000
,
1000
0100
1000
0010
,
0100
0000
0001
0000
,
0010
0001
1000
0010
,
0100
0000
0001
0000
,
1000
1000
0001
0001
,
1000
0001
1000
0010
,
0100
0100
0001
1000
,
0020
0000
0230
0000
,
0302
0000
2003
0000
,
3001
1000
0010
1000
,
1000
0010
0100
0001
,
2000
0000
3020
0000
,
0230
0000
0302
0000
,
2000
0000
0000
3003
,
1001
1000
0001
0100
,
0010
0100
0001
1000
,
0001
1000
0010
0100
,
0020
0000
0000
0030
,
1000
0010
1000
0010
,
0100
0010
1000
0001
,
1000
0000
0001
0000
,
1000
0001
2002
3003
,
0001
0010
0010
0001
,
1000
0100
0020
0000
,
0130
1000
0001
1000
,
2002
0000
0000
3003
,
0001
0001
0010
0001
,
1000
1000
0001
1000
,
0010
0000
0100
0000
,
0001
1000
1001
0000
,
0001
0000
1000
0000
,
0100
0000
0010
0000
,
0001
0000
1000
0000
,
2002
0000
0000
0000
,
3003
0000
0000
0000
;

//--------------- dance-single - Fred-104 ----------------
#NOTES:
     dance-single:
     Fred-104:
     Medium:
     8:
     :
0000
0000
0000
0000
,
0000
0000
0000
0000
,
0000
0000
0000
0000
,
1000
0001
1000
0000
0001
0000
0100
0000
,
0010
0000
0200
0010
0000
0010
0000
0010
,
0300
0000
1000
0000
0001
0000
1000
0001
,
1000
0001
1000
0002
,
1003
0100
1000
0000
0100
0000
0100
0000
,
0001
0000
0001
0100
0000
0100
0000
1000
,
0000
0000
0001
0000
1000
0000
0001
2000
,
0000
0000
0000
3000
,
1001
0000
1000
0000
0001
0010
0001
0000
,
1000
0000
0010
0000
0100
0001
0100
0000
,
0001
0000
0010
0000
0100
1000
0100
1000
,
0000
0001
0000
2000
0000
0000
3000
0000
,
1100
0000
0001
0000
1000
0000
0010
0010
,
0000
0100
0000
0001
0000
0100
0000
0001
,
0001
1000
0000
1000
0000
0000
0000
1001
,
0000
0110
0000
1001
0000
0001
0000
1000
,
1000
0000
0001
0000
1000
0100
1000
0000
,
0020
0100
0230
0001
,
1300
0000
1000
0000
0001
0010
0010
0000
,
0002
1000
0203
1000
,
1300
0000
0010
0000
1000
0001
1000
0000
,
0002
0100
2003
0010
,
3001
0000
0000
1000
0000
0000
0000
0001
,
0000
0001
0000
1000
0000
0100
0000
0010
,
0001
0000
0001
0000
0100
0000
0001
1000
,
0001
0000
0100
0010
0000
0100
0000
0010
,
1000
1000
0000
0000
0100
0100
0000
0000
,
0001
0001
0000
0000
0010
0010
0000
0000
,
1001
0000
1000
0000
0010
0000
0100
0001
,
0100
0000
0001
1000
0000
0010
0000
0100
,
0001
0002
0000
0000
1003
2000
0000
3100
,
0000
0010
0000
0001
0000
2002
0000
0000
,
0000
0000
0000
3003
,
0001
0010
0001
0000
1000
0000
0010
0000
,
1000
0010
1000
0010
0000
0100
0000
0100
,
0001
0100
0001
0000
1000
0000
0010
0100
,
0001
0100
0001
0000
1000
0100
1000
0100
,
1000
0010
1000
0000
0100
0000
0010
0001
,
0010
0000
0001
1000
0000
0100
0000
0010
,
0001
0000
0100
0000
0010
0000
1000
0010
,
0000
1000
0000
2020
0000
0000
3030
0000
,
1000
0100
1000
0000
0010
0000
1000
0000
,
0001
1000
0001
2000
0000
0000
3001
0000
,
0100
0010
0100
0000
0001
0010
0001
0010
,
0001
0000
1000
0000
0001
1000
0001
1000
,
0001
0100
0001
0000
1000
0000
0010
0000
,
1000
0000
0001
0001
0000
0100
0000
0010
,
0000
1000
0100
0000
0010
0001
0000
1000
,
0000
0001
0000
2002
0000
0000
3003
0000
,
0002
0010
0023
0100
,
0230
1000
2300
0001
,
3001
0100
0010
1000
,
2002
0000
0000
0000
,
3003
0000
0000
0000
;

//--------------- dance-single - Fred-104 ----------------
#NOTES:
     dance-single:
     Fred-104:
     Hard:
     13:
     :
0000
0000
0000
0000
,
0000
0000
0000
0000
,
0000
0000
0000
0000
,
1000
0010
0100
0000
0110
0000
0001
1000
,
0100
0010
0001
2000
0000
3020
0000
0230
,
0000
0301
0100
1000
0001
0010
1000
0001
,
1000
0100
1000
0100
1000
0000
0001
0100
0001
0100
0001
0000
1000
0100
1000
0100
,
1000
0001
0100
0000
0110
0000
0100
0001
,
1000
0010
0100
0002
0000
2003
0000
3200
,
0000
0000
1300
0010
1000
0000
0010
0000
0100
0000
0001
0010
0001
0000
2000
0000
,
0000
0000
0000
3000
,
0001
0010
0200
0000
1300
0001
0020
0001
,
0000
1000
0000
0031
1000
0100
0001
0100
,
1000
0010
0200
0000
0301
0010
0002
0100
,
0000
0010
0000
0103
0001
1000
0001
0000
,
1000
0010
2000
0000
3001
0100
0010
2000
,
0000
3002
0000
0023
0000
0230
0000
0310
,
0011
0011
0000
1010
0000
0001
0100
0101
,
0000
1100
0000
0110
0000
1001
0000
0000
,
1100
0000
0010
0000
0100
0002
1000
2003
,
0000
0100
0000
3020
0000
0200
0330
0000
,
1001
0000
0110
0000
0002
1000
2003
0010
,
0000
3200
0000
2300
0000
3002
0000
0103
,
0110
0000
0101
0000
0020
1000
2030
0001
,
0000
0000
0100
0000
0000
0000
3001
0000
0000
0000
1000
0000
0001
0100
0001
0100
,
0001
0000
0000
0011
0000
0000
0000
1100
,
0000
0101
0000
1010
0000
1001
0000
1000
,
0001
0000
0000
0100
0000
0000
0010
0000
1000
0000
0000
0000
0001
0000
1000
0000
,
0001
0010
0200
0010
0000
0010
0000
0310
,
0001
1000
0001
1000
0000
0000
0000
0000
0100
0000
0110
0000
0000
0000
0000
0000
,
0100
0010
0100
0010
0000
0000
0000
0000
0001
0000
1001
0000
0000
0000
0000
0000
,
0001
0000
0000
0100
0000
0000
0010
0000
1000
0000
0000
0000
0001
0000
1000
0000
,
0100
0001
0200
1000
0000
0001
0000
1300
,
0001
0100
0001
0100
0000
0000
0000
0000
1000
0100
1000
0100
0000
0000
0101
0000
,
0000
1100
0000
0011
0000
1010
0000
2002
,
0000
0000
0000
3003
,
0001
0010
2000
0000
3001
1000
0010
0001
,
1000
0000
0100
0000
0010
0000
0200
0000
0000
0000
1300
0100
1000
0000
0002
0000
,
0000
1003
0100
0010
1000
0010
0001
1000
,
0001
0010
0001
0010
0001
0000
1000
0010
1000
0010
1000
0000
0001
0010
0001
0010
,
0001
0100
2000
0000
3001
1000
0100
0001
,
1000
0000
0100
0000
0010
0000
0200
0000
0000
0000
1300
0100
1000
0000
0001
0000
,
0100
0100
0000
0100
0010
0110
0000
1001
,
0000
0001
1000
0020
0000
0000
0030
0000
,
1000
0100
0010
1000
0010
0100
1000
0001
,
0100
0000
0010
0000
1000
0000
0001
0000
0000
0000
1000
0001
1000
0000
0000
0000
,
0100
0010
0001
0100
0001
1000
0010
0100
,
0001
0100
0001
0100
0001
0000
1000
0100
1000
0100
1000
0000
0001
0100
0001
0100
,
0001
0100
0020
0000
1030
0100
0010
0001
,
1000
0000
0010
0000
0001
0000
0020
0000
0000
0000
0130
0001
0100
0000
0001
0000
,
1000
1000
0000
0001
0100
0110
0000
1100
,
0000
0100
0010
2002
0000
0000
3003
0000
,
0001
0100
0001
0100
0001
0000
0100
0000
0001
0100
0001
0100
0001
0000
0100
0000
,
0010
1000
0010
0000
1000
0010
1000
0000
0010
1000
0010
1000
0010
0000
1000
0000
,
0001
1000
0001
1000
0001
0000
1000
0000
0001
1000
0001
1000
0001
0000
1000
0000
,
0010
0100
0010
0100
0010
0100
0010
0100
0010
0100
0010
0100
0010
0100
0010
0100
;

//--------------- dance-double - Fred-104 ----------------
#NOTES:
     dance-double:
     Fred-104:
     Easy:
     4:
     :
00000000
00000000
00000000
00000000
,
00000000
00000000
00000000
00000000
,
00000000
00000000
00000000
00000000
,
00010000
00000000
10000000
00000000
,
00100000
10000000
00100000
10000000
,
01000000
00000000
00100000
00000000
,
00022000
00000000
00000000
00033000
,
00010000
00000000
00000010
00000000
,
00001000
00000010
00001000
00000010
,
00000100
00000000
00000001
00000000
,
00002002
00000000
00000000
00003003
,
00000001
00001000
00000001
00001000
,
00000010
00010000
00002000
00000000
,
00013000
00001000
00010000
00001000
,
00100000
00010000
02000000
00000000
,
03100000
10000000
00100000
10000000
,
01000000
00100000
00020000
00000000
,
00031000
00000000
00010000
00000000
,
00001000
00010000
00000010
00001000
,
00001001
00000000
00000001
00000000
,
00000100
00000100
00010000
00010000
,
00001000
00000000
00100000
00000000
,
00010000
00010000
10000000
10000000
,
00010000
00000000
01000000
00000000
,
00100000
00100000
10000000
10000000
,
01000000
00000000
00100000
00000000
,
00001000
00010000
00001000
00010000
,
00011000
00000000
00010000
00000000
,
00001000
00001000
00010000
00010000
,
00000020
00000000
00002030
00000000
,
00003200
00000000
00000320
00000000
,
00000031
00000000
00000100
00000000
,
00000010
00000010
00010000
00010000
,
00002000
00000000
00023000
00000000
,
00032000
00000000
00023000
00000000
,
00002000
00000000
00000000
00033000
,
00011000
00010000
00001000
00001000
,
00100000
00100000
00010000
00010000
,
10000000
00100000
01000000
00010000
,
20000000
00000000
00000000
30000000
,
10000000
01000000
10000000
01000000
,
00010000
01000000
00010000
00001000
,
00010000
00000000
00001000
00000000
,
00000100
00000001
00002002
00003003
,
00000001
00000010
00000001
00000010
,
00001000
00000010
00002000
00000000
,
00013000
00100000
10000000
00010000
,
20020000
00000000
00000000
30030000
,
10000000
00100000
00100000
10000000
,
00100000
01000000
00010000
00100000
,
00001000
00000000
00010000
00000000
,
00000010
00010000
00011000
00000000
,
00010000
00000000
00001000
00000000
,
00000010
00000000
00000001
00000000
,
00000100
00000000
00001000
00000000
,
00022000
00000000
00000000
00000000
,
00033000
00000000
00000000
00000000
;

//--------------- dance-double - Fred-104 ----------------
#NOTES:
     dance-double:
     Fred-104:
     Medium:
     7:
     :
00000000
00000000
00000000
00000000
,
00000000
00000000
00000000
00000000
,
00000000
00000000
00000000
00000000
,
00010000
10000000
00010000
00000000
01000000
00000000
00100000
00000000
,
00002000
00000000
00010000
00010000
00000000
00010000
00000000
00013000
,
00000000
00000000
00000100
00000000
00001000
00000001
00000100
00000000
,
00000001
00000100
00000001
00001000
,
00000010
00001000
00000010
00000000
00010000
00000000
00001000
00000000
,
00020000
00000000
00001000
00001000
00000000
00001000
00000000
00031000
,
00000000
00000000
00010000
00000000
00001000
00000000
00010000
00020000
,
00000000
00000000
00000000
00030000
,
00011000
00000000
00010000
00000000
00000010
00001000
00000010
00000000
,
00010000
00000000
00001000
00000000
00010000
00001000
00010000
00000000
,
00001000
00000000
00100000
00000000
00010000
00100000
00010000
00200000
,
00000000
00320000
00000000
20030000
00000000
30200000
00000000
00000000
,
10300000
00000000
01000000
00000000
00100000
00000000
01000000
01000000
,
00000000
10000000
00000000
00100000
00000000
00010000
00000000
00001000
,
00010000
00001000
00000000
00000010
00000000
00000000
00000000
00000011
,
00000000
00001001
00000000
00000110
00000000
00000100
00000000
00000001
,
00001000
00000000
00000001
00000000
00000010
00000020
00000000
00000230
,
00000000
00020300
00000000
00032000
00000000
00203000
00000000
00000000
,
00310000
00000000
10000000
00000000
00100000
00200000
00000000
20300000
,
00000000
32000000
00000000
03020000
00000000
00032000
00000000
00000000
,
00013000
00000000
00001000
00000000
00000100
00000200
00000000
00000302
,
00000000
00002003
00000000
00003002
00000000
00000023
00000000
00000130
,
00000100
00000000
00000000
00011000
00000000
00000000
00000000
00001000
,
00000000
00001000
00000000
00010000
00000000
01000000
00000000
10000000
,
00010000
10000000
01000000
00100000
,
02000000
00000000
10000000
00000000
10000000
00000000
03100000
10000000
,
00100000
00100000
00000000
00000000
00001000
00001000
00000000
00000000
,
00010000
00010000
00000000
00000000
00000010
00000010
00000000
00000000
,
00001000
00000001
00000100
00000010
,
00002000
00000000
00000001
00000000
00000001
00000000
00003001
00000001
,
00000100
00000100
00000000
00000000
00010000
00010000
00000000
00001000
,
00000000
01000000
00000000
00100000
00000000
10000000
00000000
20020000
,
00000000
00000000
00000000
30030000
,
10000000
00010000
10000000
00000000
00100000
00000000
01000000
00000000
,
00100000
00000000
01000000
00100000
01000000
00100000
01000000
00000000
,
00001000
00010000
00001000
00000000
00010000
00000000
00001000
00000000
,
00100000
00010000
00100000
00000000
00001000
00010000
00001000
00000000
,
00100000
00001000
00010000
00000000
00001000
00000000
00010000
00000000
,
00000010
00000000
00001000
00000100
00001000
00000100
00001000
00000000
,
00000010
00000010
00000000
00000100
00000001
00001000
00000000
00000001
,
00000000
00000100
00001000
00020000
00000000
00000000
00030000
00000000
,
00001000
00010000
00001000
00000000
00010000
00000000
00100000
00000000
,
10000000
00100000
10000000
00100000
10000000
00000000
00010000
00000000
,
10000000
01000000
10000000
00000000
01000000
00000000
00010000
00000000
,
00001000
00010000
00001000
00000000
00000010
00001000
00000010
00000000
,
00000001
00001000
00000001
00000000
00000100
00000000
00000010
00000000
,
00001000
00000001
00001000
00000001
00000000
00000100
00000010
00000000
,
00010000
00010000
00000000
00001000
00100000
00010000
00000000
01000000
,
00000000
00100000
00000000
20020000
00000000
00000000
30030000
00000000
,
00020000
01030000
20000000
30100000
,
00010000
00001000
00000100
00000001
,
00000020
00001030
00020000
00031000
,
00022000
00000000
00000000
00000000
,
00033000
00000000
00000000
00000000
;

//--------------- dance-double - Fred-104 ----------------
#NOTES:
     dance-double:
     Fred-104:
     Hard:
     13:
     :
00000000
00000000
00000000
00000000
,
00000000
00000000
00000000
00000000
,
00000000
00000000
00000000
00000000
,
00100000
00010000
10000000
00000000
10010000
00000000
00010000
10000000
,
01000000
00010000
00001000
00000020
00000000
00000032
00000000
00002003
,
00000000
00003010
00000100
00000010
00001000
00000100
00010000
00001000
,
00010000
00001000
00010000
00001000
00010000
00000000
00001000
00010000
00001000
00010000
00001000
00000000
00010000
00001000
00010000
00001000
,
00010000
00001000
00000100
00000000
00000101
00000000
00000001
00000100
,
00000010
00001000
00000100
00020000
00000000
00032000
00000000
02003000
,
00000000
00000000
03010000
00000000
00100000
00000000
01000000
00000000
10000000
00000000
01000000
00100000
01000000
00000000
20000000
00000000
,
00000000
00000000
00000000
30000000
,
00010000
00000000
20000000
00000000
31000000
00010000
00001000
00000200
,
00000000
00000302
00000000
00002003
00000000
00003001
00000100
00000010
,
00001000
00000000
00000002
00000000
00001003
00000001
00000010
00002000
,
00000000
00023000
00000000
00230000
00000000
10300000
00010000
10000000
,
01000000
00000000
20000000
00000000
30100000
01000000
00010000
00002000
,
00000000
00003020
00000000
00000230
00000000
00000302
00000000
00001003
,
00000100
00000110
00000000
00000101
00000000
00000001
00000100
00000110
,
00000000
00011000
00000000
01100000
00000000
20020000
00000000
30030000
,
01020000
00000000
10000000
00000000
10030000
00010000
10000000
01000000
,
00100000
01000000
00010000
00001000
00010000
00000100
00000010
00000000
,
00002001
00000000
00000100
00000000
00003100
00000010
00000100
00000001
,
00001000
00000100
00010000
00001000
00100000
01000000
00100000
00000000
,
20010000
00000000
01000000
00000000
31000000
00100000
00001000
00010000
,
00000100
00000000
00000010
00000000
00000001
00000000
00001000
00000000
00000010
00000000
00000100
00000000
00000001
00000010
00000001
00000010
,
00000001
00000000
00000000
00001010
00000000
00000000
00000000
00011000
,
00000000
00101000
00000000
00010010
00000000
00011000
00000000
00010000
,
01000000
00000000
00000000
01000000
00000000
00000000
01000000
00000000
00100000
00000000
00000000
00000000
00010000
00000000
01000000
00000000
,
00010000
00001000
00000100
00002000
00000000
00023000
00000000
00032000
,
00013000
00001000
00010000
00001000
00000000
00000000
00000000
00000000
01000000
00000000
00100000
00000000
00000000
00000000
00000000
00000000
,
00001000
00010000
00001000
00010000
00000000
00000000
00000000
00000000
00000100
00000000
00000010
00000000
00000000
00000000
00000000
00000000
,
00000001
00000000
00000000
00000001
00000000
00000000
00000001
00000000
00000010
00000000
00000000
00000000
00001000
00000000
00010000
00000000
,
00100000
00010000
00001000
00000020
00000000
00002030
00000000
00023000
,
00031000
00010000
00001000
00010000
00000000
00000000
00000000
00000000
01000000
00100000
01000000
00100000
00000000
00000000
10100000
00000000
,
00000000
00110000
00000000
00011000
00000000
00001100
00000000
00000202
,
00000000
00000000
00000000
00000303
,
00001000
00000001
00000020
00000000
00000130
00000000
00000001
00000100
,
00000010
00000000
00000001
00000000
00001000
00000000
00000020
00000000
00000000
00000000
00001030
00000010
00001000
00000000
00000100
00000000
,
00010000
00001000
00020000
00000000
00031000
00100000
00010000
01000000
,
00010000
01000000
00010000
01000000
00010000
00000000
01000000
00010000
01000000
00010000
01000000
00000000
00010000
01000000
00010000
01000000
,
00010000
00100000
00002000
00000000
00013000
00000010
00001000
00000100
,
00010000
00000000
00000100
00000000
00001000
00000000
00000020
00000000
00000000
00000000
00000130
00000010
00000100
00000000
00000001
00000000
,
00000100
00000100
00000000
00000010
00010000
00011000
00000000
00101000
,
00000000
00010000
01000000
00200000
00000000
00000000
00300000
00000000
,
01000000
00100000
10000000
00100000
01000000
00000000
00001000
00010000
,
00001000
00000000
00000100
00000000
00000010
00000000
00000002
00000000
00000000
00000000
00000013
00001000
00000010
00000000
00000000
00000000
,
00000001
00000100
00000010
00000000
00001000
00000100
00010000
00001000
,
00010000
00001000
00010000
00001000
00010000
00000000
00001000
00010000
00001000
00010000
00001000
00000000
00010000
00001000
00010000
00001000
,
00010000
00001000
01000000
00010000
00200000
00000000
00301000
00100000
,
00010000
00000000
01000000
00000000
00001000
00000000
00020000
00000000
00000000
00000000
00030010
00001000
00000010
00000000
00000100
00000000
,
00000010
00001000
00000000
00000100
00010000
00011000
00000000
00010100
,
00000000
00010000
00001000
00022000
00000000
00000000
00033000
00000000
,
00001000
00010000
00001000
00010000
00001000
00000000
00010000
00000000
00001000
00010000
00001000
00010000
00001000
00000000
00100000
00000000
,
00010000
10000000
00010000
00000000
10000000
00010000
10000000
00000000
00010000
10000000
00010000
10000000
00010000
00000000
01000000
00000000
,
00001000
00010000
00001000
00010000
00001000
00000000
00010000
00000000
00001000
00010000
00001000
00010000
00001000
00000000
00000100
00000000
,
00000010
00000001
00000010
00000001
00000010
00000001
00000010
00000001
00000010
00000001
00000010
00000001
00000010
00000001
00000010
00000001
;
