#VERSION:0.83;
#TITLE:HAPPY☆PARADISE☆GALAXY;
#ARTIST:DJ(GW+ミラクル☆ストーン)÷2;
#TITLETRANSLIT:HAPPY PARADISE GALAXY;
#ARTISTTRANSLIT:DJ GW+Miracle Stone÷2;
#BANNER:HAPPY PARADISE GALAXY.png;
#BACKGROUND:HAPPY PARADISE GALAXY-bg.png;
#CDTITLE:./CDTitles/RB Reflesia.png;
#MUSIC:HAPPY PARADISE GALAXY.ogg;
#SAMPLESTART:90.98;
#SAMPLELENGTH:15;
#BPMS:0=182,132=91,148=182;
#STOPS:180=2.308;
#TIMESIGNATURES:0=4=4,180=1=4,181=4=4;
#BGSTAGE:31;

//--------------- dance-single - Fred-104 ----------------
#NOTEDATA:;
#STEPSTYPE:dance-single;
#DESCRIPTION:Fred-104;
#DIFFICULTY:Beginner;
#METER:7;
#CREDIT:Fred-104;
#NOTES:
0000
0000
0000
0000
,
0000
0000
0000
0000
,
0000
0000
0000
0000
,
0000
0000
0000
0000
,
0000
0000
0000
0000
,
1000
0000
0001
0000
,
0010
0000
0001
0000
,
1000
0000
0100
0000
,
1000
0000
0001
0000
,
1000
1000
1000
0000
,
0010
0010
0010
0000
,
0100
0100
0100
0000
,
0001
0001
0001
0000
,
1000
1000
1000
0000
,
0001
0001
0001
0000
,
1000
1000
0001
0001
,
2002
0000
0000
3003
,
1000
0000
0010
0000
,
1000
0000
0001
0001
,
0001
0000
0100
0000
,
0001
0000
1000
0000
,
0001
0001
0001
0000
,
0100
0000
0001
0001
,
0001
0000
0010
0000
,
0100
0100
0100
0100
,
0100
0000
1000
0000
,
0010
0000
1000
1000
,
1000
0000
0001
0000
,
1000
0000
0001
0001
,
0001
0000
1000
0000
,
0010
0000
1000
0000
,
0001
0001
0001
0001
,
0001
0000
1000
0000
,
0002
0000
2003
0000
,
3010
0000
0000
0000
,
2000
0000
3020
0000
,
0130
0000
0000
0000
,
0001
0000
0001
0000
,
1000
0010
1000
0000
,
0100
0000
1000
0000
,
0001
0100
1000
0100
,
0001
0000
0010
0000
,
1000
0000
0100
0000
,
0001
0000
1000
0000
,
0001
0001
1000
1000
,
1001
0002
0000
0000
,
0000
2003
0000
0000
,
0000
3020
0000
0000
,
0000
0130
0000
0001
,
0000
2000
0000
0000
,
0000
3200
0000
0000
,
0000
0320
0000
0000
,
0000
0031
0000
1000
,
1000
0010
0010
0010
,
0000
1000
1000
1000
,
0000
0001
0001
0001
,
0000
0010
0010
0010
,
0000
0100
0100
1000
,
1000
0010
0010
0001
,
0001
0100
0100
1000
,
1000
0010
0010
0010
,
0000
1001
0000
0110
,
0000
1001
0000
0000
,
0000
0001
0000
1000
,
0000
0100
0100
1000
,
0000
0010
0000
1000
,
0000
0010
0010
1000
,
0000
0100
0000
0010
,
0000
0100
0100
1000
,
0000
0001
0001
1000
,
1000
0001
1000
1001
,
0000
0001
0010
0100
,
0000
1000
0010
0100
,
0010
1000
0010
1000
,
0000
0001
0010
1000
,
0010
0001
1000
0001
,
0000
0100
0010
0100
,
0001
1000
1000
0001
,
0001
1000
0001
1001
,
0000
0001
0000
1000
,
0000
0001
0001
1000
,
1000
1001
0000
0110
,
0000
1000
1000
0001
,
0001
2000
0000
0000
,
3000
2002
0000
0000
,
0000
0000
0000
0000
,
0000
3003
0000
0000
;

//--------------- dance-single - Fred-104 ----------------
#NOTEDATA:;
#STEPSTYPE:dance-single;
#DESCRIPTION:Fred-104;
#DIFFICULTY:Easy;
#METER:10;
#CREDIT:Fred-104;
#NOTES:
0000
0000
0000
0000
,
0000
0000
0000
0000
,
0000
0000
0000
0000
,
0000
0000
0000
0000
,
0000
0000
0000
0000
,
1000
0100
0020
0030
,
0001
0100
0020
0030
,
1000
0010
0200
0300
,
0001
0010
0200
0300
,
1000
0000
0000
0100
0010
0002
0000
0003
,
0001
0000
0000
0100
0010
2000
0000
3000
,
1000
0000
0000
1000
0100
0002
0000
0003
,
0001
0000
0000
0001
0100
2000
0000
3000
,
1001
0001
0100
0000
,
1001
1000
0100
0000
,
1100
0011
1000
0001
,
2002
0000
0000
3003
,
1000
0000
0100
0000
1000
0000
0010
0100
,
0010
0000
0100
0001
0100
0100
0100
0000
,
0001
0000
0010
0100
0010
0000
0100
1000
,
1000
0000
0010
0000
1000
1000
1000
0000
,
1010
0000
0011
0000
0110
0000
0100
0001
,
1000
0000
0001
0000
0010
0010
0010
0000
,
0001
0000
0100
0000
0010
0010
0010
0000
,
1100
0101
0110
1001
,
1000
0000
0100
0000
1000
0010
1000
0000
,
0001
0000
0100
0000
0010
0010
0010
0000
,
0100
0001
1000
0001
,
0100
0000
0010
0000
1000
0001
1000
0000
,
1100
0101
0110
0001
,
1000
0000
0100
0000
1000
1000
1000
0000
,
0011
1001
1100
1001
,
0002
0203
0320
2030
,
3001
1000
0010
0100
0001
0010
0001
0001
,
1000
0000
0010
0000
0001
0000
0010
0000
1000
0000
0001
0000
1000
0001
1000
0000
,
0001
0100
0110
0000
1000
0100
0110
0000
,
0001
0000
0100
0000
1000
0000
0100
0000
0001
0000
0010
0000
0001
1000
0001
1000
,
0001
0000
0101
0000
0000
0010
0100
0000
,
0001
0000
1000
0000
0100
0100
0100
0000
,
1000
0000
1001
0000
0000
0010
0100
0000
,
0010
0001
0010
0000
0001
1000
0001
0000
,
1001
0001
0100
0010
,
0110
1000
0100
0010
,
0011
0000
1010
0000
,
0001
0000
1000
0000
0001
1000
0001
1000
,
0001
0000
2000
0000
0000
3020
0000
0000
,
0230
0301
0010
0100
,
0010
0001
0001
0001
,
0000
0100
1000
0100
,
0001
1000
1000
1000
,
0000
0010
0001
0010
,
1000
0001
0100
0010
,
0000
0000
0100
0000
0100
0000
0001
1000
,
0001
0001
0001
0100
,
0100
0010
0010
1000
,
1000
0001
0001
0010
,
0010
0100
0100
1000
,
1000
0001
0010
1000
,
0100
0001
0010
1000
,
0100
0001
0100
0010
,
1000
0001
1000
2002
,
3003
0110
0110
1001
,
0000
0110
0000
0000
0001
0000
1000
0001
,
1000
0001
0100
0010
,
0000
1010
0000
0000
1000
0000
0100
1000
,
0100
0010
0100
1000
,
0000
1001
0000
0000
0001
0000
0100
0010
,
0100
0001
0010
0100
,
0000
0110
0000
0000
0010
0000
0001
1000
,
0001
0000
1000
1000
1000
0000
0001
0001
,
0001
0100
0010
1000
,
0100
1100
0110
0010
,
0001
0000
0100
0000
0010
0000
0100
0001
,
0100
0101
1010
0001
,
0000
1001
0000
0000
1000
0000
0001
0100
,
0001
0000
0010
0010
0010
0000
0001
0000
,
0000
1001
0000
0000
1000
0000
0100
1000
,
0100
0000
1000
1000
1000
0000
0001
0001
,
0001
1000
0100
0010
,
0001
0000
0100
0100
0100
0000
0010
0010
,
0010
0100
0001
1000
,
0010
1000
0100
0001
,
0010
1000
0100
0001
,
0010
0000
1000
0000
0001
0000
1000
0001
,
1000
2002
0000
0000
,
0000
0000
0000
0000
,
0000
3003
0000
0000
;

//--------------- dance-single - Fred-104 ----------------
#NOTEDATA:;
#STEPSTYPE:dance-single;
#DESCRIPTION:Fred-104;
#DIFFICULTY:Medium;
#METER:13;
#CREDIT:Fred-104;
#NOTES:
0000
0000
0000
0000
,
0000
0000
0000
0000
,
0000
0000
0000
0000
,
0000
0000
0000
0000
,
0000
0000
0000
0000
,
1001
0000
0000
0001
0001
0020
0000
0000
,
0130
0000
0000
0100
1000
0020
0000
0000
,
1030
0000
0000
1000
0001
0020
0000
0000
,
0031
0000
0000
0001
0100
0010
1000
0000
,
1100
0000
1000
0010
0100
0002
0000
0003
,
0101
0000
0001
1000
0010
2000
0000
3000
,
1010
0000
0010
1000
0010
0200
0000
0300
,
0110
0000
0010
1000
0001
1000
0100
0000
,
0110
0000
0010
0001
1000
0001
0100
0010
,
1010
0000
1000
0100
0010
0001
1000
0010
,
1000
1000
0001
0001
0100
0100
0010
0010
,
0220
0000
0000
0330
,
1000
0100
0000
1100
0000
0101
0000
1100
,
0000
1001
0000
0001
0100
0010
0100
0001
,
0000
0011
0000
0101
0000
0001
1000
0010
,
1000
0100
0010
0001
0100
0010
1000
0000
,
0001
0001
0001
1001
0000
1010
0000
1001
,
0000
0101
0000
1000
0010
0100
0010
1000
,
0000
1100
0000
0101
0000
1000
0100
0010
,
0011
1100
0101
1010
,
0001
0100
0010
0100
0001
0100
0010
0000
,
1000
0100
0010
0100
1000
0100
0010
0100
,
1000
0001
0100
0001
1000
0001
0100
0001
,
0010
0100
1000
0100
0010
0001
1001
0000
,
0100
0100
0110
0010
1000
0100
1000
0010
,
0100
0001
1000
0100
0010
0100
1000
0000
,
0001
0001
1000
1000
0001
0100
0010
1000
,
0002
0203
2300
3020
,
0031
0000
0100
0000
1000
0000
0100
0000
0001
0010
1000
0000
1000
0010
0001
0000
,
0001
0000
0100
0010
1000
0000
0100
0010
0001
0100
0001
0100
0010
0100
0001
0000
,
1000
0000
0000
0010
0000
0000
1000
0000
0100
0000
1000
0000
0001
0000
0000
0000
0100
0000
0000
0000
0010
0000
1000
0000
0001
0000
0000
0000
1000
0000
0000
0000
,
0001
0000
0010
0000
0100
0000
0000
0000
1000
0000
0100
0000
0010
0000
0000
0000
0001
0000
0000
0001
0000
0000
0100
0000
0110
0000
0000
0000
1000
0100
1000
0100
,
1000
0000
0000
0000
0001
0000
0010
0000
0001
0000
0000
1000
0000
0000
0010
0000
,
0100
0001
0010
0001
1000
0001
1000
0000
,
0001
0000
1000
0100
0001
0100
1000
0000
,
0001
0000
0000
0010
0000
0000
0001
0000
1000
0000
0001
0000
0100
0000
0010
0000
,
1000
0000
0100
0000
1000
0010
0001
0000
,
0010
0000
0100
0000
0001
1000
0001
0000
,
1100
0000
0000
0010
0000
0000
0001
0000
0101
0000
0000
0010
0000
0000
1000
0000
,
0100
1000
0001
0100
0001
0001
1000
1000
,
1001
0000
0001
0000
0100
0010
0100
0010
,
0100
0000
0001
0000
1000
0010
0100
0000
,
0010
1000
0001
0000
1000
0000
0100
0100
,
0000
1000
0000
0001
0000
0100
0010
0100
,
0001
0000
1000
0000
0100
0100
1000
0010
,
0100
0010
0000
0100
0000
0001
1000
0001
,
0010
0001
0100
0010
,
1000
0100
0000
1000
0100
0010
0001
1000
,
0001
1000
1000
0010
,
0010
0100
0100
0001
,
0001
1000
1000
0100
,
0100
0010
0010
0001
,
0001
0000
1000
0010
1000
0000
0100
0001
,
0100
0000
0001
0010
0001
0000
0010
1000
,
0010
0000
1000
0100
0010
0001
0100
0010
,
1000
0001
1000
0000
0001
0000
2002
0000
,
3003
0000
1100
0000
0101
0000
1000
0100
,
0010
0011
0000
0001
1000
0010
0100
0100
,
0110
0000
1100
0000
0011
0000
0001
1000
,
0010
2000
0000
3100
0010
0100
1000
0010
,
0100
0001
0101
0000
0011
0000
0001
1000
,
0010
1000
0000
0001
0010
0100
1000
0010
,
0100
0001
1001
0000
0110
0000
0010
1000
,
0010
0100
0000
0010
1000
0100
0010
0100
,
1000
0001
1000
1000
1010
0000
0001
0001
,
0011
0000
1000
0100
0001
0100
1000
0010
,
1000
0000
1010
0000
0110
0000
0100
0001
,
1000
0002
0000
0013
0100
0010
0001
1000
,
0010
1000
1100
0000
1001
0000
1000
0100
,
0010
0200
0000
1300
0010
1000
0100
0010
,
0001
0100
0002
0023
0032
0000
1003
0001
,
0100
0002
0000
0013
0001
1000
0010
0100
,
0010
1000
0001
0001
0011
0000
1000
1000
,
1010
0000
0001
0100
0001
0010
0100
0010
,
0001
1000
0100
0100
0110
0000
0001
0001
,
1001
0000
0000
0000
1000
0000
0010
0000
1000
0000
0100
0000
0010
0000
0000
0001
,
0000
1000
0001
0100
1000
0000
0001
0010
,
1000
0000
0001
0100
0010
1000
0100
0010
,
0001
1000
0001
0001
1000
1000
0010
0100
,
0010
0100
2002
0000
0000
0000
0000
0000
,
0000
0000
0000
0000
,
0000
3003
0000
0000
;

//--------------- dance-single - Fred-104 ----------------
#NOTEDATA:;
#STEPSTYPE:dance-single;
#DESCRIPTION:Fred-104;
#DIFFICULTY:Hard;
#METER:17;
#CREDIT:Fred-104;
#NOTES:
0000
0000
0000
0000
,
0000
0000
0000
0000
,
0000
0000
0000
0000
,
0000
0000
0000
0000
,
0000
0000
0000
0000
,
0001
0000
0010
0000
0001
0000
1000
0000
0010
0000
0100
0000
0001
0000
1000
0100
,
1000
0000
0100
0000
0010
0000
0001
0000
0100
0000
0010
0000
0100
0001
0100
0001
,
0010
0100
0010
0000
0001
0100
0001
0000
1000
0010
1000
0000
0001
1000
0001
0000
,
1000
0100
1000
0100
0010
0001
0010
0001
1000
0001
1000
0001
1000
0000
0000
0000
,
1100
0000
1000
0000
0010
0000
0100
0001
0010
0000
0002
0000
0000
0000
1003
0000
,
0100
0000
0010
0000
0001
0000
0100
0010
0001
0000
0020
0000
0000
0000
0130
0000
,
0001
0000
0010
0000
0100
0000
1000
0010
0100
0000
0002
0000
0000
0000
1003
0000
,
0100
0000
0001
0000
0100
0000
1000
0010
0100
0000
0001
0000
1000
0000
0000
0000
,
1001
0000
0000
0000
0001
0000
0010
0000
0100
0000
1000
0001
0100
0000
0010
0000
,
0110
0000
0000
0000
0100
0000
0010
0000
1000
0000
0001
1000
0100
0000
0010
0000
,
0011
0000
0001
0000
1100
0000
1000
0000
0001
0100
0010
1000
0100
0010
0001
0100
,
0020
0000
0000
0030
,
1001
0002
0013
0002
0103
0002
1003
0200
,
0301
0000
0200
0000
1300
0000
0020
0000
0130
0000
1000
0100
0001
0000
2000
0000
,
3001
0000
0020
0000
1030
0000
0020
0000
0031
0000
0200
0000
0310
0000
0001
0010
,
0100
0000
0002
0000
0013
0000
0200
0000
1300
0001
0010
0001
0100
0000
0000
0000
,
0110
0110
1001
0002
0013
0200
0310
0002
,
1003
0000
0020
0000
0031
0000
0020
0000
0130
0000
0010
1000
0001
0000
2000
0000
,
3001
0000
2000
0000
3100
0000
0002
0000
0103
0000
0010
0001
1000
0000
0010
0000
,
1010
0000
0101
0000
1100
0000
0011
0002
,
0103
0020
1030
0020
0031
0020
1030
0002
,
0013
0000
0200
0000
0301
0000
0200
0000
1300
0000
0001
1000
0100
0000
0020
0000
,
0031
0000
0200
0000
0310
0000
0002
0000
0013
0000
0200
0000
1300
0000
0100
0010
,
1000
0000
0002
0000
1003
0000
0020
0000
0130
0001
0100
0001
0200
0000
0000
0300
,
0101
0101
0110
0020
1030
0200
0310
2000
,
3010
0000
0200
0000
1300
0000
0002
0000
1003
0000
0200
0000
0301
0100
1000
0000
,
1100
0000
1000
0000
1010
0000
0010
0000
0100
0001
0010
0001
1000
0000
0001
0010
,
0100
0000
0000
0000
0100
1000
0001
0100
0020
0000
2030
0000
3002
0000
0000
0000
,
1003
0000
0100
0000
0001
0000
0100
0000
1000
0010
0001
0010
1000
0000
0001
0000
,
1000
0000
0001
1000
1010
0000
0100
0001
1000
0100
0010
0001
0010
0100
1000
0001
,
1000
0000
0000
0010
0000
0000
0100
0000
0101
0000
0001
0000
0100
0000
0000
0000
0002
0000
0000
0000
0103
0000
0010
0000
0120
0000
0000
0000
1030
0000
0000
0000
,
0001
0000
0010
0000
1000
0000
0000
0000
0001
0000
0100
0000
1000
0000
0000
0000
0001
0000
0100
0001
0000
0100
0010
0000
1000
0000
0000
0100
1000
0001
1000
0001
,
1000
0000
0000
0000
1001
0000
0001
0000
0010
0000
0100
1000
0000
0010
0100
0000
,
0001
0000
0100
0001
1000
0001
1000
0100
1000
0010
0100
0000
0001
1000
0100
0010
,
0100
0000
1000
0010
0000
0100
0010
0000
1000
0000
0100
0000
0001
0000
0100
0010
,
0001
0000
0100
0010
0000
0100
0001
0000
1000
0100
0010
0001
0010
0100
1000
0001
,
1000
0000
0001
0010
0000
0100
0010
0000
0001
0000
0100
0000
0010
0000
1000
0000
,
1100
0000
1000
0010
0000
0010
0100
0000
0001
0000
0010
0100
0000
0010
0100
0000
,
0110
0000
0000
1100
0000
0000
0101
0000
1010
0000
0000
0011
0000
0000
1001
0000
,
0001
0010
0001
0000
1000
0100
1000
0000
0001
0100
0010
1000
0100
0010
0001
0100
,
0010
0000
1001
0000
1000
0100
0010
0100
,
0001
0100
1000
0000
0001
0100
1000
0100
,
0001
0010
0001
0000
1000
0000
0010
1000
,
0000
0001
0000
0010
0001
1000
0100
1000
,
0010
0100
0010
0000
1000
0100
0010
1000
,
0010
0100
0000
1000
0010
0001
1000
0100
,
0001
1000
0001
0000
0100
0000
0010
0001
,
0010
0100
0000
0001
0000
1000
0100
0010
,
0001
1000
0001
0000
0001
0000
0010
0000
,
0010
0000
0100
0000
0100
0000
1000
0100
,
1000
0001
0001
0100
,
0100
0000
0010
0000
0010
0000
1000
0010
,
1000
0000
0001
0010
0001
0010
0100
1000
,
0100
1000
0001
0100
0001
0100
0010
1000
,
0010
0000
1000
0000
0001
1000
0001
1000
0100
0010
0100
0010
0001
0100
0010
1000
,
0100
0010
0001
1000
0001
0000
0100
0000
0010
0000
1000
0000
0001
1000
0001
1000
,
0001
0000
1001
0000
0110
0000
1010
0101
,
1100
0000
0011
0000
0000
0000
1001
0000
0110
0000
1001
0000
1000
0100
0010
0001
,
1000
0000
1010
0000
0101
0000
1000
0100
,
0010
0000
0002
0000
0000
0000
0103
0010
0001
0000
0010
0000
0100
0000
1000
0100
,
0010
1000
1100
0000
1001
0000
0001
0100
,
1000
0000
0200
0000
0000
0000
0301
0100
0010
0000
0001
0000
0010
0000
1000
0001
,
0100
0001
0011
0000
1001
0000
1000
0100
,
0010
0000
0002
0000
0000
0000
0103
0010
0001
0000
0010
0000
1000
0000
0001
0100
,
0010
0000
1000
0001
1000
0000
1001
0000
1010
0000
0000
0000
0011
0000
1010
0000
,
0110
0000
0000
0000
1000
0001
0010
0100
1000
0000
0001
0000
0100
0010
0100
0010
,
1000
0001
1001
0000
0110
0000
2010
3001
,
1000
0000
0200
0000
0000
0000
1300
0001
0010
0000
0100
0000
1100
0000
1000
0000
,
1001
0001
0101
0000
1100
0000
0102
0013
,
0001
0000
2001
0000
0000
0000
3010
0100
1000
0000
0100
0000
0010
1000
0010
1000
,
0001
0000
0000
1000
0000
0000
0100
0000
0000
0010
0000
0000
0001
0000
0000
0000
0000
0000
1000
0000
0001
0000
1000
0000
0001
0000
0000
0000
0000
0000
1000
0000
0000
0000
0000
0000
0012
0000
0000
0000
0000
0000
1003
0000
0000
0000
0000
0000
,
0100
0000
0120
0000
0000
0000
0031
0100
0010
0000
1000
0000
1001
0000
0001
0000
,
0011
0000
0010
0100
1000
0000
1010
0000
1001
0000
0000
0000
0101
0000
1100
0000
,
0101
0000
0000
0000
0001
1000
0010
1000
0001
0000
0010
0000
0100
1000
0001
0100
,
0010
0000
1000
0000
1010
0000
0011
0000
1010
0000
0000
0000
1000
0100
0010
0000
,
0011
0000
0000
0000
0001
0100
0010
0100
0001
0000
1000
0000
1100
0000
0000
0101
,
0000
0000
1010
0000
1000
0100
0001
0100
1000
0000
0000
0000
0001
0100
1000
0100
,
0001
0000
0000
0000
1000
0010
0001
0010
1000
0000
0001
0000
0100
0010
1000
0001
,
0010
0100
0010
0001
1000
0000
0100
0000
0010
0000
0001
0000
1000
0010
1000
0001
,
0100
0001
1000
0100
0020
0000
0000
0000
0000
0000
0000
0000
0000
0000
0000
0000
,
0000
0000
0000
0000
,
0000
0030
0000
0000
;

//--------------- dance-single - Fred-104† ----------------
#NOTEDATA:;
#STEPSTYPE:dance-single;
#DESCRIPTION:Fred-104†;
#DIFFICULTY:Challenge;
#METER:18;
#CREDIT:Fred-104†;
#NOTES:
0000
0000
0000
0000
,
0000
0000
0000
0000
,
0000
0000
0000
0000
,
0000
0000
0000
0000
,
0000
0000
0000
0000
,
1000
0000
0001
0010
1000
0020
0000
0000
,
0031
0000
1000
0010
0001
0020
0000
0000
,
1030
0000
0001
0010
1000
0010
0001
0010
,
0100
1000
0001
0100
0010
1000
0010
0100
0001
1000
0100
0010
0001
0000
0000
0000
,
1100
0000
0000
0000
0001
0000
1000
0100
0001
0000
0100
0000
0010
0000
0001
0000
,
1000
0000
0000
0000
0001
0000
0100
0010
0001
0000
0010
0000
0100
0000
0010
0000
,
1000
0000
0000
0000
0001
0000
0010
0100
0001
0000
0100
0000
1000
0000
0100
0000
,
0010
0000
0000
0000
0001
0000
1000
0010
0001
0010
1000
0000
0001
0000
0000
0000
,
0011
0100
1000
0000
1010
0100
0001
0000
,
1100
0010
0001
0000
0101
0010
1000
0000
,
1001
0000
0001
0000
1001
0000
1000
0000
0001
0100
0010
1000
0010
0100
0001
1000
,
0100
0000
0001
0000
0100
0000
1000
0000
0001
0100
1000
0100
0001
0000
0000
0000
,
1000
0000
0010
0100
0001
0000
1000
0001
0010
0000
0100
0010
0001
0000
2000
0000
,
3010
0000
0100
0001
1000
0000
0001
0010
0100
0000
1000
0100
0001
0000
0200
0000
,
1300
0000
0010
1000
0001
0000
0010
0100
1000
0000
0002
0000
0103
0000
1000
0100
,
0001
0000
1000
0100
0001
0000
0200
0000
1300
0001
0100
0010
1000
0000
0000
0000
,
1100
0000
0110
0000
0011
0000
0001
1000
0010
0000
0100
0001
1000
0000
0200
0000
,
0310
0000
0001
0010
1000
0000
0010
0001
1000
0000
0010
0001
0010
0000
2000
0000
,
3001
0000
0100
0010
1000
0000
0002
0000
0013
0100
0010
1000
0010
0000
0002
0003
,
2001
3100
1002
0013
2001
3100
0120
0031
,
1001
0000
1000
0001
0010
0000
0100
0010
0001
0000
1000
0010
0100
0000
0020
0000
,
1030
0000
0100
1000
0010
0000
0100
0001
1000
0000
0100
0001
0100
0000
2000
0000
,
3001
0000
0100
0010
0001
0000
1000
0100
0010
0000
2000
0000
3001
0000
0010
0100
,
1000
0000
0001
0100
1000
0000
0200
0000
0301
1000
0001
1000
0002
0000
0000
0003
,
0011
0000
1010
0000
0011
0000
0001
1000
0010
0000
0100
0001
1000
0000
0200
0000
,
0310
0000
0100
1000
0010
0000
0100
0001
1000
0000
0001
0010
1000
0010
0001
0000
,
0011
0000
0001
0000
1010
0000
1000
0000
0001
1000
0010
0100
0001
1000
0100
0010
,
0001
0000
0000
0000
1000
0100
0001
0010
1000
0000
0001
0000
2000
0000
0000
0000
,
3001
0000
1000
0000
0110
0000
0001
0000
1000
0010
0001
0100
1000
0000
0001
0000
,
0100
0000
0010
1000
1001
0001
0010
0100
1000
0100
0001
1000
0010
0001
0010
0000
,
0100
0000
0000
1000
0000
0000
0001
0000
1001
0000
1000
0000
0100
0000
0000
0000
0010
0000
0000
0000
0001
0000
0100
0000
0110
0000
0000
0000
1001
0000
0000
0000
,
1000
0000
0100
0000
0001
0000
0100
0000
1000
0000
0010
0000
0001
0000
0010
0000
1000
0000
0001
0010
0000
0100
1000
0001
0100
0000
0010
1000
0001
0010
0001
0010
,
0100
0000
0000
0000
1100
0000
1000
0000
0001
0000
1000
0100
0000
0001
0100
0000
,
0010
0000
0001
1000
0010
0100
0001
1000
0100
0010
0001
0000
0100
0010
0001
0010
,
0100
0000
0001
0010
0000
0100
1000
0001
0100
0000
0010
0000
1000
0000
0100
0010
,
0001
0000
1000
0001
0100
0001
1000
0000
0001
0010
0100
1000
0010
0100
0001
0010
,
0100
0000
1000
0010
0000
0100
0001
1000
0001
0000
0010
0000
0001
0000
1000
0000
,
1001
0000
0001
0100
0000
1000
0100
0000
0001
0000
1000
0100
0000
0001
0100
0000
,
1100
0000
0000
0101
0000
0000
1010
0000
0011
0000
0000
1100
0000
0000
0101
0000
,
1000
0100
0001
0000
1000
0010
0001
0000
1000
0100
0010
0001
0100
0010
1000
0100
,
0010
0012
0000
0000
,
0000
0203
0000
0000
,
0000
2300
0000
0000
,
0000
3020
0000
0000
,
0030
0102
0000
0000
,
0000
0203
0000
0000
,
0000
2300
0000
0000
,
0000
3020
0000
0032
,
1003
0011
0011
0110
,
0110
1100
1100
1001
,
1001
1010
1010
0110
,
0110
0101
0101
1001
,
1001
0000
1000
0100
0010
0001
1000
0100
,
0010
0000
0001
0000
1000
0000
0010
0000
0100
0000
0001
0000
1000
0010
0100
0000
,
0001
1000
0001
1000
0100
0010
0001
0100
0010
1000
0100
1000
0010
0100
0001
0010
,
0100
1000
0001
0000
1000
0000
0100
0000
0001
0000
1000
0000
0010
0001
0010
0100
,
1000
0001
1000
0000
1001
0000
0000
0000
0110
0000
0000
0000
1010
0000
0011
0000
,
1100
0000
0101
0000
0000
0000
0110
0000
1001
0000
0110
0000
0001
0100
1000
0100
,
0001
0000
2100
3010
0102
0013
1100
0100
,
0010
0000
0012
0000
0000
0000
1003
0010
0001
0000
0010
0000
0100
0000
1000
0100
,
0001
1000
2010
3100
0012
0103
1010
0010
,
0100
0000
0102
0000
0000
0000
1003
0100
0001
0000
0100
0000
0010
0000
1000
0010
,
0001
0100
0120
1030
0012
1003
0102
1003
,
0100
0000
0120
0000
0000
0000
0031
1000
0010
0000
0001
0000
0010
0000
0100
0001
,
1000
0000
0001
0010
0011
0000
1010
0000
0011
0000
0000
0000
1100
0000
0101
0000
,
1100
0000
0000
0000
0001
1000
0010
0200
1000
0000
0301
0000
1000
0001
0010
0200
,
0001
1300
1002
0103
2001
3010
1002
0103
,
0010
0000
2010
0000
0000
0000
3001
1000
0100
0000
0001
0000
0100
0000
0010
0001
,
1000
0001
0012
1003
0120
1030
0102
1003
,
0100
0000
2100
0000
0000
0000
3100
0010
0001
0000
1000
0000
0010
0100
1000
0100
,
0010
0000
0000
0100
0000
0000
0001
0000
0000
1000
0000
0000
0100
0000
0000
0000
0000
0000
0010
0000
0001
0000
1000
0000
0001
0000
0000
0000
0000
0000
0100
0000
0000
0000
0000
0000
0120
0000
0000
0000
0000
0000
1030
0000
0000
0000
0000
0000
,
0001
0000
0021
0000
0000
0000
0130
1000
0001
0000
0100
0000
1000
0000
0100
0001
,
1000
0000
0001
0100
0101
0000
1100
0000
0101
0000
0000
0000
1010
0000
0011
0000
,
1010
0000
0000
0000
0001
0100
1000
0200
0010
0000
0301
0000
1000
0100
0001
0200
,
0010
0000
1300
0000
1001
0000
1100
0000
0011
0000
0000
0000
1000
0010
0100
0000
,
0101
0000
0000
0000
0001
1000
0100
0020
1000
0000
0031
0000
0011
0000
0000
1010
,
0000
0000
0101
0000
1000
0100
0001
0010
1000
0000
0000
0000
0001
0100
1000
0010
,
0001
0000
0000
0000
1000
0100
0001
0100
1000
0000
0001
0000
1000
0100
0001
0100
,
0010
1000
0010
0001
0010
0000
0100
0000
1000
0000
0001
0000
0100
1000
0100
0010
,
0001
0010
0100
0001
2000
0000
0000
0000
0000
0000
0000
0000
0000
0000
0000
0000
,
0000
0000
0000
0000
,
0000
3000
0000
0000
;

//--------------- dance-double - Fred-104 ----------------
#NOTEDATA:;
#STEPSTYPE:dance-double;
#DESCRIPTION:Fred-104;
#DIFFICULTY:Easy;
#METER:10;
#CREDIT:Fred-104;
#NOTES:
00000000
00000000
00000000
00000000
,
00000000
00000000
00000000
00000000
,
00000000
00000000
00000000
00000000
,
00000000
00000000
00000000
00000000
,
00000000
00000000
00000000
00000000
,
00000001
00000100
00002000
00003000
,
00001000
00000100
00000002
00000003
,
00000001
00000010
00002000
00003000
,
00010000
00100000
20000000
30000000
,
00010000
00000000
00000000
00010000
10000000
00200000
00000000
00300000
,
00100000
00000000
00000000
00100000
00010000
02000000
00000000
03000000
,
01000000
00000000
00000000
00001000
00010000
00000200
00000000
00000300
,
00000100
00000000
00000000
00000100
00001000
00000020
00000000
00000030
,
00000110
00000000
00000001
00000100
00000010
00001000
00000000
00000000
,
00011000
00000000
00000000
00010000
00001000
00100000
00010000
00000000
,
10010000
01100000
00100000
00001000
,
00022000
00000000
00000000
00033000
,
00010000
00001000
00010000
00000100
,
00001000
00000000
00000010
00000000
00001000
00001000
00001000
00000000
,
00000001
00000000
00001000
00000000
00000001
00000000
00000100
00000100
,
00000100
00000000
00000001
00000000
00000010
00000010
00000010
00000000
,
00000001
00001000
00000001
00000000
00000100
00000000
00001000
00000000
,
00010000
00000000
01000000
00000000
00100000
00100000
00100000
00000000
,
00010000
00000000
10000000
00000000
01000000
01000000
01000000
00000000
,
11000000
01100000
00110000
00011000
,
00010000
00000000
00001000
00000000
00000010
00001000
00000010
00000000
,
00001000
00000000
00010000
00000000
00001000
00001000
00001000
00000000
,
00010000
00100000
00010000
00001000
,
00010000
00000000
01000000
00000000
00010000
00010000
00010000
00000000
,
00001000
00001000
00001000
00000000
00010000
00000000
00001000
00000000
,
00000100
00000000
00000001
00000000
00000010
00000010
00000010
00000000
,
00000101
00000110
00001010
00011000
,
00002000
00023000
02030000
23000000
,
30010000
01000000
00100000
01000000
00010000
00100000
01000000
00100000
,
01000000
00000000
00100000
00000000
00010000
00000000
00001000
00000000
00000010
00000000
00001000
00000000
00000010
00000100
00000010
00000000
,
00001000
00000100
00000110
00000000
00000001
00000100
00000110
00000000
,
00000001
00000000
00000010
00000000
00001000
00000000
00010000
00000000
00100000
00000000
01000000
00000000
00010000
00000000
10000000
00010000
,
10000000
00000000
11000000
00000000
00000000
01000000
00100000
00000000
,
00001000
00000000
00010000
00000000
00001000
00001000
00001000
00000000
,
00010000
00000000
00010100
00000000
00000000
00000100
00001000
00000000
,
00000001
00000000
00000100
00000000
00000010
00000010
00000010
00000000
,
00001000
00000100
00000010
00000001
,
00000100
00001000
00010000
00001000
,
00011000
00000000
01100000
00000000
,
10000000
00010000
10000000
00000000
00010000
10000000
00010000
00000000
,
10010000
00000000
20000000
00000000
00000000
30200000
00000000
00000000
,
10300000
01000000
00100000
00001000
,
00010000
00100000
00100000
00100000
,
00000000
10000000
01000000
00010000
,
00001000
00010000
00010000
00010000
,
00000000
00001000
00000010
00000001
,
00000100
00001000
00001000
00001000
,
00000000
00000010
00000001
00001000
,
00000000
00000010
00000010
00000100
,
00000100
00000001
00000001
00001000
,
00001000
00000010
00000010
00010000
,
00010000
00100000
00100000
10000000
,
10000000
01000000
01000000
00100000
,
00010000
00001000
00000100
00000010
,
00000010
00000001
00000010
00000100
,
00001000
00010000
00001000
00022000
,
00033000
00011000
00011000
00101000
,
00000000
00110000
00000000
00000000
10000000
00000000
00010000
10000000
,
00010000
01000000
00100000
10000000
,
00000000
11000000
00000000
00000000
00100000
00000000
00001000
00001000
,
00001000
00010000
00001000
00000010
,
00000000
00000011
00000000
00000000
00000001
00000000
00001000
00000001
,
00001000
00000001
00000100
00000010
,
00000000
00001010
00000000
00000000
00000100
00000000
00010000
00001000
,
00010000
00000000
00001000
00001000
00001000
00000000
00010000
00010000
,
00010000
00001000
00010000
01000000
,
10000000
00010000
01000000
00100000
,
00000000
01100000
00000000
00000000
10000000
00000000
01000000
01000000
,
00100000
00001000
00010000
00001000
,
00000000
00011000
00000000
00000000
00010000
00000000
00000100
00000100
,
00001000
00000000
00000001
00000100
00000001
00000000
00000010
00000000
,
00000000
00000110
00000000
00000000
00000100
00000000
00000010
00000001
,
00001000
00000000
00000100
00000100
00000100
00000000
00010000
00010000
,
00010000
01000000
00001000
00010000
,
00001000
00000000
00010000
00010000
00010000
00000000
00001000
00001000
,
00001000
00010000
00001000
00000010
,
00000001
00001000
00000010
00000001
,
00000100
00001000
00010000
00100000
,
10000000
01000000
00010000
00001000
,
00010000
00022000
00000000
00000000
,
00000000
00000000
00000000
00000000
,
00000000
00033000
00000000
00000000
;

//--------------- dance-double - Fred-104 ----------------
#NOTEDATA:;
#STEPSTYPE:dance-double;
#DESCRIPTION:Fred-104;
#DIFFICULTY:Medium;
#METER:13;
#CREDIT:Fred-104;
#NOTES:
00000000
00000000
00000000
00000000
,
00000000
00000000
00000000
00000000
,
00000000
00000000
00000000
00000000
,
00000000
00000000
00000000
00000000
,
00000000
00000000
00000000
00000000
,
00010100
00000000
00000000
00010000
00001000
00002000
00000000
00003000
,
00001000
00000000
00000000
00001000
00000001
00000002
00000000
00000003
,
00000001
00000000
00000000
00000001
00000010
00000020
00000000
00000030
,
00000010
00000000
00000000
00000100
00010000
00020000
00000000
00030000
,
00011000
00000000
00001000
00010000
01000000
20000000
00000000
30000000
,
10010000
00000000
10000000
00100000
01000000
00020000
00000000
00030000
,
01010000
00000000
01000000
00001000
00010000
00000200
00000000
00000300
,
00001010
00000000
00001000
00000001
00000100
00000020
00000000
00000030
,
00001001
00000000
00000001
00000010
00001000
00010000
00001000
00000000
,
00011000
00000000
00001000
00010000
01000000
00100000
00010000
00000000
,
10000000
00100000
01000000
00010000
00100000
00100000
00001000
00001000
,
00022000
00000000
00000000
00033000
,
00010000
00001000
00000000
00011000
00000000
01001000
00000000
00011000
,
00000000
00010100
00000000
00010000
00001000
00010000
00000100
00010000
,
00000000
00010010
00000000
00011000
00000000
00010000
00000010
00010000
,
00001000
00100000
00001000
00010000
00000100
00001000
00000010
00000000
,
00000100
00000100
00000100
00000110
00000000
00000101
00000000
00001001
,
00000000
00000011
00000000
00000001
00000100
00001000
00010000
01000000
,
00000000
01100000
00000000
00110000
00000000
00100000
10000000
01000000
,
11000000
01010000
00011000
00010100
,
00010000
00001000
00000100
00001000
00010000
00001000
00000100
00000000
,
00001000
00010000
01000000
00010000
00001000
00010000
01000000
00000000
,
00010000
00001000
00010000
00100000
00010000
00001000
00010000
00000000
,
00001000
00000010
00001000
00010000
00001000
00000010
00000110
00000000
,
00001000
00001000
00001001
00000001
00000010
00000100
00000010
00000000
,
00000001
00000010
00001000
00010000
00100000
01000000
00010000
00000000
,
00100000
00100000
01000000
01000000
10000000
00100000
01000000
00010000
,
20000000
32000000
03020000
00230000
,
10300000
00000000
00100000
00000000
01000000
00000000
10000000
00000000
01000000
00010000
10000000
00000000
00100000
01000000
00010000
00000000
,
10000000
00000000
00100000
00010000
00001000
00000000
00000100
00000010
00001000
00000001
00000010
00000100
00000010
00000001
00000100
00000000
,
00000010
00000000
00000000
00000100
00000000
00000000
00010000
00000000
00001000
00000000
00100000
00000000
00001000
00000000
00000000
00000000
00100000
00000000
00000000
00000000
00010000
00000000
00100000
00000000
01000000
00000000
00000000
00000000
10000000
00000000
00000000
00000000
,
00010000
00000000
10000000
00000000
01000000
00000000
00000000
00000000
00010000
00000000
00001000
00000000
00000010
00000000
00000000
00000000
00000100
00000000
00000000
00001000
00000000
00000000
00000001
00000000
00000010
00000000
00000000
00000000
00000100
00000010
00000100
00000010
,
00000100
00000000
00000000
00000000
00000010
00000000
00000001
00000000
00001000
00000000
00000000
00000010
00000000
00000000
00000100
00000000
,
00000010
00001000
00010000
00100000
01000000
00100000
00010000
00000000
,
00001000
00000000
00010000
00001000
00100000
00001000
00010000
00000000
,
00001000
00000000
00000000
00010000
00000000
00000000
00000010
00000000
00010000
00000000
00001000
00000000
00100000
00000000
00000000
00000000
,
00010000
00000000
01000000
00000000
10000000
00100000
00010000
00000000
,
00001000
00000000
00000100
00000000
00000001
00000010
00001000
00000000
,
00011000
00000000
00000000
00100000
00000000
00000000
00010000
00000000
10010000
00000000
00000000
01000000
00000000
00000000
00100000
00000000
,
00001000
00010000
00000100
00000010
00000001
00000001
00001000
00001000
,
00001001
00000000
00000001
00000000
00000100
00000010
00001000
00000010
,
00000100
00000000
00000001
00000000
00000010
00001000
00010000
00000000
,
00001000
00010000
01000000
00000000
00100000
00000000
00010000
00010000
,
00000000
10000000
00000000
00010000
00000000
10000000
00100000
10000000
,
01000000
00000000
00100000
00000000
01000000
10000000
00010000
10000000
,
00010000
01000000
00000000
00001000
00010000
00001000
00000100
00000000
,
00000001
00000100
00000001
00000010
,
00001000
00010000
00000000
01000000
00100000
00010000
10000000
00010000
,
00100000
00100000
00100000
01000000
,
01000000
10000000
10000000
00010000
,
00010000
00100000
00100000
00001000
,
00001000
00000010
00000010
00000001
,
00000001
00000000
00000100
00000010
00000100
00000000
00000010
00010000
,
00001000
00000000
00100000
00010000
00100000
00000000
01000000
10000000
,
01000000
00000000
10000000
01000000
00100000
00010000
01000000
00001000
,
00010000
00000010
00001000
00000000
00000001
00000000
00002002
00000000
,
00003003
00000000
00000110
00000000
00001001
00000000
00000001
00000010
,
00000100
00010000
00000000
00010000
00001000
00010000
01000000
00100000
,
01100000
00000000
01010000
00000000
00101000
00000000
00001000
00010000
,
00000100
00020000
00000000
00031000
00010000
00000010
00001000
00000100
,
00000010
00000001
00000101
00000000
00001010
00000000
00000001
00000010
,
00000001
00002000
00000000
00003001
00000010
00001000
00010000
00100000
,
01000000
00010000
10010000
00000000
01100000
00000000
00010000
10000000
,
00100000
20000000
00000000
31000000
00100000
00010000
01000000
00001000
,
00010000
00001000
00100000
00100000
00100000
00000000
00001000
00001000
,
00001000
00000000
00010000
00000010
00001000
00000010
00000100
00000001
,
00000010
00000000
00000110
00000000
00001001
00000000
00000001
00000100
,
00001000
00020000
00000000
00031000
00010000
01000000
00100000
00010000
,
10000000
00100000
01100000
00000000
01010000
00000000
00100000
00001000
,
00010000
00011000
00000000
00010000
00000100
00001000
00000100
00010000
,
00001000
01000000
00010000
00100000
01100000
00000000
01000000
10000000
,
00010000
02000000
00000000
03100000
10000000
01000000
00100000
00010000
,
00100000
01000000
00100000
00100000
00100000
00000000
00001000
00001000
,
00001000
00000000
00010000
00000100
00010000
00000100
00001000
00000100
,
00000010
00000001
00000100
00000100
00000100
00000000
00000010
00000010
,
00000010
00000000
00001000
00000001
00000010
00001000
00010000
00100000
,
01000000
00010000
00100000
00100000
00100000
00000000
01000000
01000000
,
01000000
00000000
10000000
00100000
10000000
00100000
01000000
00010000
,
10000000
01000000
00100000
00100000
00001000
00001000
00010000
00001000
,
00010000
00001000
00022000
00000000
00000000
00000000
00000000
00000000
,
00000000
00000000
00000000
00000000
,
00000000
00033000
00000000
00000000
;

//--------------- dance-double - Fred-104 ----------------
#NOTEDATA:;
#STEPSTYPE:dance-double;
#DESCRIPTION:Fred-104;
#DIFFICULTY:Hard;
#METER:17;
#CREDIT:Fred-104;
#NOTES:
00000000
00000000
00000000
00000000
,
00000000
00000000
00000000
00000000
,
00000000
00000000
00000000
00000000
,
00000000
00000000
00000000
00000000
,
00000000
00000000
00000000
00000000
,
00010000
00000000
00001000
00000000
00000010
00000000
00000100
00000010
00000001
00000000
00000020
00000000
00000000
00000000
00001030
00000000
,
00010000
00000000
00100000
00000000
10000000
00000000
00100000
01000000
00100000
00000000
00010000
00000000
00001000
00010000
00001000
00010000
,
00000100
00001000
00000100
00000000
00000010
00000001
00000010
00000000
00000001
00000100
00000001
00000000
00001000
00000010
00001000
00000000
,
00000010
00010000
00000010
00000000
00010000
00001000
00010000
00000000
00001000
00100000
00010000
10000000
00010000
00000000
00000000
00000000
,
10010000
10000000
01000000
00200000
00302000
00023000
00130000
10000000
,
01000000
00010000
00001000
00020000
00230000
20300000
31000000
00010000
,
00001000
00010000
00001000
00000020
00000230
00002300
00003001
00001000
,
00000100
00000000
00000010
00000000
00000001
00000000
00000200
00000000
00001300
00010000
00001000
00010000
00001000
00000000
00000000
00000000
,
00011000
00000000
00000000
00000000
00001000
00000000
00100000
00000000
00010000
00000000
10000000
00010000
00100000
00000000
01000000
00000000
,
11000000
00000000
00000000
00000000
01000000
00000000
00100000
00000000
00001000
00000000
00010000
00001000
00010000
00000000
00000100
00000000
,
00001100
00000000
00001000
00000000
00001010
00000000
00000010
00000000
00000100
00000001
00000100
00000001
00001000
00000100
00001000
00000100
,
00020000
00000000
00000000
00030000
,
00001000
00200000
10300000
00200000
00310000
02000000
13000000
02000000
,
03010000
00000000
20000000
00000000
30100000
00000000
00020000
00000000
00031000
00000000
00010000
01000000
00010000
00000000
00002000
00000000
,
00003010
00000000
00000002
00000000
00001003
00000000
00000020
00000000
00000031
00000000
00000020
00000000
00001030
00000000
00000001
00001000
,
00000100
00000000
00000020
00000000
00001030
00000000
00020000
00000000
00031000
00010000
00001000
00010000
00001000
00000000
00000000
00000000
,
00011000
00011000
00011000
00020000
00031000
00200000
10300000
00200000
,
00310000
00000000
02000000
00000000
13000000
00000000
02000000
00000000
03010000
00000000
10000000
00100000
00010000
00000000
00002000
00000000
,
00013000
00000000
02000000
00000000
03010000
00000000
00002000
00000000
00003100
00000000
00000001
00001000
00000001
00000000
00000010
00000000
,
00000110
00000000
00011000
00000000
01100000
00000000
10010000
00020000
,
00130000
02000000
03010000
02000000
03100000
00020000
10030000
02000000
,
03010000
00000000
00002000
00000000
00013000
00000000
00200000
00000000
10300000
00000000
00010000
10000000
00010000
00000000
00200000
00000000
,
01300000
00000000
00020000
00000000
00031000
00000000
00000200
00000000
00000310
00000000
00002000
00000000
00003001
00000000
00000010
00000100
,
00010000
00000000
00002000
00000000
01003000
00000000
00200000
00000000
10300000
01000000
00100000
00001000
00020000
00000000
00000000
00030000
,
00011000
00010010
00011000
00020000
00030100
00002000
00003001
00000200
,
00000310
00000000
00000200
00000000
00000301
00000000
00002000
00000000
00003001
00000000
00000020
00000000
00000130
00001000
00000100
00000000
,
00000110
00000000
00000010
00000000
00000011
00000000
00000001
00000000
00000100
00000001
00001000
00000100
00001000
00000000
00000100
00010000
,
00001000
00000000
00000000
00000000
00100000
00010000
10000000
00100000
02000000
00000000
03020000
00000000
20030000
00000000
00000000
00000000
,
30010000
00000000
10000000
00000000
01000000
00000000
00010000
00000000
00001000
00010000
00100000
10000000
00100000
00000000
00010000
00000000
,
00001000
00000000
01000000
00001000
00011000
00000000
00010000
00001000
00000100
00000001
00000010
00000100
00010000
00001000
00010000
00001000
,
00010000
00000000
00000000
00000010
00000000
00000000
00000100
00000000
00000110
00000000
00000000
00000000
00000001
00000000
00001000
00000000
00000200
00000000
00000000
00000000
00000310
00000000
00000001
00000000
00000201
00000000
00000000
00000000
00000310
00000000
00000000
00000000
,
00001000
00000000
00000001
00000000
00000010
00000000
00000000
00000000
00001000
00000000
00010000
00000000
00100000
00000000
00000000
00000000
01000000
00000000
00010000
00100000
00000000
01000000
10000000
00000000
00010000
00000000
00000000
10000000
00100000
01000000
00010000
01000000
,
00010000
00000000
00000000
00000000
10100000
00000000
10000000
00000000
01000000
00000000
00100000
01000000
00000000
00100000
00001000
00000000
,
00010000
00000000
00001000
00010000
00000100
00001000
00000100
00000000
00000010
00000001
00001000
00000000
00000001
00000100
00000010
00001000
,
00000001
00000000
00000100
00000010
00000000
00001000
00000100
00000000
00000010
00000000
00000001
00000000
00000100
00000000
00001000
00010000
,
00001000
00000000
00010000
00100000
00000000
01000000
00010000
00000000
10000000
00100000
10000000
00010000
00100000
00010000
10000000
00000000
,
00010000
00000000
01000000
00100000
00000000
10000000
00100000
00000000
01000000
00000000
00010000
00000000
10000000
00000000
01000000
00000000
,
01100000
00000000
00100000
00001000
00000000
00001000
00010000
00000000
00000100
00000000
00001000
00000001
00000000
00000100
00000010
00000000
,
00001010
00000000
00000000
00000101
00000000
00000000
00001100
00000000
00011000
00000000
00000000
00110000
00000000
00000000
10100000
00000000
,
10000000
00010000
10000000
00000000
00010000
00100000
00010000
00000000
01000000
00010000
01000000
00001000
00010000
00000010
00001000
00000010
,
00010000
00000000
00001001
00000000
00001000
00000100
00000001
00000100
,
00000010
00000100
00001000
00000000
00000001
00000100
00001000
00010000
,
00100000
01000000
00010000
00000000
10000000
00000000
00010000
00100000
,
00000000
00001000
00000000
01000000
00010000
00100000
01000000
00100000
,
00001000
00010000
00001000
00000000
00010000
00100000
01000000
00100000
,
00010000
00001000
00000000
00000010
00000100
00000010
00001000
00010000
,
01000000
00100000
01000000
00000000
00010000
00000000
00001000
00000100
,
00000010
00000100
00000000
00001000
00000000
00010000
00001000
00010000
,
00000100
00001000
00000010
00000000
00000010
00000000
00000100
00000000
,
00000100
00000000
00000001
00000000
00000001
00000000
00001000
00000100
,
00001000
00000010
00000010
00010000
,
00010000
00000000
00100000
00000000
00100000
00000000
10000000
00010000
,
10000000
00000000
01000000
00100000
01000000
00100000
00001000
00010000
,
00001000
00010000
00000010
00000100
00000010
00000100
00000001
00001000
,
00000001
00000000
00001000
00000000
00000001
00000010
00000001
00000010
00000100
00010000
00000100
00010000
00001000
00100000
00001000
00100000
,
00010000
10000000
00010000
10000000
00100000
00000000
10000000
00000000
00010000
00000000
00100000
00000000
00010000
10000000
00010000
10000000
,
00010000
00000000
10010000
00000000
01100000
00000000
11000000
01100000
,
00110000
00000000
00101000
00000000
00000000
00000000
00010010
00000000
00001010
00000000
00001001
00000000
00000001
00000100
00000010
00001000
,
00000001
00000000
00001100
00000000
00000101
00000000
00001000
00000001
,
00000100
00000000
00000020
00000000
00000000
00000000
00001030
00000000
00000001
00000000
00000010
00000000
00000100
00000000
00010000
00001000
,
00010000
00001000
00101000
00000000
00010010
00000000
00001000
00010000
,
01000000
00000000
00200000
00000000
00000000
00000000
00310000
10000000
00010000
00000000
00100000
00000000
10000000
00000000
00100000
00010000
,
01000000
00100000
10100000
00000000
01010000
00000000
10000000
01000000
,
00010000
00000000
00002000
00000000
00000000
00000000
00003010
00000100
00001000
00000000
00000001
00000000
00000010
00000000
00000100
00000010
,
00000001
00000000
00001000
00000010
00000100
00000000
00000110
00000000
00001001
00000000
00000000
00000000
00010010
00000000
00011000
00000000
,
00010100
00000000
00000000
00000000
00010000
00000010
00001000
00000100
00010000
00000000
00001000
00000000
01000000
00010000
00100000
00001000
,
00010000
00001000
00011000
00000000
01001000
00000000
00020100
00031000
,
00010000
00000000
00000020
00000000
00000000
00000000
00001030
00000010
00000100
00000000
00000001
00000000
00000010
00000000
00000100
00010000
,
00001000
00010000
00011000
00000000
01001000
00000000
00120000
01030000
,
00100000
00000000
20100000
00000000
00000000
00000000
30010000
10000000
01000000
00000000
00100000
00000000
01000000
10000000
00100000
01000000
,
00010000
00000000
00000000
00100000
00000000
00000000
00001000
00000000
00000000
00010000
00000000
00000000
00001000
00000000
00000000
00000000
00000000
00000000
00010000
00000000
00001000
00000000
00010000
00000000
00001000
00000000
00000000
00000000
00000000
00000000
00010000
00000000
00000000
00000000
00000000
00000000
00000100
00000000
00000000
00000000
00000000
00000000
00000010
00000000
00000000
00000001
00000000
00000000
,
00001000
00000000
00002001
00000000
00000000
00000000
00003001
00000010
00001000
00000000
00010000
00000000
01000000
00000000
00100000
00010000
,
10000000
00000000
00100000
10000000
00100000
00000000
10100000
00000000
01010000
00000000
00000000
00000000
00101000
00000000
00011000
00000000
,
00010100
00000000
00000000
00000000
00001000
00000001
00000100
00000010
00000100
00000000
00000001
00000000
00001000
00000100
00000010
00000001
,
00000100
00000000
00000010
00000000
00001010
00000000
00010010
00000000
00011000
00000000
00000000
00000000
00001000
00100000
00010000
00000000
,
01010000
00000000
00000000
00000000
00010000
10000000
00010000
01000000
00100000
00000000
10000000
00000000
11000000
00000000
00000000
01010000
,
00000000
00000000
10100000
00000000
10000000
01000000
00100000
00001000
00010000
00000000
00000000
00000000
00010000
00001000
00000100
00000001
,
00001000
00000000
00000000
00000000
00000001
00000010
00001000
00000010
00000001
00000000
00000100
00000000
00000001
00001000
00000100
00001000
,
00000010
00010000
00001000
00100000
00001000
00000000
00010000
00000000
00001000
00000000
01000000
00000000
00010000
10000000
00100000
01000000
,
00010000
00100000
00001000
00010000
00002000
00000000
00000000
00000000
00000000
00000000
00000000
00000000
00000000
00000000
00000000
00000000
,
00000000
00000000
00000000
00000000
,
00000000
00003000
00000000
00000000
;

//--------------- dance-double - Fred-104† ----------------
#NOTEDATA:;
#STEPSTYPE:dance-double;
#DESCRIPTION:Fred-104†;
#DIFFICULTY:Challenge;
#METER:18;
#CREDIT:Fred-104†;
#NOTES:
00000000
00000000
00000000
00000000
,
00000000
00000000
00000000
00000000
,
00000000
00000000
00000000
00000000
,
00000000
00000000
00000000
00000000
,
00000000
00000000
00000000
00000000
,
00001000
00000000
00000000
00010000
00100000
02000000
00000000
00000000
,
03010000
00000000
00000000
10000000
00100000
00020000
00000000
00000000
,
00031000
00000000
00000000
00000100
00000001
00002000
00000000
00000000
,
00003100
00000010
00000001
00000000
00000100
00000010
00001000
00000000
00000001
00001000
00000001
00001000
00000001
00000000
00000000
00000000
,
00001000
00000100
00000010
00001000
00010000
01000000
00100000
00010000
,
10000000
00100000
00010000
00001000
00000100
00000010
00001000
00000000
,
00000100
00000010
00001000
00010000
01000000
00100000
00010000
01000000
,
00100000
00000000
00010000
00000000
00001000
00000000
00000100
00000010
00001000
00000001
00001000
00000000
00000001
00000000
00000000
00000000
,
00000011
00001100
01010000
10100000
,
11000000
00110000
00001010
00000101
,
00000110
00000000
00000100
00000000
00000110
00000000
00000010
00000000
00000100
00000001
00001000
00000001
00000010
00000100
00001000
00000001
,
00000100
00000000
00001000
00000000
00010000
00000000
00100000
00000000
10000000
00010000
00100000
01000000
10000000
00000000
00000000
00000000
,
10010000
00000000
10000000
01000000
00010000
00000000
00001000
00000100
00000001
00000000
00001000
00000100
00000010
00000000
00000002
00000000
,
00001003
00000000
00000010
00000100
00001000
00000000
00010000
00100000
01000000
00000000
00010000
00100000
01000000
00000000
00200000
00000000
,
00301000
00000000
00010000
00001000
00000100
00000000
00000010
00010000
00001000
00000000
02000000
00000000
03001000
00000000
00010000
00000100
,
00001000
00000000
00000100
00000010
00001000
00000000
00010000
00000000
01000000
00100000
00010000
00100000
00001000
00000000
00000000
00000000
,
00011000
00000000
00010010
00000000
00011000
00000000
00001000
00010000
00100000
00000000
01000000
00100000
10000000
00000000
02000000
00000000
,
03100000
00000000
10000000
00100000
00010000
00000000
10000000
00100000
00010000
00000000
00001000
00000010
00000001
00000000
00000020
00000000
,
00000130
00000000
00001000
00000100
00000001
00000000
00000200
00000000
00001300
00000010
00000100
00001000
00010000
00000000
00001000
00000000
,
00011000
00000010
00011000
00100000
00011000
00000010
00011000
02000000
,
03001000
00000000
00010000
00100000
01000000
00000000
00010000
10000000
01000000
00000000
00100000
00001000
00010000
00000000
00002000
00000000
,
00003100
00000000
00000001
00000100
00000010
00000000
00001000
00000100
00000010
00000000
00001000
00010000
01000000
00000000
00200000
00000000
,
00310000
00000000
00100000
01000000
00010000
00000000
10000000
00100000
01000000
00000000
20000000
00000000
30010000
00000000
00100000
01000000
,
10000000
00000000
02000000
00000000
03010000
00000000
00002000
00000000
00003010
00000001
00000010
00000001
00000100
00000000
00000000
00000000
,
00000110
00000000
00001001
00000000
00000110
00000000
00000001
00000010
00000100
00000000
00010000
00001000
00000100
00000000
00000010
00000000
,
00001000
00000000
00000100
00000010
00001000
00000000
00010000
01000000
00100000
00000000
00010000
00100000
00001000
00000000
00010000
00000000
,
00010100
00000000
00000100
00000000
00001100
00000000
00001000
00000000
00000001
00000100
00000010
00000100
00001000
00010000
00100000
10000000
,
00010000
00000000
00000000
00000000
10000000
01000000
00010000
00001000
00000010
00000000
00000001
00000000
00002000
00000000
00000000
00000000
,
00003010
00000000
00010000
00000000
00001100
00000000
00000100
00000000
00010000
00001000
00000010
00000100
00010000
00000000
00001000
00000000
,
01000000
00000000
00010000
00100000
01100000
01000000
10000000
00010000
01000000
10000000
01000000
00010000
10000000
00100000
00010000
00000000
,
00001000
00000000
00000000
00000010
00000000
00000000
00000100
00000000
00001100
00000000
00001000
00000000
00000001
00000000
00000000
00000000
00000100
00000000
00000000
00000000
00001000
00000000
00010000
00000000
00011000
00000000
00000000
00000000
01100000
00000000
00000000
00000000
,
10000000
00000000
00100000
00000000
01000000
00000000
00100000
00000000
00010000
00000000
00001000
00000000
00000100
00000000
00000010
00000000
00001000
00000000
00000001
00000010
00000000
00000100
00001000
00000100
00010000
00000000
00001000
00100000
00010000
10000000
00100000
01000000
,
00010000
00000000
00000000
00000000
01100000
00000000
10000000
00000000
00010000
00000000
10000000
01000000
00000000
00010000
01000000
00000000
,
10000000
00000000
00100000
01000000
00100000
00010000
00001000
00000100
00000010
00000001
00000010
00000000
00001000
00000001
00000010
00000100
,
00001000
00000000
00000001
00000100
00000000
00000010
00001000
00000001
00000010
00000000
00000100
00000000
00010000
00000000
00001000
01000000
,
00001000
00000000
00010000
00001000
00000000
00100000
00001000
00000000
00010000
00000100
00001000
00000100
00000010
00000001
00001000
00000010
,
00000100
00000000
00000001
00001000
00000000
00000100
00010000
00001000
00010000
00000000
00100000
00000000
10000000
00000000
01000000
00000000
,
11000000
00000000
01000000
00100000
00000000
00001000
00010000
00000000
00001000
00000000
00000100
00000010
00000000
00001000
00000001
00000000
,
00000011
00000000
00000000
00001010
00000000
00000000
00011000
00000000
01010000
00000000
00000000
11000000
00000000
00000000
01100000
00000000
,
10000000
01000000
00010000
00000000
00001000
00000010
00000001
00000000
00001000
00000001
00000010
00000100
00010000
00001000
01000000
00100000
,
10000000
00021000
00000000
00000000
,
00000000
00030020
00000000
00000000
,
00000000
00002030
00000000
00000000
,
00000000
00000002
00000000
00000000
,
00003003
00000102
00000000
00000000
,
00000000
00002003
00000000
00000000
,
00000000
00003200
00000000
00000000
,
00000000
00020300
00000000
00030200
,
00001300
00000110
00000110
00001001
,
00001001
00000000
00000001
00000100
00001000
00010000
00100000
10000000
,
00010000
01100000
01100000
10010000
,
10010000
00000000
10000000
01000000
00010000
00001000
00000010
00000001
,
00001000
00000000
00000001
00000100
00001000
00000100
00000001
00000010
,
00000001
00000000
00000010
00000000
00001000
00000000
00010000
00000000
01000000
00000000
00010000
00000000
00001000
00010000
00001000
00000000
,
00100000
00010000
00100000
00010000
00100000
01000000
10000000
00010000
01000000
00100000
01000000
00010000
00100000
00001000
00010000
00000100
,
00001000
00000100
00000010
00000000
00000001
00000000
00000100
00000000
00001000
00000000
00010000
00000000
00100000
10000000
00100000
10000000
,
01000000
00100000
00001000
00000000
00011000
00000000
00000000
00000000
00001001
00000000
00000000
00000000
00011000
00000000
00010010
00000000
,
00001010
00000000
00000101
00000000
00000000
00000000
00011000
00000000
00101000
00000000
00110000
00000000
00010000
01000000
10000000
01000000
,
00010000
00000000
10000000
00100000
00010000
00001000
00100000
00010000
,
00001000
00000100
00000020
00000000
00000000
00000000
00000031
00000010
00001000
00000000
00010000
00000000
00100000
00000000
01000000
00010000
,
10000000
00010000
01000000
00001000
00010000
00001000
00000010
00000100
,
00001000
00000010
00020000
00000000
00000000
00000000
00031000
00010000
00100000
00000000
01000000
00000000
00010000
00000000
10000000
01000000
,
00100000
00001000
00010000
00001000
00000100
00000001
00000100
00001000
,
00010000
00001000
02000000
00000000
00000000
00000000
03001000
00010000
01000000
00000000
00100000
00000000
00010000
00000000
00100000
01000000
,
10000000
01000000
00100000
00000000
00110000
00000000
00101000
00000000
00011000
00000000
00000000
00000000
00010010
00000000
00001010
00000000
,
00001001
00000000
00000000
00000000
00000001
00000010
00000100
00000010
00001000
00000000
00010000
00000000
01000000
00100000
01000000
10000000
,
00010000
01000000
00010000
10000000
00100000
00010000
00001000
00000100
,
00000010
00001000
00000002
00000000
00000000
00000000
00000013
00001000
00010000
00000000
01000000
00000000
00100000
00000000
01000000
00010000
,
00001000
00000010
00000100
00001000
00000001
00000100
00001000
00010000
,
00100000
01000000
00020000
00000000
00000000
00000000
10030000
01000000
00010000
00000000
01000000
00000000
10000000
01000000
00100000
00001000
,
00010000
00000000
00000000
00000100
00000000
00000000
00001000
00000000
00000000
00000100
00000000
00000000
00000010
00000000
00000000
00000000
00000000
00000000
00000001
00000000
00001000
00000000
00000001
00000000
00000100
00000000
00000000
00000000
00000000
00000000
00000010
00000000
00000000
00000000
00000000
00000000
00001000
00000000
00000000
00000000
00000000
00000000
00000100
00000000
00000000
00000000
00000000
00000000
,
00000010
00001000
00020000
00000000
00000000
00000000
01030000
00100000
00010000
00000000
01000000
00000000
00001000
00000000
00010000
00000100
,
00000010
00000000
00000001
00001000
00001001
00000000
00001100
00000000
00010100
00000000
00000000
00000000
00101000
00000000
00010010
00000000
,
00011000
00000000
00000000
00000000
00001000
00010000
00100000
01000000
00100000
00000000
10000000
00000000
01000000
00100000
00001000
00010000
,
00000100
00000010
00000001
00000000
00000011
00000000
00001010
00000000
00011000
00000000
00000000
00000000
00001000
01000000
00010000
00000000
,
01010000
00000000
00000000
00000000
01000000
00010000
10000000
01000000
00100000
00000000
00001000
00000000
00011000
00000000
00000000
00110000
,
00000000
00000000
10100000
00000000
10000000
01000000
00010000
00001000
00000010
00000000
00000000
00000000
00000001
00000100
00001000
00010000
,
00100000
00000000
00000000
00000000
10000000
01000000
00010000
00001000
00010000
00000000
00001000
00000000
00000010
00000100
00001000
00000010
,
00000100
00000001
00000010
00000100
00001000
00000000
00000001
00000000
00000100
00000000
00001000
00000000
00010000
00100000
01000000
00100000
,
10000000
00010000
00100000
00001000
00020000
00000000
00000000
00000000
00000000
00000000
00000000
00000000
00000000
00000000
00000000
00000000
,
00000000
00000000
00000000
00000000
,
00000000
00030000
00000000
00000000
;
