#VERSION:0.83;
#TITLE:HAPPY☆ANGEL;
#ARTIST:jun with TAHIRIH;
#TITLETRANSLIT:HAPPY ANGEL;
#GENRE:HAPPY HARDCORE;
#BANNER:HAPPY ANGEL.png;
#BACKGROUND:HAPPY ANGEL-bg.png;
#CDTITLE:./CDTitles/bm IIDX 12 HAPPY SKY.png;
#MUSIC:HAPPY ANGEL.ogg;
#SAMPLESTART:45.83;
#SAMPLELENGTH:15;
#BPMS:0=180;
#BGSTAGE:18;

//--------------- dance-single - Fred-104 ----------------
#NOTEDATA:;
#STEPSTYPE:dance-single;
#DESCRIPTION:Fred-104;
#DIFFICULTY:Beginner;
#METER:5;
#CREDIT:Fred-104;
#NOTES:
0000
0000
0000
0000
,
0000
0000
0000
0000
,
0000
0000
0000
0000
,
0000
0000
0000
0000
,
0000
0000
0000
0000
,
0000
0000
0000
0000
,
1000
0000
0000
0000
,
0001
0000
0100
0000
,
0110
0000
0010
0000
,
1000
1000
0001
0001
,
1000
0000
0010
0000
,
1000
0000
0001
0000
,
0100
0000
0010
0000
,
0100
0100
0100
0000
,
0001
0000
1000
0000
,
0001
0000
0010
0000
,
0001
0000
1000
0000
,
0001
0001
1000
1000
,
0001
0000
0100
0000
,
0010
0000
1000
0000
,
0001
0000
0100
0000
,
0001
0001
1000
0000
,
0001
0000
1000
0000
,
0010
0010
0010
0000
,
1000
0000
0001
0000
,
1001
0000
0000
0000
,
0001
0000
0100
0000
,
0010
0010
0010
0000
,
0100
0000
0001
0000
,
1000
1000
1000
0000
,
0001
0000
1000
0000
,
0100
0100
0100
0000
,
1000
0000
0001
0000
,
1000
1000
0001
0001
,
1001
0000
0000
0000
,
0001
0000
1000
0000
,
0010
0000
0100
0100
,
0100
0000
0001
0000
,
1000
0000
0010
0010
,
0010
0000
1000
0000
,
0001
0001
0001
0001
,
0001
0000
1000
0000
,
0001
0000
0100
0100
,
0100
0000
0010
0000
,
0100
0000
0001
0001
,
0001
0000
1000
0000
,
0010
0000
0100
0100
,
0100
0000
0010
0000
,
0100
0000
0001
0001
,
0001
0000
1000
0000
,
0001
0001
1000
1000
,
2002
0000
3003
0000
,
0020
0000
0030
0100
,
0200
0000
0300
0000
,
0002
0000
0003
1000
,
2000
0000
3000
0000
,
0001
0000
1000
0000
,
0001
0000
0100
0000
,
0010
1000
1000
0000
,
2002
0000
0000
3003
,
0001
0000
1000
0000
,
0001
0000
0100
0000
,
0010
0010
0010
0010
,
0010
0000
1000
0000
,
0001
0000
1000
1000
,
1000
0000
0001
0000
,
1000
1000
1000
1000
,
1000
0000
0001
0000
,
0100
0000
0001
0001
,
0001
0000
1000
0000
,
0001
0000
0010
0010
,
0010
0000
0001
0000
,
1000
0000
0001
0001
,
0001
0000
1000
0000
,
0001
0000
1000
0000
,
1001
0000
0001
0000
,
0100
0000
0010
0000
,
0100
0000
0100
0000
,
0001
0000
1000
1000
,
1000
0000
0001
0000
,
1000
0000
0010
0000
,
1000
0000
1000
0000
,
0001
0000
1000
0000
,
1001
0000
0000
0000
;

//--------------- dance-single - Fred-104 ----------------
#NOTEDATA:;
#STEPSTYPE:dance-single;
#DESCRIPTION:Fred-104;
#DIFFICULTY:Easy;
#METER:8;
#CREDIT:Fred-104;
#NOTES:
0000
0000
0000
0000
,
0000
0000
0000
0000
,
0000
0000
0000
0000
,
0000
0000
0000
0000
,
0000
0000
0000
0000
,
0000
0000
0000
0000
,
1001
0000
0000
0000
,
0000
0000
0000
0001
,
1001
0000
1000
0000
,
0001
0001
1000
1000
,
0001
0100
0001
0000
,
0100
0100
0001
1000
,
0100
0010
0001
0000
,
1000
0010
1000
0000
0010
0100
0010
0000
,
0100
0100
0001
0000
,
0100
0010
0100
0001
,
1000
0100
1000
0000
,
0001
0000
0100
0010
0000
0010
0000
0000
,
1001
0000
1000
0000
,
0001
0100
0010
1000
,
0100
0000
0010
0000
,
0001
1000
0001
0010
,
0100
0000
1000
0000
,
0100
0001
0100
1000
,
0010
0000
0100
0000
,
0001
0000
0001
0000
1000
0001
1000
0000
,
1001
0000
0001
0000
,
0100
0000
0001
0010
0001
0000
1000
0000
,
0001
0000
1000
0000
,
0001
0000
0100
0010
0100
0000
0001
0000
,
1000
0000
0100
0000
,
0010
0000
0001
1000
0001
0000
0100
0000
,
0010
0000
1000
0000
,
0001
0001
1000
1000
,
0001
1000
0001
1000
0000
0010
0100
0000
,
1001
0000
0000
0010
0000
0000
0100
0000
,
1000
0001
0200
0000
,
0301
0000
0000
0010
0000
0000
0100
0000
,
0010
0000
0001
2000
0000
0000
3001
0000
,
0100
0000
0000
0010
0000
0000
0100
0000
,
0001
0010
0100
1000
,
0001
0100
0010
1000
,
0010
1000
2002
3003
,
0001
0000
0000
0100
0000
0000
0010
0000
,
0100
0000
0010
0000
1000
0010
1000
0000
,
0001
0000
0000
1000
0000
0000
0100
0000
,
1000
0000
0010
0200
0000
0000
0301
0000
,
0010
0000
0000
0100
0000
0000
1000
0000
,
0001
0100
0010
1000
,
0001
0000
0000
1000
0001
0000
0000
0100
,
0010
1000
0100
0110
,
1001
0000
0000
0010
0000
0000
0100
0000
,
0001
0000
0000
0010
0000
0000
0100
0000
,
0110
0000
0000
0010
0000
0000
1000
0000
,
0001
1000
0010
0100
,
0101
0000
0000
0001
0000
0000
0010
0000
,
0100
0100
1000
0001
,
0100
0000
0010
0000
,
0100
0000
0000
0001
0000
1000
0000
0000
,
2002
0000
0000
3003
,
1000
0100
0010
0011
,
0001
0000
0100
0010
,
1000
0000
0010
0000
0100
0010
0100
0000
,
0001
0000
1000
0010
,
1000
0000
0100
0000
0010
0001
0010
0000
,
0001
0000
1000
0001
,
0100
0000
0100
0000
0010
0100
0010
0000
,
1001
0000
0000
0010
0000
0000
0100
0000
,
1000
0000
0010
1000
0010
0000
1000
0000
,
0001
0000
0000
0100
0000
0000
0010
0000
,
0100
0000
0001
0100
0001
0000
0100
0000
,
0010
0000
0000
1000
0000
0000
0001
0000
,
1000
0100
0010
0100
,
1001
0000
0110
0000
,
0001
0001
1000
0001
,
1001
1000
0010
0100
,
0001
0000
1000
0000
0100
1000
0100
0000
,
0010
0001
1000
0010
,
0100
0000
0000
0001
0000
0000
0100
0000
,
0010
0000
1000
0000
0100
1000
0100
0000
,
1000
0100
0010
0001
,
0100
0000
0010
0000
0100
0010
0100
0000
,
0001
0000
1000
0001
0000
0100
0000
0000
,
0110
0000
0000
0000
;

//--------------- dance-single - Fred-104 ----------------
#NOTEDATA:;
#STEPSTYPE:dance-single;
#DESCRIPTION:Fred-104;
#DIFFICULTY:Medium;
#METER:12;
#CREDIT:Fred-104;
#NOTES:
0000
0000
0000
0000
,
0000
0000
0000
0000
,
0000
0000
0000
0000
,
0000
0000
0000
0000
,
0000
0000
0000
0000
,
0000
0000
0000
0001
,
1001
0000
0000
0000
,
0000
0000
0000
0010
,
0110
0000
1001
0000
,
0101
0011
1100
1010
,
1000
0000
0001
0000
0100
0000
0001
0100
0000
0000
0001
0000
1000
0000
0010
0000
,
0100
0000
0001
0000
0010
0000
0001
0010
0000
0000
0100
0000
1000
0000
0001
0000
,
0100
0000
0010
0000
0100
0000
0010
0100
0000
0000
0001
0000
0100
0000
0010
0000
,
0100
0001
0010
0100
0001
0100
1000
0000
,
0001
0000
1000
0000
0100
0000
1000
0100
0000
0000
1000
0000
0001
0000
0010
0000
,
0100
0000
1000
0000
0010
0000
1000
0010
0000
0000
0100
0000
0001
0000
1000
0000
,
0100
0000
0010
0000
0100
0000
0010
0100
0000
0000
1000
0000
0100
0000
0010
0000
,
0100
1000
0010
0100
1000
0100
0001
0000
,
0011
1000
0110
0001
,
1010
0000
0101
0000
1000
0001
0100
0000
,
0110
1000
0101
1000
,
0011
0000
1100
0000
0001
1000
0100
0000
,
1001
0010
1001
0100
,
0110
0000
1001
0000
0010
0100
0001
0000
,
1000
0001
0010
0000
1000
0010
0100
0000
,
0001
0010
0100
1000
0010
0100
0001
0000
,
1010
0100
0011
0100
,
0010
0001
0100
1000
0100
0001
0010
0000
,
1100
0010
0101
0010
,
0100
1000
0010
0001
0010
1000
0100
0000
,
0110
1000
1010
0001
,
0010
0100
1000
0001
0100
0010
1000
0000
,
0011
1001
1100
1010
,
0110
0000
0101
0000
1000
0001
0100
0001
,
0010
1000
0100
1000
0010
0100
0001
1000
,
0100
0000
0010
0001
0000
0010
0100
0010
,
0001
0000
1000
0010
0100
0000
1010
0000
,
0101
0000
0010
0100
0000
1000
0001
0100
,
1000
0000
0010
1000
0100
0000
1001
0000
,
0110
0000
0001
0100
0000
1000
0010
1000
,
0100
1010
0110
0101
,
0010
0001
0100
0000
0001
0100
1000
0000
,
0100
0000
1000
0000
0100
0000
0001
0000
0010
0000
0000
0100
0000
0000
1000
0000
,
0001
0000
1000
0010
0000
0100
0001
1000
,
0100
0000
0010
0100
0100
0000
0011
0000
,
1001
0000
0010
0100
0000
1000
0100
0001
,
0100
0000
1000
0010
0001
0000
0110
0000
,
0101
0000
1000
0100
0000
0010
0100
1000
,
0010
0101
1001
1010
,
0001
0010
0100
0000
1000
0001
0100
0000
,
0010
0100
0001
0010
0100
0010
0001
1000
,
0200
0000
0000
1000
0000
0000
0001
0000
,
0010
0000
0000
1000
1300
0000
1010
0000
,
0102
0000
0000
0010
0000
0000
1000
0000
,
0010
0000
0000
0100
0103
0000
0110
0000
,
2001
0000
0000
0010
0000
0000
0100
0000
,
3002
0203
0320
1030
,
2200
0000
0000
3300
,
0001
0000
0100
0010
0000
1000
0000
0000
,
0020
0000
0000
0130
,
0101
0000
0010
1000
0100
0000
0011
0000
,
1100
0000
0001
0000
0010
1000
0100
0000
,
0001
0100
0010
1010
,
0101
0000
1000
0000
0001
0000
0100
0010
,
1000
0101
1001
0011
,
0100
1000
0010
0000
0100
0001
1000
0000
,
0100
0010
0100
1000
0010
0100
0010
1000
,
0100
0000
0001
0100
0000
0001
1000
0100
,
0001
0000
0100
1000
0010
0000
0011
0000
,
1100
0000
0010
0100
0000
0001
0010
0100
,
1000
0000
0001
0100
0010
0000
1010
0000
,
0101
0000
0010
0100
0000
1000
0010
1000
,
0100
0011
1001
1100
,
1000
0010
0100
0000
0001
1000
0100
0000
,
0010
0100
1000
0001
0100
0000
1001
0000
,
0001
0000
1000
0000
0100
0000
1000
0100
0000
0000
0010
0000
0001
0000
0100
0000
,
0001
0000
1000
0000
0010
0000
0100
0010
0000
0000
1000
0000
0001
0000
0100
0000
,
0010
0000
0100
0000
0001
0000
0010
0001
0000
0000
0100
0000
0001
0000
0010
0000
,
0100
1000
0100
0001
0100
1000
0001
0000
,
0100
0000
1000
0000
0010
0000
1000
0010
0000
0000
0100
0000
0010
0000
1000
0000
,
0100
0000
1000
0000
0001
0000
1000
0001
0000
0000
0010
0000
0100
0000
1000
0000
,
0010
0000
0100
0000
0001
0000
0010
0001
0000
0000
1000
0000
0010
0000
0100
0000
,
0001
0100
0010
2000
0000
0002
3003
0000
,
1001
0000
0000
0000
;

//--------------- dance-single - Fred-104 ----------------
#NOTEDATA:;
#STEPSTYPE:dance-single;
#DESCRIPTION:Fred-104;
#DIFFICULTY:Hard;
#METER:15;
#CREDIT:Fred-104;
#NOTES:
0000
0000
0000
0000
,
0000
0000
0000
0000
,
0000
0000
0000
0000
,
0000
0000
0000
0000
,
0000
0000
0000
0000
,
0000
0000
0000
0011
,
1001
0000
1000
0000
,
0001
0000
1000
1010
,
1001
0000
0110
0000
,
1010
0000
0000
0000
0101
0000
0000
0000
1001
0000
0000
0000
0001
1000
0001
1000
,
0001
0000
0100
0000
0010
0000
1000
0001
0000
0001
0010
0000
0001
0000
1000
0000
,
0010
0000
0100
0000
0010
0000
1000
0100
0000
0100
0010
0000
0001
1000
0010
1000
,
0001
0000
0010
0000
0100
0000
0010
0100
0000
0100
1000
0000
0001
0000
1000
0000
,
0010
0000
0100
0000
0001
0000
2001
0000
0000
0000
3001
0000
0100
0010
0100
0010
,
0100
0000
0001
0000
0100
0000
0010
1000
0000
1000
0001
0000
0100
0000
0001
0000
,
1000
0000
0100
0000
0010
0000
0001
0100
0000
0100
0010
0000
0100
0001
0100
0001
,
1000
0000
0010
0000
1000
0000
0100
0010
0000
0010
0001
0000
1000
0000
0010
0000
,
0100
0000
0010
0000
0100
0000
0102
0000
0000
0000
0103
0000
0001
1000
0001
1000
,
0001
0000
1001
0000
0110
0000
0010
1010
,
0000
1100
0000
0110
0000
0010
0011
0001
,
0101
0000
0110
0000
1010
0000
1000
1100
,
0000
0101
0000
1100
1000
0010
0100
0100
,
0110
0000
0101
0000
0110
0000
0010
1010
,
0000
1100
0000
0101
0000
0100
0010
1000
,
1001
0000
0001
0200
0000
2300
0000
3200
,
0000
0300
0101
0000
0000
0000
1100
0000
0100
0000
0010
0000
0001
0100
0001
0100
,
0020
0000
1030
0100
0002
0000
0103
0010
,
0001
0000
1000
0000
1000
0000
1000
0000
0002
0000
0000
0000
1003
0010
0100
0010
,
2000
0000
3001
0100
0020
0000
0031
0010
,
0100
0000
0001
0000
0001
0000
0001
0000
0200
0000
0000
0000
0310
1000
0010
1000
,
0002
0000
1003
0010
0200
0000
1300
0100
,
0001
0000
1000
0000
1000
0000
1000
0000
0002
0000
0000
0000
1003
0100
1000
0100
,
1000
0000
0010
1010
0000
1001
0000
0101
,
0000
0000
0100
0000
0010
0000
1000
0000
0001
0000
0100
0000
0001
1000
0001
1000
,
0001
0100
0010
1010
0000
1100
0100
0010
,
0011
0000
0001
0101
0000
0100
0010
1000
,
0100
0000
0100
0000
1000
0000
0001
0000
0100
0000
0010
0100
0010
0000
1000
0000
,
1100
0000
0010
0110
0000
0100
0001
1000
,
0001
0000
0010
0000
1000
0000
0010
0000
0001
0000
1000
0001
1000
0000
0010
0000
,
0110
0000
0100
0101
0000
0001
1000
0001
,
0101
0011
1100
1010
,
1000
0100
0001
0200
0000
0310
1000
0020
,
0000
0000
0031
0000
1000
0000
0010
0000
0100
0001
0000
0001
0010
0000
0100
0000
,
1100
0000
0010
0110
0000
0001
0100
0001
,
1000
0000
0001
0100
0001
0000
0100
0000
0010
0000
1000
0100
0010
0001
1000
0000
,
1010
0000
0010
0110
0000
0100
0001
1000
,
0010
0000
1000
0100
0010
0000
0100
0000
1000
0000
0010
1000
0001
0100
0001
0000
,
0011
0000
0001
0101
0000
1000
0001
0010
,
0001
0000
0100
0010
0100
0000
0010
1000
0010
0000
1000
0001
0100
0010
1000
0000
,
1001
0000
1000
0100
0110
0000
0001
0100
,
0101
1010
0011
1100
,
2001
0000
0000
0010
0000
0000
3100
0000
,
0020
0000
0000
0031
0011
0000
1001
0000
,
1200
0000
0000
0001
0000
0000
1300
0000
,
0001
0000
0100
1000
0000
0100
0001
0010
,
0210
0000
0000
1000
0000
0000
0301
0000
,
0011
0100
1010
0100
,
0001
0010
1000
0010
0000
0100
0001
0100
,
1000
0001
1000
1001
0000
0110
0000
0000
,
0002
0000
0000
1003
,
0001
0100
0010
0000
1000
0100
0110
0000
,
0011
0001
1000
0010
0100
0001
1000
0100
,
1100
1010
0101
0011
,
2001
0001
3001
0100
0020
0100
0130
0001
,
1000
0000
0001
0100
0001
0000
1000
0100
1000
0000
0001
0010
0001
0000
1000
0000
,
1100
0100
0010
0001
0101
0100
0010
1000
,
0010
0000
0010
0000
0100
0000
0100
0000
0001
0100
0001
0100
0010
1000
0010
1000
,
0001
0010
0100
1100
0000
0001
1000
0001
,
0100
0000
0010
0100
0010
0000
1000
0010
0100
0000
0001
1000
0100
0010
0001
0000
,
0100
0010
0100
0110
0000
0010
1000
0001
,
1000
0100
0010
0001
1000
0000
0010
0000
0100
0000
0001
0010
0100
0010
0001
0000
,
1000
0010
1000
1100
0000
0001
1000
0010
,
1010
0101
1100
0011
,
1001
0000
0000
1000
0001
0000
0000
0001
,
1000
0000
0010
0000
0100
0000
0001
0000
1000
0000
0100
0000
0010
0001
1000
0001
,
0100
0000
0001
0000
0010
0000
0001
1000
0000
1000
0010
0000
0100
0000
0001
0000
,
1000
0000
0100
0000
0010
0000
0100
1000
0000
1000
0001
0000
0100
0010
0100
0010
,
0100
0000
0001
0000
1000
0000
0010
0100
0000
0100
0010
0000
1000
0000
0100
0000
,
0010
0000
0001
0000
0100
0000
0210
0000
0000
0000
0310
0000
1000
0001
0010
0001
,
1000
0000
0000
0000
1001
0000
0001
0100
0000
0010
0100
0000
0001
0000
0100
0000
,
0010
0000
1000
0000
0100
0000
0010
0100
0000
0010
0001
0000
1000
0001
0100
0001
,
1000
0000
0010
0000
0100
0000
0010
1000
0000
0001
0100
0000
0010
0000
0100
0000
,
0001
0000
0001
0000
1000
0000
1000
0000
0001
0000
0100
0000
0001
0010
0100
1000
,
0001
0000
0000
0000
;

//--------------- dance-single - Fred-104† ----------------
#NOTEDATA:;
#STEPSTYPE:dance-single;
#DESCRIPTION:Fred-104†;
#DIFFICULTY:Challenge;
#METER:18;
#CREDIT:Fred-104†;
#NOTES:
0000
0000
0000
0000
,
0000
0000
0000
0000
,
0000
0000
0000
0000
,
0000
0000
0000
0000
,
0000
0000
0000
0000
,
0000
0000
0000
0110
,
1001
0000
0000
0000
,
0000
0000
0000
1100
,
0101
0000
0011
0000
,
1010
0000
0000
0000
0101
0000
0000
0000
1000
0100
0010
0001
1000
0100
0010
0001
,
1000
0000
0010
0000
0100
0000
0001
1000
0010
1000
0001
0000
0010
0100
1000
0000
,
0001
0000
0100
0000
0010
0000
1000
0100
0010
0001
1000
0000
0010
0100
0010
1000
,
0001
0000
0010
0000
0100
0000
0010
0001
1000
0010
0100
0000
0010
1000
0001
0000
,
1000
0100
0010
0000
0001
0010
0100
0000
1000
0001
0010
0100
1000
0001
0100
0010
,
1000
0000
0001
0000
0200
0000
1000
0000
0010
0000
0301
0000
1000
0100
0010
0001
,
1000
0000
0001
0000
0200
0000
0010
0000
1000
0000
0301
0000
1000
0100
0010
0001
,
1000
0000
0001
0000
0020
0000
0100
0000
1000
0000
0031
0000
0100
0010
1000
0001
,
0010
0000
0100
1000
0001
0000
0100
0001
1000
0100
0010
0001
0100
0010
1000
0100
,
0010
0000
0011
0000
1100
0000
0002
0100
,
2003
0000
0010
0000
3001
0000
1000
0100
0010
0000
0001
0000
0100
0010
0100
0010
,
0100
0000
0101
0000
1010
0000
0002
0010
,
2003
0000
0100
0000
3001
0000
1000
0100
0010
0000
0001
0100
0010
1000
0100
0010
,
0001
0000
1100
0000
0101
0000
2000
0100
,
3002
0000
0010
0000
1003
0000
0100
0010
0001
0000
1000
0000
0001
1000
0010
1000
,
0001
0000
1100
0101
0000
0011
0000
1010
,
0000
0000
1100
0000
0010
0000
0101
0000
0010
0000
1100
0000
1000
0010
0100
0001
,
1000
0000
0100
0000
0010
0000
0001
1000
0010
0000
0100
0000
0010
0000
1000
0001
,
0020
0000
1000
0000
0100
0000
0031
0000
0110
0000
0000
0000
1000
0100
0010
0001
,
1000
0000
0010
0000
0100
0000
0001
0010
0100
0000
1000
0000
0001
0000
1000
0010
,
0200
0000
1000
0000
0010
0000
0301
0000
1001
0000
0000
0000
0001
0100
0010
1000
,
0001
0000
1000
0000
0100
0000
0010
0100
1000
0000
0001
0000
0100
0000
0010
1000
,
0002
0000
0100
0000
1000
0000
0013
0000
0110
0000
0000
0000
1000
0100
0010
0001
,
1000
0000
1010
0011
0000
0101
0000
1100
,
0000
0000
1001
0000
1000
0000
0100
0000
0010
0001
1000
0010
0100
0010
1000
0001
,
0010
0000
0100
1000
0001
0100
0020
0000
0000
0000
1030
0000
0001
0000
1000
0000
,
0001
1000
0010
0200
1000
0000
0301
0000
1000
0100
0010
0000
0001
0100
0010
0000
,
1000
0001
0010
0200
0001
0000
1300
0000
0001
0010
0100
1000
0001
0000
0000
0000
,
1000
0001
0100
0020
0001
0000
1030
0000
0001
0010
0100
0000
1000
0010
0100
0000
,
0001
1000
0100
0020
1000
0000
0032
0000
0000
0000
1003
0100
0010
0001
1000
0000
,
0001
1000
0001
0200
1000
0000
0310
0000
1000
0100
0010
0000
0001
0100
0010
0000
,
1001
0000
1000
0001
0020
0000
0001
1030
0020
0000
1000
0031
0020
0000
0001
1030
,
0010
0000
0100
0001
1000
0000
1100
0000
0100
0000
0010
0001
1000
0000
1010
0000
,
1000
0100
0010
0001
1000
0100
0010
0001
1000
0010
0100
0001
1000
0001
0010
0100
,
0010
0000
0001
1000
0010
0000
0100
0000
0010
1000
0100
0010
0001
1000
0010
0000
,
0100
0001
1000
0001
0010
0100
0010
0000
0001
1000
0010
0100
0002
0000
0000
0000
,
1003
0000
0001
0010
0100
0000
1000
0000
0010
1000
0001
0100
0010
1000
0001
0000
,
1000
0100
0010
0001
0010
0100
1000
0000
0010
0100
0001
1000
0200
0000
0000
0000
,
1300
0000
0100
0001
0100
0000
1000
0000
0001
0100
0010
1000
0001
0010
0100
0000
,
1000
0100
0010
1000
0001
0100
0020
0000
0031
0100
0010
0001
1000
0100
0020
0030
,
1001
0000
1000
0100
0010
0000
0011
0000
1001
0000
0001
0100
0010
0000
1010
0000
,
1100
0101
0011
1010
,
1001
0000
1000
0100
0001
0000
1000
0010
,
0001
0000
1000
0010
0001
0000
1000
0100
,
0001
0000
0220
0000
0330
0000
1000
0001
,
0100
0010
0110
1001
,
1001
0000
1000
0010
0001
0000
1000
0100
,
0001
0000
1000
0100
0001
0000
1000
0010
,
0001
0010
1000
0010
0100
0001
0100
1000
,
0001
0100
1000
0100
0000
0110
0000
0000
,
2002
0000
0000
3003
,
1100
0000
1000
0100
0010
0000
0001
1000
0010
0000
0100
0000
0010
1000
0001
1000
,
0200
0001
0010
1300
0002
0010
1000
0103
,
0120
0000
1000
0130
0020
0000
0001
0130
0020
0000
1000
0130
0010
0000
0001
0000
,
2000
0000
0010
0000
0001
0000
3100
0000
0010
0001
1000
0000
0001
1000
0010
0000
,
0210
0000
0001
1300
0200
0000
1000
0301
0200
0000
0001
1300
0200
0000
1000
0301
,
0100
0000
0010
1000
0001
0000
0010
0000
0110
0000
0100
1000
0001
0000
1000
0000
,
0001
0010
0100
1000
0001
0100
0010
1000
0010
0100
0001
1000
0100
0010
0100
1000
,
0002
0000
0100
0000
1000
0000
0013
0000
0100
1000
0001
0100
0010
1000
0002
0000
,
1003
0010
0100
1000
0001
0010
0200
0000
0301
0010
0100
1000
0002
0000
0000
0000
,
2003
0000
0100
0000
0001
0000
3010
0000
0100
0001
1000
0100
0010
0001
2000
0000
,
3001
0010
0100
0001
1000
0010
0200
0000
1300
0010
0100
0001
2000
0000
3001
0000
,
0200
0000
1000
0000
0010
0000
0301
0000
1000
0100
0010
0001
1000
0010
0200
0000
,
0301
0100
0010
0001
1000
0100
0020
0000
1030
0100
0010
0001
0100
0010
2000
3000
,
1001
0000
1000
0100
0010
0000
0001
0000
1001
0000
0001
0100
0010
0000
1000
0000
,
0001
0100
0010
1000
0100
0010
0001
1000
0010
0100
0010
1000
0001
0010
0100
1000
,
0100
0000
1000
0000
0001
0000
0100
0001
1000
0100
0010
0000
0001
1000
0010
0000
,
0100
0000
0010
0000
1000
0000
0001
0010
0100
1000
0001
0000
0100
0010
1000
0100
,
0010
0000
0001
0000
1000
0000
0010
1000
0100
1000
0001
0000
0100
0001
1000
0000
,
0001
0010
0100
1000
0001
0100
0010
1000
0001
1000
0100
0010
0001
0100
0010
1000
,
0001
0000
1000
0000
0200
0000
0001
0000
0010
0000
1300
0000
0010
0100
0001
1000
,
0010
0000
1000
0000
0020
0000
0001
0000
0100
0000
1030
0000
0100
0010
0001
1000
,
0001
0000
0100
0000
0020
0000
0001
0000
0100
0000
1030
0000
0001
0010
0100
0000
,
1000
0001
0100
0010
1000
0100
0010
0001
0100
0010
1000
0100
0010
0001
1000
0010
,
0100
0000
0000
0000
;

//--------------- dance-double - Fred-104 ----------------
#NOTEDATA:;
#STEPSTYPE:dance-double;
#DESCRIPTION:Fred-104;
#DIFFICULTY:Easy;
#METER:8;
#CREDIT:Fred-104;
#NOTES:
00000000
00000000
00000000
00000000
,
00000000
00000000
00000000
00000000
,
00000000
00000000
00000000
00000000
,
00000000
00000000
00000000
00000000
,
00000000
00000000
00000000
00000000
,
00000000
00000000
00000000
00000000
,
00011000
00000000
00000000
00000000
,
00000000
00000000
00000000
01000000
,
01100000
00000000
00010000
00000000
,
10000000
01000000
00100000
00100000
,
00001000
00010000
00001000
00000000
,
00100000
00001000
00100000
00001000
,
00010000
00001000
00010000
00000000
,
00000100
00010000
00000100
00000000
00010000
00001000
00010000
00000000
,
00000010
00010000
00001000
00000000
,
00010000
00000100
00001000
00000000
,
00000010
00000100
00000010
00000000
,
00001000
00000000
00000001
00000100
00000000
00000010
00000000
00000000
,
00000110
00000000
00001000
00000000
,
00000001
00000000
00000010
00000100
,
00000010
00000000
00000001
00000000
,
00000100
00000000
00001000
00010000
,
00001000
00000000
00010000
00000000
,
01000000
00000000
10000000
00010000
,
10000000
00000000
01000000
00000000
,
00100000
00000000
00001000
00000000
00010000
00001000
00010000
00000000
,
00011000
00000000
00010000
00000000
,
00001000
00000000
00100000
00010000
00100000
00000000
00001000
00000000
,
00010000
00000000
00001000
00000000
,
01000000
00000000
00100000
01000000
00100000
00000000
10000000
00000000
,
01000000
00000000
00100000
00000000
,
00001000
00000000
00010000
00001000
00010000
00000000
00000100
00000000
,
00000010
00000000
00000001
00000000
,
00000100
00000100
00000010
00000010
,
00001000
00000001
00001000
00000001
00000000
00000100
00000010
00000000
,
00000110
00000000
00000000
00000010
00000000
00000000
00010000
00000000
,
00000100
00010000
00002000
00000000
,
00103000
00000000
00000000
00001000
00000000
00000000
00010000
00000000
,
00001000
00000000
00100000
00020000
00000000
00000000
01030000
00000000
,
00100000
00000000
00000000
01000000
00000000
00000000
00010000
00000000
,
10000000
00100000
00010000
00001000
,
00010000
00000000
00001000
00000000
,
00010000
00001000
00022000
00033000
,
00010000
00000000
00000000
00000100
00000000
00000000
00010000
00000000
,
00001000
00000000
00010000
00000000
00000010
00001000
00000010
00000000
,
00010000
00000000
00000000
00000100
00000000
00000000
00010000
00000000
,
00001000
00000000
01000000
00200000
00000000
00000000
01300000
00000000
,
00001000
00000000
00000000
00100000
00000000
00000000
00010000
00000000
,
10000000
00100000
00010000
00001000
,
00000100
00000000
00000000
00000001
00000100
00000000
00000000
00000001
,
00000010
00000100
00010000
00011000
,
00101000
00000000
00000000
00010000
00000000
00000000
10000000
00000000
,
01000000
00000000
00000000
00100000
00000000
00000000
00001000
00000000
,
00011000
00000000
00000000
00010000
00000000
00000000
00000010
00000000
,
00001000
00000100
00000010
00000001
,
00001001
00000000
00000000
00000010
00000000
00000000
00000100
00000000
,
00000010
00001000
00000001
00000010
,
00000100
00000000
00010000
00000000
,
00001000
00000000
00000000
00100000
00000000
00010000
00000000
00000000
,
02200000
00000000
00000000
03300000
,
10000000
01000000
00100000
10010000
,
00010000
00000000
01000000
00001000
,
00010000
00001000
00100000
00001000
,
00011000
00000000
00010000
00000100
,
00001000
00000100
00000010
00000001
,
00001001
00000000
00000001
00000000
,
00000010
00000000
00001000
00000000
00010000
00001000
00010000
00000000
,
00011000
00000000
00000000
01000000
00000000
00000000
00010000
00000000
,
10000000
00000000
00010000
00100000
00010000
00000000
10000000
00000000
,
01000000
00000000
00000000
00100000
00000000
00000000
00001000
00000000
,
00010000
00000000
01000000
10000000
01000000
00000000
00010000
00000000
,
00001000
00000000
00000000
00000010
00000000
00000000
00000100
00000000
,
00001000
00000001
00000100
00001000
,
00011000
00000000
00000110
00000000
,
00001000
00001000
00000001
00000001
,
00001001
00001000
00000010
00000100
,
00000001
00000000
00000010
00000000
00000100
00000010
00000100
00000000
,
00010000
00001000
01000000
00001000
,
00010000
00000000
00000000
00001000
00000000
00000000
00010000
00000000
,
00001000
00000000
00100000
00000000
00010000
01000000
00010000
00000000
,
01000000
00100000
10000000
00010000
,
10000000
00000000
01000000
00000000
00100000
01000000
00100000
00000000
,
00001000
00000000
00010000
00000010
00000000
00001000
00000000
00000000
,
00001001
00000000
00000000
00000000
;

//--------------- dance-double - Fred-104 ----------------
#NOTEDATA:;
#STEPSTYPE:dance-double;
#DESCRIPTION:Fred-104;
#DIFFICULTY:Medium;
#METER:12;
#CREDIT:Fred-104;
#NOTES:
00000000
00000000
00000000
00000000
,
00000000
00000000
00000000
00000000
,
00000000
00000000
00000000
00000000
,
00000000
00000000
00000000
00000000
,
00000000
00000000
00000000
00000000
,
00000000
00000000
00000000
00010000
,
00011000
00000000
00000000
00000000
,
00000000
00000000
00000000
00000101
,
00000110
00000000
00011000
00000000
,
00001000
00100000
00010000
10000000
,
10100000
10010000
01010000
00011000
,
00001010
00000101
00000011
00001100
,
00001001
00000011
00000110
00001100
,
00011000
00000000
00101000
00000000
00001000
00100000
00010000
10000000
,
01000000
10010000
01010000
00011000
,
00001010
00000101
00000011
00001100
,
00001001
00000011
00000110
00001100
,
00011000
00101000
00010010
00011000
,
00010000
00100000
10000000
01000000
,
10010000
00000000
01100000
00000000
10000000
00100000
00010000
00000000
,
00001000
00000010
00000001
00000100
,
00001001
00000000
00000110
00000000
00000100
00000001
00001000
00000000
,
00010010
01001000
00101000
00010100
,
00001000
00000000
00011000
00000000
00010000
01000000
10000000
00000000
,
00100000
01000000
10000000
00100000
00000000
01000000
00010000
00000000
,
10000000
01000000
00010000
00001000
00010000
00001000
00000100
00000000
,
00000101
00000010
00001001
00000100
,
00000010
00000001
00000100
00001000
00010000
00100000
10000000
00000000
,
00110000
01000000
10010000
00100000
,
01000000
10000000
00100000
00010000
00001000
00000010
00000001
00000000
,
00001100
00000001
00000110
00001000
,
00000001
00000100
00000010
00010000
00001000
00100000
00010000
00000000
,
10000000
00100000
01000000
00010000
00000000
00100000
01000000
00000000
,
11000000
00000000
10100000
00000000
10000000
00010000
01000000
00000000
,
00100000
10000000
01000000
00010000
00001000
00000100
00000001
00000010
,
00000100
00000000
00001000
00000100
00000000
00010000
00000010
00000000
,
00010000
00000000
00001000
00010000
01000000
00000000
11000000
00000000
,
01010000
00000000
00100000
01000000
00000000
10000000
00010000
00000000
,
10000000
00100000
00010000
00001000
00000000
00000000
00001010
00000000
,
00000101
00000000
00000010
00000100
00000000
00001000
00000010
00000000
,
00000101
00001010
00011000
00110000
,
10000000
00010000
00100000
00000000
00010000
10000000
01000000
00000000
,
00100000
00000000
00010000
00000000
01000000
00000000
00010000
00000000
10000000
00000000
00000000
01000000
00000000
00000000
00100000
00000000
,
00010000
00000000
00001000
00000100
00000000
00000010
00000001
00000000
,
00000100
00000000
00000010
00001000
00000100
00000000
00011000
00000000
,
00110000
00000000
00100000
01000000
00000000
10000000
00010000
10000000
,
01000000
00000000
00010000
01000000
00100000
00000000
01100000
00000000
,
10010000
00000000
10000000
00100000
00000000
01000000
00010000
10000000
,
01000000
01010000
00011000
00001010
,
00000001
00001000
00000100
00000000
00000010
00000001
00000100
00000000
,
00001000
00010000
00100000
00010000
00001000
00000100
00000010
00001000
,
00000002
00000000
00000000
00000203
00000000
00000000
00002300
00000000
,
00013000
00000000
01000000
00100000
00010000
00000000
10100000
00000000
,
01020000
00000000
00000000
02030000
00000000
00000000
03200000
00000000
,
10300000
01000000
00010000
00001000
00000100
00000000
00000011
00000000
,
00002001
00000000
00000000
00003002
00000000
00000000
00000203
00000000
,
00000310
00010010
00011000
00101000
,
00020200
00000000
00000000
00030300
,
00001000
00000000
00000100
00000010
00000000
00000001
00000000
00000000
,
00000200
00000000
00000000
00000310
,
00001001
00000000
00000010
00000001
00000100
00000000
00001100
00000000
,
00011000
00000000
00001000
00010000
01000000
00000000
10000000
00000000
,
00100000
11000000
01010000
00011000
,
00001010
00000000
00000010
00000001
00001000
00000000
00000100
00000010
,
00000001
00001001
00010010
01001000
,
00001000
00010000
00100000
00000000
01000000
00010000
10000000
00000000
,
00100000
01000000
00001000
00010000
00000010
00010000
00000100
00001000
,
00000001
00000000
00001000
00000100
00000000
00001000
00000001
00000000
,
00001000
00000000
00000001
00000100
00001000
00000000
00011000
00000000
,
01010000
00000000
10000000
01000000
00000000
00100000
00001000
00000000
,
00010000
00000000
00100000
01000000
00010000
00000000
10010000
00000000
,
00011000
00000000
00000010
00001000
00000000
00000100
00000010
00000001
,
00000100
00001001
00010010
00101000
,
00010000
10000000
00100000
00000000
10000000
00010000
01000000
00000000
,
00100000
10000000
01000000
00010000
00001000
00000000
00011000
00000000
,
00001010
00000011
00000101
00001100
,
00101000
00011000
00010010
00011000
,
00110000
10100000
11000000
01010000
,
10000000
00100000
00010000
00000000
00001000
00000100
00000001
00000000
,
00000010
00000001
00000100
00001000
00010000
01000000
10000000
00000000
,
00100000
10000000
01000000
00010000
00001000
00000100
00000001
00000000
,
00000010
00000001
00000100
00001000
00010000
00100000
01000000
00100000
,
10000000
01000000
00010000
00002000
00000000
00020000
00033000
00000000
,
00011000
00000000
00000000
00000000
;

//--------------- dance-double - Fred-104 ----------------
#NOTEDATA:;
#STEPSTYPE:dance-double;
#DESCRIPTION:Fred-104;
#DIFFICULTY:Hard;
#METER:16;
#CREDIT:Fred-104;
#NOTES:
00000000
00000000
00000000
00000000
,
00000000
00000000
00000000
00000000
,
00000000
00000000
00000000
00000000
,
00000000
00000000
00000000
00000000
,
00000000
00000000
00000000
00000000
,
00000000
00000000
00000000
00000010
,
00011000
00000000
00000000
00000000
,
00000000
00000000
00000000
10100000
,
01010000
00000000
00011000
00000000
,
00001010
00000000
00000000
00000000
00000101
00000000
00000000
00000000
00001100
00000000
00000000
00000000
00010000
00001000
00010000
00001000
,
00010000
00000000
00001000
00000000
00010000
00000000
00100000
01000000
00000000
00010000
00100000
00000000
01000000
00000000
00100000
00000000
,
00001000
00000000
00010000
00000000
01000000
00000000
10000000
00010000
00000000
00010000
00100000
00000000
01000000
10000000
00010000
01000000
,
00100000
00000000
10000000
00000000
01000000
00000000
00100000
00001000
00000000
00010000
00001000
00000000
00000010
00000000
00000001
00000000
,
00000010
00000000
00000100
00000000
00010000
00000000
00000020
00000000
00000000
00000000
00000130
00000000
00001000
00000100
00000010
00000100
,
00000010
00000000
00001000
00000000
00000001
00000000
00000010
00000100
00000000
00001000
00000100
00000000
00000010
00000000
00000001
00000000
,
00000100
00000000
00001000
00000000
00010000
00000000
01000000
00100000
00000000
00010000
10000000
00000000
00010000
10000000
00010000
10000000
,
01000000
00000000
00010000
00000000
00000100
00000000
00000010
00000001
00000000
00001000
00000001
00000000
00000100
00000000
00001000
00000000
,
00010000
00000000
00100000
00000000
01000000
00000000
00010000
00000000
00000000
00000000
10000000
00000000
00010000
10000000
01000000
00100000
,
00001000
00011000
00101000
00010010
,
00010000
00000000
00001000
00000000
00000100
00000000
00000001
00000000
00001000
00000000
00000100
00000010
00000100
00000000
00000010
00000000
,
00000011
00001010
00000101
00001100
,
00000001
00000000
00000100
00000000
00001000
00000000
00010000
00000000
01000000
00000000
00100000
00010000
00100000
00000000
10000000
00000000
,
10100000
00110000
00001100
00000101
,
00010000
00000000
00001000
00000000
00010000
00000000
00000010
00000000
00001000
00000000
00000100
00010000
00000100
00000000
00010000
00000000
,
00001000
00010000
01000000
10000000
00000000
00100000
00010000
00001000
,
00000000
00000000
00000110
00000000
00000000
00000000
00001001
00000000
00000001
00000000
00000100
00000000
00001000
00010000
00001000
00010000
,
00001000
00000000
00010000
00100000
01000000
00000000
00010000
00000000
10000000
00000000
01000000
00010000
00001000
00000000
00010000
00000000
,
00000100
00000010
00000001
00000100
00002000
00000000
00013000
01000000
,
00100000
00000000
01000000
10000000
00100000
00000000
01000000
00000000
00100000
00000000
00010000
00001000
00000100
00000000
00000010
00000000
,
00001000
00000100
00000010
00001000
00020000
00000000
00031000
01000000
,
00010000
00000000
01000000
00001000
00010000
00000000
00001000
00000000
00000010
00000000
00000001
00000010
00000100
00000000
00010000
00000000
,
00000010
00000100
00001000
00010000
00200000
00000000
01300000
00010000
,
10000000
00000000
01000000
01010000
00000000
00001100
00000000
00000101
,
00000000
00000000
00001000
00000000
00000100
00000000
00000010
00000000
00000001
00000000
00000100
00000000
00001000
00010000
00001000
00010000
,
00001000
00010000
00000100
00001100
00000000
00001010
00000001
00001000
,
00001100
00000000
00000100
00000110
00000000
00000010
00000001
00001000
,
00000001
00000000
00000100
00000000
00001000
00000000
00010000
00000000
00001000
00000000
00000010
00000100
00000010
00000000
00000001
00000000
,
00000101
00000000
00000100
00000110
00000000
00000001
00000010
00001000
,
00010000
00000000
00100000
00000000
01000000
00000000
00010000
00000000
00100000
00000000
01000000
00100000
00010000
00000000
10000000
00000000
,
11000000
00000000
00010000
01010000
00000000
10000000
00010000
10000000
,
11000000
00110000
00001010
00000101
,
00001001
00000001
00000100
00002000
00000000
00003100
00000001
00001000
,
00000100
00000000
00010000
00000000
00001000
00000000
00010000
00000000
00100000
01000000
00000000
00010000
10000000
00000000
01000000
00000000
,
01100000
00000000
00001000
00101000
00000000
00100000
00010000
10000000
,
00010000
00000000
01000000
00100000
10000000
00000000
01000000
00000000
00100000
00000000
00001000
00010000
00100000
00000000
01000000
00000000
,
01100000
00000000
00001000
00011000
00000000
00010000
00000010
00001000
,
00000100
00000000
00010000
00000100
00000010
00000000
00000001
00000000
00000100
00000000
00000010
00000100
00001000
00000000
00010000
00000000
,
00011000
00000000
00010000
00011000
00000000
00001000
00010000
00000100
,
00010000
00000000
00001000
00100000
00010000
00000000
01000000
00010000
00100000
00000000
00001000
00010000
00001000
00000000
00010000
00000000
,
00010100
00010000
00001000
00000000
01001000
00001000
00010000
00000000
,
00101000
00010010
01001000
00010100
,
00021000
00000000
00000000
01000000
00000000
00000000
00030100
00000000
,
00010000
00000000
00000000
00001000
00011000
00000000
00010010
00000000
,
00012000
00000000
00000000
00000010
00000000
00000000
00103000
00000000
,
00001000
00000000
00010000
00001000
00000000
00010000
00000010
00010000
,
00021000
00000000
00000000
00000010
00000000
00000000
01030000
00000000
,
00011000
00000100
00011000
00100000
,
00001000
00010000
00100000
10000000
00000000
01000000
00010000
00001000
,
00000010
00000001
00000100
00001000
00000000
00011000
00000000
00000000
,
00002000
00000000
00000000
00013000
,
00001000
00010000
00100000
00000000
10000000
01000000
01100000
00000000
,
00110000
00010000
10000000
00100000
01000000
00001000
00010000
00000100
,
00010100
00000101
00000011
00001001
,
00002000
00000010
00003010
00000100
00000002
00000010
00000013
00000100
,
00001000
00000000
00000001
00000010
00000100
00000000
00001000
00000010
00001000
00000000
00000100
00010000
00001000
00000000
00010000
00000000
,
00011000
00001000
00100000
00010000
10010000
10000000
00010000
01000000
,
00001000
00000000
00001000
00000000
00010000
00000000
00010000
00000000
00000100
00001000
00000100
00000010
00000001
00000100
00000010
00001000
,
00000001
00000010
00000100
00000110
00000000
00000010
00000001
00001000
,
00000010
00000000
00001000
00000100
00010000
00000000
00000010
00010000
00001000
00000000
01000000
00010000
00100000
00000000
00001000
00000000
,
00010000
00000010
00001000
00001100
00000000
00000010
00010000
00001000
,
00100000
00000000
00010000
00100000
01000000
00000000
00100000
00001000
00010000
00000000
00000010
00001000
00000100
00000000
00010000
00000000
,
00001000
01000000
00100000
01100000
00000000
10000000
01000000
00010000
,
00011000
00000110
00010010
01001000
,
00011000
00000000
00000000
00000010
00010000
00000000
00000000
00001000
,
00100000
00000000
00010000
00000000
10000000
00000000
01000000
00000000
10000000
00000000
00010000
00000000
01000000
00100000
10000000
01000000
,
00100000
00000000
00001000
00000000
00010000
00000000
00100000
01000000
00000000
00010000
10000000
00000000
01000000
00000000
00010000
00000000
,
00001000
00000000
00000100
00000000
00000010
00000000
00001000
00000100
00000000
00000010
00000001
00000000
00001000
00000010
00000100
00000001
,
00001000
00000000
00000100
00000000
00000001
00000000
00000100
00001000
00000000
00000010
00010000
00000000
00001000
00000000
00000010
00000000
,
00000100
00000000
00000010
00000000
00000001
00000000
00000100
00000000
00001000
00000000
00010000
00000000
01000000
00100000
01000000
00100000
,
00010000
00000000
10000000
00000000
00100000
00000000
00010000
00001000
00000000
00010000
00100000
00000000
01000000
00000000
00001000
00000000
,
00010000
00000000
00100000
00000000
01000000
00000000
00100000
00010000
00000000
00001000
00010000
00000000
00000100
00001000
00000010
00010000
,
00001000
00000000
00100000
00000000
00001000
00000000
00010000
00000010
00000000
00001000
00000100
00000000
00010000
00000000
00001000
00000000
,
00000100
00000000
00000100
00000000
00000010
00000000
00000010
00000000
00001000
00000000
00000001
00000000
00000010
00000100
00001000
00000100
,
00010000
00000000
00000000
00000000
;

//--------------- dance-double - Fred-104† ----------------
#NOTEDATA:;
#STEPSTYPE:dance-double;
#DESCRIPTION:Fred-104†;
#DIFFICULTY:Challenge;
#METER:18;
#CREDIT:Fred-104†;
#NOTES:
00000000
00000000
00000000
00000000
,
00000000
00000000
00000000
00000000
,
00000000
00000000
00000000
00000000
,
00000000
00000000
00000000
00000000
,
00000000
00000000
00000000
00000000
,
00000000
00000000
00000000
01100000
,
00011000
00000000
00000000
00000000
,
00000000
00000000
00000000
00000110
,
00001001
00000000
00011000
00000000
,
10010000
00000000
00000000
00000000
01100000
00000000
00000000
00000000
10000000
00000000
01000000
00000000
00100000
00010000
10000000
00100000
,
01000000
00000000
00010000
00000000
10000000
00000000
01000000
00100000
00010000
00100000
00001000
00000000
00010000
00000010
00001000
00000000
,
00000010
00000000
00000100
00000000
00000001
00000000
00001000
00000100
00000010
00000001
00001000
00000000
00000010
00000100
00001000
00010000
,
00001000
00000000
00100000
00000000
00010000
00000000
10000000
00010000
01000000
00100000
10000000
00000000
00010000
00100000
01000000
00000000
,
00200000
00000000
00010000
01300000
00200000
00000000
10000000
01300000
00200000
00000000
00010000
01300000
00100000
10000000
00010000
10000000
,
01000000
00000000
00010000
00000000
00001000
00000000
00000100
00000010
00000100
00000010
00001000
00000000
00000001
00001000
00000100
00000000
,
00001000
00000000
00000001
00000000
00000100
00000000
00001000
00010000
00001000
00010000
00001000
00000000
00010000
01000000
00100000
01000000
,
10000000
00000000
00010000
00000000
00100000
00000000
01000000
00100000
00001000
00010000
00000010
00000000
00000100
00000001
00001000
00000000
,
00000001
00000000
00000100
00000001
00001000
00000000
00000001
00000010
00000100
00010000
00001000
00100000
01000000
10000000
01000000
00000000
,
01100000
00000000
00011000
00000000
00000110
00000000
00001000
00000100
,
00000010
00000000
00000001
00000000
00000100
00000000
00010000
00000000
10000000
00000000
00100000
00000000
01000000
00100000
10000000
00010000
,
00100000
00000000
00011000
00000000
00000110
00000000
00000001
00000010
,
00010000
00000000
10000000
00000000
00100000
00000000
01000000
00000000
00001000
00000000
00000100
00000000
00000010
00001000
00000010
00001000
,
00000001
00000000
00001100
00000000
00010100
00000000
00001000
00010000
,
00100000
00000000
10000000
00000000
01000000
00000000
00100000
00000000
00001000
00000000
00000010
00000000
00000100
00001000
00000100
00001000
,
00000001
00000000
00000011
00001010
00000000
00011000
00000000
01010000
,
00000000
00000000
11000000
00000000
00100000
00000000
01010000
00000000
00100000
00000000
11000000
00000000
10000000
01000000
00100000
00010000
,
10000000
00000000
00100000
00000000
00010000
00000000
00001000
00010000
00001000
00000000
00000010
00000000
00000100
00000000
00001000
00000001
,
00002000
00000000
00000100
00000000
00000001
00000000
00003010
00000000
00000110
00000000
00000000
00000000
00010000
00001000
00010000
00001000
,
00010000
00000000
00001000
00000000
00010000
00000000
00100000
01000000
00100000
00000000
10000000
00000000
01000000
00000000
00100000
00010000
,
00200000
00000000
00010000
00000000
10000000
00000000
01300000
00000000
11000000
00000000
00000000
00000000
00010000
10000000
00010000
10000000
,
00100000
00000000
00010000
00000000
00001000
00000000
00000010
00000100
00000010
00000000
00000001
00000000
00000010
00000000
00000100
00010000
,
00002000
00000000
00010000
00000000
00000010
00000000
00013000
00000000
00011000
00000000
00000000
00000000
01000000
00010000
10000000
00010000
,
00100000
00000000
11000000
01010000
00000000
00011000
00000000
00001010
,
00000000
00000000
00000011
00000000
00001000
00000000
00000001
00000000
00000010
00000100
00001000
00000000
00000100
00010000
00001000
00010000
,
00100000
00000000
01000000
00010000
10000000
00010000
00200000
00000000
00000000
00000000
01300000
00100000
00010000
00000000
10000000
00000000
,
00010000
10000000
00100000
02000000
10000000
00000000
03010000
00000000
10000000
01000000
00100000
00000000
00001000
00010000
00000010
00000000
,
00001000
00000001
00000010
00000200
00000001
00000000
00001300
00000000
00000001
00000010
00000100
00010000
00002000
00000000
00000000
00000000
,
00013000
00001000
01000000
00020000
10000000
00000000
00130000
00000000
01000000
10000000
00100000
00000000
01000000
00100000
10000000
00000000
,
00010000
10000000
01000000
00200000
10000000
00000000
00320000
00000000
00000000
00000000
10030000
01000000
00100000
00001000
00010000
00000000
,
00001000
00010000
00000010
00002000
00000100
00000000
00003001
00000000
00000010
00000100
00001000
00000000
00000010
00000100
00001000
00000000
,
00020000
00000000
00001000
00130000
00020000
00000000
00100000
00031000
00020000
00000000
00001000
00130000
00020000
00000000
00100000
00031000
,
00010000
00001000
00000010
00000001
00001001
00000001
00000100
00001000
,
00011000
00000000
00010000
00000000
01000000
00000000
10000000
00000000
00010000
00100000
01000000
10000000
00100000
01000000
00010000
00100000
,
01000000
00000000
10000000
00100000
01000000
00000000
00100000
00000000
10000000
01000000
00100000
00010000
00100000
00001000
00010000
00000000
,
00001000
00000000
00010000
00001000
00000100
00000010
00000100
00000000
00000001
00001000
00000100
00000010
00000002
00000000
00000000
00000000
,
00001003
00000000
00000001
00000010
00000100
00000000
00010000
00000000
00001000
00100000
00010000
10000000
00100000
01000000
00010000
00000000
,
10000000
00000000
00010000
01000000
00100000
10000000
01000000
00000000
00100000
00001000
00010000
00001000
00000020
00000000
00000000
00000000
,
00000130
00000000
00001000
00000100
00000010
00000000
00000001
00000000
00000100
00000010
00001000
00000001
00000010
00000100
00010000
00000000
,
00002000
00000000
00010000
00003010
00002000
00000000
00000010
00013000
00002000
00000000
00010000
00003010
00002000
00000000
00000010
00013000
,
00001000
00000000
00010000
00100000
10000000
00000000
01000000
00000000
00100000
00000000
00001000
00000010
00000100
00000000
00001000
00000000
,
00000011
00001100
01010000
10100000
,
10020000
00000000
00000000
20030000
00000000
00000000
32000000
00000000
,
03200000
00000000
00000000
00001000
00301000
00000000
00011000
00000000
,
00000120
00000000
00000000
00002030
00000000
00000000
00003002
00000000
,
00001003
00000001
00000010
00001000
00010000
00100000
10000000
01000000
,
01200000
00000000
00000000
00302000
00000000
00000000
00013000
00000000
,
00011000
00001001
00011000
10010000
,
10000000
01000000
00100000
00001000
00010000
00000100
00000010
00000001
,
00000100
00001000
00010000
00100000
00000000
10100000
00000000
00000000
,
20020000
00000000
00000000
30030000
,
00010000
00000000
10000000
01000000
00100000
00000000
00001000
00000000
00010000
00000000
00000010
00000000
00010000
00001000
00010000
00000010
,
00002000
00000010
00000001
00003100
00000020
00000001
00001000
00000130
,
00000020
00000000
00000001
00000130
00000020
00000000
00001000
00000130
00000020
00000000
00000001
00000130
00000010
00000000
00010000
00000000
,
00002000
00000000
01000000
00000000
00010000
00000000
00103000
00000000
00010000
00100000
01000000
00000000
10000000
00010000
10000000
00000000
,
02100000
00000000
00010000
03100000
02000000
00000000
10000000
03100000
02000000
00000000
00010000
03100000
02000000
00000000
10000000
03100000
,
01000000
00000000
00010000
10000000
01000000
00000000
00010000
00000000
00001000
00000000
00000010
00000001
00000010
00000000
00000100
00000000
,
00001000
00000001
00000100
00000001
00001000
00000010
00010000
00001000
00100000
00010000
10000000
00100000
01000000
00010000
01000000
00100000
,
20000000
00000000
01000000
00000000
00010000
00000000
30100000
00000000
01000000
00100000
10000000
01000000
00100000
00001000
00010000
00000000
,
00001000
00010000
00000100
00000010
00000001
00000010
00000200
00000000
00001300
00000001
00000100
00000010
00020000
00000000
00000000
00000000
,
00031000
00000000
01000000
00001000
00010000
00000000
00001000
00000000
00000100
00000001
00000100
00000010
00001000
00000010
00010000
00000000
,
00001000
00010000
01000000
00100000
01000000
10000000
00020000
00000000
10030000
00100000
01000000
00010000
20000000
00000000
30010000
00000000
,
02000000
00000000
10000000
00000000
00100000
00000000
03010000
00000000
10000000
01000000
00100000
00010000
00100000
00001000
00010000
00000000
,
00002000
00000000
00010000
00003010
00002000
00000000
00000010
00013000
00002000
00000000
00010000
00003010
00002000
00000000
00000010
00013000
,
00001000
00010000
00100000
01000000
00010000
00100000
01000000
00010000
,
00001000
00010000
00001000
00000000
00010000
00000010
00001000
00000000
00000001
00000010
00000100
00001000
00000001
00000100
00000010
00001000
,
00000001
00000000
00000100
00000000
00000010
00000000
00001000
00000001
00000010
00000100
00010000
00000000
00001000
00100000
00010000
00000000
,
01000000
00000000
00001000
00000000
00010000
00000000
00001000
00000100
00000001
00001000
00000100
00000000
00000010
00000001
00001000
00000010
,
00000100
00000000
00001000
00000000
00010000
00000000
00100000
01000000
00100000
10000000
00010000
00000000
00100000
01000000
10000000
00000000
,
00010000
00100000
01000000
00000000
10000000
00100000
01000000
00000000
00010000
10000000
01000000
00100000
00010000
00100000
00001000
00010000
,
00000010
00000000
00001000
00000000
00000200
00000000
00000001
00000000
00000010
00000000
00001300
00000000
00000001
00000010
00000100
00010000
,
00001000
00000000
00010000
00000000
00200000
00000000
01000000
00000000
00010000
00000000
10300000
00000000
00010000
00100000
01000000
10000000
,
01000000
00000000
10000000
00000000
00020000
00000000
01000000
00000000
10000000
00000000
00130000
00000000
01000000
00100000
00001000
00000000
,
00010000
00001000
00000100
00000001
00001000
00000100
00000010
00000001
00000100
00001000
00010000
00100000
01000000
00010000
00100000
01000000
,
10000000
00000000
00000000
00000000
;
