#TITLE:HAERETICUS;
#ARTIST:D.J.Amuro Vs MAX MAXIMIZER;
#GENRE:ECCENTRIC;
#BANNER:HAERETICUS.png;
#BACKGROUND:HAERETICUS-bg.png;
#CDTITLE:./CDTitles/RB limelight.png;
#MUSIC:HAERETICUS.ogg;
#SAMPLESTART:84.23;
#SAMPLELENGTH:15;
#BPMS:0=208;
#BGSTAGE:29;

//--------------- dance-single - Fred-104 ----------------
#NOTES:
     dance-single:
     Fred-104:
     Beginner:
     5:
     :
0000
0000
0000
0000
,
0000
0000
0000
0000
,
0000
0000
0000
0000
,
0000
0000
0000
0000
,
0000
0000
0000
0000
,
1000
0000
1000
0000
,
0001
0000
0001
0000
,
1000
0000
1000
0000
,
0001
0001
1000
1000
,
2002
0000
0000
0000
,
0000
0000
3003
0000
,
0001
0000
0000
0000
,
1000
0000
0000
0000
,
0010
0000
0000
0000
,
0100
0000
0000
0000
,
0001
0000
0000
0000
,
1000
0000
0000
0000
,
0100
0000
0100
0000
,
0010
0010
0010
0010
,
0220
0000
0000
0000
,
0330
0000
0000
0000
,
0001
0000
0001
0000
,
1000
0000
1000
0000
,
0100
0000
0100
0000
,
0001
0000
0001
0000
,
0010
0000
0010
0000
,
1000
0000
1000
0000
,
0001
0000
0001
0000
,
1000
0000
1000
0000
,
0010
0000
0010
0000
,
0001
0000
0001
0000
,
0100
0000
0100
0000
,
1000
1000
1000
0000
,
0010
0000
0010
0000
,
1000
0000
1000
0000
,
0001
0000
0001
0000
,
1000
1000
1000
1000
,
2000
0000
0000
3000
,
0002
0000
0000
0003
,
0020
0000
0000
0030
,
0200
0000
0000
0300
,
1000
0000
1000
0000
,
0010
0000
0010
0000
,
0001
0000
0001
0000
,
0100
0000
0100
0000
,
1001
0000
0000
0000
,
1000
0000
0001
0000
,
0100
0000
0000
0000
,
0010
0000
0010
0000
,
0100
0000
0000
0000
,
0001
0000
1000
0000
,
0010
0000
0010
0000
,
0100
0000
0100
0000
,
2002
0000
0000
0000
,
3003
0000
0000
0000
,
1000
0000
0100
0000
,
0001
0000
0010
0000
,
1000
0000
0001
0000
,
1000
0000
0001
0000
,
1001
0000
0000
0000
,
0001
0000
0000
0000
,
0100
0000
0010
0000
,
0100
0000
0010
0000
,
0110
0000
0000
0000
,
0010
0000
0010
0000
,
0100
0000
0100
0000
,
0001
0000
1000
0000
,
1001
0000
0010
0000
,
0100
0000
1000
0000
,
0001
0000
0001
0000
,
1000
1000
1000
1000
,
2002
0000
0000
0000
,
3003
0000
0000
0000
,
0001
0000
0001
0000
,
0010
0000
0010
0000
,
1000
0000
1000
0000
,
0100
0000
0100
0000
,
0001
0000
0001
0000
,
1000
0000
1000
0000
,
0010
0000
0100
0000
,
0010
0010
0010
0000
,
1000
0000
0100
0000
,
0010
0000
0001
0000
,
0100
0000
0100
0000
,
0010
0000
0010
0000
,
1000
0000
0100
0000
,
0001
0000
0010
0000
,
1000
0000
1000
0000
,
0001
0100
0010
1000
,
2002
0000
0000
0000
,
0000
0000
0000
3003
;

//--------------- dance-single - Fred-104 ----------------
#NOTES:
     dance-single:
     Fred-104:
     Easy:
     9:
     :
0000
0000
0000
0000
,
0000
0000
0000
0000
,
0000
0000
0000
0000
,
0000
0000
0000
0000
,
0000
0000
0000
0000
,
1100
0100
0100
0100
,
0010
0100
0100
0100
,
0001
0000
1000
0000
,
0001
0010
0100
1000
,
2002
0000
0000
0000
,
0000
0000
3003
0000
,
0001
0000
0000
1000
0000
0000
0001
0000
,
0000
1000
0000
0000
0001
0000
0100
0000
,
0010
0000
0000
0100
0000
0000
0001
0000
,
0000
1000
0000
0000
0010
0000
1000
0000
,
1010
0000
0000
0010
0000
0000
0100
0000
,
0000
0001
0000
0000
0100
0000
0001
0000
,
0011
0000
0000
1000
0000
0000
0001
0000
,
1000
0100
0001
0100
,
2002
0000
0000
0000
,
3003
0000
0000
0000
,
0001
0100
0010
1000
,
0100
0000
0010
0000
0001
1000
0010
0000
,
1000
0010
0100
0001
,
0010
0000
0100
0000
0010
0001
1000
0000
,
0001
0100
1000
0100
,
0001
0000
0010
0000
0001
0100
0010
0000
,
1000
0010
0001
0100
,
1000
0001
1000
1001
,
0001
0010
0100
1000
,
0010
0000
0100
0000
0010
1000
0001
0000
,
1000
0100
0001
0100
,
1000
0010
1000
0000
0001
0100
0001
0000
,
1000
0010
0100
0001
,
1000
0000
0100
0000
0010
0001
0010
0000
,
0001
0100
1000
0010
,
0001
0100
0010
1000
,
2020
3030
0202
0303
,
1000
0100
0010
0001
,
0022
0033
2200
3300
,
0001
0100
1000
0100
,
0001
0010
1000
0100
,
0001
0100
1000
0010
,
0001
0100
0010
1000
,
0001
1000
0001
2000
0000
0000
3000
0000
,
1001
0000
1000
0000
,
0010
1000
0001
0100
,
0110
0000
0001
0000
,
1000
0010
0100
0001
,
1001
0000
1000
0000
,
0100
0010
0001
0010
,
0001
0100
1000
0001
,
0010
1000
0001
1000
,
2002
0000
0000
0000
,
3003
0000
0000
0000
,
1000
0100
0001
0100
,
1000
0010
0100
0000
,
0100
0001
0100
0010
,
0100
0001
1000
0001
,
0100
0000
0001
1000
,
0010
0100
0001
1000
,
0100
1000
0010
0001
,
0010
1000
0001
1000
,
1002
0000
2003
0000
,
3020
0000
0230
0000
,
0302
0000
0023
0000
,
2030
0000
3200
0000
,
0301
0010
0011
0000
,
1000
0010
1010
0000
,
2000
0000
3002
0000
,
1003
0100
0001
0010
,
2000
0000
0000
3000
,
2002
0000
0000
3003
,
0001
0010
0100
1000
,
0010
0000
0100
0000
0010
1000
0001
0000
,
0100
0010
1000
0100
,
0010
0000
0001
0000
0100
0010
0100
0000
,
0001
0100
1000
0100
,
0001
0000
0010
0000
0100
1000
0001
0000
,
1000
0100
0001
0100
,
1000
0001
2002
3003
,
0001
0001
0010
0001
,
1000
0010
1000
1000
,
0100
1000
0001
0100
,
0010
0100
0010
0000
0100
0010
0100
0000
,
0001
0010
0100
1000
,
0010
0100
0001
1000
,
0001
0100
1000
0000
0001
0010
1000
0000
,
0001
0010
1000
0000
0001
0100
1000
0000
,
2002
0000
0000
0000
,
0000
0000
0000
3003
;

//--------------- dance-single - Fred-104 ----------------
#NOTES:
     dance-single:
     Fred-104:
     Medium:
     14:
     :
0000
0000
0000
0000
,
0000
0000
0000
0000
,
0000
0000
0000
0000
,
0000
0000
0000
0000
,
0000
0000
0000
0000
,
1000
0010
1000
0100
1000
0001
1000
0100
,
1000
0010
0100
0010
1000
0001
0010
0100
,
1100
0101
1100
1010
,
0011
1010
1001
0110
,
2002
0000
0000
0000
,
0000
0000
3003
0000
,
0001
0000
0001
0010
0000
0010
0100
0000
,
0100
1000
0000
1000
0010
0000
0100
0000
,
0001
0000
1000
0100
0000
0100
0010
0000
,
0010
0001
0000
0001
0100
0000
0010
0000
,
1001
0000
0001
0100
0000
0010
1000
0000
,
0100
0010
0000
0001
0100
0000
0010
0000
,
0110
0000
1000
0100
0000
1000
0001
0000
,
0010
0001
1000
0010
0100
0000
0001
0000
,
2002
0000
0000
3003
,
0001
0010
1000
0001
0100
1000
0001
0000
,
1000
0000
1000
0100
0000
0100
0010
0000
0010
0001
0000
0001
,
0100
0000
0000
0000
0100
0000
0010
0000
0000
0000
0010
0000
1000
0000
0000
0001
0000
0000
0100
0000
0000
0000
0000
0000
,
0001
0000
0001
0010
0000
0010
0100
0000
0100
1000
0000
1000
,
0010
0000
0000
0000
0010
0000
0100
0000
0000
0000
0100
0000
0001
0000
0000
1000
0000
0000
0100
0000
0000
0000
0000
0000
,
0001
0000
0001
0100
0000
0100
1000
0000
1000
0010
0000
0010
,
0100
0000
0000
0000
0100
0000
0001
0000
0000
0000
0001
0000
1000
0000
0000
0100
0000
0000
0010
0000
0000
0000
0000
0000
,
0001
1000
0100
0010
0001
0100
0010
0001
,
0010
1000
0001
0100
1000
0100
0010
0000
,
1000
0000
1000
0010
0000
0010
1000
0000
1000
0100
0000
0100
,
0001
0000
0000
0000
0001
0000
0100
0000
0000
0000
0100
0000
1000
0000
0000
0010
0000
0000
0100
0000
0000
0000
0000
0000
,
0001
0000
1000
0001
0000
0001
1000
0000
1000
0010
0000
0010
,
0100
0010
0100
0010
1000
0100
0001
0000
,
0100
0000
0010
0001
0000
0001
1000
0000
1000
0010
0000
0010
,
0100
0000
0000
0000
0100
0000
0010
0000
0000
0000
0010
0000
1000
0000
0000
0001
0000
0000
0100
0000
0000
0000
0000
0000
,
0001
0010
0100
0010
0100
1000
0010
0100
,
0001
0100
0010
1000
0001
0100
1000
0100
,
0002
0000
2003
0000
,
3010
1000
0100
0010
0001
0100
1000
0000
,
0200
0000
0302
0000
,
0103
0010
0000
1000
0100
0010
0001
0000
,
2000
3020
0032
0203
,
2300
3200
0302
0023
,
2030
3020
0230
0302
,
1003
0100
0010
0002
0000
0000
0003
0000
,
0001
0001
0000
1000
0010
0100
0000
0010
,
1000
0100
0100
0001
0010
0010
1000
0000
,
0001
0001
0000
0010
0001
0100
0000
0001
,
1000
0010
0010
0001
0010
0010
1000
0000
,
0001
0001
0000
1000
0010
0100
0000
0001
,
1000
0100
0100
0001
0010
0010
1000
0000
,
1000
0100
1000
0100
0001
0100
0001
0100
,
0000
1100
0000
0101
0000
0110
0000
1000
,
2002
0000
0000
0000
,
3003
0000
0000
0000
,
1000
0010
0100
0001
,
1000
0100
1001
0000
,
0001
1000
0100
1000
,
0010
0001
0100
1000
,
1001
0000
0000
0001
1000
0010
0100
0001
,
1000
0100
0010
0100
1000
0001
0100
0000
,
0001
0010
1000
0000
0001
0100
1000
0000
,
0001
0010
0100
1000
0010
0100
0001
0000
,
1001
0001
0100
0010
,
0020
1000
0230
1000
,
0302
0010
0203
0010
,
0302
1000
0203
1000
,
0310
0000
0000
1000
0001
1000
0001
0000
0000
0100
0000
0000
,
0010
1000
2002
3003
,
0001
0100
1000
0100
,
0001
0100
1000
0100
0001
0100
0010
0000
,
0220
0000
0000
0330
,
2002
0000
0000
3003
,
1000
0000
1000
0100
0000
0100
0010
0000
0010
0100
0000
0100
,
1000
0000
0000
0000
1000
0000
0001
0000
0000
0000
0001
0000
0010
0000
0000
0100
0000
0000
1000
0000
0000
0000
0000
0000
,
0001
0000
0010
0001
0000
0001
0100
0000
0100
0010
0000
1000
,
0010
0000
0000
0000
0010
0000
1000
0000
0000
0000
1000
0000
0001
0000
0000
0010
0000
0000
0100
0000
0000
0000
0000
0000
,
1000
0000
1000
0100
0000
0100
0001
0000
0001
1000
0000
1000
,
0010
0000
0000
0000
0010
0000
0001
0000
0000
0000
0001
0000
1000
0000
0000
0010
0000
0000
0100
0000
0000
0000
0000
0000
,
0001
0010
0010
0100
0010
0010
0001
1000
,
0010
0100
0001
1000
2200
0000
3300
0000
,
0001
0100
0010
1000
0100
0010
0100
1000
,
0010
1000
0001
0010
0100
0001
0100
0010
,
0000
0001
1000
0100
1000
0010
0100
0001
,
1000
0100
0010
0001
0000
0000
1000
0010
0100
0001
0000
0000
,
1000
0010
1000
0001
1000
0100
0010
0100
,
0001
0100
1000
0001
0010
0100
1000
0000
,
0001
1000
0001
0010
0100
0010
0001
1000
,
0010
0100
0001
1000
0010
0100
0001
0000
,
2002
0000
0000
0000
,
0000
0000
0000
3003
;

//--------------- dance-single - Fred-104 ----------------
#NOTES:
     dance-single:
     Fred-104:
     Hard:
     18:
     :
0000
0000
0000
0000
,
0000
0000
0000
0000
,
0000
0000
0000
0000
,
0000
0000
0000
0000
,
0000
0000
0000
0000
,
1000
0000
0010
0000
1000
0000
0001
0000
0010
0000
0100
0000
0001
0100
1000
0000
,
0001
0000
0100
0000
0010
0000
1000
0000
0010
0000
0100
0000
1000
0100
0001
0000
,
0101
1100
0110
1001
,
1010
0000
0000
0000
0011
0000
0000
0000
1000
0001
0100
0010
2000
0000
3000
0000
,
2200
0000
0000
0000
,
0000
3300
2002
3003
,
0001
0000
0100
1000
0000
0001
0010
0000
,
1000
0001
0000
0100
1000
0000
1001
0000
,
1000
0000
0100
0001
0000
1000
0010
0000
,
0001
1000
0000
0100
0001
0000
1001
0000
,
0110
0000
1000
0010
0000
0001
0100
0000
,
1000
0010
0000
0001
0100
0000
1100
0000
,
1001
0000
0001
0100
0010
1000
0001
0000
,
1000
1000
0100
0100
0010
0010
0001
0001
,
2002
0000
0000
0000
0000
0000
0000
0000
0000
0000
3003
0000
0001
1000
0010
0100
,
0001
0000
0000
0100
0000
0000
0010
0000
0000
0100
0000
0000
0001
0000
0100
0000
0100
0000
2000
0000
0000
0000
0000
0000
,
3001
0010
0100
0001
0100
0010
0001
0010
0100
0001
0100
0010
,
0001
0000
0010
0000
0100
0000
0001
0000
0100
0000
0010
0000
0001
0000
0000
0010
0000
0000
0100
0000
0000
1000
0000
0000
,
0001
0100
0010
0001
0010
0100
0001
0100
0010
0001
0010
0100
,
0001
0000
0100
0000
0010
0000
0001
0000
0010
0000
0100
0000
0001
0000
0000
0100
0000
0000
0010
0000
0000
1000
0000
0000
,
0001
0000
1000
0100
0001
0100
1000
0000
0001
0100
1000
0100
,
0001
0000
0010
0000
1000
0000
0010
0000
0001
0000
1000
0000
0010
0000
0000
0100
0000
0000
0001
0000
0000
1000
0000
0000
,
0001
0100
0001
0100
1000
0000
0001
0010
0001
0010
1000
0000
0001
0100
0010
1000
,
0001
0000
1000
0010
0100
0010
1000
0001
1000
0000
0001
0010
0200
0000
0000
0000
,
1300
0100
0010
1000
0010
0100
1000
0010
0100
1000
0100
0010
,
1000
0000
0010
0000
0100
0000
0001
0000
1000
0000
0001
0000
0100
0000
0000
0010
0000
0000
1000
0000
0000
0100
0000
0000
,
1000
0010
0100
1000
0100
0010
1000
0010
0100
1000
0100
0010
,
1000
0001
0100
0001
1000
0000
0010
0100
0001
0000
1000
0000
0010
0000
0100
0000
,
0001
0010
0100
0001
0100
0010
0001
0100
0010
0001
0010
0100
,
0001
1000
0100
1000
0100
1000
0001
0100
0010
0000
0100
0000
0001
0000
1000
0000
,
0001
0010
0001
0010
1000
0000
0001
0100
0001
0100
1000
0001
1000
0000
0001
0100
,
0001
0000
0100
0000
0010
0000
1000
0000
0001
0010
0100
1000
0010
0100
0001
1000
,
0200
0000
0320
0000
,
0031
0010
0100
0001
1000
0010
0001
1000
0010
0001
1000
0100
,
0002
0000
0000
0000
2003
0000
0000
3000
,
0101
0100
0010
1000
1100
0100
0010
0001
,
1000
0010
0100
1000
0001
0010
0100
0001
0010
1000
0001
0100
,
1000
0000
0010
0000
0100
0000
0001
0000
1000
0100
0010
0000
0001
0100
0010
0000
,
2000
3100
0020
0031
0200
0310
0002
0013
,
1000
0001
0010
0200
0000
0000
0300
0000
,
1000
0110
0000
0001
0100
0110
0000
1000
,
0001
0100
0100
1000
0010
0010
0001
1000
,
0001
0110
0000
1000
0100
0110
0000
0001
,
1000
0010
0010
0001
0100
0100
1000
0001
,
1000
1100
0000
0100
0010
0011
0000
0001
,
1000
0100
0001
1000
0010
0001
1000
0100
,
1000
0010
0001
0010
0100
0001
1000
0001
,
1000
0100
0001
0100
1000
0100
0010
0001
,
2002
0000
0000
0000
,
3003
0000
0000
0000
,
1010
0010
0001
0100
,
1000
0000
0000
0000
0010
0000
0000
0000
0110
0000
0000
0000
0001
0000
0100
0010
,
1000
0100
0001
0010
,
1000
0100
1000
0110
,
2002
0000
3003
1000
0010
0100
1000
0001
,
0010
0000
0000
0100
0000
0000
0001
0000
0000
1000
0000
0000
0001
0000
0010
0000
0001
0000
1000
0000
0010
0000
1000
0000
,
0001
0010
0100
0001
0100
0010
0100
1000
0001
0100
1000
0100
,
0010
0000
0100
0001
1000
0000
0100
0000
0010
0000
0001
1000
0020
0000
0000
0000
,
0130
0101
1100
1001
,
1000
0010
0001
0010
0100
1000
0100
0001
1000
0100
0010
0001
,
1000
0100
0001
0100
0010
1000
0010
0001
1000
0001
0100
0010
,
1000
0010
0100
1000
0001
0010
0100
0001
0010
1000
0001
0100
,
1000
0000
0001
0100
0010
1000
1010
0000
0000
0011
0000
0000
,
1100
0101
2002
3003
,
1000
0010
0100
1000
0001
0010
0100
0001
1000
0100
0001
0100
,
1000
0000
0001
0100
1000
0000
0100
0000
0010
0000
1000
0001
0020
0000
0030
0000
,
0022
0000
0000
0033
,
2002
0000
0000
3003
,
0001
0010
0100
0001
0100
1000
0001
0100
1000
0100
0010
1000
,
0100
0000
0010
0000
1000
0000
0010
0000
0001
0000
0010
0000
0100
0000
0000
1000
0000
0000
0001
0000
0000
0100
0000
0000
,
0001
1000
0100
0001
0100
0010
0001
0100
0010
0001
0010
1000
,
0001
0000
0010
0000
1000
0000
0010
0000
0100
0000
1000
0000
0001
0000
0000
0100
0000
0000
0010
0000
0000
1000
0000
0000
,
0001
0010
1000
0001
0100
0010
0100
1000
0001
0100
0010
0001
,
1000
0000
0100
0000
0001
0000
1000
0000
0100
0000
0001
0000
0100
0000
0000
1000
0000
0000
0001
0000
0000
0100
0000
0000
,
0001
0100
0010
1000
0001
0000
1000
0100
0010
0001
1000
0000
0001
1000
0010
0100
,
0001
0000
1000
0100
0010
0001
0100
0010
2000
0000
0000
0000
3000
0000
0000
0000
,
0001
0000
1000
0000
0001
0000
0010
0000
0100
0000
0001
0000
0100
0010
0001
0000
,
1000
0000
0010
0000
0100
0000
0001
0000
1000
0100
0010
0000
0001
0010
0100
0000
,
1000
0000
0001
0000
0100
0000
1000
0000
0100
0000
0010
0000
1000
0100
0010
0000
,
0001
0100
0010
0001
1000
0100
0001
1000
0100
0110
0000
0000
,
0011
0000
0010
0000
0100
0000
1000
0000
0010
0000
0100
0000
1000
0100
0001
0000
,
1000
0000
0100
0000
0010
0000
0100
0000
0001
0100
1000
0001
0100
0010
1000
0000
,
0001
0100
0010
0100
1000
0100
0001
1000
0100
0001
0100
0010
,
0001
0010
0100
1000
0010
1000
0001
0010
0001
1000
0010
0100
0001
0010
0100
1000
,
0200
0000
0000
0000
,
0000
0000
0000
0300
;

//--------------- dance-double - Fred-104 ----------------
#NOTES:
     dance-double:
     Fred-104:
     Easy:
     9:
     :
00000000
00000000
00000000
00000000
,
00000000
00000000
00000000
00000000
,
00000000
00000000
00000000
00000000
,
00000000
00000000
00000000
00000000
,
00000000
00000000
00000000
00000000
,
00011000
00001000
01000000
00010000
,
10000000
01000000
00100000
00001000
,
00011000
00010000
00000010
00001000
,
00000001
00000000
00000010
00000000
00000100
00001000
00000100
00000000
,
00002002
00000000
00000000
00000000
,
00000000
00000000
00003003
00000000
,
00000001
00000000
00000000
00000010
00000000
00000000
00001000
00000000
,
00000000
00010000
00000000
00000000
01000000
00000000
10000000
00000000
,
00010000
00000000
00000000
10000000
00000000
00000000
01000000
00000000
,
00000000
00010000
00000000
00000000
00001000
00000000
00000010
00000000
,
00000011
00000000
00000000
00000001
00000000
00000000
00000100
00000000
,
00000000
00000010
00000000
00000000
00010000
00000000
00001000
00000000
,
00101000
00000000
00000000
00100000
00000000
00000000
00010000
00000000
,
10010000
10000000
01000000
00010000
,
00022000
00000000
00000000
00000000
,
00033000
00000000
00000000
00000000
,
00001000
00010000
00100000
10000000
,
01000000
00010000
00001000
00000010
,
00000001
00000100
00001000
00010000
,
00100000
10000000
01000000
00010000
,
00001000
00011000
01000000
01010000
,
00100000
01100000
00010000
10000000
,
01000000
00010000
00001000
00000010
,
00000100
00001000
00000001
00001001
,
00001000
00000001
00000100
00000010
,
00001000
00000100
00010000
00001000
,
00010000
00100000
01000000
00010000
,
10000000
01000000
10000000
00000000
00010000
00000000
10000000
00000000
,
00010000
01000000
00100000
01000000
,
00010000
10000000
01000000
00010000
,
00001000
00010000
01000000
10000000
,
00100000
00010000
00001000
00010000
,
00012000
00000000
00023000
00000000
,
00031000
00000100
00000001
00000010
,
00000210
00000000
00002300
00000000
,
00003001
00000100
00001000
00010000
,
00002000
00023000
00230000
02300000
,
03002000
00023000
02030000
23000000
,
30200000
00320000
00032000
00003020
,
00000031
00000100
00001000
00020000
00000000
00000000
00030000
00000000
,
00011000
00000000
00001000
00000000
,
00010000
00100000
10000000
00010000
,
10010000
00000000
10000000
00000000
,
01000000
00010000
00001000
00000100
,
00000110
00000000
00000001
00000000
,
00001000
00000001
00000100
00001000
,
00010000
00010000
01000000
01000000
,
10000000
00100000
01000000
00010000
,
20020000
00000000
00000000
00000000
,
30030000
00000000
00000000
00000000
,
10000000
01000000
00010000
00001000
,
00000100
00000001
00001001
00000000
,
00000001
00000100
00000010
00000100
,
00001000
00010000
00100000
10000000
,
10010000
00000000
00010000
10000000
,
01000000
10000000
00100000
01000000
,
00100000
00010000
00001000
00000100
,
00000010
00000100
00000001
00001000
,
00000002
00000000
00000023
00000000
,
00002030
00000000
00023000
00000000
,
00230000
00000000
20300000
00000000
,
30020000
00000000
00230000
00000000
,
01300000
00100000
01100000
00000000
,
00001000
00010000
00011000
00000000
,
00000010
00001000
00000001
00000010
,
00000100
00000010
00000100
00010000
,
00002000
00000000
00000000
00000000
,
00020000
00000000
00000000
00033000
,
00001000
00010000
00000100
00010000
,
00000100
00000000
00001000
00000000
00000001
00000100
00000001
00000000
,
00000010
00000100
00010000
00001000
,
00010000
00000000
00100000
00000000
10000000
00010000
10000000
00000000
,
01000000
00100000
00001000
00010000
,
00000100
00000000
00000010
00000000
00000001
00001000
00000001
00000000
,
00000100
00001000
00010000
01000000
,
00100000
00010000
20020000
30030000
,
00010000
10000000
01000000
10000000
,
00100000
00010000
00001000
00000010
,
00000100
00001000
00000001
00001000
,
00000002
00000023
00002030
00003200
,
00000301
00000100
00001000
00010000
,
00100000
01000000
00010000
10000000
,
01000000
00100000
01000000
00010000
,
00001000
00000100
00000001
00000000
00001000
00000100
00010000
00000000
,
00022000
00000000
00000000
00000000
,
00000000
00000000
00000000
00033000
;

//--------------- dance-double - Fred-104 ----------------
#NOTES:
     dance-double:
     Fred-104:
     Medium:
     14:
     :
00000000
00000000
00000000
00000000
,
00000000
00000000
00000000
00000000
,
00000000
00000000
00000000
00000000
,
00000000
00000000
00000000
00000000
,
00000000
00000000
00000000
00000000
,
00010000
00001000
00010000
00000100
00001000
00000001
00000100
00000000
,
00000001
00000010
00001000
00000010
00000100
00000010
00000001
00000000
,
00001001
00000010
00010010
00001000
,
00011000
01000000
01100000
00100000
,
20020000
00000000
00000000
00000000
,
00000000
00000000
30030000
00000000
,
00010000
00000000
10000000
01000000
00000000
01000000
00010000
00000000
,
00010000
00001000
00000000
00001000
00000010
00000000
00000011
00000000
,
00000001
00000000
00000001
00000100
00000000
00000100
00001000
00000000
,
00001000
00010000
00000000
00010000
00100000
00000000
10100000
00000000
,
10010000
00000000
10000000
01000000
00000000
01000000
00010000
00000000
,
00010000
00001000
00000000
00001000
00000010
00000000
00000011
00000000
,
00001001
00000000
00000001
00000100
00000000
00000010
00001000
00000000
,
00000001
00000100
00001000
00010000
01000000
00000000
00100000
00000000
,
20020000
00000000
00000000
30030000
,
10000000
01000000
00100000
01000000
10000000
00010000
00100000
00000000
,
01000000
00000000
01000000
10000000
00000000
10000000
00010000
00000000
00010000
01000000
00000000
01000000
,
00100000
00000000
00000000
00000000
00100000
00000000
01000000
00000000
00000000
00000000
01000000
00000000
00010000
00000000
00000000
00100000
00000000
00000000
00001000
00000000
00000000
00000000
00000000
00000000
,
00010000
00000000
00010000
00001000
00000000
00001000
00000100
00000000
00000100
00000001
00000000
00000001
,
00001000
00000000
00000000
00000000
00001000
00000000
00000010
00000000
00000000
00000000
00000010
00000000
00000100
00000000
00000000
00000001
00000000
00000000
00001000
00000000
00000000
00000000
00000000
00000000
,
00001000
00010010
00010000
00101000
,
00010000
00000000
01001000
00000000
00001000
00010000
01000000
00000000
,
00100000
00010000
10000000
00100000
00010000
00001000
00010000
00000100
,
00001000
00000100
00000010
00000001
00001000
00000001
00000020
00000000
,
00000031
00000000
00000001
00000100
00000000
00000100
00001000
00000000
00001000
00010000
00000000
00010000
,
00100000
00000000
00000000
00000000
00100000
00000000
01000000
00000000
00000000
00000000
01000000
00000000
00010000
00000000
00000000
10000000
00000000
00000000
00010000
00000000
00000000
00000000
00000000
00000000
,
10000000
00000000
10000000
01000000
00000000
01000000
00010000
00000000
00010000
00001000
00000000
00001000
,
00010000
00000100
00001000
00000100
00000010
00000001
00001000
00000000
,
00000100
00000000
00000100
00000010
00000000
00000010
00001000
00000000
00001000
00010000
00000000
00010000
,
01000000
00000000
00000000
00000000
01000000
00000000
00100000
00000000
00000000
00000000
00100000
00000000
00010000
00000000
00000000
10000000
00000000
00000000
00010000
00000000
00000000
00000000
00000000
00000000
,
00100000
01000000
10000000
00010000
01000000
00001000
00010000
00001000
,
00010000
00001000
00000100
00000001
00001000
00000100
00000010
00000001
,
00002000
00000000
00003002
00000000
,
00001003
00000001
00000010
00001000
00010000
00100000
10000000
00010000
,
00200000
00000000
02300000
00000000
,
13000000
01000000
00000000
00100000
00001000
00010000
00001000
00000000
,
00200000
00320000
00030020
00002030
,
00203000
00320000
00030020
00002030
,
00023000
00032000
00003200
00000302
,
00001003
00000010
00010000
00002000
00000000
00000000
00003000
00000000
,
00010000
00010000
00000000
00001000
00100000
00010000
00000000
01000000
,
00100000
10000000
01000000
00100000
00001000
00010000
00001000
00000000
,
00010000
00010000
00000000
00000100
00001000
00000001
00000000
00001000
,
00000100
00000010
00000001
00000100
00000010
00010000
00001000
00000000
,
00010000
00010000
00000000
00000010
00000100
00001000
00000000
00010000
,
00100000
01000000
00010000
00100000
01000000
10000000
00010000
00000000
,
10000000
01000000
00100000
00001000
00010000
00000100
00000010
00000001
,
00000000
00000011
00000000
00001010
00000000
00000101
00000000
00010000
,
00002000
00000000
00000000
00000000
,
00003000
00000000
00000000
00000000
,
00001000
00010000
00100000
10000000
,
01000000
00010000
00011000
00000000
,
00010000
00001000
00000010
00000001
,
00000100
00001000
00010000
01000000
,
10010000
00000000
00000000
00100000
10000000
00010000
00100000
01000000
,
00100000
00001000
00010000
00001000
00000010
00000001
00001000
00000000
,
00000002
00000203
00002300
00023000
,
00031000
00010000
00100000
00010000
00001000
01000000
00100000
00000000
,
01200000
00000000
10300000
00010000
,
20000000
32000000
03020000
00032000
,
00003020
00000032
00000203
00002300
,
00023000
00230000
20300000
32000000
,
03100000
00000000
00000000
00001000
00010000
00001000
00010000
00000000
00000000
00000010
00000000
00000000
,
00002000
00000000
00003002
00000000
,
00000013
00000001
00001000
00000000
00000001
00001000
00000010
00000000
,
00010000
00001000
00000100
00000010
00010000
00001000
01000000
00000000
,
00200000
00000000
00000000
00300000
,
20020000
00000000
00000000
30030000
,
10000000
00000000
10000000
01000000
00000000
01000000
00010000
00000000
00010000
00001000
00000000
00001000
,
00000100
00000000
00000000
00000000
00000100
00000000
00000001
00000000
00000000
00000000
00000001
00000000
00001000
00000000
00000000
00000100
00000000
00000000
00000010
00000000
00000000
00000000
00000000
00000000
,
00000001
00000000
00000001
00000100
00000000
00000100
00001000
00000000
00001000
00010000
00000000
00010000
,
01000000
00000000
00000000
00000000
01000000
00000000
00100000
00000000
00000000
00000000
00100000
00000000
00010000
00000000
00000000
10000000
00000000
00000000
00100000
00000000
00000000
00000000
00000000
00000000
,
10000000
00000000
10000000
01000000
00000000
01000000
00100000
00000000
00100000
00001000
00000000
00001000
,
00000100
00000000
00000000
00000000
00000100
00000000
00000001
00000000
00000000
00000000
00000001
00000000
00001000
00000000
00000000
00000100
00000000
00000000
00000010
00000000
00000000
00000000
00000000
00000000
,
00000001
00000010
00000100
00010000
00001000
00010000
00100000
10000000
,
00010000
00100000
10000000
00100000
00020000
00000000
00030000
00000000
,
10000000
00010000
01000000
00100000
00010000
00001000
00000100
00000010
,
00001000
00000001
00000010
00001000
00010000
01000000
00100000
00010000
,
00000000
10000000
00100000
00010000
00001000
00010000
01000000
10000000
,
00010000
01000000
00100000
10000000
00000000
00000000
00010000
00100000
01000000
10000000
00000000
00000000
,
00010000
10000000
01000000
00010000
00001000
01000000
00100000
00010000
,
00001000
00000100
00000010
00001000
00000001
00000010
00001000
00010000
,
00002000
00023000
02030000
03200000
,
00310000
10000000
00100000
00010000
00001000
00000010
00000001
00001000
,
00002020
00000000
00000000
00000000
,
00000000
00000000
00000000
00003030
;

//--------------- dance-double - Fred-104 ----------------
#NOTES:
     dance-double:
     Fred-104:
     Hard:
     18:
     :
00000000
00000000
00000000
00000000
,
00000000
00000000
00000000
00000000
,
00000000
00000000
00000000
00000000
,
00000000
00000000
00000000
00000000
,
00000000
00000000
00000000
00000000
,
00010000
00000000
00001000
00000000
00010000
00000000
00001000
00000000
00000100
00000000
00000001
00000000
00000010
00000100
00001000
00000000
,
00000001
00000000
00000100
00000000
00000010
00000000
00000100
00000000
00001000
00000000
00010000
00000000
00001000
00010000
00001000
00000000
,
00011000
00000000
00001000
00100000
00110000
00000000
01000000
00010000
,
10010000
00000000
10000000
00000000
01000000
00000000
00010000
00000000
00001000
00010000
00001000
00010000
00001000
00000000
00010000
00000000
,
00022000
00000000
00000000
00000000
,
00000000
00033000
02200000
03300000
,
10010000
00000000
10000000
01000000
00000000
01000000
00010000
00000000
,
00010000
00001000
00000000
00001000
00000100
00000000
00000101
00000000
,
00001001
00000000
00000001
00000010
00000000
00000010
00001000
00000000
,
00001000
00010000
00000000
00010000
01000000
00000000
11000000
00000000
,
10010000
00000000
10000000
00100000
00000000
00010000
00001000
00000000
,
00010000
01000000
00000000
00100000
00001000
00000000
00011000
00000000
,
00101000
00000000
00010000
00000100
00001000
00000100
00000010
00000000
,
00000011
00000001
00000100
00000010
00001010
00001000
00000100
00000010
,
00002002
00000000
00000000
00000000
00000000
00000000
00000000
00000000
00003003
00000000
00000000
00000000
00000001
00001000
00000001
00001000
,
00000100
00000000
00000000
00000010
00000000
00000000
00001000
00000000
00000000
00010000
00000000
00000000
01000000
00000000
10000000
00000000
01000000
00000000
00200000
00000000
00000000
00000000
00000000
00000000
,
00310000
10000000
00100000
01000000
10000000
01000000
00100000
00010000
00001000
00000100
00000010
00000001
,
00000010
00000000
00000100
00000000
00000001
00000000
00001000
00000000
00000100
00000000
00000010
00000000
00000001
00000000
00000000
00001000
00000000
00000000
00000010
00000000
00000000
00001000
00000000
00000000
,
00000001
00000010
00000100
00000001
00000100
00000010
00001000
00010000
01000000
00100000
10000000
00100000
,
00010000
00000000
10000000
00000000
00100000
00000000
00010000
00000000
00001000
00000000
00010000
00000000
00100000
00000000
00000000
01000000
00000000
00000000
00010000
00000000
00000000
10000000
00000000
00000000
,
00100000
01000000
00010000
10000000
00000000
10000000
01000000
00010000
00001000
00010000
00000000
00010000
,
00001000
00000000
00000100
00000000
00000010
00000000
00001000
00000000
00000001
00000000
00000100
00000000
00000010
00000000
00000000
00000100
00000000
00000000
00001000
00000000
00000000
00010000
00000000
00000000
,
00001000
00010000
00100000
00010000
00001000
00000000
00100000
00010000
10000000
00010000
00100000
00000000
00001000
00010000
00000010
00010000
,
00001000
00000000
00010000
00000100
00001000
00000100
00000010
00000001
00001000
00000000
00000001
00001000
00000200
00000000
00000000
00000000
,
00001300
00000001
00000100
00001000
00010000
00001000
00010000
00100000
10000000
00010000
10000000
01000000
,
00010000
00000000
00001000
00000000
00000010
00000000
00000100
00000000
00000010
00000000
00000001
00000000
00001000
00000000
00000000
00000010
00000000
00000000
00010000
00000000
00000000
00001000
00000000
00000000
,
00010000
00001000
00000100
00000001
00000010
00000100
00010000
00001000
00010000
00100000
01000000
00010000
,
10000000
01000000
00100000
00010000
10000000
00000000
00100000
00000000
00010000
00000000
00001000
00000000
00000010
00000000
00000001
00000000
,
00000100
00000010
00001000
00000001
00000010
00001000
00010000
00001000
00000010
00000001
00001000
00000001
,
00000100
00000000
00000010
00000000
00000100
00000000
00001000
00000000
00010000
00000000
00100000
00000000
10000000
00000000
00000000
01000000
00000000
00000000
00100000
00000000
00000000
00010000
00000000
00000000
,
10000000
00100000
01000000
00010000
10000000
00000000
01000000
00100000
00010000
00100000
00001000
00010000
00001000
00000000
00010000
00000010
,
00001000
00000000
00000001
00000000
00000010
00000000
00000100
00000000
00001000
00000010
00000100
00000001
00001000
00000010
00010000
00000000
,
00021000
00000000
00001000
00000000
,
00031000
00000000
00010000
00000000
00100000
00000000
01000000
00010000
10000000
01000000
00100000
00001000
00010000
00000010
00001000
00000000
,
00002010
00000000
00000001
00000000
,
00003001
00000010
00001000
00010000
01000000
00100000
01000000
10000000
,
00010000
01000000
10000000
01000000
00010000
10000000
01000000
00010000
,
00001000
00010000
00001000
00000000
00000010
00000001
00000010
00000000
00000100
00001000
00000001
00000100
00000010
00001000
00000001
00000000
,
00000010
00000100
00000001
00000100
00001000
00000001
00000100
00001000
,
00010000
00000010
00001000
00002002
00000000
00000000
00003003
00000000
,
00000001
00000100
00000000
00000010
00010000
00011000
00000000
00010000
,
00001000
00010000
00100000
01000000
00001000
00010000
01000000
10000000
,
00010000
10000000
00000000
00010000
01000000
01100000
00000000
00001000
,
00010000
00001000
00000100
00000001
00000100
00000010
00001000
00000001
,
00000010
00000100
00000000
00010000
00001000
00011000
00000000
00001000
,
00010000
00001000
00000010
00001000
00010000
00001000
01000000
00001000
,
00010000
00001000
00000010
00000100
00001000
00010000
00100000
01000000
,
10000000
00100000
00010000
00001000
00000100
00000001
00000010
00000100
,
00002200
00000000
00000000
00000000
,
00003300
00000000
00000000
00000000
,
00000001
00000100
00001000
00010000
,
01000000
00000000
00000000
00000000
10000000
00000000
00000000
00000000
00100000
00000000
00000000
00000000
00010000
00000000
00001000
00010000
,
00000010
00001000
00000100
00000001
,
00000100
00001000
00000010
00010000
,
00022000
00000000
00033000
00001000
00100000
10000000
00100000
00001000
,
00010000
00000000
00000000
00000010
00000000
00000000
00001000
00000000
00000000
00000010
00000000
00000000
00000100
00000000
00000001
00000000
00001000
00000000
00000100
00000000
00000010
00000000
00000100
00000000
,
00001000
00000010
00000100
00001000
00010000
01000000
00100000
00010000
01000000
00100000
00010000
00001000
,
00010000
00000000
00001000
00000010
00000100
00000000
00001000
00000000
00000001
00000000
00000100
00001000
00020000
00000000
00000000
00000000
,
00031000
00000100
00000001
00001001
,
00001000
00000001
00000100
00000010
00000100
00001000
00010000
00100000
01000000
00100000
10000000
00010000
,
10000000
01000000
00100000
01000000
00010000
00001000
00000010
00000100
00000010
00000001
00001000
00000010
,
00000001
00000010
00000100
00001000
00010000
00100000
01000000
10000000
01000000
00010000
10000000
01000000
,
00100000
00000000
00001000
00010000
00000010
00010000
00011000
00000000
00000000
00010010
00000000
00000000
,
00000101
00001100
00002002
00003003
,
00000001
00001000
00000010
00000100
00001000
00010000
00100000
10000000
00010000
00100000
10000000
00100000
,
00010000
00000000
01000000
00100000
00010000
00000000
00001000
00000000
00000100
00000000
00000010
00010000
00001000
00000000
00000000
00000000
,
00022000
00000000
00000000
00033000
,
00002002
00000000
00000000
00003003
,
00000001
00000010
00000100
00001000
00010000
00001000
00000100
00000010
00000100
00001000
00010000
00100000
,
10000000
00000000
00100000
00000000
00010000
00000000
00001000
00000000
00010000
00000000
00100000
00000000
01000000
00000000
00000000
10000000
00000000
00000000
00010000
00000000
00000000
01000000
00000000
00000000
,
00010000
10000000
01000000
00100000
00010000
00001000
00010000
00100000
01000000
00100000
00010000
00001000
,
00000100
00000000
00001000
00000000
00010000
00000000
00001000
00000000
00000100
00000000
00000010
00000000
00000001
00000000
00000000
00001000
00000000
00000000
00000010
00000000
00000000
00000100
00000000
00000000
,
00000001
00000100
00001000
00010000
00100000
00010000
00001000
00000100
00000001
00000100
00001000
00010000
,
00100000
00000000
00010000
00000000
00001000
00000000
00010000
00000000
00100000
00000000
10000000
00000000
00010000
00000000
00000000
00100000
00000000
00000000
01000000
00000000
00000000
10000000
00000000
00000000
,
00010000
10000000
00010000
01000000
00001000
00000000
00010000
00000100
00001000
00000100
00010000
00000000
00000010
00001000
00000001
00000010
,
00000100
00000000
00001000
00000100
00000010
00000001
00000100
00000010
00002000
00000000
00000000
00000000
00003000
00000000
00000000
00000000
,
00001001
00001000
00000001
00000100
00001000
00010000
00000010
00010000
,
00100000
00000000
00010000
00000000
00001000
00000000
01000000
00000000
00010000
10000000
01000000
00000000
00100000
00010000
10000000
00000000
,
00010000
00000000
00100000
00000000
01000000
00000000
00010000
00000000
00001000
00000000
00000100
00000000
00000001
00001000
00000001
00000000
,
00001000
00000100
00000001
00001000
00000010
00000001
00001000
00000100
00000010
00000002
00000000
00000000
,
00001003
00000000
00000010
00000000
00000100
00000000
00001000
00000000
00010000
00000000
00001000
00000000
01000000
00010000
10000000
00000000
,
01000000
00000000
00010000
00000000
01000000
00000000
00100000
00010000
00100000
00001000
00010000
00001000
00100000
00010000
10000000
00000000
,
00010000
00100000
01000000
00010000
00001000
00000010
00000001
00000100
00000010
00001000
00000100
00000010
,
00000001
00001000
00000010
00001000
00000001
00000010
00000100
00001000
00000100
00010000
00001000
00100000
00010000
10000000
00100000
01000000
,
00020000
00000000
00000000
00000000
,
00000000
00000000
00000000
00030000
;
