#VERSION:0.83;
#TITLE:Groove Prayer;
#ARTIST:COSIO feat. ChouCho;
#BANNER:Groove Prayer.png;
#BACKGROUND:Groove Prayer-bg.png;
#CDTITLE:./CDTitles/GROOVE COASTER.png;
#MUSIC:Groove Prayer.ogg;
#SAMPLESTART:52.42;
#SAMPLELENGTH:15;
#BPMS:0=190;
#BGSTAGE:1;

//--------------- dance-single - Fred-104 ----------------
#NOTEDATA:;
#STEPSTYPE:dance-single;
#DESCRIPTION:Fred-104;
#DIFFICULTY:Beginner;
#METER:2;
#CREDIT:Fred-104;
#NOTES:
0000
0000
0000
0000
,
0000
0000
0000
0000
,
0000
0000
0000
0000
,
0000
0000
0000
0000
,
0000
0000
0000
0000
,
1000
0000
0000
0000
,
0000
0000
0000
0000
,
0001
0000
0000
0000
,
0000
0000
0000
0000
,
1000
0000
0000
0000
,
0000
0000
0000
0000
,
0001
0000
0000
0000
,
0000
0000
0000
0000
,
0100
0000
0000
0000
,
0000
0000
0000
0000
,
0001
0000
0000
0000
,
0000
0000
0000
0000
,
1000
0000
0000
0000
,
1000
0000
0000
0000
,
0001
0000
0000
0000
,
0001
0000
0000
0000
,
1000
0000
0000
0000
,
1000
0000
0000
0000
,
0001
0000
0000
0000
,
1000
0000
0000
0000
,
0001
0000
0000
0000
,
0010
0000
0000
0000
,
0010
0000
0000
0000
,
0100
0000
0000
0000
,
0100
0000
0000
0000
,
0100
0000
0000
0000
,
1000
0000
0000
0000
,
0001
0000
0000
0000
,
1000
0000
0000
0000
,
0000
0000
0000
0000
,
0001
0000
0000
0000
,
0000
0000
0000
0000
,
1000
0000
0000
0000
,
0000
0000
0000
0000
,
0001
0000
0000
0000
,
0000
0000
0000
0000
,
0000
0000
0000
0000
,
0001
0000
0000
0000
,
1000
0000
0000
0000
,
0001
0000
0000
0000
,
0001
0000
0000
0000
,
0100
0000
0000
0000
,
0100
0000
0000
0000
,
0010
0000
0000
0000
,
0100
0000
0000
0000
,
0001
0000
0000
0000
,
0000
0000
0000
0000
,
1000
0000
0000
0000
,
0000
0000
0000
0000
,
1000
0000
0000
0000
,
0000
0000
0000
0000
,
0001
0000
0000
0000
,
0000
0000
0000
0000
,
1000
0000
0000
0000
,
0000
0000
0000
0000
,
0001
0000
0000
0000
,
0000
0000
0000
0000
,
1000
0000
0000
0000
,
1000
0000
0000
0000
,
0001
0000
0000
0000
,
0001
0000
0000
0000
,
1000
0000
0000
0000
,
0001
0000
0000
0000
,
1000
0000
0000
0000
,
0001
0000
0000
0000
,
1000
0000
0000
0000
,
1000
0000
0000
0000
,
0001
0000
0000
0000
,
1000
0000
0000
0000
,
0001
0000
0000
0000
,
0000
0000
0000
0000
,
0100
0000
0000
0000
,
0000
0000
0000
0000
,
0001
0000
0000
0000
,
0000
0000
0000
0000
,
2002
0000
0000
0000
,
0000
0000
0000
0000
,
3003
0000
0000
0000
;

//--------------- dance-single - Fred-104 ----------------
#NOTEDATA:;
#STEPSTYPE:dance-single;
#DESCRIPTION:Fred-104;
#DIFFICULTY:Easy;
#METER:6;
#CREDIT:Fred-104;
#NOTES:
0000
0000
0000
0000
,
0000
0000
0000
0000
,
0000
0000
0000
0000
,
0000
0000
0000
0000
,
0000
0000
0000
0000
,
0001
0000
0001
0000
,
1000
0000
1000
0000
,
0010
0000
0010
0000
,
0100
0100
0100
0000
,
0002
0003
1000
0000
,
0100
0100
0010
0000
,
0002
0003
1000
0000
,
0010
0010
0100
0000
,
0020
0030
1000
0000
,
0100
0100
0010
0000
,
0002
0003
1000
0000
,
0001
0001
0001
0001
,
1001
0000
1000
0000
,
0001
0000
0010
0010
,
0200
0000
0000
0300
,
1000
1000
1000
0000
,
0001
0000
1000
0000
,
0002
0003
2000
3000
,
0001
0000
0100
0000
,
0010
0000
0100
0100
,
0100
0000
0100
0000
,
0001
0000
0001
0000
,
1000
0000
1000
0000
,
0100
0100
0100
0000
,
0010
0000
0001
0000
,
2000
3000
0002
0003
,
1000
0000
0001
0000
,
0100
0010
0100
0000
,
1001
0000
0001
0000
,
1000
0000
0100
0000
,
0010
0000
0010
0000
,
0001
0000
1000
1000
,
2000
0000
3001
0000
,
1000
0000
0001
0000
,
0100
0000
0000
0100
0000
0000
0100
0000
,
0000
0100
0000
2002
0000
0000
0000
0000
,
3003
0000
0000
0000
,
0001
0000
0000
0001
0000
0000
0001
0000
,
1000
0000
0001
0000
,
0100
0100
0010
0000
,
0100
0001
1000
0000
,
0100
0000
0000
0100
0000
0000
0100
0000
,
0010
0000
0001
0000
,
1000
0001
0100
0000
,
0010
0010
1000
1000
,
1001
0000
0001
0000
,
1000
0100
0010
0000
,
0002
0000
0003
0001
0000
0000
0001
0000
,
0100
0000
0100
0010
,
0100
0100
0100
0000
,
0001
1000
0001
0000
,
0020
0000
0030
0010
0000
0000
0010
0000
,
0100
0000
1000
0100
,
1000
0001
0100
0000
,
0010
0010
1000
0000
,
2000
0000
3000
1000
0000
0000
1000
0000
,
0001
0010
0100
0100
,
2000
0000
0000
3000
,
0001
0000
0000
1000
0000
0000
0001
0000
,
0100
0100
0100
0100
,
0010
0010
0110
0000
,
0001
0000
0000
1000
0000
0000
0001
0000
,
1000
0000
0100
0000
,
1000
1000
0001
0000
,
0100
0010
0100
0100
,
0010
0000
0000
1000
0000
0000
0010
0000
,
1000
0000
0100
0000
,
0010
0010
0001
0000
,
1000
1000
0001
1000
,
1001
0000
0000
0001
,
0000
0000
0001
0000
,
1001
0000
0000
1000
,
0000
0000
1000
0000
,
1001
0000
0000
0001
,
0000
0000
1000
1000
,
2002
0000
0000
0000
,
0000
0000
0000
0000
,
3003
0000
0000
0000
;

//--------------- dance-single - Fred-104 ----------------
#NOTEDATA:;
#STEPSTYPE:dance-single;
#DESCRIPTION:Fred-104;
#DIFFICULTY:Medium;
#METER:10;
#CREDIT:Fred-104;
#NOTES:
0000
0000
0000
0000
,
0000
0000
0000
0000
,
0000
0000
0000
0000
,
0000
0000
0000
0000
,
0000
0000
0000
0000
,
0010
0000
0000
0010
0000
0000
0010
0000
,
0100
0000
0000
0100
0000
0000
0100
0000
,
0010
0000
0000
0010
0000
0000
0010
0000
,
0100
0000
0100
0000
0100
0010
0100
0000
,
1001
0000
0000
0001
0000
0000
0020
0000
,
0030
0100
1000
0001
1000
0000
0100
0000
,
0110
0000
0000
0001
0000
0000
2000
0000
,
3000
0001
0100
0000
0010
0100
0001
0000
,
1001
0000
0000
1000
0000
0000
0002
0000
,
0003
0010
0100
0000
1000
0010
1000
0000
,
0110
0000
0000
0001
0000
0000
2000
0000
,
3100
0010
0100
0000
0010
0001
0010
0000
,
1001
0000
0001
0000
0010
0000
0100
0100
,
0000
0000
1000
0000
0001
0001
0000
0200
,
0000
0300
0010
0000
0100
0000
0001
1000
,
0100
0000
0001
0000
0100
1000
0000
0001
,
0000
1000
0000
0001
0100
0000
0010
0000
,
2000
3100
0002
0013
,
1000
0000
0100
0000
0010
0001
0010
0000
,
0011
0000
0011
0000
0001
1000
0001
0000
,
1000
0000
0100
0000
1000
0000
0010
0100
,
0000
0001
0000
1000
0100
0010
0000
0001
,
0010
0000
0001
0000
1000
0000
0001
0100
,
0010
0000
1000
0000
0001
0010
0100
1000
,
0000
0001
1000
0000
0010
0000
0100
0001
,
2000
3010
0002
0103
,
1000
0000
0001
0000
0010
0100
1000
0000
,
0001
0100
0001
0000
1000
0100
1000
0000
,
0001
0000
1001
0000
1000
0100
1000
0000
,
0001
0000
0100
0010
0100
0000
0001
0010
,
0100
0000
0000
1000
0000
0001
1000
0000
,
0001
2000
3020
0230
,
0302
0000
0000
0000
1003
0100
1000
0000
,
0001
0000
0100
0001
0000
0010
0001
0000
,
0010
0010
0000
0100
0100
0000
1000
1000
,
0000
0001
0000
2002
0000
0000
0000
0000
,
3003
0000
0000
0000
,
1001
0000
0001
1000
0000
0010
1000
0000
,
0001
0000
1000
0100
0000
0010
0001
0000
,
1000
0000
0010
0100
0000
0010
1000
0000
,
0001
0000
0010
0100
0000
0100
1000
0001
,
1000
0000
0001
0100
0000
0010
1000
0000
,
0100
0000
0010
0100
0000
1000
0001
0000
,
0100
0000
0001
1000
0000
0100
1000
0000
,
0001
0100
1000
0000
0001
0010
1000
0000
,
0001
0000
1001
0000
1000
0100
0000
0001
,
0000
0100
0000
1000
0001
0000
0100
0000
,
0110
0000
0000
0010
0000
0000
1000
0000
,
0001
0010
0100
0000
1000
0010
0100
0001
,
1000
0000
1001
0000
0001
0100
0000
1000
,
0000
0100
0000
0001
1000
0000
0100
0000
,
0110
0000
0000
0001
0000
1000
0001
0000
,
0100
0010
1000
0000
0100
0010
0001
0000
,
1000
0000
1001
0000
0001
1000
0000
0010
,
0000
1000
0000
0100
0010
0000
0001
1000
,
0010
0000
0000
0100
0000
0001
0100
0000
,
0001
0100
0010
0000
1000
0000
0100
0010
,
0001
1000
0001
0100
,
0010
0000
1000
0000
0100
1000
0001
0100
,
0010
0010
0100
0100
,
0001
1000
0001
1000
0100
0010
0001
0000
,
1001
0000
1000
0100
0000
0010
0001
0000
,
1000
0000
0001
0100
0000
0010
1000
0000
,
0001
0000
0010
0100
0000
0010
0001
0000
,
0100
0000
0010
0100
0000
0100
0001
1000
,
0100
0000
0010
0001
0000
1000
0010
0000
,
0100
0000
0001
0010
0000
0100
1000
0000
,
0001
0000
0100
0001
0000
1000
0001
0000
,
0110
0000
0110
0000
1000
0001
1000
0000
,
1100
0000
0000
1001
0000
0000
0101
0000
,
0000
1001
0000
0000
0001
0000
0010
0000
,
0011
0000
0000
1001
0000
0000
1010
0000
,
0000
1001
0000
0000
0001
0000
1000
0000
,
1010
0000
0000
0011
0000
0000
0101
0000
,
0000
1100
0000
0000
0100
0000
0010
0000
,
0200
0000
0000
0010
0000
0000
0000
0010
,
0000
0000
0000
0010
0000
0000
0000
0010
,
0300
0000
0000
0000
;

//--------------- dance-single - Fred-104 ----------------
#NOTEDATA:;
#STEPSTYPE:dance-single;
#DESCRIPTION:Fred-104;
#DIFFICULTY:Hard;
#METER:14;
#CREDIT:Fred-104;
#NOTES:
0000
0000
0000
0000
,
0000
0000
0000
0000
,
0000
0000
0000
0000
,
0000
0000
0000
0000
,
0000
0000
0000
0000
,
1000
0000
0001
0100
0000
0001
0010
0000
,
0001
0000
1000
0100
0000
0010
0001
0000
,
1000
0000
0010
0100
0000
0010
1000
0001
,
0010
0000
0100
0000
0010
0000
0100
0000
0010
0100
0010
0000
0100
0000
0000
0000
,
1001
0000
1000
0100
0000
0010
0002
0000
,
0003
0000
1000
0100
1000
0000
0001
0100
0001
0000
0000
0000
0110
0000
0000
0000
,
1001
0000
0001
0100
0000
0010
2000
0000
,
3000
0000
0100
0010
0100
0000
0010
0000
0001
1000
0001
0000
1000
0000
0001
0100
,
0001
0000
1000
0100
0000
0001
0200
0000
,
1300
0000
0001
0000
0100
0000
0010
0000
1000
0000
0100
0000
0010
0000
0001
1000
,
0001
0000
0100
1000
0000
0100
0002
0003
,
1000
0000
0100
0000
0010
0000
0001
0000
1000
0001
1000
0000
0001
0000
1000
0000
,
1001
0000
0001
0010
0100
0000
0100
1000
,
0001
0000
0100
0000
0010
1000
0001
1000
,
0200
0000
0010
0000
0310
0000
0001
1000
,
0020
0000
0230
0000
1300
0200
0000
0301
,
0000
1000
0100
0000
0010
0001
0100
0000
,
0102
0000
1003
0000
2100
0000
3001
2000
,
0010
0000
0001
0000
3100
0010
0001
1000
,
1010
0000
1010
0000
1000
0001
1001
0000
,
1000
0100
0010
0001
0100
0010
0100
0001
,
1000
0100
0001
0100
0010
0100
1000
0001
,
0100
0010
0100
1000
0100
0010
0100
0001
,
1000
0100
0001
0100
1000
0001
0100
0010
,
1000
0000
0001
0000
0010
0000
0100
0000
1000
0000
0001
0100
0001
0000
2000
0000
,
0100
0000
0001
0000
3100
1000
0001
0100
,
0020
0000
1000
0000
1030
0001
0010
0100
,
1000
0001
0010
1000
0001
0100
1000
0000
,
0001
0000
1001
0000
0001
0010
1000
0010
,
0100
0000
1000
0010
0100
1000
0100
0001
,
0010
0000
0110
0000
1000
0001
1000
0000
,
0001
0200
0010
0000
0001
0000
0310
0000
,
1000
0001
0010
0100
1000
0001
0100
0010
,
1000
0001
0010
0100
0001
1000
0010
0000
,
0001
0011
0000
1000
1010
0000
0001
1001
,
0000
1100
0000
0202
0000
0000
0000
0000
,
0303
0000
0000
0000
1000
1000
0000
1000
,
1001
0000
0001
0010
0000
0100
1000
0000
,
0001
0100
0010
1000
0100
0010
0100
1000
,
0001
0010
0100
0001
1000
0010
0100
1000
,
0001
0100
1000
0100
0010
0100
0001
1000
,
1001
0000
1000
0001
0000
0100
0010
0000
,
1000
0001
0010
0100
1000
0010
0100
0001
,
1000
0100
0010
0100
0001
1000
0010
0001
,
1000
0000
0010
0000
0001
0000
0010
0000
1000
0001
1000
0000
0001
0000
0000
0000
,
1000
0000
1100
0000
0001
0100
1000
0100
,
0010
1000
0010
0100
0001
1000
0100
0000
,
0110
0000
0001
1000
0100
0010
0001
1000
,
0010
0001
1000
0100
0010
1000
0001
0010
,
0100
0000
1001
0000
1000
0010
0001
0010
,
0100
1000
0100
0010
1000
0001
0010
0000
,
0001
1000
0010
0100
0001
0010
0100
1000
,
0001
0100
1000
0001
0010
0100
0001
1000
,
0100
0000
0110
0000
0001
1000
0010
0001
,
0010
0100
0010
1000
0001
0010
0001
0000
,
1000
0100
0010
0001
0100
0010
1000
0001
,
1000
0100
0001
1000
0010
0001
1000
0100
,
0010
0000
0001
1000
0100
0010
0100
0010
,
0001
1000
0010
0001
1000
0100
0010
0000
,
1100
0110
1100
0101
,
1000
0100
0010
0001
1000
0001
0100
0010
,
1010
0000
0001
1000
0100
0010
0001
0000
,
1000
0001
0100
1000
0001
0010
0100
0001
,
1000
0100
0010
1000
0010
0001
1000
0001
,
0100
0010
0001
0010
0100
0001
1000
0100
,
0110
0000
0001
1000
0010
0100
0001
0000
,
1000
0001
0100
1000
0001
0010
0100
0010
,
1000
0001
0010
1000
0010
0100
0010
0001
,
0011
0000
1001
0000
1000
0001
1001
0000
,
1100
0000
0000
0101
0000
0000
1010
0000
,
0000
0011
0000
0000
1000
0100
0010
0001
,
0011
0000
0000
1010
0000
0000
0101
0000
,
0000
1100
0000
0000
0001
1000
0010
0100
,
0101
0000
0000
1100
0000
0000
1010
0000
,
0000
0011
0000
0000
1000
0100
0010
0001
,
2000
0000
0000
0002
0003
0000
0000
0002
,
0003
0000
0000
0002
0003
0000
0000
0002
,
3003
0000
0000
0000
;

//--------------- dance-double - Fred-104 ----------------
#NOTEDATA:;
#STEPSTYPE:dance-double;
#DESCRIPTION:Fred-104;
#DIFFICULTY:Easy;
#METER:6;
#CREDIT:Fred-104;
#NOTES:
00000000
00000000
00000000
00000000
,
00000000
00000000
00000000
00000000
,
00000000
00000000
00000000
00000000
,
00000000
00000000
00000000
00000000
,
00000000
00000000
00000000
00000000
,
00010000
00000000
00001000
00000000
,
00010000
00000000
00000100
00000000
,
00010000
00000000
00000100
00000000
,
00001000
00001000
00001000
00000000
,
00000002
00000003
00000100
00000000
,
00001000
00010000
00001000
00000000
,
00020000
00030000
01000000
00000000
,
10000000
00010000
10000000
00000000
,
00020000
00030000
10000000
00000000
,
00100000
00010000
00001000
00000000
,
00020000
00030000
00001000
00000000
,
00000010
00001000
00010000
00001000
,
00011000
00000000
00001000
00000000
,
00010000
00000000
00100000
01000000
,
00200000
00000000
00000000
00300000
,
10000000
01000000
10000000
00000000
,
01000000
00000000
00100000
00000000
,
00002000
00003000
00020000
00030000
,
00001000
00000000
00010000
00000000
,
00000010
00000000
00010000
00000010
,
00010000
00000000
00000010
00000000
,
00001000
00000000
00000010
00000000
,
00000100
00000000
00000001
00000000
,
00000010
00000010
00000010
00000000
,
00000100
00000000
00010000
00000000
,
00002000
00003000
00020000
00030000
,
00001000
00000000
00010000
00000000
,
01000000
00100000
00010000
00000000
,
10010000
00000000
10000000
00000000
,
01000000
00000000
00100000
00000000
,
00001000
00000000
00010000
00000000
,
00001000
00000000
00010000
00010000
,
00020000
00000000
00031000
00000000
,
00010000
00000000
00001000
00000000
,
00010000
00000000
00000000
00001000
00000000
00000000
00000100
00000000
,
00000000
00000010
00000000
00000220
00000000
00000000
00000000
00000000
,
00000330
00000000
00000000
00000000
,
00010000
00000000
00000000
00001000
00000000
00000000
00010000
00000000
,
00001000
00000000
01000000
00000000
,
00010000
10000000
00010000
00000000
,
10000000
10000000
10000000
00000000
,
01000000
00000000
00000000
01000000
00000000
00000000
01000000
00000000
,
00100000
00000000
00001000
00000000
,
00010000
00001000
00010000
00000000
,
00000100
00000100
00001000
00001000
,
00001001
00000000
00000001
00000000
,
00000100
00000010
00000100
00000000
,
00002000
00000000
00003000
00010000
00000000
00000000
00001000
00000000
,
00010000
00000000
00001000
01000000
,
00010000
01000000
00010000
00000000
,
10000000
01000000
10000000
00000000
,
00200000
00000000
00300000
00100000
00000000
00000000
00100000
00000000
,
01000000
00000000
00100000
00010000
,
00001000
00010000
00001000
00000000
,
00010000
00000100
00010000
00000000
,
00002000
00000000
00003000
00010000
00000000
00000000
00001000
00000000
,
00010000
00001000
01000000
00010000
,
20000000
00000000
00000000
30000000
,
00010000
00000000
00000000
10000000
00000000
00000000
01000000
00000000
,
00100000
00100000
00001000
00001000
,
00010000
00010000
00011000
00000000
,
00010000
00000000
00000000
00001000
00000000
00000000
00010000
00000000
,
00001000
00000000
00000100
00000000
,
00000001
00000010
00000100
00000000
,
00010000
00001000
00010000
00010000
,
00001000
00000000
00000000
01000000
00000000
00000000
00010000
00000000
,
01000000
00000000
00100000
00000000
,
01000000
01000000
00100000
00000000
,
10000000
10000000
00010000
00010000
,
10010000
00000000
00000000
10000000
,
00000000
00000000
01000000
00000000
,
01100000
00000000
00000000
00001000
,
00000000
00000000
00010000
00000000
,
00011000
00000000
00000000
00001000
,
00000000
00000000
01000000
00010000
,
20020000
00000000
00000000
00000000
,
00000000
00000000
00000000
00000000
,
30030000
00000000
00000000
00000000
;

//--------------- dance-double - Fred-104 ----------------
#NOTEDATA:;
#STEPSTYPE:dance-double;
#DESCRIPTION:Fred-104;
#DIFFICULTY:Medium;
#METER:10;
#CREDIT:Fred-104;
#NOTES:
00000000
00000000
00000000
00000000
,
00000000
00000000
00000000
00000000
,
00000000
00000000
00000000
00000000
,
00000000
00000000
00000000
00000000
,
00000000
00000000
00000000
00000000
,
00001000
00000000
00000000
00001000
00000000
00000000
00010000
00000000
,
01000000
00000000
00000000
01000000
00000000
00000000
10000000
00000000
,
00100000
00000000
00000000
00010000
00000000
00000000
00001000
00000000
,
00010000
00000000
00010000
00000000
00010000
00001000
00010000
00000000
,
00011000
00000000
00000000
00001000
00000000
00000000
02000000
00000000
,
03000000
00010000
10000000
00000000
01000000
00100000
00001000
00000000
,
00011000
00000000
00000000
00010000
00000000
00000000
00000200
00000000
,
00000300
00001000
00000010
00000000
00000100
00000001
00001000
00000000
,
00001001
00000000
00000000
00000001
00000000
00000000
00000200
00000000
,
00000300
00001000
00010000
00000000
00001000
00100000
00001000
00000000
,
00011000
00000000
00000000
01000000
00000000
00000000
00002000
00000000
,
00013000
00001000
00000010
00000000
00001000
00010000
00001000
00000000
,
00011000
00000000
00010000
00000000
00001000
00000000
00100000
00100000
,
00000000
00000000
00010000
00000000
10000000
10000000
00000000
00200000
,
00000000
00300000
01000000
00000000
00010000
00000000
10000000
01000000
,
00010000
00000000
00001000
00000000
00010000
00001000
00000000
00000100
,
00000000
00000001
00000000
00000010
00000100
00000000
00010000
00000000
,
00002000
00013000
00200000
00310000
,
00001000
00000000
00010000
00000000
01000000
10000000
00010000
00000000
,
01100000
00000000
10010000
00000000
10000000
01000000
10000000
00000000
,
00010000
00000000
10000000
00000000
00010000
00000000
01000000
00001000
,
00000000
00010000
00000000
00001000
00000100
00000001
00000000
00000010
,
00000100
00000000
00001000
00000000
00000010
00000000
00000100
00001000
,
00010000
00000000
00001000
00000000
00010000
00100000
01000000
00010000
,
00000000
10000000
01000000
00000000
00100000
00000000
00001000
00010000
,
00002000
00013000
00200000
00310000
,
00001000
00000000
00010000
00000000
00001000
00000100
00000010
00000000
,
00001000
00000100
00000010
00000000
00000001
00000100
00000010
00000000
,
00001000
00000000
00001001
00000000
00000001
00000100
00000001
00000000
,
00000100
00000000
00001000
00010000
00001000
00000000
00010000
01000000
,
10000000
00000000
00000000
01000000
00000000
00100000
00001000
00000000
,
00010000
00002000
00003200
00002300
,
00023000
00000000
00000000
00000000
00031000
01000000
00001000
00000000
,
00010000
00000000
00001000
00000010
00000000
00001000
00010000
00000000
,
00001000
00010000
00000000
00100000
01000000
00000000
00010000
10000000
,
00000000
01000000
00000000
02200000
00000000
00000000
00000000
00000000
,
03300000
00000000
00000000
00000000
,
00011000
00000000
00010000
00001000
00000000
00010000
00001000
00000000
,
00000010
00000000
00000100
00000010
00000000
00000001
00001000
00000000
,
00000010
00000000
00000100
00001000
00000000
00010000
00001000
00000000
,
01000000
00000000
00010000
10000000
00000000
10000000
01000000
00100000
,
00001000
00000000
00010000
00001000
00000000
00100000
00001000
00000000
,
00010000
00000000
00001000
00010000
00000000
00100000
00010000
00000000
,
00001000
00000000
00010000
01000000
00000000
10000000
00010000
00000000
,
10000000
01000000
00010000
00000000
00001000
00000100
00000001
00000000
,
00001001
00000000
00000001
00000000
00000010
00000100
00000000
00010000
,
00000000
00001000
00000000
01000000
00001000
00000000
00010000
00000000
,
00011000
00000000
00000000
00001000
00000000
00000000
00010000
00000000
,
00001000
00100000
00010000
00000000
01000000
00010000
00100000
01000000
,
00100000
00000000
10010000
00000000
10000000
01000000
00000000
00010000
,
00000000
00001000
00000000
00010000
01000000
00000000
10000000
00000000
,
10010000
00000000
00000000
10000000
00000000
00100000
01000000
00000000
,
00100000
00010000
00001000
00000000
00010000
00001000
00010000
00000000
,
00001000
00000000
00011000
00000000
00010000
00001000
00000000
00000100
,
00000000
00000001
00000000
00001000
00000010
00000000
00000100
00000001
,
00001000
00000000
00000000
00000001
00000000
00000010
00000100
00000000
,
00010000
00001000
00010000
00000000
00001000
01000000
00001000
00000000
,
00010000
00001000
00000010
00001000
,
00010000
00000000
00001000
00000000
00010000
00100000
01000000
00100000
,
10000000
10000000
00010000
00010000
,
10000000
01000000
10000000
01000000
00100000
00010000
00100000
00001000
,
00010000
00000000
00001000
00010000
00000000
00000010
00001000
00000000
,
00000100
00000000
00010000
00001000
00000000
01000000
00001000
00000000
,
00100000
00000000
00010000
01000000
00000000
00001000
00010000
00000000
,
00000100
00000000
00001000
00000100
00000000
00000100
00000010
00000001
,
00001000
00000000
00000010
00000100
00000000
00001000
00010000
00000000
,
00001000
00000000
01000000
00010000
00000000
00100000
01000000
00000000
,
10000000
00000000
00100000
01000000
00000000
00100000
00010000
00000000
,
00011000
00000000
00011000
00000000
00010000
00001000
00000100
00000000
,
00000101
00000000
00000000
00001001
00000000
00000000
00001100
00000000
,
00000000
00010100
00000000
00000000
00010000
00001000
00010000
00000000
,
00010010
00000000
00000000
00011000
00000000
00000000
00101000
00000000
,
00000000
00110000
00000000
00000000
00010000
10000000
01000000
00000000
,
01100000
00000000
00000000
00011000
00000000
00000000
00000110
00000000
,
00000000
00001001
00000000
00000000
00001000
00000001
00000100
00000000
,
00002002
00000000
00000000
00000000
,
00000000
00000000
00000000
00000000
,
00003003
00000000
00000000
00000000
;

//--------------- dance-double - Fred-104 ----------------
#NOTEDATA:;
#STEPSTYPE:dance-double;
#DESCRIPTION:Fred-104;
#DIFFICULTY:Hard;
#METER:14;
#CREDIT:Fred-104;
#NOTES:
00000000
00000000
00000000
00000000
,
00000000
00000000
00000000
00000000
,
00000000
00000000
00000000
00000000
,
00000000
00000000
00000000
00000000
,
00000000
00000000
00000000
00000000
,
00010000
00000000
00001000
00010000
00000000
00000100
00001000
00000000
,
00000100
00000000
00000010
00000001
00000000
00000100
00001000
00000000
,
00010000
00000000
00100000
01000000
00000000
00010000
00100000
00000000
,
01000000
00000000
10000000
00000000
01000000
00000000
10000000
00000000
01000000
10000000
01000000
00000000
00100000
00000000
00000000
00000000
,
00011000
00000000
00010000
00001000
00000000
00000100
00000002
00000000
,
00000003
00000000
00000010
00000100
00000010
00000000
00000001
00000100
00000001
00000000
00000000
00000000
00001100
00000000
00000000
00000000
,
00011000
00000000
00001000
00010000
00000000
00100000
02000000
00000000
,
03000000
00000000
00010000
00100000
00010000
00000000
10000000
00000000
00100000
00000000
10000000
00000000
00010000
00000000
10000000
00000000
,
01000000
00000000
00100000
00001000
00000000
00000100
00000020
00000000
,
00001030
00000000
00000001
00000000
00000010
00000000
00000100
00000000
00001000
00000000
00000010
00000000
00000100
00000000
00001000
00010000
,
00001000
00010000
01000000
00100000
00000000
00010000
10000000
00100000
,
10000000
00000000
00100000
00000000
10000000
00000000
00010000
00000000
00100000
00001000
00100000
00000000
00001000
00000000
00010000
00001000
,
00010000
00000000
00001000
00000010
00001000
00000000
00010000
00001000
,
00010000
00000000
00001000
00000000
00010000
00001000
00000100
00000001
,
00000020
00000000
00000100
00000000
00000130
00010000
00001000
00010000
,
00200000
00000000
02300000
00000000
03010000
00100000
00000000
10000000
,
00000000
00100000
00010000
10000000
00100000
00010000
00001000
00000000
,
00011000
00000000
00000010
00000000
00011000
00000000
00100000
00002000
,
00010000
00000000
00000010
00000000
00013000
00001000
00010000
00100000
,
01000000
01100000
10010000
11000000
,
10000000
00010000
10000000
01000000
00100000
00001000
00010000
00000010
,
00001000
00000100
00010000
00001000
00000100
00000001
00000010
00000100
,
00001000
00000010
00000100
00001000
00010000
00100000
01000000
10000000
,
01000000
00010000
00100000
01000000
00010000
00001000
00010000
00000000
,
00001000
00010000
01000000
00100000
10000000
00100000
00010000
10000000
,
00200000
00000000
00010000
00000000
01000000
00000000
10300000
00010000
,
00200000
00000000
00001000
00000000
00301000
00010000
00001000
00000100
,
00000010
00001000
00000100
00000010
00001000
00010000
00001000
00000000
,
00010000
00000000
00011000
00000000
00010000
00000010
00000100
00001000
,
00010000
00000000
00001000
00010000
01000000
00100000
00010000
10000000
,
00100000
00000000
10010000
00000000
10000000
01000000
00010000
00000000
,
00001000
00020000
00000010
00000000
00001000
00000000
00030010
00000000
,
00001000
00000001
00000010
00000100
00001000
00000001
00000100
00001000
,
00010000
00000000
00001000
00010000
00000000
01000000
00100000
00010000
,
10000000
00100000
00000000
00010000
00001000
00000000
00000100
00000001
,
00000000
00000010
00001000
00022000
00000000
00000000
00000000
00000000
,
00033000
00000000
00000000
00000000
00001000
00001000
00000000
00010000
,
00011000
00000000
00001000
00010000
00000000
01000000
00100000
00000000
,
00010000
10000000
00100000
00010000
00001000
00000100
00000010
00010000
,
00001000
00010000
01000000
00100000
00010000
01000000
00100000
00010000
,
00001000
00000100
00000010
00001000
00000100
00000010
00000001
00001000
,
00001001
00000000
00000001
00000100
00000000
00001000
00010000
00000000
,
00001000
00010000
01000000
00100000
00010000
01000000
00100000
00010000
,
00001000
00000100
00000010
00010000
00001000
00010000
00100000
01000000
,
00010000
00100000
01000000
00010000
00001000
00000010
00000100
00010000
,
00001000
00000000
00011000
00000000
00001000
00010000
00000000
00010000
,
00001000
00010000
00100000
01000000
00100000
10000000
00010000
00000000
,
01100000
00000000
10000000
01000000
00000000
00010000
00001000
00010000
,
00000100
00000010
00000001
00001000
00000010
00000100
00001000
00010000
,
00001000
00000000
00011000
00000000
00010000
00001000
00000010
00000001
,
00001000
00000010
00000001
00000010
00001000
00000100
00000010
00001000
,
00010000
00000000
00001000
00010000
01000000
00100000
01000000
10000000
,
00100000
01000000
10000000
01000000
00010000
00001000
00000010
00000100
,
00000001
00000000
00000110
00000000
00001000
00000100
00000010
00001000
,
00010000
01000000
00100000
00010000
01000000
00100000
00010000
00001000
,
00010000
00000000
00001000
00010000
00001000
00000100
00000010
00000100
,
00001000
00000100
00000001
00001000
00000100
00000010
00001000
00010000
,
00001000
00000000
00010000
00100000
01000000
00100000
00010000
00100000
,
10000000
00010000
00100000
01000000
00010000
01000000
10000000
00000000
,
10100000
01010000
00101000
00010010
,
00010000
00001000
00000100
00000001
00001000
00000100
00000010
00000001
,
00000011
00000000
00001000
00000001
00000000
00000100
00001000
00000000
,
00010000
00001000
00010000
01000000
00010000
00001000
00010000
00100000
,
01000000
00010000
00100000
01000000
00010000
00001000
00000010
00000100
,
00001000
00010000
00100000
01000000
10000000
00010000
01000000
00100000
,
10100000
00000000
10000000
01000000
00000000
00100000
00001000
00000000
,
00010000
00001000
00000100
00001000
00010000
00001000
00000010
00000100
,
00000010
00000001
00001000
00000010
00000100
00001000
00010000
00001000
,
00011000
00000000
01100000
00000000
00010000
10000000
10010000
00000000
,
11000000
00000000
00000000
01010000
00000000
00000000
00011000
00000000
,
00000000
00001010
00000000
00000000
00000010
00000001
00001000
00000000
,
00000101
00000000
00000000
00001100
00000000
00000000
00011000
00000000
,
00000000
00110000
00000000
00000000
00100000
10000000
00010000
00000000
,
10100000
00000000
00000000
01010000
00000000
00000000
00011000
00000000
,
00000000
00010100
00000000
00000000
00010000
00001000
00010000
00001000
,
00020000
00000000
00000000
00002000
00003000
00000000
00000000
00002000
,
00003000
00000000
00000000
00002000
00003000
00000000
00000000
00002000
,
00033000
00000000
00000000
00000000
;
