#TITLE:Gotta Dance;
#ARTIST:NAOKI feat. Aleisha G;
#BANNER:Gotta Dance.png;
#BACKGROUND:Gotta Dance-bg.png;
#CDTITLE:./CDTitles/DDR X2.png;
#MUSIC:Gotta Dance.ogg;
#SAMPLESTART:66.21;
#SAMPLELENGTH:15;
#BPMS:0=145;
#STAGE:2;

//--------------- dance-single - Fred-104 ----------------
#NOTES:
     dance-single:
     Fred-104:
     Beginner:
     2:
     :
0000
0000
0000
0000
,
0000
0000
0000
0000
,
0000
0000
0000
0000
,
0000
0000
0000
0000
,
0000
0000
0000
0000
,
1000
0000
0000
0000
,
0000
0000
0000
0000
,
0001
0000
0000
0000
,
0000
0000
0000
0000
,
1000
0000
0001
0000
,
0100
0000
0010
0000
,
0100
0000
0001
0000
,
1000
0000
0001
0000
,
1000
0000
0001
0000
,
2000
0000
3000
0000
,
1000
0000
0000
0000
,
0001
0000
0000
0000
,
0100
0000
0000
0000
,
0001
0000
1000
0000
,
0001
0000
0000
0000
,
0010
0000
0000
0000
,
0100
0000
0100
0000
,
1000
0000
0001
0000
,
1000
0000
0001
0000
,
2000
0000
3000
0000
,
0001
0000
0100
0000
,
0020
0000
0030
0000
,
1000
0000
0010
0000
,
0200
0000
0300
0000
,
0001
0000
1000
0000
,
1001
0000
0000
0000
,
1000
0000
0001
0000
,
1000
0000
0000
0000
,
0010
0000
1000
0000
,
0001
0000
0000
0000
,
1000
0000
0001
0000
,
1000
0000
0010
0000
,
0100
0000
0001
0000
,
1000
0000
0001
0000
,
1001
0000
0000
0000
,
1000
0000
1000
0000
,
0001
0000
0001
0000
,
0100
0000
0010
0000
,
0100
0000
0100
0000
,
0001
0000
1000
0000
,
0001
0000
1000
0000
,
1000
0000
0001
0000
,
1001
0000
0000
0000
,
0001
0000
0000
0000
,
1000
0000
0000
0000
,
0100
0000
0000
0000
,
1000
0000
0001
0000
,
1000
0000
0000
0000
,
0010
0000
0000
0000
,
0100
0000
0100
0000
,
0001
0000
1000
0000
,
2002
0000
0000
0000
,
0000
0000
3003
0000
;

//--------------- dance-single - Fred-104 ----------------
#NOTES:
     dance-single:
     Fred-104:
     Easy:
     4:
     :
0000
0000
0000
0000
,
0000
0000
0000
0000
,
0000
0000
0000
0000
,
0000
0000
0000
0000
,
0000
0000
0000
0000
,
1001
0000
0001
0000
,
1000
0000
0010
0100
,
0010
0000
1000
0000
,
0001
1000
0100
1000
,
1001
0000
0001
0000
,
1000
0000
0010
0100
,
0001
0000
1000
0000
,
0002
0023
0230
2300
,
3001
0100
0010
0100
,
0002
0000
0000
0003
,
1000
0010
0100
0000
,
0010
1000
0100
0000
,
0010
0001
1000
0000
,
0001
1000
0001
0001
,
0100
0010
0100
0000
,
0001
1000
0010
0000
,
0100
0001
1000
0000
,
0001
0000
0000
1000
0000
0000
0001
0000
,
1000
0010
0100
0000
,
0001
1000
0001
0000
,
0100
0001
0010
0000
,
0100
1000
0001
1000
,
0001
0010
0100
0000
,
1000
0010
0100
0000
,
0010
1000
0001
1000
,
0001
0000
0000
0100
0000
0000
0001
0000
,
2001
0000
3010
0100
,
0002
0000
0013
0001
,
2000
0000
3001
1000
,
0010
0100
0001
1000
,
0001
0000
0000
0001
0000
0000
0100
0000
,
0010
0000
0000
0010
0000
0000
1000
0000
,
0001
0001
0100
0010
,
2000
0000
0002
0000
,
3003
0000
0000
0000
,
1001
0000
1000
0000
,
0001
0000
0100
0010
,
1000
0000
0001
0000
,
0010
0100
0010
0001
,
1001
0000
1000
0000
,
0010
0000
0100
0001
,
0010
0000
0001
1000
,
0002
0000
2000
3003
,
0001
0010
0100
0000
,
0010
0001
0100
0000
,
0010
1000
0001
0000
,
1000
0001
1000
1000
,
0100
0010
0100
0000
,
1000
0001
0010
0000
,
0100
1000
0001
0000
,
1000
0000
0000
0001
0000
0000
1000
0000
,
2002
0000
0000
0000
,
0000
0000
3003
0000
;

//--------------- dance-single - Fred-104 ----------------
#NOTES:
     dance-single:
     Fred-104:
     Medium:
     7:
     :
0000
0000
0000
0000
,
0000
0000
0000
0000
,
0000
0000
0000
0000
,
0000
0000
0000
0000
,
0000
0000
0000
0000
,
1001
0000
0001
0000
,
1000
0100
0010
0001
,
1000
0000
0010
0000
,
0100
0000
0001
0000
1000
0001
1000
0000
,
1001
0000
0000
1000
0010
0000
0000
0010
,
0100
0000
0000
0100
0001
0000
0010
0000
,
0100
0000
0000
0100
1000
0000
0000
1000
,
0002
0203
0320
2030
,
3001
0000
0010
0000
0100
1000
0100
0000
,
2002
0000
0000
3003
,
1000
0000
0000
0000
0010
0000
0000
0000
0100
0000
0000
0100
0000
0000
0100
0000
,
0001
1000
0001
0010
,
0100
0000
0000
0000
0010
0000
0000
0000
0001
0000
0000
0001
0000
0000
0001
0000
,
1000
0000
0000
0000
0010
0000
0000
0000
0100
0000
0000
0100
0000
0000
0100
0000
,
0001
0000
0000
0000
1000
0000
0000
0000
0010
0000
0000
1000
0000
0000
0010
0000
,
0100
0001
0010
0100
,
1000
0000
0000
0000
0001
0000
0000
0000
1000
0000
0000
0100
0000
0000
1000
0000
,
0001
0000
0000
0001
0000
0000
1000
0000
0000
1000
0000
0000
0001
0000
0100
0000
,
0002
0000
0100
0000
0103
0000
0010
1000
,
0020
0000
1000
0000
1030
0000
0100
1000
,
0200
0000
1000
0000
1300
0000
0001
1000
,
0001
0000
0100
0000
0010
1000
0010
0000
,
2000
0000
0100
0000
3100
0000
1000
0001
,
0020
0000
0001
0000
0031
0000
0100
0010
,
0200
0000
0001
0000
1300
0001
1000
0000
,
0001
0001
0000
0100
0000
0010
1010
0000
,
1000
0100
1000
0100
0000
0000
0110
0000
,
0001
0100
0001
0100
0000
0000
0110
0000
,
1000
0010
1000
0100
0000
0010
0000
0001
,
0000
0000
1000
0000
0001
0000
0000
0000
0100
0000
0000
0100
0000
0000
0100
0000
,
0001
0000
0010
0001
0000
1000
0001
0000
,
1000
0000
0010
0100
0000
0010
1000
0000
,
0002
0203
0320
2030
,
3002
0000
2000
0000
,
3003
0000
0000
0000
,
1001
0000
0000
1000
0100
0000
0000
0100
,
0010
0000
0000
0010
0001
0000
1000
0000
,
0001
0000
0000
0001
0010
0000
0000
0010
,
0100
0000
1000
0000
0001
0100
0010
0000
,
0110
0000
0000
0100
0010
0000
0000
0010
,
1000
0000
0000
1000
0100
0000
1000
0000
,
0001
0100
0010
0100
,
0002
0203
2300
3020
,
0031
0000
0000
0000
0010
0000
0000
0000
0100
0000
0000
0100
0000
0000
0100
0000
,
1000
0001
1000
0010
,
0100
0000
0000
0000
0010
0000
0000
0000
1000
0000
0000
1000
0000
0000
1000
0000
,
0001
0000
0000
0000
0010
0000
0000
0000
0100
0000
0000
0100
0000
0000
0100
0000
,
1000
0000
0000
0000
0001
0000
0000
0000
0010
0000
0000
0001
0000
0000
0010
0000
,
0100
1000
0010
0100
,
0001
0000
0000
0000
1000
0000
0000
0000
0001
0000
0000
0100
0000
0000
0001
0000
,
1000
0000
0000
1000
0000
0000
0001
0000
0000
0001
0000
0000
1000
0000
0100
0000
,
1000
0000
0000
0000
;

//--------------- dance-single - Fred-104 ----------------
#NOTES:
     dance-single:
     Fred-104:
     Hard:
     11:
     :
0000
0000
0000
0000
,
0000
0000
0000
0000
,
0000
0000
0000
0000
,
0000
0000
0000
0000
,
0000
0000
0000
0000
,
1020
0000
0230
0000
,
0302
0000
0023
0230
,
2300
0000
3002
0000
,
0103
0000
0010
0000
1000
0001
1000
0000
,
1100
0000
0000
0000
0000
0000
0010
0100
0010
0000
0000
0000
0000
0000
1000
0100
,
1000
0000
0000
0000
0000
0000
0001
0100
0001
0000
0010
0000
0100
0000
1000
0000
,
1001
0000
0000
0000
0000
0000
0100
0010
0100
0000
0000
0000
0000
0000
0010
0001
,
0020
0032
2003
3002
,
1003
0000
0100
0000
0010
0000
0001
0000
0010
0000
0100
0000
1000
0010
1000
0010
,
0200
0000
0020
0330
,
1000
0000
0010
0000
0100
0000
0010
0000
1000
0000
0001
0010
0000
0100
0010
0000
,
0001
0000
1000
0000
0010
0000
0100
0000
0001
0000
0000
0010
0000
0000
0100
0000
,
1000
0000
0001
0000
0010
0000
0001
0000
0100
0000
0001
0100
0000
0010
0100
0000
,
0001
0000
1000
0000
0100
0000
0000
0000
1100
0000
0000
0110
0000
0000
1100
0000
,
1000
0000
0010
0000
0100
0000
0001
0000
0010
0000
0100
0010
0000
0001
1000
0000
,
0001
0000
0100
0000
0010
0000
0100
0000
0001
0000
0000
1000
0000
0000
0100
0000
,
0010
0000
0001
0000
0100
0000
0001
0000
0010
0000
0100
1000
0000
0010
1000
0000
,
0001
0000
0000
0011
0000
0000
1000
0000
0000
1010
0000
0000
0001
0000
0100
0010
,
0100
0001
0010
0002
0000
0203
0000
0320
,
0000
2030
0000
3200
0000
0310
0001
1000
,
0002
0000
0100
0203
0000
0320
0000
2030
,
0001
0100
0010
3100
,
0001
0010
0100
2000
0000
3020
0000
0230
,
0000
0301
1000
0020
0000
1030
0100
0010
,
0001
0000
0100
0100
0000
0010
0000
1000
,
1000
1010
0000
0101
0000
0100
0110
0000
,
0001
0100
1000
0200
0000
0300
0101
0000
,
1000
0100
0001
0200
0000
0300
1100
0000
,
0001
0100
0010
0200
0000
0010
0000
1300
,
0000
0000
0001
0000
1000
0000
0000
0000
1001
0000
0000
0001
0100
0000
0010
1000
,
0010
1000
0100
0010
0000
0001
1000
0001
,
0010
0100
0010
0001
0000
0100
1000
0100
,
0001
0000
1000
0000
0001
0010
0100
1000
,
0001
0100
0010
0100
0001
1000
0100
0010
,
0002
0000
2000
3003
,
1100
0000
0000
0000
0000
0000
0001
0100
0001
0000
0000
0000
0000
0000
1000
0010
,
1000
0000
0000
0000
0000
0000
0001
1000
0001
0000
0100
0000
0010
0000
0100
0000
,
0101
0000
0000
0000
0000
0000
0100
0010
0100
0000
0000
0000
0000
0000
0010
1000
,
0010
0100
0001
1000
0001
0000
0101
0000
,
0110
0000
0000
0000
0000
0000
1000
0100
1000
0000
0000
0000
0000
0000
0010
1000
,
0010
0000
0000
0000
0000
0000
0100
0001
0100
0000
0001
0000
0010
0000
0001
0000
,
1000
0100
0010
0001
0010
0100
1000
0001
,
0200
0010
1300
1001
,
0001
0000
0010
0000
0100
0000
0010
0000
0001
0000
1000
0010
0000
0100
0010
0000
,
1000
0000
0001
0000
0010
0000
0100
0000
1000
0000
0000
0010
0000
0000
0100
0000
,
0001
0000
1000
0000
0010
0000
1000
0000
0100
0000
1000
0100
0000
0010
0100
0000
,
1000
0000
0001
0000
0100
0000
0000
0000
0101
0000
0000
0110
0000
0000
0101
0000
,
0001
0000
0010
0000
0100
0000
1000
0000
0010
0000
0100
0010
0000
1000
0001
0000
,
1000
0000
0100
0000
0010
0000
0100
0000
1000
0000
0000
0001
0000
0000
0100
0000
,
0010
0000
1000
0000
0100
0000
1000
0000
0010
0000
0100
0001
0000
0010
0001
0000
,
1000
0000
0000
1010
0000
0000
0001
0000
0000
0011
0000
0000
1000
0000
0100
0010
,
0200
0000
0000
0000
,
0000
0000
0300
0000
;

//--------------- dance-single - Fred-104 ----------------
#NOTES:
     dance-single:
     Fred-104:
     Challenge:
     14:
     :
0000
0000
0000
0000
,
0000
0000
0000
0000
,
0000
0000
0000
0000
,
0000
0000
0000
0000
,
0000
0000
0000
0000
,
2001
0000
0000
0000
0000
0000
3001
0010
0002
0000
0000
0000
0000
0000
1003
0010
,
2000
0000
0000
0000
0000
0000
3001
0100
0010
0000
1000
0000
0100
0000
0010
0000
,
0012
0000
0000
0000
0000
0000
1003
0100
0020
0000
0000
0000
0000
0000
0031
0100
,
0010
0000
1000
0000
0001
0000
0100
0000
0010
0000
1000
0001
1000
0000
0000
0000
,
1001
0000
0000
0000
0001
0000
0100
1000
0200
0000
0000
0000
0301
0000
0010
1000
,
0020
0000
0000
0000
0031
0000
1000
0010
0100
0000
0001
1000
0100
0000
0010
0000
,
0011
0000
0000
0000
0001
0000
0100
0010
2000
0000
0000
0000
3010
0000
0100
0001
,
2000
3020
0032
0203
,
1300
0000
0001
0000
0100
0000
0010
0000
1000
0100
0010
0001
1000
0010
0100
0001
,
2000
0000
0002
3003
,
1000
0000
0010
0000
1000
0010
0100
0000
0001
0000
0100
0010
0000
0100
0001
0000
,
1000
0000
0010
0000
0001
0010
0001
0010
0100
0000
0000
0011
0000
0000
0110
0000
,
0100
0000
1000
0000
0001
1000
0010
0000
0100
0000
0001
1000
0000
0001
0010
0000
,
0100
1000
0010
0000
0110
0000
0000
0000
0101
0000
0000
0110
0000
0000
1010
0000
,
1000
0000
0001
0000
1000
0010
0100
0000
1000
0000
0100
0001
0000
1000
0010
0000
,
0100
0000
0001
0000
0010
0100
1000
0001
1000
0000
0000
1010
0000
0000
0110
0000
,
0100
0000
0001
0000
0010
0001
1000
0000
0010
0000
0001
0010
0000
0100
0001
0000
,
0010
0000
0100
1000
0000
0001
1000
0000
0000
0100
0000
1000
0001
0000
1000
0001
,
0100
0010
2000
0000
3100
0010
0002
0000
,
1003
0000
0010
0000
0200
0000
0010
0000
0310
0000
1000
0001
0100
0000
0000
0000
,
0001
0100
2000
0000
3001
0010
2000
0000
,
3001
0000
0100
0000
0020
0000
1000
0000
1030
0000
0001
0100
0010
0000
0000
0000
,
1000
0100
0001
0100
0000
1100
0000
0001
,
0100
0010
1000
0001
0000
0010
1000
0010
,
0011
0000
0001
0100
0000
0110
0000
1000
,
1100
0101
0000
1010
0000
0011
1001
0000
,
0001
0100
0010
2000
0000
0100
3100
0000
,
1000
0100
0010
0002
0000
0100
0103
0000
,
0001
0010
0200
0001
0000
1300
0010
0100
,
1000
0000
0001
0000
0101
0000
0000
0000
0001
0000
0000
0100
0010
0000
0100
0000
,
0001
0000
0010
0000
0100
0000
2000
0000
0000
0000
3010
0100
1000
0000
0100
0001
,
1000
0000
0010
0000
0100
0000
0002
0000
0000
0000
0013
0100
0001
0000
0100
1000
,
0001
0010
0100
1000
0001
0100
0010
0100
,
0001
0100
0001
0100
0001
0010
0100
1000
0002
0000
0000
0000
0000
0000
0000
0000
,
2000
0000
0000
3003
,
1100
0000
0000
0000
1000
0000
0100
0010
0002
0000
0000
0000
1003
0000
0010
0100
,
0002
0000
0000
0000
1003
0000
0001
0100
0010
0000
1000
0100
0001
0000
0100
0000
,
1100
0000
0000
0000
0001
0000
0100
0010
2000
0000
0000
0000
3001
0000
0010
0100
,
1000
0001
0200
0010
0010
0000
1300
0000
,
1010
0000
0000
0000
1000
0000
0001
0100
0020
0000
0000
0000
1030
0000
0001
0010
,
0200
0000
0000
0000
1300
0000
0001
0100
1000
0000
0100
0001
0010
0000
0100
0000
,
1100
0000
0000
0000
1000
0000
0010
0100
0001
0000
1000
0100
0010
0000
0001
0000
,
1000
0000
0100
0000
0100
0000
1000
0010
0100
0000
0001
1000
0001
0000
1000
0000
,
0001
0000
0010
0000
0001
0010
0100
0000
1000
0000
0100
0010
0000
0100
1000
0000
,
0001
0000
0010
0000
1000
0010
1000
0010
0100
0000
0000
1010
0000
0000
0110
0000
,
0100
0000
0001
0000
1000
0001
0010
0000
0100
0000
1000
0001
0000
1000
0010
0000
,
0100
0001
0010
0000
0110
0000
0000
0000
1100
0000
0000
0110
0000
0000
0011
0000
,
0001
0000
1000
0000
0001
0010
0100
0000
0001
0000
0100
1000
0000
0001
0010
0000
,
0100
0000
1000
0000
0010
0100
0001
1000
0001
0000
0000
0011
0000
0000
0110
0000
,
0100
0000
1000
0000
0010
1000
0001
0000
0010
0000
1000
0010
0000
0100
1000
0000
,
0010
0000
0100
0001
0000
1000
0001
0000
0000
0100
0000
1000
0100
0000
0001
1000
,
0020
0000
0000
0000
,
0000
0000
0030
0000
;

//--------------- dance-double - Fred-104 ----------------
#NOTES:
     dance-double:
     Fred-104:
     Easy:
     5:
     :
00000000
00000000
00000000
00000000
,
00000000
00000000
00000000
00000000
,
00000000
00000000
00000000
00000000
,
00000000
00000000
00000000
00000000
,
00000000
00000000
00000000
00000000
,
00011000
00000000
00001000
00000000
,
00010000
00000000
01000000
10000000
,
01000000
00000000
10000000
00000000
,
00010000
01000000
00001000
00010000
,
00011000
00000000
00001000
00000000
,
00010000
00000000
00000010
00001000
,
00000010
00000000
00000100
00000000
,
00000002
00000203
00000320
00002030
,
00003001
00000001
00001000
00001000
,
00000020
00000000
00000000
00000030
,
00010000
00001000
00010000
00000000
,
00001000
00100000
00010000
00000000
,
01000000
00100000
01000000
00000000
,
00010000
10000000
00010000
00010000
,
10000000
01000000
00100000
00000000
,
00001000
00010000
00001000
00000000
,
00000010
00000100
00000010
00000000
,
00001000
00000000
00000000
00000001
00000000
00000000
00001000
00000000
,
00000001
00000010
00000100
00000000
,
00010000
00001000
00010000
00000000
,
00001000
00100000
00010000
00000000
,
01000000
00100000
01000000
00100000
,
10000000
01000000
00100000
00000000
,
00010000
01000000
00100000
00000000
,
10000000
01000000
00100000
00010000
,
00100000
00000000
00000000
00001000
00000000
00000000
00010000
00000000
,
00012000
00000000
00103000
00010000
,
02000000
00000000
03001000
00010000
,
00002000
00000000
00103000
00001000
,
00010000
00000010
00001000
00001000
,
00000001
00000000
00000000
00000100
00000000
00000000
00001000
00000000
,
00010000
00000000
00000000
01000000
00000000
00000000
10000000
00000000
,
00010000
10000000
01000000
00100000
,
00002000
00000000
00020000
00000000
,
00033000
00000000
00000000
00000000
,
00011000
00000000
01000000
00000000
,
00001000
00000000
00010000
00000100
,
00001000
00000000
00000010
00000000
,
00010000
00001000
00100000
00010000
,
10010000
00000000
10000000
00000000
,
01000000
00000000
00100000
00001000
,
00010000
00000000
00000010
00010000
,
00002000
00000000
00020000
00033000
,
00001000
00010000
00001000
00000000
,
00010000
00000010
00001000
00000000
,
00000100
00000010
00000100
00000000
,
00001000
00000001
00001000
00001000
,
00000001
00000100
00000010
00000000
,
00010000
00001000
00010000
00000000
,
00100000
01000000
00100000
00000000
,
00010000
00000000
00000000
10000000
00000000
00000000
00010000
00000000
,
20020000
00000000
00000000
00000000
,
00000000
00000000
30030000
00000000
;

//--------------- dance-double - Fred-104 ----------------
#NOTES:
     dance-double:
     Fred-104:
     Medium:
     8:
     :
00000000
00000000
00000000
00000000
,
00000000
00000000
00000000
00000000
,
00000000
00000000
00000000
00000000
,
00000000
00000000
00000000
00000000
,
00000000
00000000
00000000
00000000
,
10020000
00000000
20030000
00000000
,
31000000
00100000
00001000
00010000
,
00000020
00000000
00002030
00000000
,
00003001
00000000
00000100
00000000
00001000
00000100
00000001
00000000
,
00001001
00000000
00000000
00000001
00000100
00000000
00000000
00000100
,
00000010
00000000
00000000
00000010
00010000
00000000
00001000
00000000
,
00100000
00000000
00000000
00100000
00010000
00000000
00000000
00010000
,
20000000
32000000
03200000
00302000
,
00013000
00000000
00001000
00000000
00010000
00001000
00010000
00000000
,
00022000
00000000
00000000
00033000
,
00010000
00000000
00000000
00000000
00000010
00000000
00000000
00000000
00001000
00000000
00000000
00001000
00000000
00000000
00000010
00000000
,
00000100
00000001
00000010
00000100
,
00001000
00000000
00000000
00000000
00000010
00000000
00000000
00000000
00000100
00000000
00000000
00000100
00000000
00000000
00000001
00000000
,
00001000
00000000
00000000
00000000
00000010
00000000
00000000
00000000
00010000
00000000
00000000
00010000
00000000
00000000
00010000
00000000
,
00001000
00000000
00000000
00000000
00100000
00000000
00000000
00000000
00010000
00000000
00000000
10000000
00000000
00000000
00010000
00000000
,
01000000
00100000
01000000
00010000
,
10000000
00000000
00000000
00000000
01000000
00000000
00000000
00000000
00100000
00000000
00000000
00001000
00000000
00000000
00010000
00000000
,
00001000
00000000
00000000
00001000
00000000
00000000
00010000
00000000
00000000
00010000
00000000
00000000
00001000
00000000
00010000
00000000
,
00000010
00001000
00000100
00000000
,
00000010
00000001
00000100
00001000
,
00010000
01000000
10000000
00000000
,
00010000
00000000
10000000
00000000
00010000
01000000
00100000
00000000
,
10000000
00100000
00010000
00000000
,
00001000
00000010
00000001
00000100
,
00001000
00000000
00010000
00001000
00000000
00010000
00000000
00001000
,
00100000
00100000
00000000
00010000
00000000
10000000
10010000
00000000
,
10000000
01000000
00100000
00020000
00000000
00000000
01030000
00000000
,
00001000
00010000
00000010
00002000
00000000
00000000
00003100
00000000
,
00010000
00000100
00001000
00000001
00000000
00000100
00000000
00000010
,
00000000
00000000
00001000
00000000
00001000
00000000
00000000
00000000
00000001
00000000
00000000
00000100
00000000
00000000
00000010
00000000
,
00001000
00000100
00000010
00000100
00000000
00010000
00001000
00000000
,
00100000
00010000
01000000
00010000
00000000
00100000
00010000
00000000
,
02000000
03200000
20300000
32000000
,
03100000
00000000
00001000
00010000
00001000
00000000
00010000
00000000
,
00022000
00000000
00000000
00033000
,
00011000
00000000
00000000
00010000
00000010
00000000
00000000
00000010
,
00001000
00000000
00000000
00001000
00000001
00000000
00000100
00000000
,
00000010
00000000
00000000
00000010
00010000
00000000
00000000
00010000
,
00001000
00000000
00100000
00000000
00010000
10000000
01000000
00000000
,
01100000
00000000
00000000
00100000
00010000
00000000
00000000
00010000
,
10000000
00000000
00000000
10000000
00010000
00000000
01000000
00000000
,
00001000
00000000
00010000
00000100
00010000
00000000
00001000
00010000
,
00000020
00020030
00031000
00011000
,
00001000
00000000
00000000
00000000
00100000
00000000
00000000
00000000
00010000
00000000
00000000
00010000
00000000
00000000
00100000
00000000
,
01000000
10000000
00100000
01000000
,
00010000
00000000
00000000
00000000
00100000
00000000
00000000
00000000
01000000
00000000
00000000
01000000
00000000
00000000
10000000
00000000
,
00010000
00000000
00000000
00000000
00100000
00000000
00000000
00000000
00001000
00000000
00000000
00001000
00000000
00000000
00001000
00000000
,
00010000
00000000
00000000
00000000
00000010
00000000
00000000
00000000
00001000
00000000
00000000
00000001
00000000
00000000
00001000
00000000
,
00000100
00000010
00000100
00001000
,
00000001
00000000
00000000
00000000
00000100
00000000
00000000
00000000
00000010
00000000
00000000
00010000
00000000
00000000
00001000
00000000
,
00010000
00000000
00000000
00010000
00000000
00000000
00001000
00000000
00000000
00001000
00000000
00000000
00010000
00000000
00001000
00000000
,
00022000
00000000
00000000
00000000
,
00000000
00000000
00033000
00000000
;

//--------------- dance-double - Fred-104 ----------------
#NOTES:
     dance-double:
     Fred-104:
     Hard:
     12:
     :
00000000
00000000
00000000
00000000
,
00000000
00000000
00000000
00000000
,
00000000
00000000
00000000
00000000
,
00000000
00000000
00000000
00000000
,
00000000
00000000
00000000
00000000
,
00001001
00000000
00000000
00000000
00000000
00000000
00000001
00000100
00000001
00000000
00000000
00000000
00000000
00000000
00001000
00000010
,
00001000
00000000
00000000
00000000
00000000
00000000
00000010
00010000
00000010
00000000
00010000
00000000
00001000
00000000
00000000
00000000
,
00101000
00000000
00000000
00000000
00000000
00000000
00010000
10000000
00010000
00000000
00000000
00000000
00000000
00000000
01000000
00100000
,
01000000
00000000
00010000
00000000
10000000
00000000
00100000
00000000
00010000
00000000
00001000
00010000
00001000
00000000
00000000
00000000
,
00020000
00000000
00031000
00000100
00000020
00000000
00001030
00000100
,
00020000
00000000
00031000
00100000
00010000
10000000
00010000
01000000
,
00200000
00000000
10300000
01000000
00020000
00000000
00031000
00000100
,
00000002
00000000
00002003
00000000
00003010
00000100
00000002
00000000
,
00001003
00000000
00000100
00000000
00010000
00000000
00001000
00000000
00100000
00000000
00001000
00000000
00010000
00000010
00010000
00000010
,
00002000
00000000
00000000
00003000
,
00001000
00000000
00000100
00000000
00010000
00000000
00001000
00000000
01000000
00000000
00010000
00100000
00000000
00010000
10000000
00000000
,
00010000
00000000
01000000
00000000
00100000
00000000
10000000
00000000
02000000
00000000
00000000
10000000
00000000
00000000
03100000
00000000
,
01000000
00000000
00010000
00000000
10000000
00000000
01000000
00000000
00100000
00000000
00001000
00010000
00000000
00001000
01000000
00000000
,
00001000
00000000
00000000
00000000
00011000
00000000
00000000
00000000
00010010
00000000
00000000
00001010
00000000
00000000
00000010
00000000
,
00000100
00000000
00000001
00000000
00001000
00000000
00000100
00000000
00000010
00000000
00000100
00001000
00000000
00000001
00001000
00000000
,
00000010
00000000
00010000
00000000
00001000
00000000
00010000
00000000
00000200
00000000
00000000
00001000
00000000
00000000
00000310
00000000
,
00000100
00000000
00000001
00000000
00000100
00000000
00000010
00000000
00010000
00000000
00010000
00001000
00000000
00100000
00010000
00000000
,
10000000
00000000
00000000
11000000
00000000
00000000
00010000
00000000
00000000
01010000
00000000
00000000
10000000
00000000
01000000
00100000
,
01000000
00100000
00010000
20000000
00000000
32000000
00000000
03200000
,
00000000
00302000
00000000
00023000
00000000
00030010
00001000
00000010
,
00000200
00000000
00000301
00002000
00000000
00003002
00000000
00000203
,
00000301
00000010
00001000
00010000
00001000
00010000
00100000
10000000
,
00010000
10000000
00010000
02000000
00000000
03200000
00000000
20300000
,
00000000
31000000
00100000
02000000
00000000
03100000
00001000
00010000
,
00000010
00000000
00001000
00001000
00000000
00000100
00000000
00000010
,
00000001
00000101
00000000
00001100
00000000
00000101
00001001
00000000
,
00000001
00000100
00001000
00010000
00000000
01000000
10000000
00000000
,
10000000
00100000
00010000
00001000
00000000
00000010
00000001
00000000
,
00001000
00000001
00000100
00000020
00000000
00001000
00000000
00000031
,
00000000
00000000
00000010
00000000
00000010
00000000
00000000
00000000
00001001
00000000
00000000
00000001
00000100
00000000
00000010
00000000
,
00001000
00000000
00000100
00010000
00000100
00000000
00020000
00000000
00000000
00000000
00031000
00000000
00100000
00000000
00010000
00000000
,
10000000
00000000
00100000
01000000
00100000
00000000
20000000
00000000
00000000
00000000
31000000
00000000
00100000
00000000
00001000
00000000
,
00020000
00000000
00230000
00000000
10300000
00010000
01000000
00100000
,
10000000
01000000
00100000
00001000
00020000
00000000
00000000
00000000
,
00002000
00000000
00000000
00033000
,
00011000
00000000
00001000
00010000
00100000
00000000
10000000
00010000
,
10000000
00000000
00010000
01000000
00100000
10000000
01000000
00100000
,
00001000
00000000
00010000
00001000
00000010
00000000
00001000
00010000
,
00100000
00001000
00010000
00000010
00001000
00000000
00001001
00000000
,
00000101
00000000
00000001
00000100
00001000
00000000
00010000
01000000
,
10000000
00000000
00010000
10000000
00100000
01000000
00010000
10000000
,
01000000
00000000
00000000
00000000
00100000
00000000
00001000
00000000
00010000
00000000
00001000
00010000
00001000
00000000
01000000
00000000
,
00200000
10000000
00310000
10010000
,
00010000
00000000
01000000
00000000
00001000
00000000
00010000
00000000
00000100
00000000
00001000
00000010
00000000
00001000
00000001
00000000
,
00001000
00000000
00000100
00000000
00000010
00000000
00000001
00000000
00000200
00000000
00000000
00000001
00000000
00000000
00000310
00000000
,
00000100
00000000
00001000
00000000
00000001
00000000
00000100
00000000
00000010
00000000
00010000
00001000
00000000
00010000
00000100
00000000
,
00010000
00000000
00000000
00000000
00011000
00000000
00000000
00000000
00101000
00000000
00000000
00110000
00000000
00000000
00100000
00000000
,
01000000
00000000
10000000
00000000
00010000
00000000
01000000
00000000
00100000
00000000
01000000
00010000
00000000
10000000
00010000
00000000
,
00100000
00000000
00001000
00000000
00010000
00000000
00001000
00000000
02000000
00000000
00000000
00010000
00000000
00000000
03100000
00000000
,
01000000
00000000
10000000
00000000
01000000
00000000
00100000
00000000
00001000
00000000
00001000
00010000
00000000
00000010
00001000
00000000
,
00000001
00000000
00000000
00000101
00000000
00000000
00001000
00000000
00000000
00001100
00000000
00000000
00000001
00000000
00000100
00000010
,
00000200
00000000
00000000
00000000
,
00000000
00000000
00000300
00000000
;

//--------------- dance-double - Fred-104 ----------------
#NOTES:
     dance-double:
     Fred-104:
     Challenge:
     14:
     :
00000000
00000000
00000000
00000000
,
00000000
00000000
00000000
00000000
,
00000000
00000000
00000000
00000000
,
00000000
00000000
00000000
00000000
,
00000000
00000000
00000000
00000000
,
00021000
00000000
00000000
00000000
00000000
00000000
01030000
00100000
02000000
00000000
00000000
00000000
00000000
00000000
03001000
00010000
,
00002000
00000000
00000000
00000000
00000000
00000000
00003010
00000100
00000010
00000000
00001000
00000010
00001000
00000000
00000010
00000000
,
00000200
00000000
00000000
00000000
00000000
00000000
00000301
00000010
00000200
00000000
00000000
00000000
00000000
00000000
00001300
00000010
,
00000100
00000000
00000001
00000000
00001000
00000000
00000100
00000000
00000010
00000000
00010000
00001000
00010000
00000000
00000000
00000000
,
00011000
00000000
00000000
00000000
00010000
00000000
00100000
01000000
20000000
00000000
00000000
00000000
30010000
00000000
01000000
00100000
,
20000000
00000000
00000000
00000000
31000000
00000000
00100000
00001000
00010000
00000000
00000010
00001000
00000100
00000000
00010000
00000000
,
00002000
00000000
00000000
00000000
00103000
00000000
00010000
01000000
00200000
00000000
00000000
00000000
01300000
00000000
00001000
00010000
,
00002000
00100000
00003010
00011000
,
00010000
00000000
00001000
00000000
00010000
00000000
00000100
00000000
00001000
00000100
00001000
00000100
00000010
00000001
00000010
00000001
,
00002000
00000000
00000002
00003003
,
00000001
00000000
00000100
00000000
00000001
00000010
00000100
00000000
00001000
00000000
00000010
00000100
00000000
00000010
00001000
00000000
,
00000001
00000000
00000100
00000000
00001000
00000100
00001000
00000100
00000010
00000000
00000000
00001000
00000000
00000000
00000100
00000000
,
00000010
00000000
00000001
00000000
00001000
00000010
00000100
00000000
00000010
00000000
00001000
00000100
00000000
00010000
00001000
00000000
,
00100000
00010000
00100000
00000000
01100000
00000000
00000000
00000000
11000000
00000000
00000000
01100000
00000000
00000000
11000000
00000000
,
10000000
00000000
00100000
00000000
01000000
00010000
00100000
00000000
01000000
00000000
10000000
00100000
00000000
00010000
00100000
00000000
,
10000000
00000000
01000000
00000000
00100000
00010000
00100000
00001000
00010000
00000000
00000000
00000010
00000000
00000000
00010000
00000000
,
00000100
00000000
00001000
00000000
00000010
00000100
00000001
00000000
00001000
00000000
00000100
00000010
00000000
00000001
00000010
00000000
,
00000001
00000000
00000100
00000001
00000000
00000100
00000010
00000000
00000000
00010000
00000000
00001000
00010000
00000000
00001000
00010000
,
00001000
00010000
00100000
20000000
00000000
32000000
00000000
03020000
,
00000000
00032000
00000000
00023000
00000000
00130000
10000000
00010000
,
01000000
00000000
00100000
20000000
00000000
32000000
00000000
03200000
,
00301000
00000000
00010000
00000100
00001000
00000000
00000001
00000000
00000100
00000000
00000001
00000010
00000001
00000000
00001000
00000000
,
00000001
00000010
00001000
00020000
00000000
00032000
00000000
00003200
,
00000000
00000301
00001000
00000020
00000000
00000130
00000001
00001000
,
00000100
00000000
00010000
00010000
00000000
00001000
00000000
00010000
,
00001000
00011000
00000000
00101000
00000000
00010010
00011000
00000000
,
00001000
00010000
00002000
01000000
00000000
00000000
00003100
00000000
,
00010000
00001000
00020000
00000010
00000000
00000000
00130000
00000000
,
00001000
00010000
00100000
10000000
00000000
00010000
00000000
01000000
,
00100000
00000000
10000000
00000000
01000000
00000000
00000000
00000000
01100000
00000000
00000000
00100000
00001000
00000000
00010000
00000100
,
00001000
00000000
00000010
00000100
00000010
00000000
00002000
00000000
00000000
00000000
00003100
00000000
00000010
00000000
00000001
00000100
,
00000001
00000000
00000010
00000100
00000010
00000000
00000002
00000000
00000000
00000000
00001003
00000000
00000001
00000000
00000100
00000010
,
00000100
00000001
00000010
00000100
00010000
00010000
00001000
00001000
,
00100000
00010000
00100000
01000000
10000000
00010000
01000000
00010000
01000000
00000000
00000000
00000000
00100000
00000000
00000000
00000000
,
20020000
00000000
00000000
30030000
,
00021000
00000000
00000000
00000000
00000000
00000000
01030000
00100000
02000000
00000000
00000000
00000000
00000000
00000000
03010000
00001000
,
00020000
00000000
00000000
00000000
00000000
00000000
00030100
00000010
00000100
00000000
00000001
00001000
00000001
00000000
00000100
00000000
,
00000120
00000000
00000000
00000000
00000000
00000000
00010030
00001000
00020000
00000000
00000000
00000000
00000000
00000000
01030000
00100000
,
01000000
00000000
00010000
00000000
10000000
00000000
00100000
00000000
00010000
00000000
00001000
00010000
00001000
00000000
00000000
00000000
,
00021000
00000000
00000000
00000000
00000000
00000000
00030010
00000100
00000020
00000000
00000000
00000000
00000000
00000000
00010030
00001000
,
00020000
00000000
00000000
00000000
00000000
00000000
01030000
00100000
01000000
00000000
00010000
10000000
00010000
00000000
01000000
00000000
,
00100000
00000000
10000000
00000000
01000000
00000000
00100000
00010000
00100000
00000000
00001000
00100000
00010000
00000000
01000000
00100000
,
20000000
32000000
03020000
00230000
,
10300000
00000000
01000000
00000000
10000000
00100000
01000000
00000000
00010000
00000000
00100000
01000000
00000000
00100000
00010000
00000000
,
10000000
00000000
01000000
00000000
00010000
01000000
00010000
01000000
00100000
00000000
00000000
00010000
00000000
00000000
01000000
00000000
,
00100000
00000000
10000000
00000000
00010000
00100000
01000000
00000000
00100000
00000000
00010000
01000000
00000000
00001000
00010000
00000000
,
00000010
00001000
00000010
00000000
00000110
00000000
00000000
00000000
00000101
00000000
00000000
00000110
00000000
00000000
00000101
00000000
,
00000001
00000000
00000010
00000000
00000100
00001000
00000010
00000000
00000100
00000000
00000001
00000010
00000000
00001000
00000010
00000000
,
00000001
00000000
00000100
00000000
00000010
00001000
00000010
00010000
00001000
00000000
00000000
00100000
00000000
00000000
00001000
00000000
,
01000000
00000000
00010000
00000000
00100000
01000000
10000000
00000000
00010000
00000000
01000000
00100000
00000000
10000000
00100000
00000000
,
10000000
00000000
01000000
10000000
00000000
01000000
00100000
00000000
00000000
00001000
00000000
00010000
00001000
00000000
00010000
00001000
,
00020000
00000000
00000000
00000000
,
00000000
00000000
00030000
00000000
;
