#TITLE:Good-bye Chalon;
#ARTIST:猫叉Master+;
#ARTISTTRANSLIT:Nekomata Master+;
#BANNER:Good-bye Chalon.png;
#BACKGROUND:Good-bye Chalon-bg.png;
#CDTITLE:./CDTitles/jb ripples.png;
#MUSIC:Good-bye Chalon.ogg;
#SAMPLESTART:85.328;
#SAMPLELENGTH:15;
#DISPLAYBPM:154;
#BPMS:0=154.3,4=154;
#STAGE:1;

//--------------- dance-single - Fred-104 ----------------
#NOTES:
     dance-single:
     Fred-104:
     Beginner:
     2:
     :
0000
0000
0000
0000
,
0000
0000
0000
0000
,
0000
0000
0000
0000
,
0000
0000
0000
0000
,
0000
0000
0000
0000
,
0000
0000
0000
0000
,
1000
0000
0000
0000
,
0000
0000
0000
0000
,
0001
0000
0000
0000
,
1000
0000
0000
0000
,
0001
0000
0000
0000
,
0001
0000
0000
0000
,
1000
0000
0000
0000
,
0001
0000
0000
0000
,
1000
0000
0000
0000
,
0001
0000
0000
0000
,
0100
0000
0000
0000
,
0001
0000
0000
0000
,
2000
0000
0000
0000
,
0000
0000
3000
0000
,
0002
0000
0000
0000
,
0000
0000
0003
0000
,
1000
0000
0000
0000
,
0001
0000
0000
0000
,
1000
0000
0000
0000
,
0001
0000
1000
0000
,
0001
0000
0000
0000
,
1000
0000
0000
0000
,
0010
0000
0000
0000
,
0100
0000
0000
0000
,
0001
0000
0000
0000
,
0100
0000
0000
0000
,
0010
0000
0000
0000
,
1000
0000
0000
0000
,
0002
0000
0000
0000
,
0003
0000
0000
0000
,
2000
0000
0000
0000
,
3000
0000
0000
0000
,
0002
0000
0000
0000
,
0003
0000
0000
0000
,
2000
0000
0000
0000
,
3000
0000
0000
0000
,
0001
0000
0000
0000
,
1000
0000
0000
0000
,
0001
0000
0000
0000
,
1000
0000
0000
0000
,
0001
0000
0000
0000
,
1000
0000
0000
0000
,
0010
0000
0000
0000
,
1000
0000
0000
0000
,
0002
0000
0000
0000
,
0003
0000
0000
0000
,
2000
0000
0000
0000
,
3000
0000
0000
0000
,
2002
0000
0000
3003
,
0001
0000
0000
0000
,
1000
0000
0000
0000
,
0010
0000
0000
0000
,
1000
0000
0000
0000
,
0001
0000
0000
0000
,
1000
0000
0000
0000
,
0001
0000
0000
0000
,
0001
0000
1000
0000
,
0002
0000
0000
0000
,
0003
0000
0000
2000
,
0000
0000
0000
0000
,
0000
3000
0000
0002
,
0000
0000
0000
0000
,
0003
0000
2002
0000
,
0000
0000
0000
0000
,
0000
0000
0000
0000
,
0000
0000
0000
0000
,
3003
0000
0000
0000
;

//--------------- dance-single - Fred-104 ----------------
#NOTES:
     dance-single:
     Fred-104:
     Easy:
     5:
     :
0000
0000
0000
0000
,
0000
0000
0000
0000
,
0000
0000
0000
0000
,
0000
0000
0000
0000
,
0000
0000
0000
0000
,
0000
0000
0000
0000
,
2000
0000
3002
0000
,
2003
0000
3020
0000
,
2030
0000
3002
0000
,
0103
0100
0100
0100
,
0010
0000
1000
0000
,
0001
0000
1000
1000
,
1000
0000
0010
0000
,
0100
0000
0001
1000
,
0001
0000
0100
0000
,
0010
0000
1000
0100
,
1000
0000
0010
0010
,
1000
0000
0001
1000
,
0002
0000
0203
0000
,
0320
0000
2030
0000
,
3002
0000
0103
0020
,
1030
0100
0010
0001
,
1000
0010
0100
0001
,
1000
0100
1000
0001
,
0200
0000
0310
2000
,
3002
0203
0301
1000
,
1001
0001
0100
0001
,
0010
0100
1000
0001
,
1000
2000
0010
3020
,
0031
0001
0100
0100
,
1000
0010
0100
0010
,
1000
0100
0010
0001
,
0101
0200
0000
0310
,
2000
0000
3001
0100
,
1001
0000
1000
0000
,
0001
0000
0100
0010
,
1000
0000
0100
0000
,
0001
0000
0100
1000
,
0001
0000
0100
0010
,
1000
0010
0100
0001
,
1000
0000
0010
0000
,
1000
0100
0010
0001
,
1001
1000
0010
0010
,
0100
0100
0001
0010
,
0100
1000
0010
0100
,
0001
1000
0001
0100
,
0110
0000
1000
0010
,
1000
0001
0010
0001
,
1000
0000
0001
0100
,
0001
1000
0010
1000
,
0100
0000
0010
0000
,
0001
0000
1000
0000
,
0001
0001
1000
1000
,
0010
0100
0001
1000
,
0001
2002
0000
3003
,
2000
0000
3020
0000
,
2030
0000
3200
0320
,
0032
0000
2003
0000
,
3020
0000
0230
0320
,
1030
0000
0001
0100
,
0010
0000
1000
0100
,
0010
0000
0001
0010
,
0100
0000
1000
0010
,
0100
0000
0001
0000
,
0010
0000
0100
1000
,
2002
0000
0000
0000
,
0000
0000
3003
0220
,
0000
0000
0000
0330
,
0000
0000
2002
0000
,
0000
0000
0000
0000
,
0000
0000
0000
0000
,
0000
0000
0000
0000
,
3003
0000
0000
0000
;

//--------------- dance-single - Fred-104 ----------------
#NOTES:
     dance-single:
     Fred-104:
     Medium:
     11:
     :
0000
0000
0000
0000
,
0000
0000
0000
0000
,
0000
0000
0000
0000
,
0000
0000
0000
0000
,
0000
0000
0000
0000
,
0000
0000
0000
0000
,
1000
0000
0000
0000
0100
0000
0000
0010
0000
0000
0000
0000
0001
0000
0000
0000
,
0100
0000
0010
0000
0000
0100
0000
0010
0000
0000
0000
0000
1000
0000
0000
0000
,
0001
0000
0000
0000
0000
1000
0000
0010
0000
0000
0000
0000
0100
0000
0000
0000
,
0001
0001
1000
1001
,
0001
0010
0100
0000
0010
0001
0100
0000
,
0001
0010
0100
0000
0010
0001
0100
0000
,
0010
1000
0100
0000
0010
0100
1000
0000
,
0010
1000
0100
0000
0010
0100
1000
0000
,
0001
0100
0010
0100
0001
0100
0001
0000
,
1000
0100
0010
0001
1000
0010
1000
0000
,
0001
0100
0010
0000
0100
0001
0010
0000
,
0100
1000
0010
0000
1000
0100
0010
0000
,
0002
0000
0000
0000
2003
0000
0000
3020
0000
0000
0000
0000
0230
0000
0000
0302
,
0000
0000
0000
0000
0023
0000
0000
0230
0000
0000
0000
0000
2300
0000
0000
3002
,
0000
0100
0100
0023
,
1030
0000
0010
0000
1000
0100
0010
0001
,
1000
0000
0000
0000
0010
0000
0000
1000
0000
0000
1000
0000
0100
0000
0000
0010
,
0000
0000
0010
0000
0001
0000
0000
0010
0000
0000
0010
0000
0001
0000
0000
2000
,
0000
0010
0100
3020
,
1030
0100
0001
0000
1000
0010
0001
0000
,
1000
0100
1000
0000
0010
1000
0100
0000
,
0010
0001
0100
0001
0010
0001
1000
0000
,
0002
0100
1003
1001
,
0010
1000
0100
0000
0010
0001
0100
0000
,
0010
1000
0100
0000
0010
0001
1000
0000
,
0010
1000
0100
1000
0010
1000
0001
0000
,
1001
0000
0000
0000
0010
0000
0000
2000
0000
0000
0000
0000
3002
0000
0000
0000
,
0023
0031
2000
3001
,
1001
0000
0000
1000
0100
0000
0000
0100
0010
0000
0000
0010
0001
0000
0000
0001
,
1000
0000
0000
1000
0010
0000
0000
0010
0100
0000
0001
0000
0010
0000
0001
0000
,
0100
0000
0000
0100
0001
0000
0000
0001
0010
0000
0000
0010
0100
0000
0000
0100
,
1000
0000
0000
1000
0001
0000
0000
0001
0010
0000
0100
0000
1000
0000
0001
0000
,
0100
0000
0000
0100
0010
0000
0000
0010
1000
0000
0100
0000
0010
0000
0001
0000
,
1000
0001
0100
0000
1000
0100
0001
1000
,
0010
0000
0000
0010
1000
0000
0100
0000
0010
0000
0000
0010
0001
0000
0100
0000
,
0001
0000
0000
0001
1000
0000
0000
1000
0001
0000
0100
0000
0010
0000
0100
0000
,
0001
0000
0000
0001
0010
0000
0000
0010
0100
0000
0000
0100
1000
0000
0000
1000
,
0010
0000
0000
0010
0100
0000
0000
0100
0001
0000
1000
0000
0010
0000
1000
0000
,
0100
0000
0000
0100
0010
0000
0000
0010
0001
0000
0000
0001
1000
0000
0000
0000
,
1100
0000
0000
0010
0001
0000
1000
0000
0010
0000
0000
0000
0110
0000
0000
0000
,
0101
0000
0000
0100
0001
0000
0000
0001
1000
0000
0000
1000
0010
0000
0100
0000
,
0001
0000
0000
0001
0010
0000
0100
0000
1000
0000
0010
0000
1000
0000
0100
0000
,
1000
0000
0000
1000
0010
0000
0100
0000
0001
0000
0000
0001
0010
0000
0100
0000
,
2000
0000
3001
0100
0020
0000
0230
0000
,
0301
0010
0001
1000
0001
0100
0010
1000
,
0100
0010
0001
1000
0010
0100
0010
0000
,
1000
0100
0001
0100
1000
0010
0100
0001
,
1000
0100
0010
0001
1000
0001
0100
0010
,
0100
2002
3003
0100
,
0011
0000
0000
0000
0000
0010
0000
0001
0000
0000
0000
0000
1000
0000
0010
0000
,
0100
0000
0010
0000
0000
0100
0000
0001
0000
0100
0000
0100
0000
0010
0000
0000
,
1000
0000
1000
0000
0000
0001
0000
0100
0000
0000
0000
0000
0010
0000
1000
0000
,
0001
0000
0100
0000
0001
0100
1000
0100
,
0001
0000
0000
0100
0000
0010
0000
0100
0000
0000
0000
0000
0001
0000
0010
0000
,
0100
0000
1000
0000
0010
0000
0000
0000
1000
0000
0000
0100
0000
0000
1000
0000
,
0001
0000
0000
0010
0000
0010
0000
0001
0000
0000
0000
0000
1000
0000
0010
0000
,
1010
0101
1100
0011
,
1000
0000
0100
0000
0010
0000
0000
0001
0000
0000
1000
0000
0010
0000
0000
0100
,
0000
0000
0001
0000
0010
0000
0000
0100
0000
0000
1000
0000
0001
0000
2002
0000
,
0000
0000
0000
0000
,
0000
0000
3003
2020
,
0000
0000
0000
3030
,
0000
0000
0202
0000
,
0000
0000
0000
0000
,
0000
0000
0000
0000
,
0000
0000
0000
0000
,
0303
0000
0000
0000
;

//--------------- dance-single - Fred-104 ----------------
#NOTES:
     dance-single:
     Fred-104:
     Hard:
     16:
     :
0000
0000
0000
0000
,
0000
0000
0000
0000
,
0000
0000
0000
0000
,
0000
0000
0000
0000
,
0000
0000
0000
0000
,
0000
0000
0000
0000
,
0100
0000
0000
0000
0010
1000
0000
0200
0000
0000
0000
0000
0310
0001
0010
0001
,
1000
0000
1000
0000
0010
0100
0000
0002
0000
0000
0000
0000
0000
0000
0103
0000
,
0010
0000
0000
0000
1000
0000
0000
0000
0001
0000
0000
0000
0000
0000
0000
1000
0000
0000
0000
0000
0000
2000
0000
0000
0000
0000
0000
0000
0000
0000
0000
0000
0000
3100
0000
0000
0001
0000
0000
0100
0000
0000
0001
0000
0000
0100
0000
0000
,
1000
0000
0000
0100
0010
0000
0000
0010
0001
0100
0010
0100
0010
1000
0001
0100
,
0001
0000
0000
0010
0001
0000
0100
0000
1000
0000
0000
0100
0001
0000
0010
0000
,
0100
0000
0000
0100
1000
0000
0010
0000
0100
0000
0001
0000
1000
0000
0100
0000
,
0010
0000
0000
0001
0100
0000
1000
0000
0100
0000
0000
0001
0010
0000
0100
0000
,
1000
0000
0000
0010
0100
0000
0001
0000
0100
0000
0010
0100
0010
0000
1000
0000
,
0001
0000
0100
0010
0100
0000
0001
0000
1000
0000
0100
0010
0100
0000
1000
0000
,
0001
1000
0010
1000
0001
0000
0100
0000
0010
0000
0100
0000
0010
0000
0010
0000
,
1000
0000
0000
0010
0100
0000
0010
0000
0001
0000
0000
0010
0100
0000
0010
0000
,
1001
0000
0000
0000
0000
0000
0000
0000
0000
0000
0000
0000
1000
0000
0000
0000
0100
0000
0000
0000
0010
0000
0000
0000
0001
0000
0000
0000
1000
0000
0000
0000
0010
0000
0000
0000
0100
0000
0000
0000
0000
0000
0001
0000
0000
1000
0000
0000
,
0002
0000
0000
0000
0023
0000
0000
2030
0000
0000
0000
0000
3002
0000
0000
0203
,
0000
0000
0000
0000
2300
0000
0000
3002
0000
0000
0003
0000
1001
0000
0000
0020
,
0000
1000
1000
2030
,
3001
0100
0001
0100
0010
0100
0010
1000
0100
0010
0001
1000
0001
0100
0001
0100
,
0010
0000
1000
0000
0100
0010
0000
0010
0001
0000
1000
0000
0001
0010
0100
1000
,
0001
0000
1000
0000
0100
0001
0000
0100
1000
0000
0001
0000
0100
1000
0000
0100
,
0002
1000
0013
1001
,
0001
0000
0000
0000
1000
0000
0000
0000
0010
0000
0000
0000
0100
0000
0000
0000
0001
0000
0000
0000
1000
0000
0000
0000
0001
0000
0000
0100
0000
0000
0001
0000
0000
0100
0000
0000
0010
0000
0000
0000
0000
0000
1000
0000
0000
0000
0000
0000
,
0001
0000
1000
0000
0010
0000
0100
0001
0000
0000
1000
0000
0100
0000
0010
0001
,
0000
0000
1000
0000
0010
0000
0100
0001
0000
0000
1000
0000
0010
0000
0100
0001
,
0200
0000
0000
0000
0010
0000
0000
0000
1000
0000
0000
0000
0301
0000
0100
0010
,
2000
0000
0000
0000
0010
0000
0000
0000
3001
0000
0100
0010
1000
0010
0100
0001
,
1000
0000
0001
0000
0100
0000
0010
0100
0000
0000
0010
0000
1000
0100
0010
0001
,
0000
0100
0000
1000
0000
0100
0000
0110
0000
0000
0000
0000
0001
1000
0100
1000
,
0001
0000
0010
0000
0100
0000
1000
0010
1000
0000
0100
0000
0010
0000
0001
1000
,
0001
0000
0000
0100
0010
0000
1000
0000
0001
0000
1000
0100
0010
0000
0000
0000
,
1002
0000
0000
0000
1003
0000
0010
0100
0002
0000
0000
0000
1003
0000
0100
0010
,
0002
0000
0000
0000
1003
0000
1000
0010
0200
0000
0302
0000
2003
0000
3200
0000
,
0320
0000
0000
0000
0031
0000
1000
0010
0200
0000
0000
0000
0301
0000
1000
0100
,
0020
0000
0000
0000
0031
0000
1000
0001
0020
0000
0230
0000
0310
0001
2000
0000
,
3020
0000
0000
0000
1030
0000
0010
1000
0100
0000
0010
0001
1000
0000
0100
0010
,
0001
0000
0100
0010
0200
0000
0000
0000
0310
0000
1000
0001
0100
0010
1000
0000
,
0002
0000
0000
0000
0013
0000
0100
1000
0002
0000
0000
0000
0103
0000
0010
1000
,
0001
0000
0010
0001
0100
0000
0010
1000
0001
0000
1000
0001
0010
0001
0100
0000
,
0001
1000
0100
1000
0010
0000
1000
0100
0020
0000
0001
0000
0230
0000
1300
0001
,
0010
0000
0100
0000
0001
0000
1000
0100
0010
0000
0001
0100
0010
0000
1000
0010
,
0100
0000
0001
1000
0100
0000
1000
0001
0010
0000
0100
1000
0002
0000
0000
0000
,
1003
0000
0001
1000
0100
0000
0010
0100
2000
0000
0000
0000
3002
0000
0000
0000
,
0203
0000
0000
0000
0310
0000
1000
0100
0001
0000
0100
1000
0010
0000
0100
0001
,
0010
0000
0100
1000
0001
0000
0100
0000
1000
0000
0100
0000
0001
0100
0010
0000
,
2000
0000
0000
0000
3100
0000
0010
0001
2000
0000
0000
0000
3010
0000
0100
0001
,
1000
0000
0100
0000
0001
0000
0100
1000
0002
0000
0000
0000
2003
0000
0000
0000
,
3010
1000
0010
1000
0001
1000
0100
0010
0001
0100
0010
1000
0010
0100
0001
0000
,
1000
0000
0010
0100
0001
0000
1000
0000
0001
0000
0100
0010
1000
0000
0001
0000
,
1000
0100
0010
0100
1000
0100
0010
0001
0100
0010
1000
0001
0010
0100
1000
0000
,
0010
0100
0010
0100
0001
0100
0001
0100
0001
0010
0100
1000
0001
0100
0010
0100
,
0001
1000
0001
1000
0002
0000
0000
0000
0000
0000
0000
0000
1003
0100
0010
0001
,
1000
0000
0010
0000
0100
0001
0000
0021
0000
0000
0031
0000
0100
0000
0020
0000
,
1030
0000
0100
0000
1000
0100
0000
1100
0000
0101
0000
1100
0000
0101
0000
0100
,
0010
0000
1000
0000
0100
0010
0000
0012
0000
0000
1003
0000
0001
1000
0100
1000
,
0001
0000
0100
0000
0010
1000
0000
1200
0000
0000
0000
0000
0320
0000
0000
0000
,
0031
0010
0000
0100
0000
1000
0000
2010
0000
0000
0000
0000
3020
0000
2030
0000
,
3001
0000
0010
0000
0100
0010
0000
1002
0000
0000
0000
0023
0000
0000
0230
0000
,
1300
0010
0000
1000
0000
0100
0000
0210
0000
0000
0000
0000
0310
0001
1000
0100
,
1000
0000
0001
0100
1000
0000
0001
0010
1000
0000
0001
0100
1000
0000
0001
0010
,
1000
0000
0001
0000
0100
0010
0000
0100
0001
0000
1000
0000
0001
0100
0000
0100
,
1000
0000
0001
0000
1000
0100
0000
0100
0001
0000
0100
0000
0110
0000
0000
2002
,
0000
0000
0000
0000
,
0000
0000
3003
0220
,
0000
0000
0000
0330
,
0000
0000
2002
0000
,
0000
0000
0000
0000
,
0000
0000
0000
0000
,
0000
0000
0000
0000
0000
0000
0000
0000
0000
0000
0000
0000
3003
0000
0000
0000
0000
0000
0000
2200
0000
0000
0000
0000
0000
0000
0000
0000
0000
0000
0000
0000
0000
0000
0000
0000
0000
0000
0000
0000
0000
0000
0000
0000
0000
0000
0000
0000
,
3300
0000
0000
0000
;

//--------------- dance-double - Fred-104 ----------------
#NOTES:
     dance-double:
     Fred-104:
     Easy:
     5:
     :
00000000
00000000
00000000
00000000
,
00000000
00000000
00000000
00000000
,
00000000
00000000
00000000
00000000
,
00000000
00000000
00000000
00000000
,
00000000
00000000
00000000
00000000
,
00000000
00000000
00000000
00000000
,
00002000
00000000
00023000
00000000
,
00032000
00000000
00203000
00000000
,
00320000
00000000
02030000
00000000
,
03100000
00100000
00100000
00100000
,
10000000
00000000
00010000
00000000
,
10000000
00000000
01000000
00100000
,
01000000
00000000
00100000
00000000
,
01000000
00000000
01000000
00010000
,
00001000
00000000
00000100
00000000
,
00000010
00000000
00000001
00000100
,
00000010
00000000
00010000
00001000
,
00100000
00000000
00001000
00010000
,
00002000
00000000
00023000
00000000
,
02030000
00000000
23000000
00000000
,
30020000
00000000
10030000
00200000
,
01300000
00010000
00100000
01000000
,
10000000
00010000
10000000
01000000
,
00100000
00001000
00010000
00000100
,
00000020
00000000
00000031
00000200
,
00000320
00000230
00000301
00001000
,
00001001
00000001
00000100
00000000
,
00001000
00010000
01000000
00000000
,
10000000
00010000
01000000
00200000
,
01300000
00010000
10000000
00000000
,
10000000
00100000
00010000
00000000
,
00001000
00000010
00000001
00000000
,
00001001
00000020
00000000
00010030
,
00002000
00000000
00013000
00001000
,
00011000
00000000
00001000
00000000
,
00010000
00000000
00100000
01000000
,
00100000
00000000
00001000
00000000
,
00010000
00000000
00000010
00010000
,
00001000
00000000
00010000
00000100
,
00000100
00010000
00000000
00001000
,
00010000
00000000
00001000
00000000
,
00100000
00010000
01000000
00000000
,
01100000
00100000
01000000
00010000
,
00001000
00000100
00000010
00010000
,
00000100
00001000
00000010
00001000
,
00010000
00100000
01000000
00001000
,
00011000
00000000
00010000
00001000
,
00100000
00001000
00010000
00010000
,
00000100
00000000
00010000
00000010
,
00001000
00000100
00010000
00001000
,
00010000
00000000
00001000
00000000
,
00000100
00000000
00000001
00000000
,
00001000
00001000
00000010
00000010
,
00000100
00000100
00000001
00001000
,
00000001
00002002
00000000
00003003
,
00000002
00000000
00000203
00000000
,
00002300
00000000
00023000
02030000
,
23000000
00000000
30200000
00000000
,
00320000
00000000
00032000
00003020
,
00000031
00000000
00001000
00000001
,
00000100
00000000
00000001
00000010
,
00000100
00000000
00001000
00100000
,
01000000
00000000
10000000
00010000
,
01000000
00000000
00010000
00000000
,
10000000
00000000
00100000
01000000
,
02200000
00000000
00000000
00000000
,
00000000
00000000
03300000
00022000
,
00000000
00000000
00000000
00033000
,
00000000
00000000
00000220
00000000
,
00000000
00000000
00000000
00000000
,
00000000
00000000
00000000
00000000
,
00000000
00000000
00000000
00000000
,
00000330
00000000
00000000
00000000
;

//--------------- dance-double - Fred-104 ----------------
#NOTES:
     dance-double:
     Fred-104:
     Medium:
     11:
     :
00000000
00000000
00000000
00000000
,
00000000
00000000
00000000
00000000
,
00000000
00000000
00000000
00000000
,
00000000
00000000
00000000
00000000
,
00000000
00000000
00000000
00000000
,
00000000
00000000
00000000
00000000
,
00100000
00000000
00000000
00000000
01000000
00000000
00000000
00100000
00000000
00000000
00000000
00000000
10000000
00000000
01000000
00000000
,
00100000
00000000
00001000
00000000
00000000
00010000
00000000
00001000
00000000
00000000
00000000
00000000
00010000
00000000
00000000
00000000
,
00000100
00000000
00000000
00000000
00000000
00000010
00000000
00000100
00000000
00000000
00000000
00000000
00000001
00000000
00000000
00000000
,
00000100
00000100
00000010
00000010
,
00001001
00000000
00000001
00000100
00001000
00000000
00010000
01000000
,
10000000
00000000
10000000
01000000
00010000
00000000
00001000
00000100
,
00000001
00000000
00000001
00000010
00001000
00000000
00010000
00100000
,
10000000
00000000
10000000
00100000
00010000
00000000
00001000
00000010
,
00000001
00001000
00000001
00000000
00000100
00000010
00001000
00000000
,
00000001
00000010
00000100
00000000
00010000
00001000
00100000
00000000
,
00010000
01000000
10000000
01000000
00010000
00100000
01000000
10000000
,
00100000
00000000
10000000
00000000
01000000
00100000
00001000
00010000
,
00002000
00000000
00000000
00000000
00010000
00000000
00000000
00010000
00000000
00000000
00000000
00000000
00000010
00000000
00000000
00000010
,
00000000
00000000
00000000
00000000
00010000
00000000
00000000
00010000
00000000
00000000
00000000
00000000
00000100
00000000
00000000
00000200
,
00003000
00000010
00000000
00000320
,
00000031
00000000
00001000
00000000
00000001
00000010
00000100
00010000
,
00001000
00000000
00000000
00000000
00100000
00000000
00000000
00010000
00000000
00000000
10000000
00000000
00100000
00000000
00000000
01000000
,
00000000
00000000
00010000
00000000
10000000
00000000
00000000
01000000
00000000
00000000
00100000
00000000
00001000
00000000
00000000
00020000
,
00000000
00000100
00000000
02030000
,
03001000
00010000
00000010
00000000
00010000
00001000
00100000
00000000
,
00001000
00010000
00100000
01000000
00000000
10000000
00100000
01000000
,
00000000
00100000
00001000
00010000
00000000
00000100
00001000
00000001
,
00000200
00000010
00001300
00001001
,
00000100
00001000
00010000
00000000
01000000
00010000
00001000
00000000
,
00010000
00001000
00000100
00000010
00000000
00000001
00000010
00001000
,
00000000
00010000
00100000
10000000
00000000
00010000
01000000
00100000
,
02000000
00100000
13000000
10010000
,
02000000
03100000
00002000
00013000
,
00011000
00000000
00000000
00001000
00010000
00000000
00000000
00010000
00100000
00000000
00000000
00100000
10000000
00000000
00000000
10000000
,
00010000
00000000
00000000
00010000
10000000
00000000
00000000
10000000
01000000
00000000
00100000
00000000
00001000
00000000
00010000
00000000
,
00000010
00000000
00000000
00000010
00001000
00000000
00000000
00001000
00000001
00000000
00000000
00000001
00000100
00000000
00000000
00000100
,
00001000
00000000
00000000
00001000
00010000
00000000
00000000
00010000
01000000
00000000
00100000
00000000
10000000
00000000
00100000
00000000
,
01000000
00000000
00000000
01000000
00100000
00000000
00000000
00100000
10000000
00000000
01000000
00000000
00100000
00000000
00001000
00000000
,
00010000
00100000
01000000
00000000
10000000
00100000
00010000
00001000
,
00000010
00000000
00000001
00001000
00000010
00000000
00001000
00000001
,
00000010
00000000
00000000
00000010
00000001
00000000
00000000
00000001
00001000
00000000
00000010
00000000
00000100
00000000
00000001
00000000
,
00000010
00000000
00000000
00000010
00000100
00000000
00000000
00000100
00001000
00000000
00000000
00001000
00010000
00000000
00000000
00010000
,
00100000
00000000
00000000
00100000
01000000
00000000
00000000
01000000
00001000
00000000
00010000
00000000
00000010
00000000
00001000
00000000
,
00000100
00000000
00000000
00000100
00010000
00000000
00000000
00010000
01000000
00000000
00000000
01000000
00100000
00000000
00000000
00000000
,
00011000
00000000
00000000
00010000
00001000
00000000
01000000
00000000
00001000
00000000
00000000
00000000
00010000
00000000
00000000
00000000
,
00011000
00000000
00000000
00001000
00000100
00000000
00000000
00000100
00000010
00000000
00000000
00000010
00000001
00000000
00000100
00000000
,
00000010
00000000
00000000
00000010
00001000
00000000
00000100
00000000
00010000
00000000
00001000
00000000
00010000
00000000
00000010
00000000
,
00010000
00000000
00000000
00001000
00010000
00000000
00000010
00000000
00010000
00000000
00000000
00001000
00010000
00000000
00001000
00000000
,
00200000
00000000
00310000
10000000
02000000
00000000
03200000
00000000
,
01300000
10000000
00010000
01000000
00100000
10000000
01000000
00100000
,
00001000
00010000
00100000
10000000
01000000
00100000
00001000
00000000
,
00010000
00000100
00001000
00000100
00000010
00000001
00001000
00000001
,
00000100
00000010
00001000
00000001
00000100
00001000
00010000
01000000
,
10000000
20020000
30030000
00100000
,
10010000
00000000
00000000
00000000
00000000
00100000
00000000
01000000
00000000
00000000
00000000
00000000
00010000
00000000
10000000
00000000
,
01000000
00000000
00100000
00000000
00000000
00001000
00000000
00001000
00000000
00010000
00000000
00010000
00000000
00000100
00000000
00000000
,
00001000
00000000
00001000
00000000
00000000
00000001
00000000
00000010
00000000
00000000
00000000
00000000
00000100
00000000
00001000
00000000
,
00000001
00000000
00000010
00000000
00001000
00010000
00100000
10000000
,
00010000
00000000
00000000
10000000
00000000
01000000
00000000
00100000
00000000
00000000
00000000
00000000
00001000
00000000
00010000
00000000
,
00100000
00000000
10000000
00000000
00010000
00000000
00000000
00000000
10000000
00000000
00000000
01000000
00000000
00000000
00010000
00000000
,
00001000
00000000
00000000
00010000
00000000
00000100
00000000
00001000
00000000
00000000
00000000
00000000
00000010
00000000
00000100
00000000
,
00000101
00001100
00011000
01010000
,
10000000
00000000
00100000
00000000
01000000
00000000
00000000
00010000
00000000
00000000
10000000
00000000
01000000
00000000
00000000
00100000
,
00000000
00000000
00001000
00000000
00010000
00000000
00000000
00000100
00000000
00000000
00001000
00000000
00000001
00000000
00000000
00000220
,
00000000
00000000
00000000
00000000
,
00000000
00000000
00000330
00022000
,
00000000
00000000
00000000
00033000
,
00000000
00000000
02200000
00000000
,
00000000
00000000
00000000
00000000
,
00000000
00000000
00000000
00000000
,
00000000
00000000
00000000
00000000
,
03300000
00000000
00000000
00000000
;

//--------------- dance-double - Fred-104 ----------------
#NOTES:
     dance-double:
     Fred-104:
     Hard:
     15:
     :
00000000
00000000
00000000
00000000
,
00000000
00000000
00000000
00000000
,
00000000
00000000
00000000
00000000
,
00000000
00000000
00000000
00000000
,
00000000
00000000
00000000
00000000
,
00000000
00000000
00000000
00000000
,
00000100
00000000
00000000
00000000
00000010
00000001
00000000
00002000
00000000
00000000
00000000
00000000
00003010
00001000
00000100
00000000
,
00010000
00000000
00001000
00000000
00010000
00000100
00000000
00002000
00000000
00000000
00000000
00000000
00003100
00000000
00010000
00000000
,
00001000
00000000
00000000
00000000
00010000
00000000
00000000
00000000
00001000
00000000
00000000
00000000
00000000
00000000
00000000
00100000
00000000
00000000
00000000
00000000
00000000
00020000
00000000
00000000
00000000
00000000
00000000
00000000
00000000
00000000
00000000
00000000
00000000
01030000
00000000
00000000
00010000
00000000
00000000
01000000
00000000
00000000
00100000
00000000
00000000
00000000
00000000
00000000
,
10100000
01010000
11000000
00110000
,
00010000
00000000
00000000
00010000
10000000
00000000
01000000
00000000
00100000
00000000
00000000
00100000
01000000
00000000
10000000
00000000
,
00010000
00000000
00000000
00010000
01000000
00000000
00100000
00000000
10000000
00000000
01000000
00000000
00010000
00000000
00001000
00000000
,
00000100
00000000
00000000
00000100
00000001
00000000
00000010
00000000
00000100
00000000
00000000
00000100
00000010
00000000
00000001
00000000
,
00001000
00000000
00000000
00001000
00000010
00000000
00000100
00000000
00000001
00000000
00000010
00000100
00000010
00000000
00000001
00000000
,
00001000
00000000
00000000
00000001
00000100
00000000
00001000
00000000
00010000
00000000
00000000
00001000
00000010
00000000
00000001
00000000
,
00001000
00000000
00000000
00000001
00000010
00000000
00001000
00000000
00010000
00000000
00100000
00000000
10000000
00000000
00010000
00000000
,
01000000
00000000
00000000
00100000
10000000
00000000
01000000
00000000
00100000
00000000
00000000
00001000
00010000
00000000
00000100
00000000
,
00000110
00000000
00000000
00000000
00000000
00000000
00000000
00000000
00000000
00000000
00000000
00000000
00000010
00000000
00000000
00000000
00000001
00000000
00000000
00000000
00001000
00000000
00000000
00000000
00000001
00000000
00000000
00000000
00000100
00000000
00000000
00000000
00000010
00000000
00000000
00000000
00000100
00000000
00000000
00000000
00000000
00000000
00000001
00000000
00000000
00001000
00000000
00000000
,
00000002
00000000
00000000
00000000
00000203
00000000
00000000
00002300
00000000
00000000
00000000
00000000
00023000
00000000
00000000
02030000
,
00000000
00000000
00000000
00000000
23000000
00000000
00000000
30200000
00000000
00000000
00000000
00000000
00320000
00000000
00000000
00032000
,
00000000
00010000
00010000
00023000
,
00030010
00001000
00000010
00000000
00000100
00000010
00000100
00000000
00000001
00000100
00000001
00000100
00000010
00001000
00000010
00001000
,
00000001
00000000
00000010
00000000
00000100
00001000
00000000
00000100
00000000
00000000
00010000
00000000
00000010
00001000
00000100
00010000
,
00000000
00000000
00000010
00000000
00001000
00000100
00000000
00010000
00000000
00000000
00001000
00000000
00100000
00000000
00010000
00100000
,
02000000
00100000
13000000
10010000
,
00010000
00000000
00000000
00000000
01000000
00000000
00000000
00000000
00010000
00000000
00000000
00000000
01000000
00000000
00000000
00000000
00100000
00000000
00000000
00000000
10000000
00000000
00000000
00000000
00100000
00000000
00000000
10000000
00000000
00000000
00100000
00000000
00000000
10000000
00000000
00000000
00100000
00000000
00000000
00000000
00000000
00000000
01000000
00000000
00000000
00000000
00000000
00000000
,
00010000
00000000
10000000
00000000
01000000
00000000
00100000
00001000
00000000
00000000
00010000
00000000
00000100
00000000
00001000
00000001
,
00000000
00000000
00000010
00000000
00000100
00000000
00000010
00000001
00000000
00000000
00001000
00000000
00000001
00000000
00000100
00000010
,
00000200
00000000
00000000
00000000
00000001
00000000
00000000
00000000
00001000
00000000
00000000
00000000
00000310
00000000
00001000
00000100
,
00020000
00000000
00000000
00000000
00000100
00000000
00000000
00000000
01030000
00000000
00001000
00010000
00001000
00010000
00001000
00000000
,
00100000
00000000
00010000
00000000
10000000
00000000
00010000
01000000
00000000
00000000
00100000
00000000
01000000
00010000
10000000
00010000
,
00000000
10000000
00000000
01000000
00000000
00100000
00000000
00011000
00000000
00000000
00000000
00000000
00010000
00001000
00010000
00001000
,
00010000
00000000
00000100
00000000
00010000
00000000
00001000
00010000
00000000
00000000
00000100
00000000
00001000
00000000
00000001
00000100
,
00000001
00000000
00000000
00000001
00000100
00000000
00000010
00000000
00000100
00000000
00000001
00001000
00000100
00000000
00000000
00000000
,
00012000
00000000
00000000
00000000
00003010
00000000
00010000
00001000
00200000
00000000
00000000
00000000
00301000
00000000
00010000
00000010
,
00002000
00000000
00000000
00000000
00003100
00000000
00010000
00001000
01000000
00000000
00010000
00000000
00001000
00000000
00000100
00000000
,
00000120
00000000
00000000
00000000
00010030
00000000
00000010
00001000
00000200
00000000
00000000
00000000
00010300
00000000
00001000
01000000
,
00020000
00000000
00000000
00000000
00130000
00000000
00001000
00010000
00000100
00000000
00010000
00000000
00001000
00010000
00100000
00000000
,
02000000
00000000
00000000
00000000
03010000
00000000
01000000
00100000
01000000
00000000
00100000
00010000
00100000
00000000
00010000
00001000
,
00010000
00000000
00000100
00000010
00000200
00000000
00000000
00000000
00000310
00000000
00010000
00001000
00010000
00001000
00010000
00000000
,
00000200
00000000
00000000
00000000
00000310
00000000
00010000
00000100
00002000
00000000
00000000
00000000
00003100
00000000
00010000
00001000
,
01000000
00000000
00001000
00010000
00001000
00000000
00010000
00000100
00001000
00000100
00000010
00000000
00010000
00000100
00001000
00000000
,
00000010
00000000
00010000
00001000
00010000
00000000
00001000
00100000
00002000
00000000
00000000
00000000
00013000
00000000
00000010
00001000
,
00000200
00000000
00000000
00000000
00010300
00000000
00000100
00001000
00000010
00000000
00010000
00001000
00100000
00000000
00010000
01000000
,
00100000
00000000
01000000
00010000
01000000
00000000
00001000
00010000
00001000
00000000
00010000
00000100
00020000
00000000
00000000
00000000
,
00031000
00000000
00000100
00000010
00000100
00000000
00010000
00001000
00020000
00000000
00000000
00000000
00032000
00000000
00000000
00000000
,
00203000
00000000
00000000
00000000
00301000
00000000
00010000
00000100
00010000
00000000
00000010
00001000
00000010
00000000
00010000
00001000
,
00010000
00000000
00000100
00001000
00000100
00000000
00010000
00000000
00000010
00000000
00010000
00000000
00001000
00010000
00100000
00000000
,
02000000
00000000
00000000
00000000
03001000
00000000
00100000
00001000
00020000
00000000
00000000
00000000
00030010
00000000
00001000
00000100
,
00010000
00000000
00000010
00000000
00010000
00000000
00001000
00100000
00002000
00000000
00000000
00000000
00023000
00000000
00000000
00000000
,
00031000
00010000
00001000
00000000
00000100
00000010
00000100
00000000
00000010
00000001
00000010
00000000
00000001
00001000
00000001
00000000
,
00001000
00000000
00000001
00000100
00000001
00000000
00001000
00000000
00000010
00000000
00010000
00001000
00010000
00000000
00000100
00000000
,
00010000
00000100
00010000
00000000
00001000
00010000
00001000
00000000
00100000
00010000
00100000
00000000
00010000
10000000
00010000
00000000
,
10000000
01000000
10000000
01000000
00100000
01000000
00100000
01000000
00100000
00010000
00100000
00010000
00100000
00001000
00100000
00001000
,
00010000
00001000
00010000
00001000
00020000
00000000
00000000
00000000
00030000
00000000
00000000
00000000
00000010
00001000
00000100
00001000
,
00000001
00000000
00000100
00000000
00000010
00001000
00000000
00001002
00000000
00000000
00000103
00000000
00000010
00000000
00001000
00000000
,
00000100
00000000
00001000
00000000
00010000
01000000
00000000
01100000
00000000
00100000
00000000
10100000
00000000
10000000
00000000
00010000
,
01000000
00000000
00100000
00000000
10000000
01000000
00000000
01020000
00000000
00000000
00031000
00000000
00000100
00000010
00000100
00000000
,
00000010
00000000
00000001
00000000
00001000
00000100
00000000
00000210
00000000
00000000
00000000
00000000
00000320
00000000
00000000
00000000
,
00000031
00000010
00000000
00000100
00000000
00010000
00000000
00012000
00000000
00000000
00000000
00000000
00203000
00000000
02300000
00000000
,
13000000
00000000
01000000
00000000
00100000
00010000
00000000
20010000
00000000
00000000
00000000
30020000
00000000
00000000
02030000
00000000
,
03100000
10000000
00000000
01000000
00000000
00100000
00000000
00102000
00000000
00000000
00000000
00000000
00013000
00001000
00010000
00000000
,
00000100
00000000
00001000
00000010
00000100
00000000
00000001
00000010
00000100
00000000
00001000
00000010
00000100
00000000
00000001
00000000
,
00001000
00000000
00000100
00000000
00000010
00000001
00000000
00001000
00000001
00000000
00000100
00000000
00000010
00001000
00000000
00000100
,
00010000
00000000
00001000
00000000
00100000
00010000
00000000
00100000
01000000
00000000
10000000
00000000
10010000
00000000
00000000
02200000
,
00000000
00000000
00000000
00000000
,
00000000
00000000
03300000
00022000
,
00000000
00000000
00000000
00033000
,
00000000
00000000
00000220
00000000
,
00000000
00000000
00000000
00000000
,
00000000
00000000
00000000
00000000
,
00000000
00000000
00000000
00000000
00000000
00000000
00000000
00000000
00000000
00000000
00000000
00000000
00000330
00000000
00000000
00000000
00000000
00000000
00000000
00002002
00000000
00000000
00000000
00000000
00000000
00000000
00000000
00000000
00000000
00000000
00000000
00000000
00000000
00000000
00000000
00000000
00000000
00000000
00000000
00000000
00000000
00000000
00000000
00000000
00000000
00000000
00000000
00000000
,
00003003
00000000
00000000
00000000
;
