#TITLE:Go Beyond!!;
#ARTIST:Ryu☆ Vs. Sota;
#GENRE:TRANCE CORE;
#BANNER:Go Beyond!!.png;
#BACKGROUND:Go Beyond!!-bg.png;
#CDTITLE:./CDTitles/bm IIDX 13 DistorteD.png;
#MUSIC:Go Beyond!!.ogg;
#SAMPLESTART:85.201;
#SAMPLELENGTH:15;
#BPMS:0=200,26=100,27=200,33=100,34=200,38=100,39.5=200,40=400,96=200,100=400,156=200,160=100,212=200,216=400,336=200,340=400,396=200,400=400,456=200,460=100;
#STOPS:39.5=0.038,39.625=0.037,39.75=0.037,39.875=0.037,211.9375=1.2;
#TIMESIGNATURES:0=4=4,24=3=4,27=4=4,31=3=4,34=4=4,38=2=4,40=4=4;
#STAGE:20;

//--------------- dance-single - Fred-104 ----------------
#NOTES:
     dance-single:
     Fred-104:
     Beginner:
     7:
     :
0000
0000
0000
0000
,
0000
0000
0000
0000
,
0000
0000
0000
0000
,
1000
0000
0000
0000
,
0001
0001
0001
0000
,
1000
0000
0000
0000
,
0001
0000
0001
1000
,
0000
0010
0000
1000
,
1000
1000
0001
0000
,
0100
0000
0100
0100
,
0100
0000
0000
0000
,
0001
0000
0000
0000
,
1000
0000
0000
0000
,
1000
0000
0000
0000
,
0001
0000
0000
0000
,
1000
0000
0000
0000
,
0001
0000
0000
0000
,
1000
0000
0000
0000
,
1000
0000
0000
0000
,
0001
0000
0000
0000
,
0010
0000
0000
0000
,
0001
0000
0000
0000
,
1000
0000
0000
0000
,
0001
0000
0000
0000
,
2002
0000
0000
3003
,
0100
0000
0000
0000
,
0100
0000
0000
0000
,
0010
0000
0010
0000
,
0010
0000
0000
0000
,
0001
0000
0000
0000
,
1000
0000
0000
0000
,
0010
0000
0010
0000
,
0010
0000
0000
0000
,
1000
0000
0000
0000
,
0001
0000
0000
0000
,
0100
0000
0100
0000
,
0100
0000
0000
0000
,
0001
0000
0000
0000
,
1000
0000
0000
0000
,
2002
0000
0000
3003
,
2000
0000
0000
3000
,
0200
0000
0000
0300
,
0020
0000
0000
0030
,
0002
0000
0000
0003
,
0100
0000
0010
0000
,
0100
0000
0001
0000
,
1000
0000
0010
0000
,
1000
0000
1000
0000
,
1001
0000
0000
0100
,
0100
0000
0000
0010
,
0010
0000
1000
0000
,
0001
0000
0100
0000
,
2002
0000
0000
3003
,
0000
1000
1000
1000
,
1000
0000
0000
0000
,
0010
0000
0000
0000
,
1000
0000
0000
0000
,
0001
0000
0001
0000
,
0100
0000
0000
0000
,
0001
0000
0000
0000
,
0100
0000
0000
0000
,
0010
0000
0010
0000
,
0010
0000
0000
0000
,
1000
0000
0000
0000
,
0001
0000
0000
0000
,
1000
0000
1000
0000
,
1000
0000
0000
0000
,
0001
0000
0000
0000
,
2002
0000
0000
0000
,
3003
0000
0000
0000
,
1000
0000
1000
0000
,
0100
0000
0100
0000
,
1000
0000
1000
0000
,
0001
0000
0001
0000
,
0100
0000
0100
0000
,
0010
0000
0100
0000
,
0100
0000
0001
0000
,
1001
0000
0000
0000
,
1000
0000
1000
0000
,
0010
0000
1000
0000
,
0001
0000
0001
0000
,
0100
0000
0010
0000
,
0100
0000
0100
0000
,
0001
0000
1000
0000
,
2002
0000
0000
3003
,
1000
0000
1000
0000
,
0100
0000
1000
0000
,
0001
0000
0001
0000
,
0100
0000
0010
0000
,
0100
0000
0100
0000
,
0001
0000
1000
0000
,
0001
0000
1000
0000
,
1001
0000
0000
0000
,
0100
0000
0100
0000
,
0010
0000
0001
0000
,
1000
0000
1000
0000
,
0001
0000
1000
0000
,
0100
0000
0010
0000
,
0001
0000
1000
0000
,
1001
0000
0000
0000
,
0100
0000
0010
0000
,
0001
0000
0001
0000
,
1000
0000
0001
0000
,
0100
0000
0100
0000
,
1000
0000
0001
0000
,
0001
0000
0010
0000
,
0010
0000
1000
0000
,
0001
0000
1000
0000
,
0001
0000
1000
0000
,
1001
0000
0000
0000
,
0010
0000
0100
0000
,
0110
0000
0000
0000
,
0001
0000
1000
0000
,
0001
0000
0001
0000
,
1000
0000
0001
0000
,
2000
0000
0000
3000
,
0020
0000
0000
0030
,
0001
1000
0001
0100
,
2002
0000
0000
0000
,
0000
0000
0000
0000
,
3003
0000
0000
0000
;

//--------------- dance-single - Fred-104 ----------------
#NOTES:
     dance-single:
     Fred-104:
     Easy:
     10:
     :
0000
0000
0000
0000
,
0000
0000
0000
0000
,
0000
0000
0000
0000
,
1000
1000
0010
1000
,
0001
1000
2002
3003
,
0100
0100
0010
0100
,
0001
0000
1000
0000
2002
3003
0101
0000
,
0100
0000
0010
1000
0010
0000
1000
0001
,
1000
0000
0220
0330
1001
0000
0000
0000
,
0100
0000
0100
0000
0100
0000
0000
0000
1000
0000
0010
0000
1000
0001
0200
0000
,
0310
0000
0010
0000
,
1000
0000
1000
0000
,
0001
0000
0100
0000
,
0001
0000
0001
0000
,
1000
0000
0100
0000
,
0100
0000
1000
0000
,
0001
1000
0000
0001
,
0000
1000
0000
0010
,
0100
0000
0010
0000
,
0010
0000
1000
0000
,
0001
0000
0001
0000
,
1000
0000
0100
0000
,
1001
0000
0000
0000
,
0110
0000
0000
0000
,
1000
1100
0001
0101
,
1000
0000
0100
0000
,
1000
0000
0100
0000
,
0010
0100
0010
0000
,
0001
0000
0001
0000
,
1000
0000
0100
0000
,
1000
0000
0001
0000
,
0100
0010
0100
0000
,
0001
0000
0010
0000
,
0001
0000
0010
0000
,
1000
0000
0010
0000
,
0001
1000
0001
0000
,
1000
0000
0001
0000
,
1000
0100
0001
0000
,
0001
0100
1000
0000
,
1000
0000
0000
0001
0000
0220
0330
0000
,
2000
3020
0230
0302
,
2003
0000
0000
3002
,
0023
2030
3200
0302
,
2003
0000
3000
1001
,
0002
0023
0230
2300
,
3002
0000
0000
0203
,
0320
2030
3002
0203
,
0310
0100
0100
0010
,
1000
0100
1000
0000
0001
0100
0010
0000
,
1000
0100
0010
0000
0010
0001
1000
0000
,
0001
0100
0010
0100
0001
0100
0100
0010
,
1000
0100
0010
0001
1000
0010
0100
0001
,
1000
0000
0000
0010
0000
0000
1000
0000
0000
0001
0000
0000
0100
0000
0000
0010
,
0000
1000
0001
1001
,
1000
0000
0100
0000
,
1000
0000
0100
0000
,
1000
0000
0010
0000
,
1000
0000
0100
0000
,
1000
0000
0001
0000
,
0100
0000
0001
0000
,
0010
0000
0001
0000
,
0100
0000
0001
0000
,
0100
0000
0010
0000
,
0100
0000
0100
0000
,
0010
0000
1000
0000
,
0010
0000
1000
0000
,
0001
0000
1000
0000
,
0100
0000
1000
0000
,
0002
0000
0000
0003
,
2000
0000
0000
3000
,
0001
0000
0100
0000
,
0001
0000
0010
0000
,
0001
0000
0100
0000
,
0010
0100
0010
0000
,
0100
0000
0010
0000
,
1000
0000
0001
0000
,
1000
0000
0100
0000
,
1000
0001
1000
0000
,
0001
0000
0100
0000
,
0001
0000
0100
0000
,
1000
0000
0100
0000
,
1000
0000
0100
0000
,
1010
0000
0000
0000
,
0011
0000
0000
0000
,
1001
1000
0100
0010
,
0001
0000
0100
0000
,
0010
0000
1000
0000
,
0010
0000
1000
0000
,
0100
0000
0010
0001
,
1000
0000
0001
0000
,
1000
0010
1000
0000
,
0001
0100
0001
0000
,
0100
0000
0100
0000
,
0020
0000
1030
0000
,
0002
0000
1003
0000
,
0200
0000
1300
0000
,
0002
0000
0103
0000
,
0010
0000
1000
0000
,
0001
0000
1000
0000
,
0100
1000
0001
0010
,
0002
0000
1003
0000
,
0002
0000
0103
0000
,
0020
0000
1030
0000
,
0200
0000
0310
0000
,
0002
0000
1003
0000
,
0001
0000
1000
0000
,
0010
0000
0100
0000
,
0010
0100
0010
0100
,
0020
0000
1030
0000
,
0002
0000
0103
0000
,
0002
0000
0013
0000
,
2000
0000
3100
0000
,
0001
1000
0001
0000
,
1000
0100
1000
0000
,
0001
0100
0010
1000
,
2002
0000
0000
0000
0000
3003
0020
0000
,
0230
0000
0000
0302
,
2003
3020
0032
0103
,
2002
0000
0000
0000
,
0000
0000
0000
0000
,
3003
0000
0000
0000
;

//--------------- dance-single - Fred-104 ----------------
#NOTES:
     dance-single:
     Fred-104:
     Medium:
     14:
     :
0000
0000
0000
0000
,
0000
0000
0000
0000
,
0000
0000
0000
0000
,
1000
0001
1000
0000
0010
0100
0001
0000
,
1000
0000
0000
0100
0000
0000
0100
0000
1000
0000
0001
0000
0010
0000
0000
0000
,
0001
0100
0010
0000
1000
0001
0100
0000
,
0010
0000
0000
0100
0000
0000
0010
0000
0100
0010
0200
0000
0301
0000
0010
0000
,
0001
0000
1000
0000
0010
0000
1000
0000
0100
0000
0000
0000
0010
0000
0000
0100
,
0000
0000
0100
0000
0002
0000
1003
0001
1001
0000
0000
0000
0000
0000
0000
0000
,
0100
0000
0000
0000
0100
0000
0000
0000
0110
0000
0000
0000
0000
0000
0000
0000
0001
0000
0000
0010
0000
0000
0001
0000
1000
0000
0010
0000
1000
0000
1000
0000
,
0001
0000
1000
0000
,
0010
1000
0100
1000
,
0010
1000
0100
0010
,
0000
0001
0100
0000
,
0001
0000
1000
0000
,
0100
1000
0100
0010
,
0100
0110
0000
0101
,
0000
1001
0000
0001
,
0100
0010
1000
0010
,
0100
0001
0010
0100
,
0001
0100
1000
0001
,
0100
0010
1000
0100
,
1100
0000
1001
0000
,
0011
0000
1001
0000
,
2000
3100
0020
0031
0200
0310
0220
0330
,
0001
0100
0100
1000
,
0001
0100
0010
1000
,
0010
1000
0100
0010
,
0100
0001
0100
1000
,
0001
0010
0001
0010
,
0100
0010
0001
1000
,
0001
0010
0100
1000
,
0001
0100
0010
0100
,
0001
0000
0101
0000
,
1000
1100
0000
0010
,
0100
0110
0000
1001
,
0000
0000
0001
0000
0010
0000
0001
1000
,
0001
0000
1000
0000
0100
1000
0100
0000
,
0010
0000
0001
0000
1000
0010
0100
0000
,
0001
1000
0000
0100
0000
0220
0330
0000
,
0002
0203
0320
2030
,
3200
0000
0000
0302
,
0203
2300
3020
0230
,
0002
0000
0303
1100
,
0102
0203
0320
2030
,
3002
0000
0000
0000
0000
0203
0320
0000
,
2030
3200
0302
0203
,
1300
0001
0100
0010
,
1000
0000
0100
0000
0010
0000
0001
0000
1000
0010
0100
0000
0001
1000
0100
0000
,
0010
0000
0100
0000
1000
0000
0001
0000
0100
1000
0100
0000
0001
0010
0100
0000
,
1000
0000
0010
0000
1000
0100
0010
0000
0001
0000
1000
0000
0010
0100
0001
0000
,
1000
0100
0001
0000
0100
1000
0000
0010
1000
0000
0100
0001
0100
1000
0010
0000
,
0100
0001
0000
1000
0001
0000
0010
1000
0010
0001
0100
0000
0001
0100
0010
1000
,
0000
1010
0101
0110
,
1000
0100
1000
0001
,
1000
0010
0100
0001
,
1000
0100
1000
0100
,
0001
0100
0001
0100
,
1000
0010
0100
0010
,
1000
0001
0010
0100
,
1000
0010
1000
0010
,
0001
0010
2000
0000
,
3001
0010
0100
0010
,
0001
0100
0010
0100
,
0001
0100
1000
0100
,
0001
1000
0010
0100
,
0001
1000
0100
0001
,
0100
0010
0001
1000
,
0001
0001
1000
1000
,
0001
1000
2002
3003
,
1000
1000
0100
0100
,
0010
0010
0001
0001
,
1000
0100
0010
0100
,
0001
0100
1000
0001
,
0010
0010
0001
0001
,
1000
1000
0100
0100
,
1000
0001
0100
1000
,
0001
0010
2000
0000
,
3001
0100
0100
0010
,
1000
0100
0100
0010
,
0001
0100
1000
0100
,
0001
0100
0010
1000
,
0001
0010
0100
1000
,
0010
1000
0100
1000
,
0002
2003
3020
0230
,
0301
0010
0001
0010
,
1000
0010
1000
0010
,
0001
0100
0001
0100
,
1000
0100
1000
0100
,
0001
0010
0100
1000
,
0010
0100
0001
1000
,
0100
0010
0001
1000
,
0010
0100
0110
0000
,
0010
1000
0100
0100
,
0010
0001
0100
0100
,
0001
0100
0010
0010
,
1000
0100
0010
0010
,
0001
1000
0010
0100
,
0001
1000
0100
0010
,
0002
0003
2000
3000
0002
0003
2002
3003
,
1000
0010
1000
0100
,
0010
0100
1000
0100
,
0010
0001
0100
0010
,
0100
0001
0100
0010
,
1000
0100
1000
0001
,
1000
0010
0100
0010
,
1000
0001
0010
0100
,
0010
0001
0100
0010
,
1000
0001
1001
0000
,
1000
1100
0000
0001
,
0100
0101
0000
0110
,
0000
0000
1010
0000
0000
0000
0001
1000
,
0001
0000
0100
0000
0010
0100
0010
0000
,
1000
0000
0100
0000
0010
0100
0010
0000
,
0002
0003
2000
3000
0200
0300
0220
0330
,
2002
0000
0003
3020
,
0230
0000
0000
0302
,
0023
2030
3200
0301
,
2002
0000
0000
0000
,
0000
0000
0000
0000
,
3003
0000
0000
0000
;

//--------------- dance-single - Fred-104 ----------------
#NOTES:
     dance-single:
     Fred-104:
     Hard:
     17:
     :
0000
0000
0000
0000
,
0000
0000
0000
0000
,
0000
0000
0000
0000
,
0110
0100
1000
0000
0001
0100
0110
0000
,
1100
0000
0000
0101
0000
0000
0010
0000
0100
0000
0100
0000
1001
0000
0000
0000
,
0011
0010
0100
0000
1000
0100
1100
0000
,
1001
0000
0000
0110
0000
0000
1000
0000
0001
0100
0020
0000
1030
0001
0100
0000
,
0010
0000
1000
0000
0100
0010
0001
0000
1000
0000
0001
0000
0011
0000
0000
1010
,
0000
0000
0011
0000
0002
0000
1003
0001
0101
0000
0000
0000
0000
0000
0000
0000
,
0110
0000
0000
0000
0000
0000
0000
0000
1100
0000
0000
0000
0000
0000
0000
0000
1001
0000
0000
0000
0000
0000
0000
0000
0000
0000
0000
0000
0000
0000
0000
0000
1000
0000
0000
0000
0000
0000
0010
0000
0000
0000
0000
0000
1000
0000
0000
0000
0001
0000
0000
0000
0100
0000
0000
0000
0020
0030
0200
0300
0020
0030
0200
0300
,
0010
1000
1100
0100
,
0010
0001
0101
0100
,
0010
1000
1001
0001
,
0100
0010
0110
0000
,
0001
0001
0100
0010
,
1000
1000
0100
0001
,
0100
0110
0000
1100
,
0000
0101
0000
1010
,
1001
0000
0110
0100
,
0001
1000
0100
0100
,
0010
0001
0010
0100
,
1000
0010
0100
0001
,
0011
0100
1000
0000
,
1010
0100
0001
0000
,
0002
0103
2000
3001
0020
1030
2002
3003
,
1000
0100
1000
0001
,
1000
0100
0010
0001
,
1000
0010
0100
0010
,
1000
0000
0001
0010
0100
0000
1000
0000
,
1001
0000
0101
0100
,
0010
1000
0001
1000
,
0100
0001
0100
1000
,
0010
0000
1000
0000
0100
0000
0010
0001
,
0010
0000
0110
0000
,
1100
1100
0000
0101
,
1001
1001
0000
1010
,
0000
0000
0001
0000
0100
0010
0100
0010
,
0100
0000
0001
0000
1000
0010
0100
0000
,
0001
0000
0010
0000
0100
1000
0001
0100
,
0020
0100
0000
0100
0000
0200
0330
0000
,
0210
2300
3002
0203
,
0320
0000
0000
2030
,
3200
0302
0023
2030
,
0002
0000
3003
0110
,
2001
3020
0032
0203
,
2300
0000
0000
0000
0000
3020
0230
0000
,
0301
0010
2000
0000
3001
0100
2000
0000
,
3001
0010
1000
0001
0100
1000
0002
0000
,
0103
0001
0010
0000
0001
0100
0000
0010
0001
0000
1000
0010
1000
0100
1000
0000
,
0001
0100
0010
0000
1000
0100
0000
0010
0001
0000
0010
1000
0010
0001
0100
0000
,
0001
0100
1000
0000
0100
0001
0010
0000
0100
1000
0001
0000
0100
0010
1000
0000
,
1000
0001
0010
0100
1000
0100
0010
1000
0010
0100
1000
0010
1000
0100
0010
0100
,
1000
0010
0001
1000
0100
0001
1000
0010
0001
1000
0100
0001
1000
0010
0001
1000
,
1010
0101
1100
0011
,
1000
0100
1000
0000
0100
0000
0010
0000
,
0001
1000
0001
0000
0100
0000
0010
0000
,
1000
0010
1000
0000
0001
0000
0100
0000
,
0010
0100
0010
0000
1000
0000
0001
0000
,
0100
0001
0100
0000
0010
0100
0010
0000
,
1000
0010
1000
0000
0001
0100
0001
0000
,
1000
0100
1000
0000
0010
0100
0010
0000
,
1000
0001
1000
0000
1001
0000
0000
0000
,
1000
0010
1000
0000
0001
0010
0001
0000
,
1000
0100
1000
0000
0001
0100
0001
0000
,
0100
0010
0100
0000
0001
1000
0001
0000
,
1000
0010
1000
0000
0100
1000
0100
0000
,
0010
0100
0010
0000
0100
0001
0100
0000
,
0001
0010
0001
0000
1000
0001
1000
0000
,
0001
0100
0001
0100
0001
0100
0001
0100
,
0020
2030
3002
0203
,
0301
0100
0001
0100
0001
0000
1000
0000
,
0010
0100
0010
0100
0010
0000
1000
0000
,
0100
1000
0100
1000
0100
0000
0010
0000
,
0001
0010
0001
0010
0001
0000
0100
0000
,
0010
1000
0010
1000
0001
0000
0100
0000
,
0010
0100
0010
0100
0001
0000
1000
0000
,
0001
1000
0010
1000
0100
0000
0010
0000
,
0001
0100
0001
0100
0010
0000
1000
0000
,
0001
0100
0001
0100
0010
1000
0001
0000
,
1000
0100
1000
0100
0010
0001
0010
0000
,
0001
0010
0100
1000
0010
1000
0001
0000
,
1000
0010
1000
0010
0100
0001
1000
0000
,
0001
0100
0010
0100
0001
1000
0010
1000
,
0001
0010
0001
0010
0100
1000
0100
1000
,
0002
0000
0100
0003
2000
0000
0010
3000
,
1001
0001
0100
0010
,
2000
3100
0010
0001
,
0200
1300
0100
0001
,
0020
0130
1000
0001
,
2000
3100
0010
0001
,
0100
0010
0001
0010
,
1000
0001
0100
1000
,
0100
0010
2000
3001
,
1001
1000
0010
0000
,
1001
0001
0100
0000
,
1100
0001
0100
0000
,
0011
1000
0010
0000
,
1000
0100
1000
0001
,
1000
0100
1000
0010
,
2020
3030
0202
0303
2200
3300
0022
0033
,
1000
0010
0100
0000
0001
0000
0100
0000
,
0010
1000
0001
0000
0010
0000
0100
0000
,
0010
0001
1000
0000
0010
0000
0100
0000
,
0010
1000
0100
0000
0010
0000
0001
0000
,
0101
0100
0001
0100
,
0010
1000
0100
0010
,
0001
0100
0010
1000
,
1001
0000
0001
0000
1000
0000
0100
0010
,
0001
0000
0100
0010
1000
0000
0001
0000
,
0011
1001
0000
1010
,
0101
1001
0000
0011
,
0000
0000
1100
0000
0000
0000
0001
0010
,
0100
0000
1000
0000
0001
0100
0010
0100
,
0001
0000
1000
0000
0100
0010
0001
1000
,
0200
0300
0200
0300
0200
0300
2002
3003
,
2200
0000
0000
0000
0000
3000
0320
0000
,
0032
0000
0000
0203
,
2300
3020
0032
1003
,
2002
0000
0000
0000
,
0000
0000
0000
0000
,
3003
0000
0000
0000
;

//--------------- dance-single - Fred goes beyond!! ----------------
#NOTES:
     dance-single:
     Fred goes beyond!!:
     Challenge:
     18:
     :
0000
0000
0000
0000
,
0000
0000
0000
0000
,
0000
0000
0000
0000
,
1000
0001
0101
0100
0010
1000
0100
0000
,
1000
0000
0010
0001
0000
0010
0100
0000
0001
0000
1000
0000
0001
0000
0000
0000
,
1100
0100
0010
0100
0100
0001
0100
0010
,
1000
0000
0010
0100
0000
0001
1000
0000
0002
0000
0100
0103
0001
1000
0100
0000
,
1000
0100
0010
0000
0001
0100
1000
0000
0100
0000
0010
0000
1000
0000
0100
0010
,
0000
0001
1000
0000
1200
0000
0010
0310
1001
0000
0000
0000
0000
0000
0000
0000
,
1010
0000
0000
0000
0000
0000
0000
0000
0011
0000
0000
0000
0000
0000
0000
0000
0110
0000
0000
0000
0000
0000
0000
0000
0000
0000
0000
0000
0000
0000
0000
0000
1000
0000
0000
0000
0010
0000
0100
0000
0000
0000
0001
0000
1000
0000
0000
0000
0001
0000
0000
0000
0001
0000
0000
0000
0200
0300
0020
0030
2000
3000
0002
0003
,
0100
0001
1000
0000
,
1100
0100
1000
0010
,
2000
3020
0032
0203
,
2300
0000
3002
0000
1003
0010
0200
0000
,
0301
0100
0110
0000
,
1100
0100
0001
0100
,
0110
0110
0000
1100
,
0000
0101
0000
0101
,
1001
0000
0110
0000
,
1000
0000
0010
1000
0100
0000
0010
0000
,
0001
0000
1000
0001
0100
0000
0001
0000
,
1000
0100
0110
0000
,
1010
0100
0001
0000
,
0011
0100
1000
0001
,
2000
3000
0100
0000
0002
0003
1000
0000
0020
0030
0001
0000
2002
3003
0000
0000
,
1100
0100
0010
0001
,
1000
0000
0010
1000
0200
0000
0010
0001
,
0000
0000
0010
1000
0000
0000
0010
0001
,
0300
0000
0010
1000
0100
0000
0110
0000
,
0001
0000
1001
1000
,
0100
0000
1000
0001
0010
0000
0001
1000
,
0200
0000
1000
0001
0000
0000
0001
1000
,
0300
0000
1000
0010
0100
0001
1000
0100
,
0010
0000
0011
0000
,
1010
0011
0000
1100
,
0101
0110
0000
1001
,
0000
0000
1000
0000
0010
0100
0001
1000
,
0010
0000
1000
0000
0010
0100
0001
0100
,
0010
0000
1000
0000
0001
0010
0100
1000
,
0020
0000
2000
3000
0000
0000
0002
0003
0000
0000
0200
0000
0330
0000
0000
0000
,
1200
0320
0032
2003
,
3002
0000
0000
0203
,
2300
3020
0032
2003
,
0002
0000
0000
0000
3003
0000
0120
0030
,
2200
3300
0202
0303
2020
3030
0022
0033
,
2002
0000
0000
0000
0003
3200
0320
0000
,
0032
0103
2000
3100
0002
0013
2000
3010
,
0001
0100
1000
0001
0010
1000
0001
0100
,
0010
1000
0100
0000
0001
0100
0100
1000
0001
0100
1000
0100
0001
0100
0010
0000
,
1000
0100
0001
0000
1000
0010
0001
1000
0001
0010
0100
0001
0100
1000
0001
0000
,
1000
0100
0010
1000
0010
0001
1000
0010
0100
1000
0100
0001
1000
0010
0001
0010
,
0100
0001
1000
0100
0010
0001
0100
0010
0001
0010
1000
0001
0100
1000
0100
0010
,
1000
0001
0010
0100
0001
0100
0010
0001
1000
0100
0010
1000
0010
0100
1000
0001
,
1100
0101
1010
0011
,
1000
0100
0010
0001
1000
0000
0010
0000
,
0100
0001
1000
0001
0100
0000
0010
0000
,
1000
0010
0100
0001
1000
0000
0001
0000
,
1000
0100
1000
0001
0100
0000
0010
0000
,
1000
0010
0100
0010
1000
0000
0100
0000
,
0010
0001
1000
0001
0100
0000
0010
0000
,
1000
0001
0010
0001
0100
0000
0010
0000
,
1000
0010
0100
0001
0100
0000
0001
0000
,
1000
0100
0010
0100
1000
0010
0100
0000
,
0001
0100
0010
0100
0001
0010
0100
0000
,
1000
0001
0100
0001
1000
0100
0010
0000
,
0001
0010
0001
1000
0010
0100
0001
0000
,
1000
0100
0010
0001
0100
0010
1000
0100
,
0010
0001
0010
0100
1000
0010
0100
0001
,
1000
0100
1000
0010
0100
0001
1000
0001
,
0010
0100
1000
0100
0010
0001
1000
0000
,
1000
0010
1000
0100
1000
0001
1000
0100
,
0010
0001
0010
0001
1000
0001
0010
0001
,
1000
0010
1000
0100
1000
0010
1000
0010
,
0100
0001
1000
0001
0100
0001
0010
0001
,
1000
0001
0100
0001
1000
0001
0010
0001
,
0100
0010
1000
0010
0100
0001
0100
0010
,
1000
0010
1000
0010
0100
0001
0100
0001
,
1000
0100
0010
0001
1000
0010
0100
0000
,
0001
0100
0010
1000
0001
0100
0010
1000
,
0001
1000
0010
0100
0001
1000
0010
0100
,
0001
1000
0100
0010
0001
1000
0100
0010
,
0001
1000
0010
0100
0001
0010
0100
1000
,
0001
0100
0010
1000
0001
0010
0100
0010
,
0001
1000
0010
1000
0100
0010
0001
1000
,
0002
0103
2000
3010
0002
1003
1001
0000
,
0011
0001
0100
0010
,
0110
0010
1000
0001
,
1001
1000
0100
0010
,
0101
0100
0010
1000
,
1100
0100
0010
0001
,
0011
0001
0100
0010
,
1010
1000
0001
1000
,
1001
0000
0100
0010
0100
0000
0010
0000
,
0011
0000
0001
1000
0100
0000
0010
0000
,
0110
0000
0100
0010
1000
0000
0010
0000
,
1010
0000
1000
0100
0010
0000
0001
0000
,
0101
0000
0001
0010
0100
0000
1000
0000
,
1001
0000
1000
0010
0100
0000
0001
0000
,
1001
0000
1000
0001
0100
0000
0010
0000
,
2020
3030
0000
0000
0022
0033
0000
0000
2200
3300
0000
0000
0202
0303
0000
0000
,
1000
0010
0100
0000
0001
1000
0100
0000
,
0010
0001
1000
0000
0010
0100
0010
0000
,
1010
0000
1000
0100
0001
0000
0100
0000
,
0011
0000
0001
0100
1000
0000
0100
0000
,
1000
0010
0100
0000
0001
0010
0100
0000
,
0010
0001
1000
0000
0001
0100
0010
0000
,
0110
0100
0001
0010
,
0110
0000
0100
0000
1000
0000
0010
1000
,
0001
0000
1000
0100
0010
0000
0001
0000
,
0011
1100
0000
0110
,
1001
1001
0000
0101
,
0000
0000
1010
0000
0000
0000
0001
0010
,
0001
0000
1000
0000
0010
1000
0100
1000
,
0001
0000
0100
0000
0010
1000
0001
0100
,
0220
0330
0000
0000
2200
3300
0000
0000
0202
0303
0000
0000
2002
3003
0000
0000
,
2200
0000
0000
0000
0000
3000
0320
0230
,
0302
0000
0000
0000
0000
0003
2010
3020
,
0230
0000
0302
0000
0023
0000
0230
0300
,
2002
0000
0000
0000
,
0000
0000
0000
0000
,
3003
0000
0000
0000
;

//--------------- dance-double - Fred-104 ----------------
#NOTES:
     dance-double:
     Fred-104:
     Easy:
     10:
     :
00000000
00000000
00000000
00000000
,
00000000
00000000
00000000
00000000
,
00000000
00000000
00000000
00000000
,
00100000
00010000
10000000
10000000
,
01000000
00100000
01100000
00000000
,
00010000
00010000
00001000
00000010
,
00000100
00000000
00000001
00000000
00001001
00000200
00000310
00000000
,
00000001
00000001
00001000
00000010
,
00010000
00000000
00011000
00010000
01100000
00000000
00000000
00000000
,
10000000
00000000
00010000
00000000
01000000
00000000
00000000
00000000
00100000
00000000
00010000
00000000
00100000
00001000
00020000
00000000
,
00030010
00000000
00000100
00000000
,
00000100
00000000
00000001
00000000
,
00000100
00000000
00000010
00000000
,
00010000
00000000
00001000
00000000
,
00010000
00000000
00001000
00000000
,
00100000
00000000
00001000
00000000
,
00100000
00100000
00000000
10000000
,
00000000
00010000
00000000
01000000
,
01000000
00000000
00100000
00000000
,
10000000
00000000
01000000
00000000
,
00100000
00000000
00001000
00000000
,
00010000
00000000
00001000
00000000
,
00011000
00000000
00000000
00000000
,
00001010
00000000
00000000
00000000
,
00000001
00000100
00000010
00001010
,
00010000
00000000
00001000
00000000
,
00010000
00000000
00001000
00000000
,
00100000
00010000
00100000
00000000
,
01000000
00000000
01000000
00000000
,
00010000
00000000
10000000
00000000
,
01000000
00000000
00100000
00000000
,
00001000
00010000
00001000
00000000
,
00010000
00000000
00000010
00000000
,
00001000
00000000
00000100
00000000
,
00000010
00000000
00000001
00000000
,
00000100
00000010
00000100
00000000
,
00000001
00000000
00000100
00000000
,
00001000
00000000
00010000
00000000
,
01000000
00000000
10000000
00000000
,
20020000
00000000
00000000
30030000
,
02000000
03200000
00302000
00023000
,
00030200
00000000
00000000
00000320
,
00000032
00000203
00000302
00002003
,
00003020
00000000
00000030
00001001
,
00002000
00023000
02030000
23000000
,
30020000
00000000
00000000
02030000
,
23000000
32000000
03020000
00230000
,
01300000
00100000
00100000
00001000
,
00010000
00000100
00001000
00000000
00000100
00000010
00000001
00000000
,
00000100
00000010
00001000
00000000
00000001
00000010
00001000
00000000
,
00010000
00000000
00000000
00001000
00000000
00000000
00000100
00000000
00000000
00000001
00000000
00000000
00001000
00000000
00000000
00000100
,
00000000
00000000
00000010
00000000
00000000
00001000
00000000
00000000
00000100
00000000
00000000
00010000
00000000
00000000
00001000
00000000
,
00100000
00000000
00000000
00100000
00000000
00000000
10000000
00000000
00000000
01000000
00000000
00000000
00100000
00000000
00000000
01000000
,
00000000
00010000
00001000
00011000
,
00010000
00000000
00001000
00000000
,
00010000
00000000
00001000
00000000
,
00000100
00000000
00000010
00000000
,
00000001
00000000
00000100
00000000
,
00000001
00000000
00000100
00000000
,
00000010
00000000
00001000
00000000
,
00000100
00000000
00010000
00000000
,
00000010
00000000
00001000
00000000
,
00000100
00000000
00010000
00000000
,
00001000
00000000
01000000
00000000
,
00010000
00000000
00100000
00000000
,
00001000
00000000
00100000
00000000
,
00001000
00000000
01000000
00000000
,
00001000
00000000
00100000
00000000
,
00020000
00000000
00000000
00030000
,
20000000
00000000
00000000
30000000
,
01000000
00000000
01000000
00000000
,
00100000
00000000
00001000
00000000
,
00010000
00000000
00000100
00000000
,
00000010
00000100
00000010
00000000
,
00000001
00000000
00000001
00000000
,
00000100
00000000
00000010
00000000
,
00001000
00000000
00000100
00000000
,
00010000
00001000
00010000
00000000
,
00001000
00000000
00010000
00000000
,
00100000
00000000
01000000
00000000
,
10000000
00000000
00100000
00000000
,
01000000
00000000
00100000
00000000
,
10010000
00000000
00000000
00000000
,
01100000
00000000
00000000
00000000
,
01010000
00010000
00001000
00000100
,
00000010
00000000
00000001
00000000
,
00000010
00000000
00000100
00000000
,
00010000
00000000
00001000
00000000
,
00100000
00000000
00010000
00000000
,
00100000
00000000
01000000
00000000
,
10000000
00100000
10000000
00000000
,
00100000
00000000
01000000
00000000
,
00010000
00001000
00010000
00000000
,
00002000
00000000
00003010
00000000
,
00002000
00000000
00013000
00000000
,
00002000
00000000
00003100
00000000
,
00002000
00000000
00013000
00000000
,
00001000
00000000
00010000
00000000
,
00001000
00000000
00000100
00000000
,
00000001
00000100
00000010
00001000
,
00000002
00000000
00000103
00000000
,
00000020
00000000
00001030
00000000
,
00000200
00000000
00010300
00000000
,
00002000
00000000
01003000
00000000
,
00020000
00000000
00130000
00000000
,
01000000
00000000
10000000
00000000
,
00010000
00000000
00100000
00000000
,
00001000
00010000
00001000
00010000
,
00002000
00000000
00003010
00000000
,
00002000
00000000
00013000
00000000
,
00002000
00000000
01003000
00000000
,
00002000
00000000
00013000
00000000
,
00010000
00001000
00000100
00000000
,
00000001
00000100
00000010
00000000
,
00000100
00000010
00000100
00000001
,
00000022
00000000
00000003
00000230
,
00002300
00000000
00000000
00023000
,
02030000
23000000
30020000
10030000
,
20020000
00000000
00000000
00000000
,
00000000
00000000
00000000
00000000
,
30030000
00000000
00000000
00000000
;

//--------------- dance-double - Fred-104 ----------------
#NOTES:
     dance-double:
     Fred-104:
     Medium:
     14:
     :
00000000
00000000
00000000
00000000
,
00000000
00000000
00000000
00000000
,
00000000
00000000
00000000
00000000
,
00001000
00000000
00100000
00000000
00010000
10000000
01000000
00000000
,
00100000
00000000
00000000
00100000
00000000
00000000
00001000
00000000
00020000
00000000
00000000
00000000
00030000
00000000
00000000
00000000
,
00001000
00000100
00000001
00000000
00000100
00001000
00000010
00000000
,
00000100
00000000
00000000
00000100
00000000
00000000
00000010
00000000
00010000
00000000
00001000
00010000
00001000
00000000
00100000
00000000
,
00010000
00000000
00000000
00000000
10000000
00000000
01000000
00000000
00010000
00000000
00000000
00000000
00001000
00000000
00000000
00010000
,
00000000
00001000
00000010
00000100
00000110
00000000
00000000
00000000
,
00010000
00000000
00000000
00000000
00001000
00000000
00000000
00000000
00011000
00000000
00000000
00000000
00000000
00000000
00000000
00000000
00000100
00000000
00000000
00000010
00000000
00000000
00000001
00000000
00001000
00000000
00000010
00000000
00000100
00000000
00000100
00000000
,
00000001
00000000
00000100
00000000
,
00000010
00010000
00000010
00010000
,
00001000
00100000
00001000
00010000
,
00000000
00100000
00000000
01000000
,
01000000
00000000
10000000
00000000
,
00100000
01000000
00100000
00001000
,
00010000
00011000
00000000
00010010
,
00000000
00001010
00000000
00000001
,
00000001
00000100
00000010
00000000
,
00000001
00000010
00001000
00010000
,
00001000
00010000
00100000
10000000
,
00010000
01000000
00100000
10000000
,
11000000
00000000
01100000
00000000
,
00110000
00000000
00011000
00000000
,
00020000
00031000
00000020
00001030
00020000
00031000
00022000
00033000
,
00010000
00001000
00010000
00000000
,
00010000
00001000
00000100
00000001
,
00001000
00000100
00000010
00000100
,
00001000
00000001
00000100
00000010
,
00001000
00000000
00010000
00100000
,
01000000
00100000
00010000
10000000
,
00010000
00100000
00001000
00010000
,
00001000
00000010
00000001
00000010
,
00001000
00000000
00001001
00000000
,
00000100
00001100
00000000
00001000
,
00010000
00011000
00000000
10010000
,
00000000
00000000
01000000
00000000
00100000
00000000
10000000
01000000
,
10000000
01000000
00100000
00100000
,
00001000
00010000
00000010
00000010
,
00001000
00000001
00000000
00000100
00000000
00002002
00003003
00000000
,
00002000
00023000
00230000
20300000
,
32000000
00000000
00000000
03200000
,
00320000
00032000
00003200
00000302
,
00002000
00000000
00003003
00011000
,
00020000
02030000
23000000
30200000
,
00320000
00000000
00000000
00032000
,
00003200
00000302
00000023
00002030
,
00013000
00100000
01000000
10000000
00100000
01000000
00100000
10000000
,
01000000
00100000
00001000
00010000
00000100
00010000
00001000
00000100
,
00000001
00000010
00000100
00000000
00001000
00000010
00000000
00000100
00000010
00000000
00001000
00000100
00000000
00010000
00001000
00000000
,
00010000
00100000
10000000
00000000
00100000
00010000
00000000
10000000
01000000
00000000
10000000
00010000
00000000
00100000
01000000
00000000
,
00100000
00010000
00001000
00000000
00100000
00001000
00000000
00010000
00000100
00000000
00001000
00000010
00000000
00000100
00000010
00000000
,
00000001
00000010
00000000
00000100
00001000
00000000
00010000
01000000
00000000
00100000
10000000
00000000
00010000
00100000
01000000
00100000
,
00000000
00100000
00001000
00011000
,
00001000
00010000
00100000
01000000
,
00100000
00010000
10000000
00100000
,
01000000
00010000
01000000
10000000
,
01000000
00010000
10000000
00000000
,
01000000
10000000
01000000
00100000
,
10000000
00100000
00010000
00100000
,
00010000
00001000
00000010
00000001
,
00001000
00000001
00000100
00000000
,
00000001
00000100
00000010
00001000
,
00000010
00001000
00000100
00001000
,
00010000
00001000
00010000
01000000
,
10000000
00010000
01000000
00100000
,
10000000
01000000
00100000
01000000
,
00100000
00001000
00010000
00000100
,
00000010
00000001
00001000
00000010
,
00000100
00000010
00002000
00000000
,
00003001
00000100
00000001
00001000
,
00000100
00000010
00000100
00000001
,
00000100
00001000
00010000
00001000
,
00010000
01000000
10000000
00010000
,
01000000
00100000
01000000
10000000
,
01000000
00100000
10000000
00100000
,
00010000
00001000
01000000
00001000
,
00010000
00000100
00010000
00001000
,
00000100
00000010
00000001
00001000
,
00000010
00000100
00001000
00010000
,
00100000
01000000
00010000
00001000
,
00000100
00000010
00001000
00000100
,
00010000
00001000
00010000
00100000
,
01000000
00010000
00100000
00001000
,
00020000
00032000
00003010
00001001
,
00000001
00000100
00000010
00001000
,
00000100
00001000
00000100
00001000
,
00010000
00001000
00010000
00001000
,
00010000
01000000
10000000
00010000
,
01000000
00100000
01000000
00100000
,
10000000
00100000
10000000
00100000
,
00010000
00001000
00000010
00000001
,
00001000
00000000
00000001
00000000
,
00000100
00000001
00000100
00000000
,
00000010
00001000
00000100
00000000
,
00010000
00001000
00100000
00000000
,
00010000
00100000
10000000
00000000
,
00100000
00010000
00001000
00000010
,
00000001
00001000
00000010
00000100
,
00000002
00000003
00000020
00000030
00002000
00003000
00022000
00033000
,
00001000
00010000
00100000
00010000
,
00001000
00100000
00010000
00100000
,
00001000
00010000
00000100
00010000
,
00000100
00001000
00000100
00000010
,
00000001
00001000
00000001
00000100
,
00000001
00000100
00001000
00010000
,
00001000
00010000
01000000
10000000
,
00010000
01000000
00100000
10000000
,
01000000
00100000
01100000
00000000
,
00001000
00011000
00000000
00000100
,
00000010
00000110
00000000
00001001
,
00000000
00000000
00000110
00000000
00000000
00000000
00000001
00000100
,
00000001
00000000
00000100
00000000
00000010
00001000
00000010
00000000
,
00010000
00001000
00100000
01000000
,
20000000
30000000
02000000
03000000
00020000
00030000
00022000
00033000
,
00022000
00000000
00003000
00032000
,
00003002
00000000
00000000
00000023
,
00002030
00023000
02030000
13000000
,
20020000
00000000
00000000
00000000
,
00000000
00000000
00000000
00000000
,
30030000
00000000
00000000
00000000
;

//--------------- dance-double - Fred-104 ----------------
#NOTES:
     dance-double:
     Fred-104:
     Hard:
     17:
     :
00000000
00000000
00000000
00000000
,
00000000
00000000
00000000
00000000
,
00000000
00000000
00000000
00000000
,
00000001
00000100
00001000
00000000
00010000
01000000
10000000
00000000
,
00010000
00000000
10000000
00100000
00000000
01000000
00100000
00000000
10000000
00000000
01000000
00000000
00100000
00000000
00000000
00000000
,
10000000
00100000
00010000
00000000
00001000
00000010
00000001
00000000
,
00001000
00000000
00000001
00000100
00000000
00000010
00000100
00000000
00000001
00000000
00000100
00000100
00000010
00000000
00001000
00000000
,
00000100
00000000
00001000
00000000
00010000
00000000
01000000
00000000
00100000
00000000
00000000
00000000
10000000
00000000
00010000
01000000
,
00000000
01000000
00010000
00000000
01000000
00000000
00100000
00100000
00011000
00000000
00000000
00000000
00000000
00000000
00000000
00000000
,
00001010
00000000
00000000
00000000
00000000
00000000
00000000
00000000
00001010
00000000
00000000
00000000
00000000
00000000
00000000
00000000
00001001
00000000
00000000
00000000
00000000
00000000
00000000
00000000
00000000
00000000
00000000
00000000
00000000
00000000
00000000
00000000
00000100
00000000
00000000
00000000
00000000
00000000
00000100
00000000
00000000
00000000
00000000
00000000
00000100
00000000
00000000
00000000
00010000
00000000
00000000
00000000
00001000
00000000
00000000
00000000
00200000
00300000
02000000
03000000
00200000
00300000
02000000
03000000
,
00100000
10000000
00100000
00010000
,
00100000
00001000
00010000
00000010
,
00001000
00000001
00000100
00001000
,
00010000
00001000
00000100
00000001
,
00000100
00001000
00010000
01000000
,
10000000
00010000
00100000
01000000
,
00100000
00110000
00000000
00011000
,
00000000
00001010
00000000
00001001
,
00001001
00000000
00000001
00000100
,
00000100
00000010
00001000
00010000
,
01000000
10000000
00010000
01000000
,
00100000
10000000
01000000
00100000
,
00110000
00010000
00001000
00000000
,
00001010
00001000
00000100
00000000
,
00000002
00000103
00002000
00003100
00000002
00000103
00000220
00000330
,
00000001
00000100
00001000
00000100
,
00000001
00000100
00001000
00000100
,
00010000
00001000
00100000
00001000
,
00100000
00000000
01000000
00100000
01000000
00000000
00100000
00000000
,
10010000
00000000
01000000
00100000
,
00100000
00001000
00010000
00000010
,
00001000
00000100
00000010
00000001
,
00000100
00000000
00000010
00000000
00001000
00000000
00000001
00000100
,
00000001
00000000
00001001
00000000
,
00001100
00001100
00000000
00000010
,
00010000
00011000
00000000
00101000
,
00000000
00000000
00010000
00000000
10000000
00100000
01000000
00010000
,
10000000
00000000
01000000
00000000
00100000
00010000
00100000
00000000
,
00001000
00000000
00010000
00000000
00000010
00001000
00000010
00001000
,
00000002
00000000
00000000
00000003
,
00000201
00000320
00002030
00023000
,
00032000
00000000
00000000
00203000
,
00320000
00230000
20300000
32000000
,
03020000
00000000
00000000
00031000
,
00021000
02030000
23000000
30200000
,
00320000
00000000
00000000
00032000
,
00003020
00000032
00000203
00002300
,
00013000
00001000
00010000
00100000
10000000
00010000
01000000
00100000
,
10000000
01000000
00100000
00000000
00001000
00010000
00000000
00000100
00001000
00000000
00000001
00000100
00000000
00001000
00000100
00000000
,
00000001
00000010
00000100
00000000
00000010
00000001
00000000
00000010
00001000
00000000
00010000
00100000
00000000
10000000
00010000
00000000
,
10000000
01000000
00100000
00000000
00010000
00100000
00000000
01000000
00100000
00000000
00001000
00010000
00000000
00000100
00001000
00000000
,
00000100
00000010
00000001
00000100
00000010
00001000
00000100
00010000
00001000
00100000
00010000
01000000
00100000
10000000
01000000
00100000
,
00010000
00001000
00000100
00000010
00000001
00000100
00001000
00010000
00100000
10000000
00010000
01000000
00100000
10000000
01000000
00010000
,
00000000
01100000
00011000
00000110
,
00000001
00000100
00000001
00000000
00000100
00000000
00000010
00000000
,
00001000
00000100
00001000
00000000
00000100
00000000
00000010
00000000
,
00010000
00001000
00010000
00000000
00001000
00000000
00100000
00000000
,
00010000
10000000
00010000
00000000
01000000
00000000
00100000
00000000
,
10000000
01000000
10000000
00000000
01000000
00100000
01000000
00000000
,
00100000
00010000
00100000
00000000
00001000
00010000
00001000
00000000
,
00010000
00000010
00010000
00000000
00000010
00001000
00000010
00000000
,
00000100
00000001
00000100
00000000
00001001
00000000
00000000
00000000
,
00000001
00000100
00000001
00000000
00001000
00000100
00001000
00000000
,
00000010
00010000
00000010
00000000
00010000
00001000
00010000
00000000
,
00001000
01000000
00001000
00000000
00100000
00010000
00100000
00000000
,
01000000
10000000
01000000
00000000
10000000
00010000
10000000
00000000
,
01000000
00100000
01000000
00000000
00010000
00001000
00010000
00000000
,
00000100
00000010
00000100
00000000
00001000
00000001
00001000
00000000
,
00000001
00000100
00000001
00000000
00001000
00000100
00001000
00000000
,
00000020
00020030
00032000
00023000
,
00031000
00100000
00001000
00100000
00001000
00000000
00010000
00000000
,
00100000
01000000
00100000
01000000
00100000
00000000
00010000
00000000
,
10000000
01000000
10000000
01000000
10000000
00000000
01000000
00000000
,
00010000
00001000
00010000
00001000
00010000
00000000
00000100
00000000
,
00000001
00001000
00000001
00001000
00000001
00000000
00000100
00000000
,
00000010
00000100
00000010
00000100
00000010
00000000
00001000
00000000
,
00010000
00001000
00010000
00001000
00010000
00000000
00000010
00000000
,
00001000
00000010
00001000
00000010
00001000
00000000
00000001
00000000
,
00000100
00000001
00000100
00000001
00000100
00000010
00001000
00000000
,
00000100
00010000
00000100
00010000
00001000
00010000
00100000
00000000
,
01000000
10000000
01000000
10000000
00100000
01000000
00010000
00000000
,
10000000
01000000
10000000
00100000
01000000
00010000
01000000
00000000
,
00010000
00100000
00001000
00010000
00000010
00001000
00000010
00001000
,
00000001
00000100
00000001
00000100
00000010
00000100
00000001
00001000
,
00000100
00000010
00000001
00001000
00000010
00010000
00011000
00000000
,
00002000
00013000
00100000
10000000
,
00200000
00301000
00010000
00000010
,
00000200
00000301
00000100
00001000
,
00000020
00010030
00001000
00100000
,
00020000
01030000
10000000
01000000
,
00010000
00001000
00100000
00001000
,
00010000
00001000
00000100
00000001
,
00001001
00000000
00000110
00000000
,
00000002
00000103
00001000
00000100
,
00000020
00000031
00000100
00001000
,
00020000
01030000
10000000
00010000
,
02000000
03100000
10000000
00100000
,
00002000
00003010
00001000
00010000
,
00000010
00001000
00000001
00000100
,
00000202
00000303
00002200
00003300
00022000
00033000
02020000
03030000
,
10000000
00010000
01000000
00000000
00100000
00000000
10000000
00000000
,
01000000
00100000
00010000
00000000
00001000
00000000
00010000
00000000
,
00000100
00001000
00000100
00000000
00000010
00000000
00000001
00000000
,
00001000
00000001
00000100
00000000
00000010
00000000
00000100
00000000
,
00000001
00001000
00000100
00000000
00000010
00000000
00000100
00000000
,
00010000
00001000
00010000
00100000
,
10000000
00100000
00001000
00010000
,
00000100
00000000
00001000
00000000
00000001
00000000
00000100
00000010
,
00000100
00000000
00000001
00000100
00000010
00000000
00001000
00000000
,
00001010
00001010
00000000
00011000
,
00011000
00011000
00000000
01010000
,
00000000
00000000
10000000
00000000
00010000
01000000
00010000
01000000
,
00100000
00000000
10000000
00000000
01000000
00100000
01000000
00100000
,
00001000
00000000
00010000
00000000
00000010
00001000
00000010
00001000
,
00000002
00000003
00000200
00000300
00002000
00003000
00022000
00033000
,
20020000
00000000
00030000
32000000
,
03200000
00000000
00000000
00302000
,
00023000
00000000
00032000
00000000
00003002
00000000
00002003
00003000
,
00022000
00000000
00000000
00000000
,
00000000
00000000
00000000
00000000
,
00033000
00000000
00000000
00000000
;

//--------------- dance-double - Fred goes beyond!! ----------------
#NOTES:
     dance-double:
     Fred goes beyond!!:
     Challenge:
     18:
     :
00000000
00000000
00000000
00000000
,
00000000
00000000
00000000
00000000
,
00000000
00000000
00000000
00000000
,
00010000
00001000
00000010
00001000
00010000
00000100
00001000
00010000
,
00001000
00000000
00100000
00010000
00000000
00100000
01000000
00000000
00010000
00000000
10000000
00000000
01000000
00000000
00000000
00000000
,
01100000
00100000
00010000
00001000
00001000
00010000
00000100
00000010
,
00000001
00000000
00000100
00000010
00000000
00001000
00000100
00000000
00000020
00000000
00001030
00001000
00000100
00010000
00001000
00000000
,
01000000
00010000
00100000
00000000
00001000
00010000
00000010
00000000
00010000
00000000
00001000
00000000
00100000
00000000
00001000
00010000
,
00000000
00001000
01000000
00000000
01200000
00000000
01000000
01300000
10010000
00000000
00000000
00000000
00000000
00000000
00000000
00000000
,
01010000
00000000
00000000
00000000
00000000
00000000
00000000
00000000
00011000
00000000
00000000
00000000
00000000
00000000
00000000
00000000
00001100
00000000
00000000
00000000
00000000
00000000
00000000
00000000
00000000
00000000
00000000
00000000
00000000
00000000
00000000
00000000
00001000
00000000
00000000
00000000
00000010
00000000
00000100
00000000
00000000
00000000
00000001
00000000
00000010
00000000
00000000
00000000
00001000
00000000
00000000
00000000
00000100
00000000
00000000
00000000
00020000
00030000
00002000
00003000
00200000
00300000
00020000
00030000
,
01000000
00100000
10000000
00000000
,
11000000
01000000
00100000
00001000
,
00020000
02030000
03020000
00032000
,
00003020
00000000
00000032
00000000
00001003
00000001
00000200
00000000
,
00000310
00000100
00001001
00000000
,
00000011
00000001
00000100
00000010
,
00001010
00011000
00000000
01001000
,
00000000
00010100
00000000
00010010
,
00011000
00000000
00110000
00000000
,
10000000
00010000
01000000
00000000
00100000
00000000
10000000
00000000
,
01000000
00100000
00010000
00000000
00001000
00010000
00001000
00000000
,
00000100
00000010
00001010
00000000
,
00000011
00000100
00001000
00000000
,
00101000
00010000
01000000
00000000
,
20000000
30000000
01000000
00000000
00020000
00030000
00001000
00000000
00000020
00000030
00000001
00000000
00002002
00003003
00000000
00000000
,
00001100
00000100
00000001
00000100
,
00001000
00000000
00010000
00000100
00002000
00000000
00000100
00010000
,
00000000
00000000
00010000
00000100
00000000
00000000
00000100
00010000
,
00003000
00000000
00010000
00000100
00001000
00000000
00000010
00000000
,
00010000
00000000
00101000
00000000
,
00010000
00000000
10000000
01000000
00100000
00000000
00010000
00100000
,
02000000
00000000
10000000
00100000
00000000
00000000
03010000
00100000
,
01000000
00000000
10000000
00100000
01000000
00010000
00001000
00010000
,
00000100
00000000
00000110
00000000
,
00000011
00001010
00000000
00011000
,
00101000
00011000
00000000
01010000
,
00000000
00000000
10000000
00000000
00100000
01000000
00010000
10000000
,
01000000
00000000
00100000
00000000
00001000
00010000
00000010
00001000
,
00000100
00000000
00000001
00000000
00000100
00001000
00000001
00000100
,
00000020
00001000
00000000
00000100
00000000
00000200
00000330
00000000
,
00002001
00003020
00000032
00000203
,
00020300
00000000
00000000
00032000
,
00203000
20300000
32000000
03020000
,
00032000
00000000
00000000
00013000
,
00012000
00003020
00000032
00002003
,
00003200
00000000
00000000
00020300
,
00032000
00100000
02003000
00100000
03020000
10000000
02030000
10000000
,
03100000
10000000
01000000
00010000
00001000
00000010
00000001
00000100
,
00001000
00010000
00100000
00000000
00010000
00100000
10000000
01000000
00100000
00000000
01000000
00100000
00000000
00001000
00010000
00000000
,
00001000
00010000
00000100
00000000
00001000
00000100
00000010
00000100
00001000
00000000
00000001
00000100
00000000
00001000
00000100
00000000
,
00000001
00000010
00000001
00001000
00000010
00000001
00000010
00001000
00000001
00000100
00001000
00010000
00001000
00000100
00001000
00010000
,
00000010
00010000
00001000
00100000
01000000
00100000
00010000
00001000
00100000
00010000
10000000
00100000
00010000
00100000
10000000
00010000
,
10000000
01000000
00010000
00001000
00000100
00000001
00001000
00000001
00000010
00001000
00010000
00100000
10000000
00010000
01000000
00100000
,
00000000
00001001
00011000
10010000
,
00010000
10000000
00010000
10000000
01000000
00000000
00100000
00000000
,
00001000
00010000
00001000
00010000
00000010
00000000
00001000
00000000
,
00000100
00000010
00000100
00000010
00000001
00000000
00000100
00000000
,
00000010
00001000
00000010
00001000
00000100
00000000
00010000
00000000
,
01000000
00100000
01000000
00100000
01000000
00000000
00010000
00000000
,
00001000
00010000
00001000
00010000
00001000
00000000
00000010
00000000
,
00000100
00000010
00000100
00000010
00000100
00000000
00000001
00000000
,
00001000
00000010
00001000
00000010
00010000
00000000
00001000
00000000
,
01000000
00010000
01000000
00010000
10000000
01000000
00100000
00000000
,
00001000
00010000
00000010
00001000
00000010
00001000
00000100
00000000
,
00000010
00000001
00001000
00000001
00000100
00000001
00001000
00000000
,
00000010
00010000
00001000
00010000
00001000
00100000
00010000
00000000
,
00001000
00100000
00010000
10000000
00100000
01000000
00010000
00000000
,
10000000
01000000
00100000
00010000
00100000
00001000
00010000
00000000
,
00000100
00001000
00000100
00000010
00000001
00001000
00000001
00000000
,
00000100
00000010
00001000
00000001
00000010
00000100
00010000
00000000
,
00001000
00100000
00010000
00100000
00001000
01000000
00010000
01000000
,
00100000
10000000
01000000
00100000
00010000
00100000
01000000
10000000
,
00100000
01000000
00001000
00100000
00010000
00100000
00001000
00010000
,
00000100
00000010
00000100
00000010
00000001
00000100
00000010
00000100
,
00000001
00001000
00000010
00001000
00000100
00010000
00001000
00010000
,
00001000
01000000
00100000
01000000
00010000
10000000
00100000
01000000
,
00100000
00010000
00001000
00000100
00000010
00010000
00001000
01000000
,
00001000
00010000
00000100
00001000
00000010
00000100
00000001
00000000
,
00000010
00000001
00001000
00000010
00000100
00000010
00010000
00001000
,
00010000
00100000
01000000
10000000
00010000
01000000
00100000
10000000
,
01000000
00100000
00010000
01000000
00001000
00010000
00000100
00001000
,
00000100
00010000
00000100
00001000
00000100
00000010
00000001
00001000
,
00000010
00000100
00000001
00001000
00000100
00010000
00001000
01000000
,
00010000
10000000
01000000
00100000
00001000
00010000
00000010
00001000
,
00000002
00000013
00002000
00013000
02000000
13000000
20020000
30030000
,
11000000
01000000
00100000
00001000
,
00011000
00010000
00000010
00001000
,
00001001
00000001
00000100
00001000
,
00011000
00010000
01000000
00100000
,
10100000
00100000
00010000
00001000
,
00011000
00001000
00000100
00000001
,
00000101
00000100
00001000
00010000
,
00011000
00000000
00001000
00100000
00010000
00000000
10000000
00000000
,
00100000
10000000
01000000
00000000
00100000
00000000
00001000
00000000
,
00000010
00001000
00010000
00000000
00000100
00000000
00001000
00000000
,
00000001
00000100
00001000
00000000
00000100
00000000
00000010
00000000
,
00001000
00000001
00000100
00000000
00001000
00000000
00010000
00000000
,
00001000
00010000
00100000
00000000
10000000
00000000
00100000
00000000
,
00010000
01000000
00100000
00000000
00010000
00000000
00001000
00000000
,
00022000
00033000
00000000
00000000
02002000
03003000
00000000
00000000
00020020
00030030
00000000
00000000
00002020
00003030
00000000
00000000
,
00000001
00001000
00000100
00000000
00000010
00000001
00001000
00000000
,
00000010
00001000
00010000
00000000
00001000
00010000
01000000
00000000
,
00010000
00100000
01000000
00000000
10000000
00100000
01000000
00000000
,
00010000
10000000
01000000
00000000
00010000
00001000
00010000
00000000
,
00001000
00000000
00000010
00000100
00000010
00000000
00001000
00000000
,
00010000
00000000
00100000
01000000
00100000
00000000
00001000
00000000
,
00010000
00000010
00001000
00000000
00000001
00000100
00000010
00000000
,
00001000
00000000
00000001
00000000
00000100
00000000
00010000
00001000
,
00010000
00000000
00001000
00100000
00010000
00000000
10000000
00000000
,
11000000
01100000
00000000
00101000
,
00011000
00010010
00000000
00001001
,
00000000
00000000
00000110
00000000
00000001
00001000
00000100
00000010
,
00000001
00000000
00000100
00000000
00000010
00010000
00001000
00100000
,
00010000
00000000
10000000
00000000
00010000
01000000
10000000
01000000
,
00020000
00030000
00000000
00000000
00002000
00003000
00000000
00000000
00000020
00000030
00000000
00000000
00002002
00003003
00000000
00000000
,
00021000
00000000
00000000
00032000
,
00203000
00000000
00000000
02300000
,
03200000
00000000
20300000
00000000
32000000
00000000
03020000
00030000
,
00022000
00000000
00000000
00000000
,
00000000
00000000
00000000
00000000
,
00033000
00000000
00000000
00000000
;
