#VERSION:0.83;
#TITLE:Gimme a Big Beat;
#ARTIST:kors k;
#GENRE:EDM;
#BANNER:Gimme a Big Beat.png;
#BACKGROUND:Gimme a Big Beat-bg.png;
#CDTITLE:./CDTitles/jubeat saucer.png;
#MUSIC:Gimme a Big Beat.ogg;
#SAMPLESTART:92.39;
#SAMPLELENGTH:15;
#BPMS:0=138;
#BGSTAGE:15;

//--------------- dance-single - Fred-104 ----------------
#NOTEDATA:;
#STEPSTYPE:dance-single;
#DESCRIPTION:Fred-104;
#DIFFICULTY:Beginner;
#METER:2;
#CREDIT:Fred-104;
#NOTES:
0000
0000
0000
0000
,
0000
0000
0000
0000
,
0000
0000
0000
0000
,
0000
0000
0000
0000
,
0000
0000
0000
0000
,
0000
0000
0000
0000
,
1000
0000
0000
0000
,
0001
0000
0000
0000
,
1000
0000
0000
0000
,
0001
0000
0000
0000
,
1000
0000
0000
0000
,
1000
0000
0000
0000
,
0001
0000
0000
0000
,
0001
0000
0000
0000
,
2000
0000
3000
0000
,
0002
0000
0003
0000
,
2000
0000
0000
0000
,
3000
0000
0000
0000
,
0001
0000
0000
0000
,
0001
0000
0000
0000
,
0010
0000
0000
0000
,
0010
0000
0000
0000
,
1000
0000
0000
0000
,
1000
0000
0000
0000
,
1000
0000
0000
0000
,
1000
0000
0000
0000
,
0100
0000
0000
0000
,
0100
0000
0000
0000
,
0010
0000
0000
0000
,
0100
0000
0000
0000
,
0001
0000
0000
0000
,
0001
0000
0000
0000
,
2000
0000
0000
3000
,
1001
0000
0000
0000
,
2000
0000
0000
0000
,
3000
0000
0000
0000
,
0002
0000
0000
0000
,
0003
0000
0000
0000
,
2000
0000
0000
0000
,
3000
0000
0000
0000
,
0002
0000
0000
0000
,
0003
0000
0000
0000
,
1000
0000
0001
0000
,
2000
0000
3000
0000
,
0100
0000
0010
0000
,
0002
0000
0003
0000
,
1000
0000
0001
0000
,
2000
0000
3000
0000
,
0010
0000
0100
0000
,
0020
0000
0030
0000
,
1000
0000
1000
0000
,
0001
0000
0001
0000
,
2000
0000
0000
0000
,
3000
0000
0000
0000
,
1000
0000
0001
0000
,
0020
0000
0030
0000
,
0100
0000
1000
0000
,
0002
0000
0003
0000
,
1000
0000
0001
0000
,
2000
0000
3000
0000
,
0010
0000
1000
0000
,
0002
0000
0003
0000
,
1000
0000
1000
0000
,
1000
0000
1000
0000
,
0001
0000
0001
0000
,
0100
0000
0100
0000
,
0010
0000
0010
0000
,
1000
0000
1000
0000
,
0001
0000
0001
0000
,
1000
0000
1000
0000
,
0020
0030
0000
0000
;

//--------------- dance-single - Fred-104 ----------------
#NOTEDATA:;
#STEPSTYPE:dance-single;
#DESCRIPTION:Fred-104;
#DIFFICULTY:Easy;
#METER:6;
#CREDIT:Fred-104;
#NOTES:
0000
0000
0000
0000
,
0000
0000
0000
0000
,
0000
0000
0000
0000
,
0000
0000
0000
0000
,
0000
0000
0000
0000
,
0000
0000
0000
0000
,
0001
0000
0000
0000
0010
0000
0000
0010
,
0000
0010
0100
0100
,
1000
0000
0000
0000
0001
0000
0000
0001
,
0000
0000
0001
0000
2000
3000
2000
3000
,
0001
0000
0100
0000
,
0010
0000
1000
0000
,
0001
0000
0100
0000
,
0010
0000
1000
0000
,
0001
0001
0100
0100
,
1000
1000
0010
0010
,
0001
0001
1000
1000
,
2002
0000
0000
3003
,
1000
0100
1000
1000
,
0100
0001
0100
0000
,
0001
0100
0001
0001
,
0100
1000
0001
0000
,
1000
1000
0010
0001
,
0010
0010
0001
0000
,
0010
0010
1000
0001
,
2002
0000
3003
0000
,
1000
0100
0010
0010
,
0001
1000
0010
0000
,
0100
0100
0001
0010
,
0100
0000
0100
0000
2000
3000
2000
3000
,
0001
1000
0010
0100
,
0010
0010
0110
0000
,
0001
0000
0000
1000
0000
0000
0001
0000
,
2002
0000
3003
0000
,
2000
0000
0000
3000
,
0200
0000
0000
0300
,
0020
0000
0000
0030
,
0002
0000
0000
0003
,
1000
0000
0001
0000
,
0100
0010
0100
0000
,
0001
0000
0010
0000
,
0100
1000
0100
0000
,
1001
0000
1000
0001
,
0020
0000
0130
0000
,
0110
0000
0010
0001
,
2000
0000
3001
0000
,
1001
0000
1000
0001
,
0200
0000
0310
0000
,
0110
0000
0100
0001
,
2000
0000
0000
0000
3002
0003
0002
0003
,
1000
0010
0001
0000
,
1000
0100
0001
0000
,
1000
1000
0001
0001
,
2002
0000
0000
3003
,
1100
0000
0000
0000
1000
0000
0000
0001
,
0000
0100
0010
0100
,
0101
0000
0000
0000
0001
0000
0000
1000
,
0000
0100
0010
0001
,
0011
0000
0000
0000
0001
0000
0000
1000
,
0000
0001
0100
0010
,
1010
0000
0000
0000
1000
0000
0000
0001
,
0000
1000
0100
0010
,
2002
0000
3003
0000
0001
0000
0000
1000
,
0000
0001
1000
0010
,
0220
0000
0330
0000
0100
0000
0000
0001
,
0000
1000
0100
1000
,
1001
0000
1001
0000
0001
0000
0000
1000
,
0000
0001
0100
0010
,
1000
1000
0001
0001
,
0010
0100
1000
0001
,
2002
3003
0000
0000
;

//--------------- dance-single - Fred-104 ----------------
#NOTEDATA:;
#STEPSTYPE:dance-single;
#DESCRIPTION:Fred-104;
#DIFFICULTY:Medium;
#METER:11;
#CREDIT:Fred-104;
#NOTES:
0000
0000
0000
0000
,
0000
0000
0000
0000
,
0000
0000
0000
0000
,
0000
0000
0000
0000
,
0000
0000
0000
0000
,
0000
0000
0000
0000
,
2000
0000
0000
3000
0000
0000
0001
0000
0010
0000
0000
0010
0000
0000
0010
0000
,
0000
0001
0001
0000
2000
3002
2003
3002
,
0023
0000
0000
0030
0000
0000
0100
0000
1000
0000
0000
1000
0000
0000
1000
0000
,
0000
0001
1000
0001
0200
0320
0230
0320
,
0130
0100
0001
0001
,
1000
1000
0100
0100
,
0010
0010
0001
0001
,
1000
1000
0001
0001
,
1000
0100
1000
0000
0001
0010
0001
0000
,
1000
0010
1000
0000
0001
0100
0001
0000
,
1000
0100
0010
0001
1000
0100
0010
0002
,
0000
1003
0010
0100
0001
0000
1001
0000
,
1000
0000
0000
1000
0000
0000
1000
0000
0010
0000
0100
0000
0001
0000
1000
0000
,
0100
0000
0000
0100
0000
0000
0100
0000
0010
0000
0001
0000
1000
0000
0001
0000
,
0100
0000
0000
0100
0000
0000
0100
0000
0010
0000
1000
0000
0010
0000
0100
0000
,
0001
0000
0000
0001
0000
0000
0001
0000
1000
0000
0001
0000
1001
0000
0000
0000
,
0001
0000
0000
0001
0100
0000
0010
0000
0100
0000
0001
0000
0100
0000
0010
0000
,
1000
0000
0000
1000
0001
0000
0010
0000
0100
0000
0010
0000
0100
0000
1000
0000
,
0001
0000
0000
0001
1000
0000
0010
0000
0100
0000
0010
0000
1000
0000
0001
0000
,
2002
0000
0000
0000
3003
0000
0000
0000
0001
0000
0000
0001
0000
0000
0001
0000
,
1000
0000
0000
0001
0000
0001
0010
0000
0100
0000
1000
0000
0001
0000
1000
0000
,
0010
0000
0000
0100
0000
0100
0001
0000
1000
0000
0010
0000
0100
0000
0001
0000
,
1000
0000
0000
0100
0000
0100
0010
0000
0100
0000
1000
0000
0001
0000
0100
0000
,
0010
0000
0000
0010
0000
0000
0010
0000
2000
0000
3002
0000
0023
0000
0230
0000
,
1300
0000
0000
0001
0000
1000
0001
0000
1000
0000
0010
0000
0100
0000
0001
0000
,
1000
0000
0000
1000
0100
0000
0000
0100
0010
0000
0001
0000
1000
0000
0001
0000
,
0100
0000
0000
0101
0000
0000
0010
0000
0000
1010
0000
0000
1000
0000
0001
0000
,
2002
0000
0003
3000
0002
0023
0230
2300
,
3002
0100
0100
0103
,
2000
0100
0100
3100
,
0002
1000
1000
1003
,
0200
0010
0010
0310
,
0001
1000
0010
0000
1000
0001
0010
0000
,
0100
1000
0001
0000
0100
0001
1000
0000
,
0100
0010
0001
0000
0100
0010
1000
0000
,
0010
0100
0001
0000
0010
0100
1000
0000
,
1001
0000
0000
0000
0000
0000
1000
0000
0100
0000
0000
0100
0000
0000
0010
0000
,
0002
0100
0010
1003
,
1001
0000
0000
0000
0000
0000
0001
0000
0100
0000
0000
0100
0000
0000
0010
0000
,
2000
0100
0010
3001
,
1001
0000
0000
0000
0000
0000
0001
0000
1000
0000
0000
0001
0000
0000
0100
0000
,
0020
0001
0100
1030
,
1001
0000
0000
0000
0000
0000
1000
0000
0010
0000
0000
0100
0000
0000
0001
0000
,
2000
0000
0001
0000
3002
0023
0230
2300
,
3001
0100
1000
0000
1000
0100
0001
0000
,
1000
0100
0001
0000
0001
0100
1000
0000
,
0001
0100
0010
1000
0001
0100
0010
2000
,
0000
3200
0320
0032
1003
0000
0110
0000
,
2002
0000
0000
0000
3003
0000
0001
0000
1000
0000
0000
0010
0000
0000
0100
0000
,
0001
0000
0000
0001
1000
0000
0000
1000
0100
0000
0010
0000
0100
0000
0000
0000
,
2200
0000
0000
0000
3300
0000
1000
0000
0001
0000
0000
1000
0000
0000
0010
0000
,
0100
0000
0000
0100
0001
0000
0000
0001
1000
0000
0100
0000
0010
0000
0000
0000
,
0022
0000
0000
0000
0033
0000
1000
0000
0001
0000
0000
0100
0000
0000
0010
0000
,
0100
0000
0000
0100
0001
0000
0000
0001
0010
0000
0100
0000
1000
0000
0000
0000
,
0220
0000
0000
0000
0330
0000
0001
0000
1000
0000
0000
0010
0000
0000
0100
0000
,
0001
0000
0000
0001
1000
0000
0000
1000
0100
0000
0010
0000
0001
0000
1000
0000
,
1001
0000
0000
0000
0001
0000
1000
0000
0010
0000
0000
1000
0000
0000
0001
0000
,
1000
0010
0100
0001
1000
0100
0010
0000
,
1002
0000
0000
0000
1003
0000
0001
0000
0100
0000
0000
0010
0000
0000
0100
0000
,
0001
0010
0100
1000
0001
0100
0010
0000
,
1010
0000
0000
0000
1001
0000
0000
0000
0001
0000
0000
0010
0000
0000
0100
0000
,
1000
0001
0100
0010
1000
0100
0010
0000
,
0001
0100
1000
0000
0001
0010
1000
0000
,
0100
0010
0001
0100
0010
1000
0001
0000
,
0220
0330
0000
0000
;

//--------------- dance-single - Fred-104 ----------------
#NOTEDATA:;
#STEPSTYPE:dance-single;
#DESCRIPTION:Fred-104;
#DIFFICULTY:Hard;
#METER:15;
#CREDIT:Fred-104;
#NOTES:
0000
0000
0000
0000
,
0000
0000
0000
0000
,
0000
0000
0000
0000
,
0000
0000
0000
0000
,
0000
0000
0000
0000
,
0000
0000
0000
0000
,
0002
0000
0000
0003
0000
0000
1000
0000
0020
0000
0000
0230
0000
0000
0302
0000
,
0003
0000
1000
0001
1000
0000
0000
0000
0002
0000
0203
0000
0302
0000
0203
0000
,
0320
0000
0000
0030
0000
0000
0100
0000
0002
0000
0000
2003
0000
0000
3200
0000
,
0300
0000
0010
0100
0010
0100
0010
0000
0002
0000
0203
0000
0320
0000
2030
0000
,
3001
0010
0000
0001
0010
0000
0001
0000
1000
0100
0000
1000
0100
0000
1000
0000
,
0001
0100
0000
0001
0100
0000
0001
0000
1000
0010
0000
1000
0010
0000
1000
0000
,
0001
1000
0000
0001
1000
0000
0001
0000
0010
0100
0000
0010
0100
0000
0010
0000
,
0001
1000
0000
0001
1000
0000
0001
0000
0100
0010
0000
0100
0010
0000
0100
0000
,
0001
0001
1000
1000
0100
0100
0010
0010
,
0001
0001
0100
0100
0010
0010
1000
1000
,
0001
0010
0001
0000
1000
0100
1000
0000
0001
1000
0010
0100
0001
1000
0010
0100
,
0000
0002
2003
3200
0310
0000
1001
0000
,
0001
0000
1000
0010
0000
1000
0010
0000
0200
0000
0302
0000
2003
0000
3002
0000
,
0013
0000
0100
0010
0000
0100
0010
0000
0001
1000
0002
0000
0203
0000
0320
0000
,
1030
0000
0001
0010
0000
0001
0010
0000
0200
0000
2300
0000
3002
0000
2003
0000
,
3010
0000
0100
0001
0000
0100
0001
0000
0020
0000
0230
0000
2300
0000
3002
0000
,
0103
0000
0010
1000
0000
0010
0100
0000
2000
0000
3200
0000
0320
0000
2030
0000
,
3001
0000
0010
0100
0000
0001
0100
0000
0010
0001
2000
0000
3020
0000
0230
0000
,
0301
0000
1000
0100
0000
0001
0100
0000
0020
0000
0230
0000
2300
0000
3002
0003
,
2002
0000
0000
0000
3000
0000
0003
0000
1000
0000
0000
1000
0000
0000
1000
0000
,
0001
0000
1000
0100
0000
0010
0100
0010
0200
0000
2300
0000
3002
0000
2003
0000
,
3010
0000
0100
0001
0000
1000
0001
0010
0002
0000
1003
0001
0200
0000
0320
0000
,
1030
0000
0001
0010
0000
0100
0010
0100
2000
0000
3020
0000
0230
0000
0302
0000
,
1003
0102
2003
3002
0203
0320
2030
3002
,
0013
0000
0100
1000
0000
0001
1000
0010
0200
0000
0301
1000
0200
0000
0320
0000
,
0031
0000
0001
0100
1000
0000
1000
0100
0001
1000
0000
0001
1000
0000
1000
0000
,
0001
0000
0001
0100
0000
0100
0010
0000
0010
1000
0000
1000
0001
0000
1000
0000
,
1001
0000
1000
0100
0010
0001
1000
0000
0002
0000
0203
0000
0320
0000
2030
0000
,
3001
0001
1000
1000
,
0100
0100
0010
0010
,
0001
0001
1000
1000
,
0001
0001
1000
1000
,
0001
0000
0010
0000
0100
0000
1000
0001
0000
1000
0010
1000
0000
0001
0010
0000
,
0100
0000
0010
0000
0001
0000
1000
0100
0000
1000
0001
1000
0000
0010
0100
0000
,
0001
0000
1000
0000
0100
0000
0010
0001
0000
1000
0010
0100
0000
0010
1000
0000
,
0001
0000
1000
0000
0100
0000
0010
0001
0000
1000
0010
1000
0000
0001
0010
0000
,
0210
0000
0000
0000
1300
0000
0020
0000
0032
0003
1000
0200
0300
0001
2000
0000
,
3200
0001
0010
1300
,
1002
0000
0000
0000
1003
0000
0002
0000
0023
0030
1000
0002
0003
0100
2000
0000
,
3020
0100
0001
1030
,
0120
0000
0000
0000
0130
0000
0002
0000
2003
3000
0100
0002
0003
0100
2000
0000
,
3002
0100
1000
0013
,
0210
0000
0000
0000
1300
0000
0200
0000
0302
0003
1000
0020
0030
0100
2000
0000
,
3002
0000
1000
0000
2003
3020
0230
0302
,
1003
0100
1000
0100
0010
0100
0010
0000
0001
0100
0001
0100
0010
0100
0010
0000
,
1000
0010
1000
0010
0100
0010
0100
0000
0001
0010
0001
0010
0100
0010
0100
0000
,
1000
0001
0100
0010
1000
0001
0100
0010
1000
0001
0010
0100
1000
0001
0010
0100
,
0000
2000
3020
0230
0301
0000
0110
0000
,
2001
0000
0000
0000
3001
0000
0100
0010
0001
0000
0010
0100
0000
0010
1000
0000
,
0001
0000
1000
0001
0010
0000
0100
1000
0001
1000
0010
0000
0100
0001
0100
0001
,
2000
0000
0000
0000
3100
0000
0001
0100
0010
0000
0100
1000
0000
0001
1000
0000
,
0001
0000
1000
0001
0100
0000
0010
1000
0010
0100
0001
0000
1000
0100
0010
0001
,
2000
0000
3000
0000
0102
0000
1003
0001
0100
0000
1000
0100
0000
0010
0100
0000
,
0001
1000
0001
0000
1000
0000
0100
0010
0001
1000
0010
0000
0100
0001
0100
0001
,
2000
0000
3000
0000
0012
0000
1003
0001
0010
0000
0100
0010
0000
1000
0010
0000
,
0001
0000
1000
0001
0100
0000
0010
0100
0010
1000
0001
0010
0100
1000
0001
0000
,
0020
0000
0000
0030
0110
0000
1000
0001
0100
0000
1000
0001
0000
0010
0100
0000
,
0001
0000
1000
0100
0010
0000
0001
1000
0010
0100
0000
0010
0000
1000
0001
0000
,
0020
0000
0000
0030
0110
0000
1000
0010
0001
0000
1000
0100
0000
0001
1000
0000
,
0100
0000
0010
0001
1000
0000
0010
1000
0001
0010
0000
0100
0010
0100
1000
0000
,
2002
0000
3003
0000
0110
0000
1000
0001
0010
0000
0100
0001
0000
1000
0010
0000
,
0001
0000
1000
0001
0100
0000
0010
1000
0010
1000
0000
0001
1000
0100
0010
0000
,
0001
1000
0010
1000
0010
0100
0001
0000
1000
0001
0010
0001
0010
0100
1000
0000
,
0001
1000
0001
1000
0010
0100
0010
0100
0001
0010
0100
1000
0010
0100
0001
1000
,
0200
0300
0000
0000
;

//--------------- dance-double - Fred-104 ----------------
#NOTEDATA:;
#STEPSTYPE:dance-double;
#DESCRIPTION:Fred-104;
#DIFFICULTY:Easy;
#METER:5;
#CREDIT:Fred-104;
#NOTES:
00000000
00000000
00000000
00000000
,
00000000
00000000
00000000
00000000
,
00000000
00000000
00000000
00000000
,
00000000
00000000
00000000
00000000
,
00000000
00000000
00000000
00000000
,
00000000
00000000
00000000
00000000
,
00010000
00000000
00000000
00000000
00001000
00000000
00000000
00001000
,
00000000
00010000
00001000
00001000
,
01000000
00000000
00000000
00000000
00001000
00000000
00000000
00001000
,
00000000
00000000
00010000
00000000
00002000
00003000
00002000
00003000
,
00010000
00000000
00010000
00000000
,
00001000
00000000
00001000
00000000
,
00000010
00000000
00000010
00000000
,
00000001
00000000
00000001
00000000
,
00001000
00001000
00000001
00000001
,
00000010
00000010
00000100
00000100
,
00010000
00010000
00001000
00001000
,
00022000
00000000
00000000
00033000
,
00001000
01000000
00010000
00000000
,
10000000
00010000
10000000
00000000
,
01000000
00100000
00010000
00000000
,
00100000
00001000
00010000
00000000
,
00001000
00010000
00001000
00000000
,
00100000
01000000
10000000
00000000
,
00010000
01000000
00100000
00000000
,
20020000
00000000
30030000
00000000
,
10000000
10000000
01000000
01000000
,
00010000
00001000
00010000
00000000
,
00001000
00001000
00010000
00000100
,
00001000
00000001
00002000
00003000
,
00000001
00000001
00000100
00000100
,
00001000
00010000
00001000
00000000
,
00001000
00000000
00000000
01000000
00000000
00000000
00010000
00000000
,
20020000
00000000
30030000
00000000
,
20000000
00000000
00000000
30000000
,
02000000
00000000
00000000
03000000
,
00020000
00000000
00000000
00030000
,
00002000
00000000
00000000
00003000
,
00010000
00000000
00000010
00000000
,
00001000
00000000
00000001
00000000
,
00000010
00000100
00001000
00000100
,
00010000
00001000
01000000
00010000
,
10010000
00000000
00000000
00000000
10000000
00000000
00000000
10000000
,
00000000
01000000
00100000
00000000
,
00011000
00000000
00000000
00000000
00001000
00000000
00000000
00001000
,
00000000
00010000
00000100
00000000
,
00001001
00000000
00000000
00000000
00000001
00000000
00000000
00000001
,
00000000
00000100
00001000
00000000
,
00011000
00000000
00000000
00000000
00010000
00000000
00000000
00010000
,
00000000
00000000
00000100
00000000
00002000
00003000
00002000
00003000
,
00000001
00000000
00000100
00000000
,
00001000
00000000
00010000
00000000
,
00001000
00001000
00100000
00010000
,
20020000
00000000
00000000
30030000
,
10010000
00000000
10000000
01000000
,
00100000
00000000
00001000
00000000
,
00011000
00000000
00010000
00000010
,
00001000
00000000
00000001
00000000
,
00001001
00000000
00001000
00000100
,
00000010
00000000
00000001
00000000
,
00001001
00000000
00000001
00000100
,
00001000
00000000
00010000
00000000
,
00022000
00000000
00033000
00000000
00001000
00000000
00000000
00001000
,
00000000
00001000
01000000
00000000
,
20020000
00000000
30030000
00000000
00010000
00000000
00000000
00010000
,
00000000
10000000
01000000
00000000
,
02200000
00000000
03300000
00000000
00100000
00000000
00000000
00100000
,
00000000
00001000
00010000
00000000
,
00000010
00001000
00000010
00000000
,
00001000
00000010
00010000
00001000
,
00022000
00033000
00000000
00000000
;

//--------------- dance-double - Fred-104 ----------------
#NOTEDATA:;
#STEPSTYPE:dance-double;
#DESCRIPTION:Fred-104;
#DIFFICULTY:Medium;
#METER:11;
#CREDIT:Fred-104;
#NOTES:
00000000
00000000
00000000
00000000
,
00000000
00000000
00000000
00000000
,
00000000
00000000
00000000
00000000
,
00000000
00000000
00000000
00000000
,
00000000
00000000
00000000
00000000
,
00000000
00000000
00000000
00000000
,
00002000
00000000
00000000
00003000
00000000
00000000
00010000
00000000
00001000
00000000
00000000
01000000
00000000
00000000
00010000
00000000
,
00000000
01000000
01000000
00000000
00200000
20300000
30200000
20300000
,
30020000
00000000
00000000
00030000
00000000
00000000
10000000
00000000
01000000
00000000
00000000
00010000
00000000
00000000
00001000
00000000
,
00000000
00010000
00001000
00010000
00000200
00002300
00003200
00002300
,
00003001
00000001
00000100
00000100
,
00001000
00001000
00010000
00010000
,
00100000
00100000
10000000
10000000
,
01000000
01000000
00100000
00100000
,
00010000
00100000
00010000
00000000
10000000
01000000
10000000
00000000
,
00010000
01000000
00001000
00000000
00010000
00000100
00000010
00000000
,
00000001
00001000
00000001
00001000
00000010
00000100
00001000
00020000
,
00000000
00031000
00001000
00010000
00001000
00000000
00011000
00000000
,
00010000
00000000
00000000
00010000
00000000
00000000
00010000
00000000
00001000
00000000
00010000
00000000
00000010
00000000
00001000
00000000
,
00000010
00000000
00000000
00000010
00000000
00000000
00000010
00000000
00000100
00000000
00000001
00000000
00001000
00000000
00000100
00000000
,
00000010
00000000
00000000
00000010
00000000
00000000
00000010
00000000
00000001
00000000
00001000
00000000
00000010
00000000
00000100
00000000
,
00001000
00000000
00000000
00001000
00000000
00000000
00001000
00000000
00010000
00000000
00100000
00000000
10000000
00000000
00000000
00000000
,
01000000
00000000
00000000
01000000
00100000
00000000
00010000
00000000
00100000
00000000
00001000
00000000
00010000
00000000
00000100
00000000
,
00010000
00000000
00000000
00010000
00001000
00000000
01000000
00000000
00010000
00000000
10000000
00000000
01000000
00000000
00100000
00000000
,
01000000
00000000
00000000
01000000
10000000
00000000
00010000
00000000
01000000
00000000
00100000
00000000
00010000
00000000
00001000
00000000
,
00022000
00000000
00000000
00000000
00033000
00000000
00000000
00000000
00010000
00000000
00000000
00010000
00000000
00000000
00010000
00000000
,
00001000
00000000
00000000
00010000
00000000
00000000
00000100
00000000
00001000
00000000
00000001
00000000
00000100
00000000
00000010
00000000
,
00001000
00000000
00000000
00000001
00000000
00000000
00000010
00000000
00000100
00000000
00001000
00000000
00000100
00000000
00010000
00000000
,
00001000
00000000
00000000
00010000
00000000
00000000
00100000
00000000
10000000
00000000
00010000
00000000
00100000
00000000
01000000
00000000
,
00100000
00000000
00000000
00100000
00000000
00000000
00100000
00000000
00002000
00000000
00023000
00000000
00032000
00000000
00023000
00000000
,
00031000
00000000
00000000
00010000
00000000
00010000
00000100
00000000
00000010
00000000
00000001
00000000
00001000
00000000
00000001
00000000
,
00000100
00000000
00000000
00000100
00000010
00000000
00000000
00000010
00000100
00000000
00000100
00000000
00001000
00000000
00001000
00000000
,
00010000
00000000
00000000
01001000
00000000
00000000
00001000
00000000
00000000
00010100
00000000
00000000
00010000
00000000
00001000
00000000
,
00022000
00000000
00030000
00003000
00020000
00032000
00003200
00000302
,
00001003
00001000
00000001
00000001
,
00000010
00000010
00000100
00000100
,
00010000
00010000
00001000
00001000
,
01000000
01000000
00100000
00100000
,
10000000
00010000
01000000
00000000
00010000
10000000
01000000
00000000
,
00100000
00001000
00010000
00000000
00001000
00000100
00000001
00000000
,
00001000
00000100
00000001
00000000
00000100
00001000
00000001
00000000
,
00000100
00000010
00000100
00001000
00010000
00001000
00010000
00000000
,
00011000
00000000
00000000
00000000
00000000
00000000
00010000
00000000
00001000
00000000
00000000
00010000
00000000
00000000
00200000
00000000
,
01000000
00000000
01300000
00000000
00010000
10000000
00010000
00000000
,
10010000
00000000
00000000
00000000
00000000
00000000
10000000
00000000
01000000
00000000
00000000
00010000
00000000
00000000
00002000
00000000
,
00010000
00000000
00013000
00000000
00000100
00000010
00000001
00000000
,
00001001
00000000
00000000
00000000
00000000
00000000
00001000
00000000
00000001
00000000
00000000
00000100
00000000
00000000
00000020
00000000
,
00000100
00000000
00000130
00000000
00001000
00010000
00100000
00000000
,
10100000
00000000
00000000
00000000
00000000
00000000
00010000
00000000
10000000
00000000
00000000
01000000
00000000
00000000
00020000
00000000
,
00001000
00000000
00031000
00000000
00020000
00032000
00023000
00032000
,
00013000
00000100
00001000
00000000
00000001
00000100
00000010
00000000
,
00001000
00000100
00010000
00000000
00001000
01000000
00100000
00000000
,
10000000
00010000
00100000
01000000
10000000
00010000
01000000
00200000
,
00000000
00320000
00032000
00003200
00000301
00000000
00000110
00000000
,
00002001
00000000
00000000
00000000
00003001
00000000
00000100
00000000
00000010
00000000
00000000
00000100
00000000
00000000
00001000
00000000
,
00010000
00000000
00000000
00010000
00001000
00000000
00000000
00001000
01000000
00000000
00010000
00000000
10000000
00000000
01000000
00000000
,
01200000
00000000
00000000
00000000
00310000
00000000
10000000
00000000
00100000
00000000
00000000
00010000
00000000
00000000
00001000
00000000
,
00010000
01000000
00010000
00000000
00001000
00000100
00001000
00000000
,
00021000
00000000
00000000
00000000
00031000
00000000
00010000
00000000
00000010
00000000
00000000
00000100
00000000
00000000
00000001
00000000
,
00001000
00000000
00000000
00001000
00000100
00000000
00000000
00000100
00000010
00000000
00000001
00000000
00001000
00000000
00000010
00000000
,
00020010
00000000
00000000
00000000
00031000
00000000
00010000
00000000
00000100
00000000
00000000
00010000
00000000
00000000
00001000
00000000
,
00010000
00100000
10000000
01000000
00100000
00010000
10000000
00000000
,
10020000
00000000
00000000
00000000
10030000
00000000
01000000
00000000
00010000
00000000
00000000
00001000
00000000
00000000
00010000
00000000
,
00000100
00000010
00000001
00000100
00000010
00001000
00000001
00000000
,
00002001
00000000
00000000
00000000
00003100
00000000
00000010
00000000
00000001
00000000
00000000
00001000
00000000
00000000
00000001
00000000
,
00000100
00001000
00010000
01000000
10000000
01000000
00100000
00000000
,
00110000
00000000
00000000
00000000
10010000
00000000
00000000
00000000
00010000
00000000
00000000
10000000
00000000
00000000
01000000
00000000
,
00100000
00001000
00010000
00001000
01000000
00100000
01000000
00000000
,
00010000
10000000
01000000
00000000
00010000
00001000
00000100
00000000
,
00000001
00000010
00000100
00010000
00001000
00000100
00000001
00000010
,
00000200
00000300
00000000
00000000
;

//--------------- dance-double - Fred-104 ----------------
#NOTEDATA:;
#STEPSTYPE:dance-double;
#DESCRIPTION:Fred-104;
#DIFFICULTY:Hard;
#METER:15;
#CREDIT:Fred-104;
#NOTES:
00000000
00000000
00000000
00000000
,
00000000
00000000
00000000
00000000
,
00000000
00000000
00000000
00000000
,
00000000
00000000
00000000
00000000
,
00000000
00000000
00000000
00000000
,
00000000
00000000
00000000
00000000
,
00020000
00000000
00000000
00030000
00000000
00000000
00001000
00000000
00020000
00000000
00000000
00030020
00000000
00000000
00002030
00000000
,
00003000
00000000
00001000
00000001
00001000
00000000
00000000
00000000
00000200
00000000
00000320
00000000
00000032
00000000
00002003
00000000
,
00003002
00000000
00000000
00000003
00000000
00000000
00000100
00000000
00002000
00000000
00000000
00023000
00000000
00000000
00032000
00000000
,
00003000
00000000
01000000
00010000
01000000
00010000
01000000
00000000
00200000
00000000
20300000
00000000
32000000
00000000
03020000
00000000
,
00031000
00001000
00010000
00000100
00000010
00000010
00000001
00001000
,
00000010
00000010
00000100
00001000
00010000
00010000
00100000
01000000
,
00010000
00010000
00100000
10000000
00100000
00100000
00001000
00010000
,
00000010
00000010
00000100
00001000
00000100
00000100
00000001
00001000
,
00000001
00000001
00000010
00000010
00000100
00000100
00001000
00001000
,
00010000
00010000
00100000
00100000
01000000
01000000
10000000
10000000
,
00100000
01000000
00100000
01000000
00010000
00100000
00010000
00100000
00001000
00010000
00001000
00010000
00000100
00001000
00000001
00000100
,
00000000
00000020
00002030
00003200
00000310
00000000
00001001
00000000
,
00000001
00000000
00001000
00000010
00000000
00000010
00001000
00000000
00000200
00000000
00000320
00000000
00002030
00000000
00023000
00000000
,
00031000
00000000
00100000
00010000
00000000
00010000
00100000
00000000
01000000
10000000
02000000
00000000
23000000
00000000
30020000
00000000
,
01030000
00000000
00100000
10000000
00000000
10000000
00100000
00000000
02000000
00000000
03200000
00000000
00320000
00000000
00032000
00000000
,
01003000
00000000
00001000
00010000
00000000
00010000
00001000
00000000
00020000
00000000
00032000
00000000
00003020
00000000
00000230
00000000
,
00001300
00000000
00000001
00000100
00000000
00000010
00001000
00000000
00000200
00000000
00000320
00000000
00002030
00000000
00023000
00000000
,
01030000
00000000
00100000
00010000
00000000
10000000
00010000
00000000
01000000
00100000
02000000
00000000
23000000
00000000
32000000
00000000
,
03010000
00000000
10000000
01000000
00000000
00100000
01000000
00000000
00020000
00000000
00032000
00000000
00003020
00000000
00000032
00000003
,
00002002
00000000
00000000
00000000
00000003
00000000
00003000
00000000
00000001
00000000
00000000
00000100
00000000
00000000
00001000
00000000
,
00010000
00001000
00000000
01000000
00000000
00100000
01000000
00010000
20000000
00000000
32000000
00000000
03020000
00000000
00032000
00000000
,
00013000
00000100
00000000
00010000
00000000
00001000
00010000
00000010
00002000
00000000
00003001
00000010
00000200
00000000
00002300
00000000
,
00003001
00000100
00000000
00000010
00000000
00001000
00000100
00000010
00000200
00000000
00020300
00000000
00032000
00000000
02003000
00000000
,
03010000
00000000
00010000
10000000
02000000
00000000
03200000
00000000
00320000
00000000
00032000
00000000
00003200
00000000
00000320
00000000
,
00000031
00000000
00001000
00000010
00000000
00000100
00000001
00000100
00000002
00000000
00001003
00000100
00000020
00000000
00000032
00000000
,
00001003
00000000
00000001
00000100
00001000
00000000
00001000
00010000
00001000
00010000
00000000
00010000
00100000
00000000
10000000
00000000
,
00010000
00000000
10000000
00100000
00000000
01000000
00010000
00000000
00100000
00001000
00000000
00010000
00000100
00000000
00000010
00000000
,
00001001
00000000
00000001
00001000
00000001
00001000
00000001
00000000
00000200
00000000
00002300
00000000
00023000
00000000
00230000
00000000
,
10300000
10000000
01000000
01000000
,
00010000
00010000
00001000
00001000
,
00000010
00000010
00000001
00000001
,
00000100
00000100
00001000
00001000
,
00010000
00000000
00001000
00000000
00010000
00000000
00000100
00001000
00000001
00001000
00000000
00000010
00000000
00000100
00000001
00000000
,
00000010
00000000
00000100
00000000
00001000
00000000
00000100
00010000
00001000
01000000
00000000
00010000
00000000
01000000
00100000
00000000
,
01000000
00000000
00001000
00000000
00010000
00000000
00001000
00100000
00010000
10000000
00000000
00100000
00000000
01000000
00010000
00000000
,
10000000
00000000
01000000
00000000
00100000
00000000
00001000
00010000
00000100
00001000
00000000
00000001
00000000
00000100
00000010
00000000
,
00000210
00000000
00000000
00000000
00000310
00000000
00002000
00000000
00003200
00000300
00000000
00000020
00000030
00000000
00002000
00000000
,
00023000
00000000
00000100
00000000
01000000
00000000
00031000
00010000
,
00012000
00000000
00000000
00000000
01003000
00000000
00002000
00000000
00023000
00030000
00000000
02000000
03000000
00000000
00200000
00000000
,
00302000
00000000
00010000
00000000
00000010
00000000
00103000
00001000
,
00021000
00000000
00000000
00000000
00031000
00000000
00020000
00000000
00230000
00300000
00000000
02000000
03000000
00000000
00200000
00000000
,
00320000
00000000
00001000
00000000
00000010
00000000
01030000
00010000
,
00012000
00000000
00000000
00000000
00013000
00000000
00000200
00000000
00000320
00000030
00000000
00002000
00003000
00000000
00020000
00000000
,
00032000
00000000
00010000
00000000
00023000
00230000
02300000
03020000
,
10030000
01000000
10000000
01000000
00100000
00000000
00001000
00000000
00010000
00000100
00010000
00000100
00001000
00000000
00000001
00000000
,
00000100
00000010
00000100
00000010
00000100
00000000
00001000
00000000
00010000
00001000
00010000
00001000
00010000
00000000
00001000
00000000
,
00000010
00000100
00000010
00000100
00000010
00000001
00000010
00000001
00001000
00000001
00000010
00000100
00001000
00000100
00010000
00001000
,
00000000
00020000
00230000
20300000
31000000
00000000
00011000
00000000
,
00012000
00000000
00000000
00000000
00013000
00000000
00000100
00000000
00000010
00000000
00000001
00001000
00000000
00000001
00000100
00000000
,
00000010
00000000
00001000
00000001
00000010
00000000
00000100
00001000
00000000
00000100
00010000
00000000
00001000
00010000
00001000
00010000
,
00002000
00000000
00000000
00000000
00013000
00000000
00100000
00000000
01000000
00000000
00010000
10000000
00000000
00100000
01000000
00000000
,
00010000
00000000
10000000
01000000
00100000
00000000
00001000
00010000
00000000
00001000
00010000
00000000
00000010
00001000
00000010
00000100
,
00000002
00000000
00000000
00000000
00001003
00000000
00000001
00000000
00000100
00000000
00000010
00000100
00000000
00001000
00010000
00000000
,
00001000
00000000
00010000
00001000
01000000
00000000
00010000
00100000
00000000
00001000
00010000
00000000
00001000
00010000
00001000
00010000
,
00002000
00000000
00000000
00000000
00013000
00000000
00100000
00000000
01000000
00000000
10000000
01000000
00000000
00010000
10000000
00000000
,
01000000
00000000
00100000
00010000
00100000
00000000
00001000
00010000
00000010
00001000
00000010
00000000
00000100
00000001
00001000
00000000
,
00001002
00000000
00000000
00000000
00000103
00000000
00000001
00001000
00000010
00000000
00000001
00001000
00000000
00000100
00000010
00000000
,
00001000
00000001
00000010
00000000
00000100
00000000
00010000
00001000
00000000
00100000
00010000
00100000
00001000
00010000
00001000
00000000
,
02001000
00000000
00000000
00000000
03010000
00000000
10000000
01000000
00010000
00000000
10000000
00100000
00000000
01000000
10000000
00000000
,
00010000
01000000
00100000
00000000
10000000
00000000
00010000
00100000
00010000
00100000
00000000
00001000
00010000
00001000
00000100
00000000
,
00000120
00000000
00000030
00000000
00001001
00000000
00001000
00000001
00000010
00000000
00001000
00000001
00000000
00000100
00000010
00000000
,
00000001
00001000
00000010
00000000
00000100
00000000
00001000
00010000
00000000
00001000
00100000
00010000
10000000
00010000
01000000
00000000
,
00100000
10000000
00100000
00000000
01000000
00010000
01000000
00000000
00001000
00010000
00001000
00000000
00010000
00000100
00010000
00000000
,
00000100
00001000
00000100
00001000
00000001
00000010
00000001
00000010
00000100
00010000
00001000
01000000
00010000
10000000
00010000
00100000
,
02000000
03000000
00000000
00000000
;
