#VERSION:0.83;
#TITLE:Giant Strength;
#ARTIST:RoughSketch;
#BANNER:Giant Strength.png;
#BACKGROUND:Giant Strength-bg.png;
#CDTITLE:./CDTitles/RB groovin'!!.png;
#MUSIC:Giant Strength.ogg;
#SAMPLESTART:71.052;
#SAMPLELENGTH:15;
#BPMS:0=76,12=152,100=76,116=152;
#BGSTAGE:29;

//--------------- dance-single - Fred-104 ----------------
#NOTEDATA:;
#STEPSTYPE:dance-single;
#DESCRIPTION:Fred-104;
#DIFFICULTY:Beginner;
#METER:3;
#CREDIT:Fred-104;
#NOTES:
0000
0000
0000
0000
,
0000
0000
0000
0000
,
0000
0000
0000
0000
,
1000
0000
0000
0000
,
0001
0000
0000
0000
,
1000
0000
0000
0000
,
0001
0000
0000
0000
,
0100
0000
0010
0000
,
0100
0000
0000
0000
,
0001
0000
0000
0000
,
1000
0000
0001
0000
,
1001
0000
0000
0000
,
2000
0000
0000
0000
,
0000
0000
0000
0000
,
0000
0000
0000
0000
,
3000
0000
0000
0000
,
0002
0000
0000
0003
,
2000
0000
0000
3000
,
0002
0000
0000
0003
,
1001
0000
0000
0000
,
2000
0000
0000
3000
,
0002
0000
0000
0003
,
2000
0000
0000
3000
,
2002
0000
0000
0000
,
0000
0000
3003
0000
,
0002
0000
0000
0003
,
2000
0000
0000
3000
,
0002
0003
2000
3000
,
0020
0030
0200
0300
,
0002
0000
0000
0000
,
0003
0000
0000
0000
,
2000
0000
0000
0000
,
3000
0000
0000
0000
,
0002
0000
0003
0000
,
2000
0000
3000
0000
,
0002
0003
2000
3000
,
0001
0001
0001
0001
,
1001
0000
0000
0000
,
1000
0000
0001
0000
,
0200
0000
0300
0000
,
0001
0000
1000
0000
,
0001
0000
0010
0000
,
0100
0000
1000
0000
,
0001
0000
1000
0000
,
0002
0000
0003
0000
,
2000
0000
3000
0000
,
0001
0001
0001
0000
,
0100
0100
0100
0000
,
1000
1000
1000
0000
,
0010
0010
0010
0000
,
0001
0001
0001
0000
,
1000
1000
1000
0000
,
0001
0001
0001
0000
,
1000
1000
1000
1000
,
2000
0000
0000
3000
,
0001
0000
0002
0000
,
0000
0000
0003
0000
,
1000
0000
2000
0000
,
0000
0000
3000
0000
,
0010
0000
0010
0000
,
0100
0000
0100
0000
,
0001
0000
0001
0000
,
1000
1000
1000
1000
,
1001
0000
0000
0000
;

//--------------- dance-single - Fred-104 ----------------
#NOTEDATA:;
#STEPSTYPE:dance-single;
#DESCRIPTION:Fred-104;
#DIFFICULTY:Easy;
#METER:8;
#CREDIT:Fred-104;
#NOTES:
0000
0000
0000
0000
,
0000
0000
0000
0000
,
0000
0000
0000
0000
,
1000
0001
2002
3003
,
1100
0100
0110
0010
,
0011
0001
1001
1000
,
1010
0010
0110
0100
,
0101
0000
0001
0000
1000
0001
1000
0000
,
0001
0001
0001
0000
0110
0000
1000
0000
,
0110
0000
0001
0000
1000
0001
1000
0000
,
0001
0100
0001
0000
1000
0000
0001
0000
,
2002
0000
0000
3003
,
1000
0100
0002
0000
,
0000
0000
0103
1000
,
0001
0001
1000
1000
,
0001
1000
2002
3003
,
2000
0100
3100
0000
,
0002
0100
0103
0000
,
2000
0001
3001
0000
,
0100
0010
0220
0330
,
0002
0000
0010
0003
,
2000
0000
0010
3000
,
0002
0000
1000
0003
,
2002
0000
0000
0000
,
0000
0000
3003
0000
,
1001
0000
0000
1000
0000
0000
0001
0100
0001
0100
0000
0000
,
0110
0000
0000
0010
0000
0000
1000
0001
0100
0010
0000
0000
,
0100
0000
0000
0001
0000
0000
1000
0000
0000
0001
0000
0000
0100
0000
0100
0000
0010
0000
0010
0000
0000
0100
0000
0000
,
0001
0000
0000
1000
0000
0000
0001
0000
0000
0010
0000
0000
0100
0000
0100
0000
1000
0000
1000
0000
0000
0001
0000
0000
,
1000
0010
0002
0000
,
0000
0000
0013
1000
,
0001
0100
0020
0000
,
0130
0000
0000
0100
0000
0000
2002
0000
0000
0000
0000
0000
3003
0000
0000
0000
,
1000
0100
0010
0010
,
0001
1000
0010
0010
,
0100
0001
1000
0001
,
0100
0100
0010
0010
,
2002
0000
0000
3003
,
1000
0100
0020
0000
,
0031
0100
0020
0130
,
0001
0010
0110
0000
,
1000
0010
0110
0000
,
0001
0010
0200
0000
,
1300
0001
2000
3001
,
1000
0010
1001
0000
,
0001
0010
1001
0000
,
1000
0001
0020
0000
,
0031
1000
0020
0000
,
0130
0001
1001
0000
,
1000
0100
0110
0000
,
0001
0010
0011
0000
,
1000
0100
1100
0000
,
0100
0010
0001
0001
,
0100
0100
0010
1000
,
2002
0000
0000
3003
,
1000
1000
1000
0000
0002
0000
0000
0000
,
0103
0010
0100
0100
,
0001
1000
0001
0000
0010
0000
0010
0000
,
0100
1000
1001
0000
,
0001
0000
1001
0000
1000
0100
1000
0000
,
0001
0100
0010
0010
,
0010
0100
0010
0000
1000
0000
0001
0000
,
1000
0100
0010
0001
,
1001
0000
0000
0000
;

//--------------- dance-single - Fred-104 ----------------
#NOTEDATA:;
#STEPSTYPE:dance-single;
#DESCRIPTION:Fred-104;
#DIFFICULTY:Medium;
#METER:13;
#CREDIT:Fred-104;
#NOTES:
0000
0000
0000
0000
,
0000
0000
0000
0000
,
0000
0000
0000
0000
,
1000
0000
1000
0000
0001
0000
0001
0000
1000
0001
1000
0001
2000
0000
0000
3000
,
1100
1100
0101
0101
,
0011
0000
0000
0000
1010
0000
0000
0000
1001
0000
0000
0000
0001
0000
0100
0010
,
0100
0101
0110
1010
,
0001
0000
1000
0000
0001
0000
1000
0000
0001
1000
0001
1000
0002
0000
0000
0000
,
1003
1000
1100
0000
0110
0000
0011
0000
,
0101
0000
0000
0001
0000
0000
1000
0000
0001
0000
0100
0000
0010
0000
1000
0000
,
0100
0000
0010
0001
0010
0000
0000
0000
1001
0000
0000
0000
0001
0000
1000
0000
,
2002
0000
0000
3003
0001
0001
0001
0000
,
1000
0000
0010
0100
0020
0000
1000
0000
,
0100
0000
0001
0000
1030
0001
1000
0000
,
0001
1000
0001
1000
0100
0010
0001
1000
,
0010
0100
0100
0001
1000
0001
1001
0000
,
1000
0000
0001
0010
1000
0010
0001
1000
,
0002
0000
1003
0010
0001
0010
1000
0001
,
2000
0000
3001
0100
1000
0100
0001
1000
,
0010
0000
0000
0100
0000
0000
0001
0000
1000
0000
0100
0000
0020
0000
0000
0000
,
0031
0000
0000
0101
0000
0000
1000
0000
0001
0000
0010
0000
0100
0000
1000
0000
,
0001
0000
0000
0011
0000
0000
0001
0000
1000
0000
0010
0000
0100
0000
0001
0000
,
1000
0000
0000
1001
0000
0000
0001
0000
0010
0000
0100
0000
0010
0000
0001
0000
,
2002
0000
0000
0000
,
0000
0000
3003
0000
,
0011
0000
0000
1010
0000
0000
0001
0010
0100
1000
0000
0000
,
1010
0000
0000
0011
0000
0000
1000
0010
0100
0001
0000
0000
,
1000
0000
0010
0000
0100
0000
0010
0000
1000
0000
0100
0000
1000
0000
0100
0000
0100
0000
0001
0000
0000
1001
0000
0000
,
0001
0000
0010
0000
0100
0000
1000
0000
0001
0000
0010
0000
0001
0000
0100
0000
0100
0000
1000
0000
0000
0001
0000
0000
,
1000
0001
0100
0010
0200
0000
0001
0000
,
1000
0010
1000
0301
,
1000
0001
0010
0100
0020
0000
0031
1000
,
0001
0000
0000
0110
0000
0000
2002
0000
0000
0000
0000
0000
3003
0000
0000
0000
,
1000
0100
1000
1000
1000
0001
0010
0100
,
0010
0001
0100
0100
0100
0001
1000
0001
,
0010
0010
0100
0100
1000
1000
0001
0001
,
0100
0000
0010
0000
0100
0000
0010
0000
0100
0010
0100
0010
0100
0010
0100
0010
,
0200
0000
0301
1000
0001
0000
2002
3003
,
1000
0001
0100
0010
1000
0100
0010
0001
,
1000
0001
0100
0010
0100
0001
0010
0100
,
1000
0000
0001
0000
1001
0000
0000
0000
1100
0000
0000
0101
0000
0000
0110
0000
,
1001
0000
0000
0000
0001
1000
0001
0000
1001
0000
0000
0101
0000
0000
1100
0000
,
0100
0010
0001
1000
0010
0100
0001
1000
,
0100
0010
0100
1000
0010
0100
0001
0001
,
1000
0000
0100
0000
0110
0000
0000
0000
0011
0000
0000
1010
0000
0000
0011
0000
,
0101
0000
0000
1100
0000
0000
0011
0000
1010
0000
0000
0110
0000
0000
1001
0000
,
1000
0010
0100
0001
2002
0000
3003
0000
,
1000
0100
0010
0001
2002
0000
3003
0000
,
0001
0000
0100
0000
1000
0000
0100
0000
0001
0000
0000
0110
0000
0000
1000
0000
,
0001
0000
0100
0000
0010
0000
1000
0000
1100
0000
0000
0101
0000
0000
1001
0000
,
0001
0010
1000
0010
0002
0000
1003
0001
,
1000
0010
0001
0010
2000
0000
3001
0100
,
0010
0000
1000
0000
1001
0000
0000
0000
0001
0000
0000
0100
0000
0000
1000
0000
,
0001
0000
0000
0010
0000
0000
1000
0000
0001
0000
0000
0010
0000
0000
0100
0000
,
1000
0000
0001
0000
0010
0000
0010
0000
0100
1000
0100
1000
0200
0000
0000
0000
,
1300
1100
1001
0000
0001
1000
0010
0100
,
0001
0000
0010
0000
0001
0000
0100
0000
0010
0000
0000
1001
0000
0000
1000
0000
,
0100
0010
0000
0100
0010
0000
0001
0000
1000
0001
0000
1000
0001
0000
0100
0000
,
0110
0000
0010
0100
0000
0100
0010
0000
1000
0000
0001
0000
0100
0000
0010
0000
,
1000
0000
1001
0000
0001
0100
0010
0001
,
0010
0000
0100
0000
0010
0000
1000
0000
0001
0000
0000
1001
0000
0000
1000
0000
,
0100
0000
0010
0000
0001
0000
1000
0000
0001
0100
0010
0000
1000
0010
0100
0000
,
0001
0000
0010
0100
0000
0100
1000
0000
0001
0010
0001
0000
1000
0100
1000
0001
,
0100
0000
0000
0000
;

//--------------- dance-single - Fred-104 ----------------
#NOTEDATA:;
#STEPSTYPE:dance-single;
#DESCRIPTION:Fred-104;
#DIFFICULTY:Hard;
#METER:16;
#CREDIT:Fred-104;
#NOTES:
0000
0000
0000
0000
,
0000
0000
0000
0000
,
0000
0000
0000
0000
,
1000
0000
0001
0000
1000
0000
0001
0000
1000
0010
0100
0001
2000
0000
0000
3000
,
1100
0101
1010
0011
,
1100
0000
0000
0000
0101
0000
0000
0000
0110
0000
0000
0000
1001
0000
0001
1000
,
0001
0011
1010
0011
,
0001
0000
0001
0000
1000
0000
1000
0000
0001
0100
0010
1000
0002
0000
0000
0000
,
1003
1100
1010
0000
0101
0000
0011
0000
,
0101
0000
0000
0000
0000
0000
0000
0000
0000
0011
0000
0000
0000
0000
0000
0000
0000
0000
1001
0000
0000
0000
0000
0000
1000
0000
0000
0000
0000
0000
0001
0000
0010
0000
0100
0000
1000
0000
0000
0000
0000
0000
0001
0000
0000
0000
0000
0000
,
0100
0000
0010
0100
0101
0000
0000
0000
0110
0000
0000
0000
1001
0000
0100
0000
,
0220
0000
0000
0000
0000
0000
0000
0000
0000
0330
0000
0000
0001
0100
0001
0100
0001
0100
0001
0000
0000
0000
0000
0000
,
1001
0000
0000
0000
0001
1000
0100
0010
0002
0000
0000
0000
1000
0000
0000
0000
,
0100
0000
0000
0000
0010
0000
0000
0000
1003
0000
0000
0001
1000
0000
0100
0000
,
0010
0000
0100
0000
0010
0000
0100
0000
1000
0010
0100
0001
1000
0100
0010
0001
,
1000
0000
0100
0001
0100
0000
0010
0000
0001
0100
0010
1000
0002
0000
0000
0000
,
2003
0000
0000
0000
3001
0010
0100
1000
0001
0100
0010
1000
0001
0010
0100
1000
,
0002
0000
0000
0000
1003
0001
0010
0100
1000
0001
0100
0010
1000
0001
0010
0100
,
2000
0000
0000
0000
3001
1000
0100
0010
0001
1000
0010
0100
0001
1000
0100
0010
,
0011
0000
0000
1010
0000
0000
0101
0000
0001
1000
0010
0100
0020
0000
0000
0030
,
0110
0000
0000
0001
0000
0000
1000
0000
0100
0010
0001
1000
0010
0100
0001
0100
,
0110
0000
0000
0010
0000
0000
1000
0000
0100
1000
0100
0010
0001
0100
0010
1000
,
1100
0000
0000
0010
0000
0000
0001
0000
0100
0001
1000
0001
0010
0100
1000
0001
,
2002
0000
0000
0000
,
0000
0000
0000
0000
0000
0000
0000
0000
0000
3003
0000
0000
1000
0000
0100
0000
0010
0000
0001
0000
0010
0000
0100
0000
,
1100
0000
0000
1001
0000
0000
0001
0100
0010
1010
0000
0000
,
0101
0000
0000
1100
0000
0000
1000
0001
0010
0012
0000
0000
,
1003
0000
1000
0010
0000
0010
0001
0000
0001
0100
0000
0100
1000
0000
0100
0000
0010
0000
0011
0000
0001
1000
0000
1000
,
0100
0000
0000
0000
0100
0000
0001
0000
0000
0000
0001
0000
0010
0000
0000
0000
0010
0000
1000
0000
0000
0000
1000
0000
0001
0000
0010
0000
0100
0000
1000
0000
0010
0000
0100
0000
0001
0000
1000
0000
0001
0000
2000
0000
0000
3000
0000
0000
,
1001
0000
0001
0000
0100
0010
0100
0010
0200
0000
0000
0000
0001
0000
0000
0000
,
0010
0001
1000
0301
,
1001
0000
1000
0000
0100
0010
0100
0010
0200
0000
0000
0000
1300
0000
1100
0000
,
0110
0000
0000
0011
0000
0000
2020
0000
0000
0000
0000
0000
3030
0000
0000
0000
,
1001
0000
0001
0000
0100
0010
1000
0010
0100
0000
0001
0000
0010
0000
0100
0000
,
1100
0000
1000
0000
0001
0100
0010
1000
0001
0000
0010
0000
0100
0000
0010
0000
,
0001
0010
0001
0010
0100
1000
0100
1000
0001
0100
0001
0100
0010
0001
0010
1000
,
0001
0000
0011
0000
1000
0000
1100
0000
0001
0100
0010
1000
0100
0010
0001
0100
,
0020
0000
0000
0000
0031
0000
0010
0000
0200
0000
0000
0300
2002
0000
3003
0000
,
1000
0001
0100
0001
1000
0001
0010
0100
1000
0000
0001
0000
0100
0000
0010
0000
,
0100
0001
1000
0001
0010
0100
0010
0001
1000
0000
0001
0000
0100
0000
0010
0000
,
1000
0001
0010
0100
1100
0000
0000
0000
0101
0000
0000
1001
0000
0000
0001
1000
,
0001
0000
0100
0010
1000
0001
0010
0100
1100
0000
0000
0110
0000
0000
0011
0000
,
1000
0010
0100
0010
1000
0001
0010
0100
0010
0000
0001
0000
1000
0000
0010
0000
,
0100
0001
0010
0100
1000
0100
0010
0001
1000
0000
0001
0000
0110
0000
1001
0000
,
1000
0001
0100
0010
1010
0000
0000
0000
1100
0000
0000
0101
0000
0000
1010
0000
,
0011
0000
0000
1010
0000
0000
0101
0000
0110
0000
0000
1000
0000
0000
0001
0000
,
0100
0001
1000
0001
0010
0100
1000
0001
0202
0000
0000
0000
0303
0000
0000
0000
,
0001
0010
0100
1000
0001
0100
0010
1000
2002
0000
0000
0000
3003
0000
0000
0000
,
1000
0001
0010
0001
1001
0000
0000
0000
0011
0000
0000
1010
0000
0000
0101
0000
,
0001
1000
0100
0010
0001
0100
0010
1000
1100
0000
0000
0011
0000
0000
1001
0000
,
1000
0100
0010
0001
0100
0010
0100
0001
2001
0000
0000
0000
3001
0000
0100
0000
,
0001
0010
0100
1000
0010
0100
0001
0010
0210
0000
0000
0000
2300
0000
0000
0000
,
3100
0010
0001
1000
1010
0000
1000
0000
0001
0010
0000
0010
1000
0000
0001
0000
,
1000
0000
0001
0100
0000
0100
2000
0000
3001
0000
1000
0100
0000
0100
0002
0000
,
2003
0000
0000
0000
0000
0000
0000
0000
3002
0000
0000
0000
0000
0000
0000
0000
0023
0030
0000
0000
0000
0000
0000
0000
0020
0030
0000
0000
0000
0000
0000
0000
1000
0000
0000
0000
0100
0000
0000
0000
0010
0000
0000
0000
0002
0000
0000
0000
2000
0000
0000
0000
0000
0000
0000
0000
0000
0000
0000
0000
3003
0000
0000
0000
,
1100
0000
0101
0000
1100
0000
0000
0000
0001
0000
1000
0000
0001
0100
0010
1000
,
0001
0010
0100
0010
0001
1000
0010
0100
0001
0010
0100
1000
0010
0100
0001
0010
,
0100
1000
0000
1000
0001
0000
0100
0000
0010
1000
0000
1000
0100
0010
0100
0000
,
2001
0000
3001
0020
0000
1030
0020
0000
0031
1000
0010
0100
0010
1000
0001
0010
,
0100
0000
0000
0000
1100
0000
0000
0000
1000
0001
0100
0010
0100
0000
0001
0000
,
0010
0100
1000
0001
0100
0010
1000
0100
1000
0000
0001
0010
0000
0010
1000
0000
,
0001
0100
0010
1000
0010
0100
0001
1000
0100
0010
0001
0010
0100
1000
0010
0100
,
0001
0000
1000
0100
0000
0001
0100
0000
1000
0001
0100
0010
1000
0001
0010
0100
,
1001
0000
0000
0000
;

//--------------- dance-single - Fred-104† ----------------
#NOTEDATA:;
#STEPSTYPE:dance-single;
#DESCRIPTION:Fred-104†;
#DIFFICULTY:Challenge;
#METER:17;
#CREDIT:Fred-104†;
#NOTES:
0000
0000
0000
0000
,
0000
0000
0000
0000
,
0000
0000
0000
0000
,
0100
0000
0100
0000
0100
0000
0100
0000
0100
0010
0100
0010
0200
0000
0000
0300
,
2001
3100
0010
0001
2010
3001
0100
0010
,
0210
0000
0301
0000
1000
0000
0100
0000
0120
0000
0031
0000
1000
0000
0001
0100
,
0120
1030
0001
0010
1200
1300
0001
0100
,
0010
0000
0000
0000
0010
0000
0000
0000
0010
0000
0000
0000
0010
0000
0000
0000
0010
0000
0100
0000
0010
0000
0100
0000
0020
0000
0000
0000
0230
0000
0000
0300
,
0110
1001
2100
3001
0120
1030
0210
0301
,
1010
0000
0000
0000
0000
0000
0000
0000
0000
0011
0000
0000
0000
0000
0000
0000
0000
0000
1100
0000
0000
0000
0000
0000
0101
0000
0000
0000
0000
0000
1000
0000
0100
0000
0010
0000
0001
0000
0000
0000
0000
0000
0100
0000
0000
0000
0000
0000
,
0110
0000
0010
1000
2001
0000
3001
0000
0210
0000
1300
0000
0120
0000
0031
0000
,
2002
0000
0000
0000
0000
0000
0000
0000
0000
3003
0000
0000
0001
0100
0010
1000
0010
0100
0002
0000
0000
0000
0000
0000
,
1003
0100
0010
0001
1000
0100
0010
0002
1000
0000
0000
0000
0100
0000
0000
0000
,
1000
0000
0000
0000
0013
0000
0000
0000
0001
0100
0000
0100
0010
0000
2000
0000
,
3100
1000
0100
0000
0010
0001
0010
0000
0100
1000
0001
0100
0010
1000
0001
0010
,
0200
0000
0000
0000
0000
0000
1300
0000
0010
0000
1000
0000
0020
0000
0000
0000
0000
0000
0230
0000
0000
0000
0000
0000
0301
0000
0000
1000
0000
0000
0100
0000
0000
0010
0000
0000
0002
0000
0000
0000
0000
0000
0000
0000
0000
0003
0000
0000
,
2001
0000
0000
0000
3001
0100
0010
1000
0100
0010
0001
1000
0010
0100
0010
1000
,
1002
0000
0000
0000
0013
0100
1000
0010
0100
0001
0100
0010
1000
0001
0010
0100
,
0120
0000
0000
0000
0031
0100
0010
0001
1000
0100
0010
1000
0100
0010
0001
1000
,
1010
0000
0000
0000
0000
0000
0101
0000
0000
0000
0000
0000
1100
0000
0000
0000
1000
0000
0100
0000
0001
0000
0100
0000
2000
0000
0000
0000
0000
0000
0000
3000
,
1010
0000
0001
0100
0000
0010
1000
0000
0100
0010
0001
0100
0010
1000
0001
0010
,
0110
0000
1000
0100
0000
0001
0100
0000
0010
0001
0100
0010
1000
0001
0010
0100
,
1100
0000
0001
1000
0000
0010
0100
0000
0010
1000
0100
0010
0001
0100
0010
1000
,
2002
0000
0000
0000
,
0000
0000
0000
0000
0000
0000
0000
0000
0000
3003
0000
0000
0001
0000
0001
0000
0001
0000
1000
0000
1000
0000
1000
0000
,
1002
0000
0000
1000
0000
0000
0010
0010
0103
0110
0000
0000
,
2001
0000
0000
0000
0000
0000
0100
0000
0000
0000
0000
0000
0010
0000
0010
0000
3001
0000
0202
0000
0000
0303
0000
0000
,
1000
0100
0010
0001
0100
0010
1000
0001
0010
0100
0010
0001
1000
0000
0001
0000
0010
0000
0110
0000
1000
0001
0010
0100
,
1000
0100
0100
0001
0010
0010
1000
0010
0010
0001
0100
0100
1000
1000
1000
0001
0001
0001
0100
0010
0100
0110
0000
0000
,
0001
0100
0010
1000
0010
0100
0001
1000
0020
0000
0000
0000
0001
0000
0000
0000
,
1000
0001
0100
2030
,
3001
0010
0100
1000
0010
0100
0001
1000
0200
0000
0000
0000
0310
0000
0001
0000
,
1010
0000
0000
0101
0000
0000
1100
0000
0011
0000
0000
0000
0110
0000
1001
0000
,
0001
0010
0001
0010
0100
1000
0100
1000
0001
0100
0001
0100
0010
1000
0010
1000
,
0001
0010
0100
1000
0001
0100
0010
1000
0001
1000
0100
0010
0001
1000
0010
0100
,
0001
1000
0100
0010
0100
1000
0010
0100
0001
0010
0100
0010
0001
1000
0010
0100
,
0101
0000
1001
0000
1100
0000
1001
0000
0001
0100
0001
0100
1000
0100
1000
0100
,
0002
0000
0000
0000
0000
0000
0000
0000
2003
0000
0000
0000
3200
0000
0000
0000
0320
0000
0000
0000
0000
0000
0000
0030
1001
0000
0000
0000
0000
0000
0000
0000
,
0001
0100
0010
1000
0100
1000
0010
0100
0001
0000
0010
0000
0100
0000
1000
0000
,
0001
1000
0100
1000
0010
0100
0001
0010
0001
0000
0100
0000
0002
0003
2000
3000
,
0100
1000
0001
0100
0010
0000
1000
0001
0010
0000
0100
1000
0000
0001
1000
0000
,
1001
0000
0001
0010
0100
1000
0010
1000
0001
0000
1000
0100
0000
0001
0100
0000
,
1000
0100
0010
0001
0100
0010
1000
0001
0010
0000
0001
0000
1000
0000
0010
0000
,
0100
0001
0100
0010
1000
0001
0010
0001
0100
0000
0010
0000
0110
0000
1001
0000
,
0001
0100
1000
0100
0001
0000
1000
0100
0001
0000
0100
0010
0000
0001
1000
0000
,
0001
0000
0100
0010
0000
0001
0010
0000
0100
0000
0001
1000
0000
0100
0010
0000
,
0001
0010
0100
1000
0100
0010
0001
1000
2010
0000
0000
0000
3001
0000
0000
0000
,
1000
0100
0010
0001
0100
0010
1000
0001
0021
0000
0000
0000
0130
0000
0000
0000
,
1000
0001
0100
0010
1010
0000
0001
1000
0010
0000
0001
0010
0000
0100
0010
0000
,
1000
0001
0010
0100
0010
1000
0010
0001
1001
0000
0000
0110
0000
0000
1001
0000
,
0001
0100
1000
0100
0001
1000
0100
0010
0012
0000
0000
0000
1003
0000
0000
0000
,
0001
0010
1000
0010
0001
1000
0010
0100
0102
0000
0000
0000
1003
0000
0000
0000
,
0100
0010
0001
1000
1001
0000
0001
0100
1000
0000
0001
0010
0000
1000
0001
0000
,
0110
0000
1000
0100
0000
0100
0001
0000
0110
0000
0001
0100
0000
0100
1000
0000
,
0001
0000
0000
0000
0000
0000
1000
0000
0001
0000
1000
0000
0002
0000
0000
0000
0000
0000
0023
0000
0000
0000
0000
0000
0130
0000
0000
1000
0000
0000
0100
0000
0000
1000
0000
0000
0200
0000
0000
0000
0000
0000
0300
0000
0000
0000
0000
0000
,
1100
0000
0101
0000
0110
0000
0000
0000
1000
0000
0100
0000
0010
0001
1000
0010
,
0100
0010
1000
0100
0010
0001
0100
0001
1000
0001
0100
1000
0001
0010
1000
0001
,
1000
0100
0010
1000
0001
0100
0020
0000
0031
0100
0010
0001
1000
0100
0020
0030
,
2001
0000
0000
0000
0000
0000
0000
0000
3001
0000
0000
0000
0200
0000
0000
0000
0000
0000
0000
0000
1300
0000
0000
0000
0200
0000
0000
0000
0000
0000
0000
0000
0301
0000
0000
0000
0100
0000
0000
0000
0010
0000
0000
0000
1000
0000
0000
0000
1000
0000
0000
0000
0000
0010
0000
0000
0100
0000
0000
0000
0000
0001
0000
0000
,
1000
0000
0000
0000
0110
0000
0000
0000
0001
1000
0100
0010
0001
0100
0010
0001
,
1000
0100
0010
1000
0100
0010
0001
1000
1001
0000
0000
0110
0000
0000
1001
0000
,
0001
0010
0100
1000
0010
0100
0001
0010
0100
1000
0100
0010
0001
0100
0010
1000
,
0001
0000
0000
0000
0000
0000
1000
0000
0000
0100
0000
0000
0000
0000
0000
0100
0000
0000
0001
0000
0000
0000
0000
0000
0010
0000
0000
0100
0000
0000
1000
0000
0000
0001
0000
0000
1000
0000
0010
0000
0100
0000
0001
0000
0000
1000
0000
0000
,
1001
0000
0000
0000
;

//--------------- dance-double - Fred-104 ----------------
#NOTEDATA:;
#STEPSTYPE:dance-double;
#DESCRIPTION:Fred-104;
#DIFFICULTY:Easy;
#METER:7;
#CREDIT:Fred-104;
#NOTES:
00000000
00000000
00000000
00000000
,
00000000
00000000
00000000
00000000
,
00000000
00000000
00000000
00000000
,
10000000
01000000
02200000
03300000
,
10000000
00100000
00010000
00001000
,
00010000
00001000
00000100
00000010
,
00001000
00000010
00000100
00000001
,
00000010
00000000
00000100
00000000
00010000
00001000
00010000
00000000
,
00001000
00001000
00001000
00000000
00011000
00000000
01000000
00000000
,
00011000
00000000
00000100
00000000
00010000
00001000
00010000
00000000
,
00001000
00010000
00100000
00000000
01000000
00010000
10000000
00000000
,
20020000
00000000
00000000
30030000
,
10000000
01000000
00020000
00000000
,
00000000
00000000
00031000
00000100
,
00000001
00000001
00001000
00001000
,
00000010
00010000
00022000
00033000
,
00000200
00010000
00010300
00000000
,
00002000
01000000
01003000
00000000
,
00002000
00010000
00013000
00000000
,
00001000
00010000
00022000
00033000
,
00001000
00010000
00100000
10000000
,
00010000
01000000
10000000
00000000
,
00100000
00010000
00001000
00000100
,
00002002
00000000
00000000
00000000
,
00000000
00000000
00003003
00000000
,
00000110
00000000
00000000
00000001
00000000
00000000
00001000
00000100
00010000
00001000
00000000
00000000
,
00011000
00000000
00000000
00001000
00000000
00000000
00100000
00010000
10000000
00010000
00000000
00000000
,
10000000
00000000
00000000
10000000
00000000
00000000
01000000
00000000
00000000
01000000
00000000
00000000
00100000
00000000
00001000
00000000
00010000
00000000
00001000
00000000
00000000
01000000
00000000
00000000
,
00001000
00000000
00000000
00001000
00000000
00000000
00010000
00000000
00000000
00010000
00000000
00000000
00000100
00000000
00001000
00000000
00000001
00000000
00001000
00000000
00000000
00000100
00000000
00000000
,
00000010
00000001
00002000
00000000
,
00000000
00000000
00003010
00010000
,
00001000
00010000
00200000
00000000
,
01300000
00000000
00000000
00010000
00000000
00000000
20020000
00000000
00000000
00000000
00000000
00000000
30030000
00000000
00000000
00000000
,
10000000
01000000
00100000
00010000
,
00100000
00001000
00010000
00001000
,
00010000
00000010
00001000
00000010
,
00001000
00001000
00000001
00000001
,
00002002
00000000
00000000
00003003
,
00000001
00001000
00000200
00000000
,
00010300
00001000
00020000
00030010
,
00010000
00001000
00011000
00000000
,
00001000
00100000
00110000
00000000
,
01000000
00100000
02000000
00000000
,
03010000
10000000
02000000
13000000
,
00010000
01000000
01100000
00000000
,
10000000
01000000
01100000
00000000
,
00001000
00010000
00002000
00000000
,
00013000
00000010
00020000
00000000
,
00031000
00010000
00011000
00000000
,
00010000
00000100
00001100
00000000
,
00001000
00000100
00000110
00000000
,
00000001
00000100
00000110
00000000
,
00010000
00010000
00001000
00001000
,
00010000
00001000
00000100
00000010
,
00002002
00000000
00000000
00003003
,
00000001
00000001
00000001
00000000
00002000
00000000
00000000
00000000
,
00003010
00010000
00000010
00010000
,
00001000
00010000
00001000
00000000
00100000
00000000
00001000
00000000
,
00100000
00001000
00011000
00000000
,
00001000
00000000
00011000
00000000
00001000
00010000
01000000
00000000
,
00100000
00010000
00100000
01000000
,
00100000
01000000
10000000
00000000
00100000
00000000
00010000
00000000
,
00001000
00000100
00000001
00001000
,
00001001
00000000
00000000
00000000
;

//--------------- dance-double - Fred-104 ----------------
#NOTEDATA:;
#STEPSTYPE:dance-double;
#DESCRIPTION:Fred-104;
#DIFFICULTY:Medium;
#METER:13;
#CREDIT:Fred-104;
#NOTES:
00000000
00000000
00000000
00000000
,
00000000
00000000
00000000
00000000
,
00000000
00000000
00000000
00000000
,
00000001
00000000
00000100
00000000
00001000
00000000
00010000
00000000
00001000
00010000
00001000
00010000
00002000
00000000
00000000
00003000
,
00011000
00110000
10100000
10010000
,
11000000
00000000
01010000
00000000
00011000
00000000
00010000
00001000
,
00000010
00000011
00000101
00001001
,
00000001
00000000
00000010
00000000
00001000
00000000
00010000
00000000
00001000
00010000
00001000
00010000
00002000
00000000
00000000
00000000
,
00013000
00010000
00011000
00000000
01001000
00000000
00011000
00000000
,
00101000
00000000
00000000
00001000
00000000
00000000
00010000
00000000
00001000
00000000
00020000
00000000
00130000
00000000
10000000
00000000
,
00100000
00000000
01000000
00010000
10000000
00000000
00000000
00000000
11000000
00000000
00000000
00000000
00110000
00000000
00000000
00000000
,
00022000
00000000
00000000
00033000
00001000
00001000
00001000
00000000
,
00010000
00000000
00001000
00000010
00000001
00000000
00001000
00000001
,
00000100
00000000
00001000
00000000
00010000
00100000
01000000
00000000
,
00010000
01000000
00100000
00010000
00001000
00010000
00100000
10000000
,
00010000
00000000
10000000
01000000
00100000
00001000
00011000
00000000
,
00010000
00000000
00001000
00000100
00000001
00001000
00000100
00000010
,
00000001
00000000
00000100
00000010
00000100
00001000
00010000
00100000
,
10000000
00000000
00010000
00100000
10000000
00100000
00010000
10000000
,
01000000
00000000
00000000
00100000
00000000
00000000
00001000
00000000
00010000
00000000
00001000
00000000
00020000
00000000
00000000
00000000
,
00030010
00000000
00000000
00010000
00000000
00000000
00001000
00000000
00000010
00000000
00001000
00000000
00010000
00000000
00000010
00000000
,
00001000
00000000
00000000
00000010
00000000
00000000
00000001
00000000
00000010
00000000
00001000
00000000
00000001
00000000
00000100
00000000
,
00001000
00000000
00000000
00010000
00000000
00000000
01000000
00000000
10000000
00000000
01000000
00000000
00010000
00000000
01000000
00000000
,
20020000
00000000
00000000
00000000
,
00000000
00000000
30030000
00000000
,
11000000
00000000
00000000
00011000
00000000
00000000
00100000
00001000
00010000
00000010
00000000
00000000
,
00001001
00000000
00000000
00000110
00000000
00000000
00010000
00001000
00010000
00000100
00000000
00000000
,
00010000
00000000
00001000
00000000
00000100
00000000
00000001
00000000
00000010
00000000
00000100
00000000
00000010
00000000
00001000
00000000
00010000
00000000
00001000
00000000
00000000
00011000
00000000
00000000
,
00001000
00000000
00010000
00000000
00100000
00000000
10000000
00000000
00010000
00000000
00100000
00000000
10000000
00000000
00100000
00000000
01000000
00000000
10000000
00000000
00000000
10010000
00000000
00000000
,
10000000
01000000
00100000
00001000
00020000
00000000
00000010
00000000
,
00001000
00000010
00001000
00030100
,
00010000
00001000
00000100
00000001
00000010
00000000
00000001
00001000
,
00001100
00000000
00000000
00010100
00000000
00000000
00022000
00000000
00000000
00000000
00000000
00000000
00033000
00000000
00000000
00000000
,
00001000
00010000
00100000
01000000
00100000
10000000
00010000
00100000
,
01000000
10000000
00100000
01000000
00100000
00010000
00001000
00000100
,
00000001
00001000
00000100
00000010
00000001
00000100
00001000
00010000
,
00001000
00000000
00001000
00000000
00010000
00000000
00010000
00000000
00001000
00010000
00001000
00010000
00001000
00010000
00001000
00010000
,
00002000
00000000
00013000
00001000
00010000
00000000
00022000
00033000
,
00001000
00010000
01000000
00100000
00010000
00001000
00000100
00000010
,
00000001
00000100
00000010
00000100
00001000
00010000
00100000
10000000
,
00010000
00000000
10000000
00000000
11000000
00000000
00000000
00000000
01100000
00000000
00000000
00101000
00000000
00000000
00011000
00000000
,
00010000
00000000
00000000
00000000
00000010
00001000
00000100
00000000
00001100
00000000
00000000
00000110
00000000
00000000
00001100
00000000
,
00001000
00000001
00000100
00001000
00000100
00000010
00001000
00000100
,
00010000
00001000
00000010
00001000
00010000
00001000
00100000
00001000
,
00010000
00000000
01000000
00000000
10000000
00000000
00010000
00000000
01010000
00000000
00000000
10100000
00000000
00000000
00110000
00000000
,
10010000
00000000
00000000
10000000
00000000
00000000
01000000
00000000
01100000
00000000
00000000
00001000
00000000
00000000
00010000
00000000
,
00001000
00010000
00000100
00010000
00022000
00000000
00033000
00000000
,
00010000
00001000
00000100
00000001
00000022
00000000
00000033
00000000
,
00000001
00000000
00000010
00000000
00000100
00000000
00010000
00000000
00001000
00000000
00000000
00101000
00000000
00000000
00100000
00000000
,
00010000
00000000
10000000
00000000
00010000
00000000
01000000
00000000
01100000
00000000
00000000
10100000
00000000
00000000
01010000
00000000
,
00010000
10000000
01000000
00010000
00002000
00000000
00013000
00001000
,
00010000
00001000
00000100
00000001
00002000
00000000
00003001
00000010
,
00000100
00000000
00010000
00000000
00011000
00000000
00000000
00000000
00010000
00000000
00000000
00001000
00000000
00000000
00000100
00000000
,
00000010
00000000
00000000
00001000
00000000
00000000
00000100
00000000
00000010
00000000
00000000
00000001
00000000
00000000
00000100
00000000
,
00001000
00000000
00010000
00000000
00001000
00000000
01000000
00000000
00100000
10000000
00100000
10000000
00020000
00000000
00000000
00000000
,
01030000
01100000
10010000
00000000
00010000
00100000
10000000
00100000
,
00010000
00000000
10000000
00000000
01000000
00000000
00010000
00000000
00001000
00000010
00000000
00000100
00001000
00000000
00000001
00000000
,
00000100
00000010
00000000
00000010
00001000
00000000
00000100
00000000
00010000
00001000
00000000
00010000
00000010
00000000
00010000
00000000
,
00011000
00000000
00000000
00101000
00000000
00000000
00011000
00000000
00001000
00000000
00010000
00000000
00100000
00000000
10000000
00000000
,
00010000
00000000
10010000
00000000
10000000
00100000
01000000
00100000
,
00010000
00000000
00001000
00000000
00000100
00000000
00000010
00000000
00001000
00000000
00000000
00001001
00000000
00000000
00000001
00000000
,
00000100
00000000
00001000
00000000
00010000
00000000
00100000
00000000
01000000
00010000
10000000
00000000
00010000
10000000
00100000
00000000
,
10100000
00000000
00000000
01010000
00000000
00000000
11000000
00000000
01000000
00000000
00100000
00000000
00001000
00010000
00001000
00010000
,
00001000
00000000
00000000
00000000
;

//--------------- dance-double - Fred-104 ----------------
#NOTEDATA:;
#STEPSTYPE:dance-double;
#DESCRIPTION:Fred-104;
#DIFFICULTY:Hard;
#METER:16;
#CREDIT:Fred-104;
#NOTES:
00000000
00000000
00000000
00000000
,
00000000
00000000
00000000
00000000
,
00000000
00000000
00000000
00000000
,
00010000
00000000
00001000
00000000
00010000
00000000
00001000
00000000
00010000
00001000
00010000
00001000
00020000
00000000
00000000
00030000
,
00011000
00010010
00011000
00101000
,
00011000
00000000
00000000
00000000
00010100
00000000
00000000
00000000
00011000
00000000
00000000
00000000
01001000
00000000
00001000
00010000
,
00001000
00101000
00010010
00011000
,
00010000
00000000
00010000
00000000
00001000
00000000
00001000
00000000
00010000
00001000
00010000
00001000
00020000
00000000
00000000
00000000
,
00031000
00011000
01001000
00000000
00010010
00000000
00011000
00000000
,
00101000
00000000
00000000
00000000
00000000
00000000
00000000
00000000
00000000
00010100
00000000
00000000
00000000
00000000
00000000
00000000
00000000
00000000
00011000
00000000
00000000
00000000
00000000
00000000
00010000
00000000
00000000
00000000
00000000
00000000
00001000
00000000
00010000
00000000
00001000
00000000
00010000
00000000
00000000
00000000
00000000
00000000
00000010
00000000
00000000
00000000
00000000
00000000
,
00001000
00000000
00000100
00000010
00000011
00000000
00000000
00000000
00001010
00000000
00000000
00000000
00010000
00000000
00001000
00000000
,
00022000
00000000
00000000
00000000
00000000
00000000
00000000
00000000
00000000
00033000
00000000
00000000
00010000
00001000
00010000
00001000
00010000
00001000
00010000
00000000
00000000
00000000
00000000
00000000
,
00011000
00000000
00000000
00000000
00001000
00100000
00010000
10000000
00020000
00000000
00000000
00000000
01000000
00000000
00000000
00000000
,
10000000
00000000
00000000
00000000
00100000
00000000
00000000
00000000
01030000
00000000
00000000
00001000
00000000
00000000
00010000
00000000
,
00001000
00000000
00010000
00000000
00001000
00000000
00010000
00000000
00000010
00001000
00000010
00001000
00000001
00000100
00000001
00000100
,
00000001
00000000
00000010
00000100
00001000
00000000
00001100
00000000
00000100
00010000
00001000
00010000
00002000
00000000
00000000
00000000
,
01003000
00000000
00000000
00000000
00010000
10000000
00010000
10000000
01000000
00100000
01000000
00100000
00001000
00010000
00001000
00010000
,
00002000
00000000
00000000
00000000
00013000
00000010
00010000
00000010
00001000
00000010
00001000
00000010
00000100
00000001
00000100
00000001
,
00000200
00000000
00000000
00000000
00000301
00001000
00000001
00001000
00000001
00000010
00000001
00000010
00000100
00001000
00000100
00001000
,
00000100
00000000
00000000
00010000
00000000
00000000
00001000
00000000
00010000
01000000
00100000
00010000
20000000
00000000
00000000
30000000
,
10010000
00000000
00000000
10000000
00000000
00000000
01000000
00000000
00100000
00010000
00100000
00001000
00010000
00000010
00001000
00000000
,
00001100
00000000
00000000
00000100
00000000
00000000
00000010
00000000
00000001
00000010
00000100
00001000
00000100
00010000
00001000
00000000
,
00011000
00000000
00000000
00000010
00000000
00000000
00010000
00000000
00001000
00100000
00010000
10000000
01000000
00100000
00001000
00000000
,
00022000
00000000
00000000
00000000
,
00000000
00000000
00000000
00000000
00000000
00000000
00000000
00000000
00000000
00033000
00000000
00000000
00010000
00000000
00001000
00000000
00000100
00000000
00000001
00000000
00001000
00000000
00000100
00000000
,
00000110
00000000
00000000
00001001
00000000
00000000
00000010
00010000
00001000
01001000
00000000
00000000
,
00110000
00000000
00000000
11000000
00000000
00000000
01000000
00100000
00001000
00021000
00000000
00000000
,
00031000
00000000
00001000
00010000
00000000
00010000
00100000
00000000
00100000
10000000
00000000
10000000
00010000
00000000
00100000
00000000
01000000
00000000
11000000
00000000
10000000
00010000
00000000
00010000
,
01000000
00000000
00000000
00000000
01000000
00000000
00001000
00000000
00000000
00000000
00001000
00000000
00010000
00000000
00000000
00000000
00010000
00000000
00000010
00000000
00000000
00000000
00000010
00000000
00001000
00000000
00000100
00000000
00000010
00000000
00000001
00000000
00000100
00000000
00001000
00000000
00010000
00000000
00001000
00000000
00010000
00000000
00002000
00000000
00000000
00003000
00000000
00000000
,
00011000
00000000
00001000
00000000
00100000
00001000
00010000
00001000
02000000
00000000
00000000
00000000
00010000
00000000
00000000
00000000
,
10000000
00010000
10000000
03010000
,
10000000
00000000
01000000
00000000
00100000
00010000
00100000
00001000
00020000
00000000
00000000
00000000
00031000
00000000
00011000
00000000
,
00010010
00000000
00000000
00101000
00000000
00000000
00020200
00000000
00000000
00000000
00000000
00000000
00030300
00000000
00000000
00000000
,
00010000
00000000
00001000
00000000
00000010
00000100
00001000
00000100
00001000
00000000
00000001
00000000
00000100
00000000
00000010
00000000
,
00000100
00000000
00001000
00000000
00010000
00100000
01000000
00100000
01000000
00000000
00010000
00000000
10000000
00000000
00010000
00000000
,
10000000
01000000
10000000
00100000
01000000
00010000
00100000
00001000
00010000
00000100
00001000
00000100
00000010
00000001
00001000
00000010
,
00000100
00000000
00000101
00000000
00000010
00000000
00001010
00000000
00000100
00000001
00001000
00000001
00000010
00000100
00010000
00001000
,
00020000
00000000
00130000
01000000
00010000
00000000
20020000
30030000
,
10000000
00010000
01000000
00010000
10000000
01000000
00100000
00010000
00100000
00000000
00001000
00000000
00010000
00000000
00000010
00000000
,
00001000
00000001
00000010
00000100
00000010
00000001
00001000
00000001
00000100
00000000
00000010
00000000
00001000
00000000
00000100
00000000
,
00010000
00000010
00001000
00000010
00010000
00000000
00001000
00000000
00101000
00000000
00000000
00010010
00000000
00000000
00001000
00010000
,
00001000
00000000
00100000
00010000
10000000
00100000
01000000
00000000
01010000
00000000
00000000
10100000
00000000
00000000
00110000
00000000
,
10000000
01000000
00100000
00010000
01000000
00001000
00010000
00001000
00000100
00000000
00000010
00000000
00001000
00000000
00000001
00000000
,
00000010
00000100
00000010
00001000
00010000
01000000
00100000
00010000
00100000
00000000
01000000
00000000
11000000
00000000
10010000
00000000
,
00010000
01000000
00001000
00010000
00001000
00000000
00000000
00000000
00011000
00000000
00000000
00010010
00000000
00000000
00101000
00000000
,
00010100
00000000
00000000
01001000
00000000
00000000
00011000
00000000
00010000
00000000
00000000
00001000
00000000
00000000
00000010
00000000
,
00000001
00001000
00000001
00000010
00000100
00001000
00000100
00010000
00022000
00000000
00000000
00000000
00033000
00000000
00000000
00000000
,
00001000
00010000
01000000
00100000
00010000
01000000
00100000
10000000
20020000
00000000
00000000
00000000
30030000
00000000
00000000
00000000
,
10000000
00100000
01000000
00010000
00100000
00000000
01000000
00000000
11000000
00000000
00000000
01010000
00000000
00000000
10010000
00000000
,
10000000
01000000
00100000
00001000
00010000
00000100
00010000
00000000
00011000
00000000
00000000
00010010
00000000
00000000
00001001
00000000
,
00000001
00000010
00000100
00001000
00000010
00010000
00001000
00010000
00012000
00000000
00000000
00000000
01003000
00000000
00001000
00000000
,
00010000
00001000
00100000
00010000
10000000
00010000
00100000
01000000
21000000
00000000
00000000
00000000
30020000
00000000
00000000
00000000
,
01030000
00100000
10000000
00010000
00100000
00000000
00001000
00000000
00020000
00000000
00000000
00032000
00000000
00000000
00003020
00000000
,
00000032
00000000
00000000
00000203
00000000
00000000
00002300
00000000
00023000
00000000
00000000
00230000
00000000
00000000
02300000
00000000
,
03020000
00000000
00000000
00000000
00000000
00000000
00000000
00000000
20030000
00000000
00000000
00000000
00000000
00000000
00000000
00000000
30200000
00300000
00000000
00000000
00000000
00000000
00000000
00000000
00200000
00300000
00000000
00000000
00000000
00000000
00000000
00000000
00001000
00000000
00000000
00000000
00010000
00000000
00000000
00000000
00001000
00000000
00000000
00000000
00010000
00000000
00000000
00000000
00002000
00000000
00000000
00000000
00000000
00000000
00000000
00000000
00000000
00000000
00000000
00000000
00003000
00000000
00000000
00000000
,
00011000
00000000
00010100
00000000
00011000
00000000
00000000
00000000
00010000
00000000
00001000
00000000
00000100
00000010
00001000
00000000
,
00000001
00000010
00000100
00000010
00000100
00010000
00001000
00000000
00100000
00010000
01000000
00100000
10000000
01000000
00100000
00010000
,
10000000
00010000
00000000
00010000
01000000
00000000
00100000
00000000
10000000
01000000
00000000
01000000
00100000
00001000
00010000
00000000
,
00012000
00000000
00013000
00002000
00000000
00003010
00002000
00000000
00013000
00001000
00010000
00000010
00001000
00000010
00000100
00000001
,
00001000
00000000
00000000
00000000
00001001
00000000
00000000
00000000
00000001
00000010
00000100
00000010
00000001
00000000
00001000
00000000
,
00000010
00000100
00000001
00001000
00000100
00010000
00001000
00000000
00010000
00100000
00000000
01000000
00010000
00000000
10000000
00000000
,
00100000
10000000
00100000
01000000
00010000
00100000
00001000
00010000
00001000
00000010
00000100
00001000
00000001
00000100
00000010
00001000
,
00000002
00000000
00000103
00002000
00000000
00003100
00000002
00000000
00001003
00000010
00010000
00001000
00100000
00010000
10000000
00010000
,
01000000
00000000
00000000
00000000
;

//--------------- dance-double - Fred-104† ----------------
#NOTEDATA:;
#STEPSTYPE:dance-double;
#DESCRIPTION:Fred-104†;
#DIFFICULTY:Challenge;
#METER:17;
#CREDIT:Fred-104†;
#NOTES:
00000000
00000000
00000000
00000000
,
00000000
00000000
00000000
00000000
,
00000000
00000000
00000000
00000000
,
00000100
00000000
00000100
00000000
00000100
00000000
00000100
00000000
00000100
00000010
00000100
00000010
00000200
00000000
00000000
00000300
,
00002001
00003001
00000100
00001000
00012000
00013000
00100000
10000000
,
21000000
00000000
31000000
00000000
00100000
00000000
00001000
00000000
00012000
00000000
00013000
00000000
00000100
00000000
00001000
00000001
,
00002001
00003001
00000100
00000010
00000012
00000013
00000100
00000010
,
00001000
00000000
00000000
00000000
00001000
00000000
00000000
00000000
00001000
00000000
00000000
00000000
00001000
00000000
00000000
00000000
00001000
00000000
00000001
00000000
00001000
00000000
00000001
00000000
00002000
00000000
00000000
00000000
00003200
00000000
00000000
00000300
,
00000120
00000031
00002010
00013000
00001020
00000031
00002010
00013000
,
00011000
00000000
00000000
00000000
00000000
00000000
00000000
00000000
00000000
01001000
00000000
00000000
00000000
00000000
00000000
00000000
00000000
00000000
01010000
00000000
00000000
00000000
00000000
00000000
11000000
00000000
00000000
00000000
00000000
00000000
00010000
00000000
10000000
00000000
00010000
00000000
10000000
00000000
00000000
00000000
00000000
00000000
01000000
00000000
00000000
00000000
00000000
00000000
,
01100000
00000000
00100000
00001000
00012000
00000000
00013000
00000000
00020010
00000000
00031000
00000000
00010020
00000000
00001030
00000000
,
00022000
00000000
00000000
00000000
00000000
00000000
00000000
00000000
00000000
00033000
00000000
00000000
01000000
00100000
01000000
00100000
01000000
00100000
01000000
00000000
00000000
00000000
00000000
00000000
,
00010000
10000000
01000000
00100000
00001000
00010000
00001000
01000000
00002000
00000000
00000000
00000000
00010000
00000000
00000000
00000000
,
00000010
00000000
00000000
00000000
00010000
00000000
00000000
00000000
01003000
00010000
00000000
00010000
10000000
00000000
02000000
00000000
,
03100000
00010000
00100000
00000000
00001000
00010000
00001000
00000000
00010000
00001000
00000010
00000100
00000010
00000001
00001000
00000010
,
00000200
00000000
00000000
00000000
00000000
00000000
00001300
00000000
00010000
00000000
00001000
00000000
00020000
00000000
00000000
00000000
00000000
00000000
02030000
00000000
00000000
00000000
00000000
00000000
03100000
00000000
00000000
00010000
00000000
00000000
00100000
00000000
00000000
00010000
00000000
00000000
20000000
00000000
00000000
00000000
00000000
00000000
00000000
00000000
00000000
30000000
00000000
00000000
,
10020000
00000000
00000000
00000000
10030000
01000000
00100000
00010000
00100000
00001000
00010000
00000100
00001000
00000100
00000010
00000001
,
00000021
00000000
00000000
00000000
00000031
00001000
00000010
00010000
00001000
00100000
00001000
00010000
00000100
00001000
00000100
00010000
,
00012000
00000000
00000000
00000000
01003000
00010000
10000000
00010000
00100000
00001000
00010000
00000010
00001000
00000010
00010000
00001000
,
00011000
00000000
00000000
00000000
00000000
00000000
00001100
00000000
00000000
00000000
00000000
00000000
00000101
00000000
00000000
00000000
00001000
00000000
00000100
00000000
00000010
00000000
00000001
00000000
00002000
00000000
00000000
00000000
00000000
00000000
00000000
00003000
,
00001100
00000000
00000000
00000101
00000000
00000000
00001100
00000000
00000001
00000100
00000010
00000100
00001000
00010000
00001000
01000000
,
01010000
00000000
00000000
10010000
00000000
00000000
11000000
00000000
10000000
00010000
01000000
00001000
00010000
00001000
00100000
00010000
,
00110000
00000000
00000000
10100000
00000000
00000000
01010000
00000000
10000000
01000000
00100000
00001000
00010000
00000100
00000010
00000001
,
00002002
00000000
00000000
00000000
,
00000000
00000000
00000000
00000000
00000000
00000000
00000000
00000000
00000000
00003003
00000000
00000000
00000001
00000000
00000010
00000000
00001000
00000000
00010000
00000000
00100000
00000000
10000000
00000000
,
21000000
00000000
00000000
00010000
00000000
00000000
01000000
01000000
30100000
01100000
00000000
00000000
,
00021000
00000000
00000000
00000000
00000000
00000000
00001000
00000000
00000000
00000000
00000000
00000000
00000010
00000000
00000010
00000000
00031000
00000000
00022000
00000000
00000000
00033000
00000000
00000000
,
00010000
00001000
00000100
00000001
00001000
00000100
00000010
00001000
00010000
01000000
00100000
00010000
10000000
00100000
01000000
00100000
00010000
00001000
00011000
00000000
00000000
00000100
00001000
00000001
,
00001000
00000010
00000100
00001000
00010000
00100000
01000000
00100000
00010000
00001000
00000100
00000010
00001000
00000001
00000010
00001000
00010000
01000000
10000000
01000000
00100000
00002000
00000000
00000000
,
00013000
00001000
00010000
00000010
00001000
00000010
00010000
00001000
00020000
00000000
00000000
00000000
00000100
00000000
00000000
00000000
,
00001000
01000000
00001000
00030200
,
00001300
00000100
00000010
00000001
00001000
00000010
00010000
00001000
02000000
00000000
00000000
00000000
03010000
00000000
00100000
00000000
,
01100000
00000000
00000000
11000000
00000000
00000000
01010000
00000000
00011000
00000000
00000000
00000000
00010000
00000000
00010010
00000000
,
00001000
00000001
00000010
00000100
00000010
00000001
00001000
00000000
00000001
00000100
00000010
00000100
00001000
00010000
00001000
00000000
,
01000000
00010000
10000000
00010000
00100000
01000000
00100000
00000000
00001000
00010000
00000010
00001000
00000010
00010000
00001000
00000000
,
00010000
00001000
00000010
00000100
00000010
00000001
00001000
00000010
00000100
00001000
00010000
00100000
10000000
00010000
00100000
01000000
,
11000000
00000000
10010000
00000000
01010000
00000000
10010000
00000000
10000000
01000000
00100000
00010000
00001000
00000100
00000010
00000001
,
00000200
00000000
00000000
00000000
00000000
00000000
00000000
00000000
00002300
00000000
00000000
00000000
00023000
00000000
00000000
00000000
00032000
00000000
00000000
00000000
00000000
00000000
00000000
00003000
00011000
00000000
00000000
00000000
00000000
00000000
00000000
00000000
,
00001000
00010000
00100000
01000000
00100000
10000000
00010000
00100000
01000000
00000000
10000000
00000000
00010000
00000000
10000000
00000000
,
00100000
10000000
01000000
00100000
00001000
00010000
00000010
00001000
00000010
00000000
00010000
00000000
00002000
00003000
00000020
00000030
,
00000100
00000010
00000001
00001000
00000010
00000000
00000100
00000001
00000010
00000000
00000100
00010000
00000000
00001000
00010000
00000000
,
00100000
00000000
01000000
00000000
00010000
10000000
00010000
00100000
10000000
00000000
00100000
01000000
00000000
00100000
00010000
00000000
,
10000000
00100000
01000000
00100000
00010000
00001000
00010000
00000010
00001000
00000000
00000100
00000000
00000001
00000000
00000100
00000000
,
00001000
00000001
00000100
00000010
00001000
00000100
00000010
00001000
00010000
00000000
01000000
00000000
00110000
00000000
10010000
00000000
,
10000000
00100000
01000000
00010000
10000000
00000000
00010000
00100000
01000000
00000000
00010000
00001000
00000000
00000010
00000100
00000000
,
00001000
00000000
00000100
00000010
00000000
00001000
00010000
00000000
00100000
00000000
01000000
00010000
00000000
10000000
00010000
00000000
,
10000000
00010000
00100000
01000000
10000000
00010000
01000000
00001000
00021000
00000000
00000000
00000000
00030010
00000000
00000000
00000000
,
00001000
00000001
00000100
00000010
00000100
00001000
00010000
00001000
02001000
00000000
00000000
00000000
03001000
00000000
00000000
00000000
,
00010000
00001000
00000010
00000001
00001000
00000000
00000010
00000100
00000101
00000000
00000001
00000100
00000000
00001000
00010000
00000000
,
00011000
00000000
00001000
00010000
00100000
01000000
00100000
10000000
10100000
00000000
10000000
00010000
00000000
01000000
00010000
00000000
,
10000000
01000000
00100000
00010000
00001000
00000100
00000010
00000001
00001002
00000000
00000000
00000000
00001003
00000000
00000000
00000000
,
00000001
00000100
00000010
00001000
00010000
01000000
00100000
10000000
20010000
00000000
00000000
00000000
30010000
00000000
00000000
00000000
,
10000000
00100000
00010000
00100000
10000000
00000000
00010000
10000000
01000000
00000000
00010000
00001000
00000000
00000100
00000010
00000000
,
00001001
00000000
00000001
00000100
00000000
00001000
00010000
00000000
00011000
00000000
00001000
00010000
00000000
00100000
10000000
00000000
,
00020000
00000000
00000000
00000000
00000000
00000000
10030000
00000000
01000000
00000000
10000000
00000000
02000000
00000000
00000000
00000000
00000000
00000000
03020000
00000000
00000000
00000000
00000000
00000000
00031000
00000000
00000000
00010000
00000000
00000000
00000010
00000000
00000000
00010000
00000000
00000000
00002000
00000000
00000000
00000000
00000000
00000000
00003000
00000000
00000000
00000000
00000000
00000000
,
00011000
00000000
00010010
00000000
00011000
00000000
00000000
00000000
00010000
00000000
00001000
00000000
00010000
00000100
00001000
00000100
,
00000010
00000001
00001000
00000010
00000100
00000001
00001000
00000100
00000010
00000001
00000100
00000010
00001000
00000100
00000010
00000000
,
00000001
00000100
00001000
00010000
00001000
00000010
00002000
00000000
00013000
01000000
10000000
00010000
01000000
00100000
20000000
30000000
,
10020000
00000000
00000000
00000000
00000000
00000000
00000000
00000000
10030000
00000000
00000000
00000000
02000000
00000000
00000000
00000000
00000000
00000000
00000000
00000000
03010000
00000000
00000000
00000000
02000000
00000000
00000000
00000000
00000000
00000000
00000000
00000000
13000000
00000000
00000000
00000000
00100000
00000000
00000000
00000000
01000000
00000000
00000000
00000000
00010000
00000000
00000000
00000000
00010000
00000000
00000000
00000000
00000000
01000000
00000000
00000000
00100000
00000000
00000000
00000000
00000000
10000000
00000000
00000000
,
00010000
00000000
00000000
00000000
01100000
00000000
00000000
00000000
00001000
00010000
00000010
00001000
00000010
00010000
00001000
00010000
,
00000100
00010000
00001000
01000000
00010000
01000000
00001000
00010000
00011000
00000000
00000000
00001010
00000000
00000000
00000011
00000000
,
00001000
00000001
00000010
00000100
00000010
00001000
00010000
01000000
00100000
01000000
10000000
00100000
01000000
00010000
00100000
01000000
,
10000000
00000000
00000000
00000000
00000000
00000000
00010000
00000000
00000000
00100000
00000000
00000000
00000000
00000000
00000000
00100000
00000000
00000000
10000000
00000000
00000000
00000000
00000000
00000000
01000000
00000000
00000000
00100000
00000000
00000000
00001000
00000000
00000000
00010000
00000000
00000000
00000100
00000000
00001000
00000000
00000100
00000000
00001000
00000000
00000000
00000001
00000000
00000000
,
00001001
00000000
00000000
00000000
;
