#VERSION:0.83;
#TITLE:Giant Otter Family;
#ARTIST:S-C-U;
#BANNER:Giant Otter Family.png;
#BACKGROUND:Giant Otter Family-bg.png;
#CDTITLE:./CDTitles/jb Qubell.png;
#MUSIC:Giant Otter Family.ogg;
#SAMPLESTART:11.171;
#SAMPLELENGTH:15;
#BPMS:0=188;
#BGSTAGE:5;

//--------------- dance-single - Fred-104 ----------------
#NOTEDATA:;
#STEPSTYPE:dance-single;
#DESCRIPTION:Fred-104;
#DIFFICULTY:Beginner;
#METER:4;
#CREDIT:Fred-104;
#NOTES:
0000
0000
0000
0000
,
0000
0000
0000
0000
,
0000
0000
0000
0000
,
0000
0000
0000
0000
,
0000
0000
0000
0000
,
1000
0000
0001
0000
,
1000
0000
0100
0100
,
0100
0000
1000
0000
,
0000
0000
0000
0000
,
0001
0000
0000
0000
,
0010
0000
1000
0000
,
0100
0000
0000
0000
,
0001
0000
1000
0000
,
0001
0000
0000
0000
,
0100
0000
0010
0000
,
0100
0000
0000
0000
,
0001
0000
0000
0000
,
1000
0000
0000
0000
,
0100
0000
0001
0000
,
0010
0000
0000
0000
,
1000
0000
0001
0000
,
0100
0000
0000
0000
,
0010
0000
1000
0000
,
2002
0000
0000
0000
,
0000
0000
0000
3003
,
1000
0000
0001
0000
,
1000
0000
0100
0100
,
0100
0000
1000
0000
,
0002
0000
0003
0000
,
0100
0000
0001
0000
,
0010
0000
0001
0001
,
0001
0000
1000
0000
,
1001
0000
0000
0000
,
2000
0000
0000
0000
,
0000
0000
3000
0000
,
0002
0000
0000
0000
,
0000
0000
0003
0000
,
2000
0000
0000
0000
,
0000
0000
3000
0000
,
0002
0000
0000
0000
,
0000
0000
0003
0000
,
1000
0000
0010
0000
,
0100
0000
0001
0000
,
1000
1000
1000
0000
,
0100
0000
0010
0000
,
0100
0000
1000
0000
,
0001
0000
0100
0000
,
0001
0000
0000
0000
,
1001
0000
0000
0000
,
1000
0000
0000
0000
,
0010
0000
0001
0000
,
0100
0000
0000
0000
,
1000
0000
0001
0000
,
1000
0000
0000
0000
,
0100
0000
0010
0000
,
0100
0000
0000
0000
,
1000
0000
0000
0000
,
0001
0000
0000
0000
,
0100
0000
1000
0000
,
0010
0000
0000
0000
,
0001
0000
1000
0000
,
0100
0000
0000
0000
,
0010
0000
0001
0000
,
2002
0000
0000
0000
,
0000
0000
0000
3003
,
1000
0000
0001
0000
,
0100
0100
0100
0000
,
0001
0000
0010
0000
,
0001
0001
0001
0000
,
1001
0000
0000
0000
,
0110
0000
0000
0000
,
2002
0000
0000
0000
,
3003
0000
0000
0000
,
1000
0000
0010
0000
,
1000
0000
0001
0000
,
0100
0000
0001
0000
,
1000
0000
1000
0000
,
0100
0000
0100
0000
,
0010
0000
0001
0000
,
1001
0000
0000
0000
,
0110
0000
0000
0000
,
0001
0000
0001
0000
,
1000
0000
1000
0000
,
0010
0000
0100
0000
,
0001
0000
1000
0000
,
0002
0000
0000
0000
,
1003
0000
0001
0000
,
2002
0000
0000
0000
,
0000
0000
0000
3003
;

//--------------- dance-single - Fred-104 ----------------
#NOTEDATA:;
#STEPSTYPE:dance-single;
#DESCRIPTION:Fred-104;
#DIFFICULTY:Easy;
#METER:8;
#CREDIT:Fred-104;
#NOTES:
0000
0000
0000
0000
,
0000
0000
0000
0000
,
0000
0000
0000
0000
,
0000
0000
0000
0000
,
0000
0000
0000
0000
,
1001
0000
0000
0000
0001
0000
0000
0100
,
0000
0010
0100
0001
,
2000
0000
0000
0000
0000
0000
3000
0001
,
0000
0001
1000
0000
0000
0000
0002
0000
,
1003
0000
0000
0010
0000
0000
0100
0000
,
0010
0000
0000
1000
0000
0000
0001
0000
,
0100
0100
0010
0100
,
0100
0000
0000
0001
0000
0000
1000
0000
,
0001
0000
0000
0100
0000
0000
0010
0000
,
0100
0001
1000
0100
,
1100
0000
0000
0001
0000
1000
0000
2002
,
0000
0000
3003
0000
,
0001
0000
0000
1000
0000
0000
0001
0000
,
0100
0000
0000
0010
0000
0000
0100
0000
,
0001
0010
0100
0010
,
0100
0000
0000
1000
0000
0000
0001
0000
,
1000
0000
0000
0010
0000
0000
0100
0000
,
0001
0010
0100
0010
,
0001
0000
0000
2002
0000
0000
0000
0000
,
0000
0000
0000
3003
,
1000
0000
0100
0000
1000
0000
0000
0010
,
0000
0000
1000
0000
0001
0000
0000
0100
,
0000
0010
0100
0000
,
0001
1000
0000
0001
,
0010
0000
0100
0000
1000
0000
0000
0010
,
0000
0100
0100
0001
,
1000
0000
0001
0000
0100
0100
0000
0110
,
0000
0010
0010
0000
0100
0000
1001
0000
,
2000
0000
0000
0000
,
3002
0000
0000
0000
,
0203
0000
0000
0000
,
0320
0000
0000
0000
,
2030
0000
0000
0000
,
3002
0000
0000
0000
,
0023
0000
0000
0000
,
0230
0000
0000
0300
,
1000
0000
0010
0000
1000
0000
0000
0001
,
0000
1000
0000
0010
0000
0100
0001
0000
,
1000
0100
0001
0100
,
2000
0000
3001
0100
,
0010
0010
0100
0100
,
0001
0100
0010
1000
,
2002
0000
0000
3003
,
0001
1000
0001
0000
0000
0000
2000
0000
,
3001
0000
0000
0010
0000
0000
0100
0000
,
0010
0000
0000
0001
0000
0000
1000
0000
,
0100
0100
0010
0100
,
0100
0000
0000
1000
0000
0000
0001
0000
,
1000
0000
0000
0100
0000
0000
0010
0000
,
0100
1000
0001
0100
,
0101
0000
0000
1000
0000
0001
0000
2002
,
0000
0000
3003
0000
,
1000
0000
0000
0001
0000
0000
1000
0000
,
0100
0000
0000
0010
0000
0000
0100
0000
,
1000
0010
0100
0010
,
0100
0000
0000
0001
0000
0000
1000
0000
,
0001
0000
0000
0010
0000
0000
0100
0000
,
1000
0010
0100
0010
,
1000
0000
0000
2002
0000
0000
0000
0000
,
0000
0000
0000
3003
,
0001
0000
0001
0000
1000
0000
0000
0010
,
0000
0000
0100
0000
0001
0001
0001
0000
,
1000
0100
0000
0010
,
0100
1000
0001
0000
,
1001
0000
0000
0000
0110
0000
0000
1001
,
0000
0000
0001
0000
0100
0010
0100
0000
,
2002
0000
0000
0000
0000
0000
3003
0001
,
0000
1000
0100
0000
0000
0000
1000
0010
,
2000
0000
3000
0002
0000
0003
0100
0000
,
0020
0000
0030
0200
0000
0300
0001
0000
,
1000
0000
0001
0000
0010
0100
0010
0000
,
0001
0000
0000
1000
0000
0000
0001
0000
,
0100
0000
0000
0010
0000
0000
0100
0000
,
0001
1000
0100
0010
,
0011
0000
0000
1000
0000
0001
0000
2002
,
0000
0000
0000
0000
3003
0000
1000
0100
,
2000
0000
3000
0002
0000
0003
0100
0000
,
0020
0000
0030
0200
0000
0300
0001
0000
,
1000
0000
0001
0000
0010
0010
0010
0000
,
0001
0000
0000
1000
0000
0000
0001
0000
,
1001
0000
0000
0001
0000
0000
1000
0000
,
0010
0100
0001
1000
,
1010
0000
0000
0010
0000
0100
0000
0001
,
0000
1000
0000
0100
0000
0010
0110
0000
;

//--------------- dance-single - Fred-104 ----------------
#NOTEDATA:;
#STEPSTYPE:dance-single;
#DESCRIPTION:Fred-104;
#DIFFICULTY:Medium;
#METER:13;
#CREDIT:Fred-104;
#NOTES:
0000
0000
0000
0000
,
0000
0000
0000
0000
,
0000
0000
0000
0000
,
0000
0000
0000
0000
,
0000
0000
0000
0000
,
0110
0000
1001
0000
0001
0100
0001
0100
,
0000
0001
1000
0010
0100
0001
1000
0000
,
0220
0000
0000
0000
0000
0000
0330
0010
,
0000
0010
0001
0000
0000
0000
1000
0001
,
2000
0000
3001
0020
0000
0031
1000
0001
,
0200
0000
0310
2000
0000
3001
0100
0020
,
0000
1030
0100
0010
0001
1000
0010
0100
,
0001
0000
0000
1000
0000
0000
0002
0000
0000
0000
0013
0000
0100
0000
0000
0000
,
1000
0000
0000
0001
0000
0000
0200
0000
0000
0000
0310
0000
0100
0000
0000
0000
,
0110
1010
0101
1001
,
1000
1000
0000
1100
0000
0011
0000
0110
,
0000
0001
1000
0000
0000
0000
0001
1000
,
0002
0000
0103
0020
0000
1030
0010
0100
,
0002
0000
1003
0200
0000
0310
0001
2000
,
0000
3001
0100
0010
1000
0010
0100
0001
,
0010
0000
0000
0100
0000
0000
2000
0000
0000
0000
3001
0000
0100
0000
0000
0000
,
0001
0000
0000
1000
0000
0000
0002
0000
0000
0000
0013
0000
0100
0000
0000
0000
,
1100
0101
1010
0011
,
2000
0000
0000
0002
0000
0000
0000
0000
,
0000
0000
0000
3003
,
1000
0000
0100
1000
0001
0000
0100
0001
,
1000
0001
0010
0000
0100
0000
1000
0000
,
0001
0000
0100
0010
1000
0000
0001
0010
,
0100
0010
0001
1000
0000
1000
0001
0000
,
0100
0000
0010
1000
0010
0000
0100
0001
,
1000
0100
0010
0000
0001
1000
0010
0000
,
0100
0000
0110
0000
0010
1000
0000
1010
,
0000
0001
1000
0001
0100
0000
0110
0000
,
2001
0000
3020
0000
,
0230
0000
0000
0300
,
0002
0000
0023
0000
,
0230
0000
0000
0300
,
2000
0000
3002
0000
,
0203
0000
0320
0000
,
2030
0000
0000
0001
0000
0001
0000
0002
,
0000
0000
0000
3003
,
1100
0000
0101
0000
1000
0100
0010
0002
,
0000
1003
0010
0200
0000
0301
1000
0001
,
0010
0000
0000
0001
0000
0000
1000
0000
0010
0000
0000
1000
0000
0000
0100
0000
,
0010
0000
0001
0100
1000
0100
0001
1000
,
0001
0000
1001
0000
1000
0001
0100
0010
,
0000
1010
0000
0101
0000
1000
0100
0010
,
0001
1000
0001
1000
0010
0100
0010
0100
,
0001
0000
1001
0000
0000
0000
0001
1000
,
0002
0000
1003
0020
0000
1030
0001
1000
,
0200
0000
0310
0002
0000
1003
0100
0020
,
0000
0031
0100
0010
1000
0001
0010
0100
,
1000
0000
0000
0001
0000
0000
2000
0000
0000
0000
3010
0000
0100
0000
0000
0000
,
0001
0000
0000
1000
0000
0000
0200
0000
0000
0000
0310
0000
0100
0000
0000
0000
,
0110
0011
1100
1001
,
0001
0001
0000
0101
0000
1010
0000
0110
,
0000
1000
0001
0000
0000
0000
1000
0001
,
2000
0000
3100
0020
0000
0031
0010
0100
,
2000
0000
3001
0200
0000
0310
1000
0002
,
0000
1003
0100
0010
0001
0010
0100
1000
,
0010
0000
0000
0100
0000
0000
0002
0000
0000
0000
1003
0000
0100
0000
0000
0000
,
1000
0000
0000
0001
0000
0000
2000
0000
0000
0000
3010
0000
0100
0000
0000
0000
,
0101
1100
0011
1010
,
0002
0000
0000
2000
0000
0000
0000
0000
,
0000
0000
0000
3003
,
0001
0000
0001
0000
1000
0001
1000
0010
,
0000
0100
0001
0000
1000
0100
0001
0100
,
1000
0010
0001
1000
,
0100
0001
1000
0000
,
1001
0000
0001
0000
0100
0010
0100
0010
,
0000
1000
0010
0000
0100
0001
1000
0001
,
2002
0000
0000
0000
0000
0000
3003
0001
,
0000
0001
0100
0000
0000
0000
0001
1000
,
0002
0000
1003
0200
0000
1300
0001
0100
,
0020
0000
1030
0020
0000
0130
0001
0020
,
0000
0031
1000
0001
0100
0010
1000
0000
,
0001
0000
0000
1000
0000
0000
0020
0000
0000
0000
0130
0000
0001
0000
0000
0000
,
1000
0000
0000
0100
0000
0000
0020
0000
0000
0000
0031
0000
1000
0000
0000
0000
,
1010
0101
1100
0011
,
1000
1000
0000
1001
0000
0110
0000
1001
,
0000
0001
0100
0000
0000
0000
0001
1000
,
0020
0000
1030
0002
0000
0013
0100
0010
,
0002
0000
1003
0002
0000
0103
0010
2000
,
0000
3010
0100
0001
1000
0100
0010
0001
,
1000
0000
0000
0001
0000
0000
0200
0000
0000
0000
0310
0000
0100
0000
0000
0000
,
1001
0000
0000
0001
0000
0000
0100
0000
0000
0000
0010
0000
0100
0000
0000
0000
,
0101
1010
0011
1100
,
0001
0001
0000
0011
0000
1100
0000
0101
,
0000
1010
0000
0110
0000
0001
1000
0000
;

//--------------- dance-single - Fred-104 ----------------
#NOTEDATA:;
#STEPSTYPE:dance-single;
#DESCRIPTION:Fred-104;
#DIFFICULTY:Hard;
#METER:16;
#CREDIT:Fred-104;
#NOTES:
0000
0000
0000
0000
,
0000
0000
0000
0000
,
0000
0000
0000
0000
,
0000
0000
0000
0000
,
0000
0000
0000
0000
,
1010
0000
0101
0000
1100
0100
0010
0011
,
0000
1001
0001
0100
0010
1000
0001
0010
,
0220
0000
0000
0000
0000
0000
0330
0100
,
0000
0000
0100
0000
1001
0000
0000
0000
0000
0000
0000
0000
1000
0100
0010
0001
,
2000
0000
3100
0020
0000
1030
0010
0001
,
2000
0000
3001
0200
0000
0310
0001
0020
,
0000
0000
1030
0000
0001
0000
0010
0100
1000
0000
0010
0100
0001
0100
0010
0000
,
2000
0000
0000
3020
0000
0000
0230
0000
0000
0000
0301
0000
0010
0100
0010
0100
,
1000
0000
0000
0100
0000
0000
0020
0000
0000
0000
1030
0000
0010
0000
0100
0000
,
1100
0101
1010
0011
,
1000
0100
0010
0011
0000
1010
0000
0101
,
0000
0000
1100
0000
1001
0000
0000
0000
0000
0000
0000
0000
0001
0010
0100
1000
,
0002
0000
0203
0320
0031
0020
0230
0302
,
2003
0000
3200
0320
1030
0020
0230
2300
,
3001
0000
0100
0010
0100
0000
0001
0010
0001
0000
1000
0010
0100
0001
1000
0000
,
0100
0000
0000
0010
0000
0000
0002
0000
0000
0000
0103
0000
0001
1000
0001
0010
,
0100
0000
0000
1000
0000
0000
0002
0000
0000
0000
0103
0000
0010
0000
1000
0000
,
1100
0000
0100
0000
0110
0000
0010
0000
0011
0000
0001
1000
0001
0000
0100
0010
,
1000
0000
0000
2002
0000
0000
0000
0000
,
0000
0000
0000
3003
,
1000
0010
0100
1000
0100
0010
0100
0001
,
0010
0100
0001
0100
0010
0100
1000
0010
,
0000
0010
0001
0010
0100
0010
0000
0010
,
1000
0000
0100
0000
0010
0000
0001
0000
0000
0000
0001
1000
0010
0000
0100
0000
,
0001
0100
0010
0001
0010
0100
0010
1000
,
0001
0000
0010
0000
1000
0000
0010
0000
0100
0000
0010
0001
0010
0000
0100
0000
,
1000
0100
1100
0000
0001
0101
0000
0110
,
0000
1010
1000
0001
0011
0000
1001
0000
,
1000
0000
0010
0000
1000
0100
0010
1000
,
0000
0001
0100
2000
0000
0000
0000
0000
,
3001
0000
1000
0000
0001
0100
0010
0001
,
0000
1000
0100
0020
0000
0000
0000
0000
,
1030
0000
0001
0000
1000
0010
0100
0002
,
0000
0010
0000
1000
0000
0103
0001
1000
,
0002
0000
0000
0203
0000
0320
0000
2000
,
0000
0000
0000
0000
3030
0000
0000
0001
,
2000
0010
3002
0100
1003
0100
0010
0002
,
0000
0000
0103
0000
0010
0000
0002
0000
0000
0000
0013
0000
0100
0000
0010
1000
,
0001
0000
1000
0100
0000
0001
0100
0000
1000
0000
0001
0100
0000
1000
0100
0000
,
0002
0000
0000
0000
0000
0000
0013
0100
1000
0000
0001
0000
0100
0000
0010
0000
,
0200
0001
0320
1000
0130
0001
1000
0100
,
0000
0110
0000
0011
0000
0001
1000
0001
,
0100
0000
0010
0000
1000
0000
0010
0000
0100
0000
0001
0000
1000
0100
0010
0001
,
1000
0000
1010
0000
1001
0000
0000
0000
0000
0000
0000
0000
0001
0100
0010
1000
,
0002
0000
1003
1200
0000
0320
0032
1003
,
2001
0000
3001
0021
0000
0230
2300
3002
,
0000
0000
0103
0010
1000
0000
0010
0100
0001
0000
1000
0100
0010
0001
0100
0010
,
1000
0000
0100
0001
0000
0100
0020
0000
0000
0000
0031
0000
1000
0001
0100
0010
,
1000
0000
0001
0010
0000
0100
0020
0000
0000
0000
0031
0000
0101
0000
0000
0000
,
0011
1010
1100
0101
,
1001
1001
0000
0110
0000
1010
0000
0101
,
0000
0000
1100
0000
0110
0000
0000
0000
0000
0000
0000
0000
0001
1000
0010
0100
,
0002
0000
0000
0000
0023
0000
2030
0000
3001
0000
0100
0010
0200
0000
2300
0000
,
3002
0000
0000
0000
0203
0000
0320
0000
0031
0000
1000
0100
0020
0000
2030
0000
,
3001
0000
1000
0100
0010
0000
0001
0100
0010
0000
1000
0100
0010
0001
0100
0010
,
1000
0000
0010
0001
0000
0010
0200
0000
0000
0000
0301
0000
1000
0001
0010
0100
,
1000
0000
0010
0100
0000
0010
2000
0000
0000
0000
3001
0000
0110
0000
1000
0000
,
1100
0000
0100
0000
0010
0000
0001
0000
0110
0000
1000
0001
0100
0000
0010
1000
,
0001
0000
0000
2002
0000
0000
0000
0000
,
0000
0000
3003
0000
,
1000
0000
0001
0000
1000
0010
0001
0010
,
0000
0000
0000
0100
0000
0000
1000
0000
0000
0100
0000
0000
0001
0000
0000
1000
0100
0010
0001
0000
0000
1000
0000
0000
,
0001
0010
1000
0010
0100
0000
1000
0010
,
0001
0010
0100
0000
0001
0010
0100
1000
,
1001
0000
0001
0000
0101
0100
0010
1010
,
0000
0000
0000
1100
0000
0000
0010
0000
0000
0001
0000
0000
1000
0000
0000
0001
0100
0010
1000
0000
0000
0001
0000
0000
,
0010
0000
0100
0000
1000
0000
0001
0000
0100
0010
1000
0100
0010
0000
0001
0000
,
0000
0000
0110
0000
1001
0000
0000
0000
0000
0000
0000
0000
0001
0010
0100
1000
,
0002
0000
0000
0000
2003
0000
3020
0000
0031
0000
0010
0100
1000
0100
0002
0000
,
2003
0000
0000
0000
3200
0000
0302
0000
0103
0000
0010
1000
0010
0001
2000
0000
,
3001
0000
0010
0100
1000
0000
0010
0100
0001
0000
1000
0100
0010
0001
0100
0010
,
1000
0000
0001
0010
0000
0100
0020
0000
0000
0000
0031
0000
1000
0010
0100
0001
,
1000
0000
0001
0010
0000
0100
1000
0000
0001
0000
0100
0010
0100
0000
0001
0000
,
0011
1010
1100
0101
,
0011
1001
0000
1010
0000
0101
0000
1100
,
0000
0000
0110
0000
1001
0000
0000
0000
0000
0000
0000
0000
1000
0100
0010
0001
,
2000
0000
0000
0000
3002
0000
0203
0000
0310
0001
0010
0100
1000
0100
0020
0000
,
2030
0000
0000
0000
3002
0000
0023
0000
0130
0001
0100
0010
1000
0010
0200
0000
,
1300
0000
0001
1000
0100
0000
0010
0100
1000
0000
0010
0100
0001
0010
0100
1000
,
0001
0000
1000
0010
0000
0100
0001
0000
1000
0000
0100
0000
0010
0001
1000
0001
,
0100
0000
0010
0100
0000
0001
1000
0000
0100
0010
0001
1000
0010
0100
0010
0100
,
0001
0000
1000
0001
0100
0000
0010
1000
0001
1000
0100
0010
0001
1000
0001
0100
,
0010
0110
0000
1010
0000
0101
0000
1100
,
0000
0000
0011
0000
0000
0000
1001
0000
0000
0000
1000
0100
0010
0000
0000
0000
;

//--------------- dance-double - Fred-104 ----------------
#NOTEDATA:;
#STEPSTYPE:dance-double;
#DESCRIPTION:Fred-104;
#DIFFICULTY:Easy;
#METER:9;
#CREDIT:Fred-104;
#NOTES:
00000000
00000000
00000000
00000000
,
00000000
00000000
00000000
00000000
,
00000000
00000000
00000000
00000000
,
00000000
00000000
00000000
00000000
,
00000000
00000000
00000000
00000000
,
00011000
00000000
00000000
00000000
00001000
00000000
00000000
00010000
,
00000000
00000100
00001000
00000001
,
00002000
00000000
00000000
00000000
00000000
00000000
00003000
00000010
,
00000000
00000010
00000100
00000000
00000000
00000000
00000020
00000000
,
00001030
00000000
00000000
00000001
00000000
00000000
00000100
00000000
,
00001000
00000000
00000000
00010000
00000000
00000000
00100000
00000000
,
01000000
00010000
01000000
10000000
,
01000000
00000000
00000000
00010000
00000000
00000000
10000000
00000000
,
01000000
00000000
00000000
00100000
00000000
00000000
00001000
00000000
,
00010000
00010000
00001000
00001000
,
00011000
00000000
00000000
00010000
00000000
00000010
00000000
00002020
,
00000000
00000000
00003030
00000000
,
00001000
00000000
00000000
00000100
00000000
00000000
00000010
00000000
,
00000001
00000000
00000000
00000100
00000000
00000000
00001000
00000000
,
00010000
00100000
01000000
00010000
,
10000000
00000000
00000000
01000000
00000000
00000000
00010000
00000000
,
01000000
00000000
00000000
00100000
00000000
00000000
00010000
00000000
,
01000000
00001000
00010000
00001000
,
00010000
00001000
00000010
00001000
,
00010000
00001000
00100000
00000000
,
00001000
00010000
01000000
10000000
,
00100000
00000000
00010000
00000000
00001000
00010000
00001000
00000000
,
00010000
00001000
00000100
00000001
,
00000010
00000000
00000100
00000000
00001000
00000100
00001000
00000000
,
00000010
00010000
00001000
00010000
,
01000000
00000000
00100000
00000000
00010000
10000000
00010000
00000000
,
01000000
00000000
00100000
00000000
10000000
10000000
00000000
01000000
,
00000000
00100000
00001000
00000000
00010000
00000000
00011000
00000000
,
00021000
00000000
00000000
00000000
,
00030020
00000000
00000000
00000000
,
00002030
00000000
00000000
00000000
,
00003200
00000000
00000000
00000000
,
00020300
00000000
00000000
00000000
,
00030200
00000000
00000000
00000000
,
00002300
00000000
00000000
00000000
,
00003002
00000000
00000000
00000003
,
00001000
00000000
00001000
00000000
00000001
00000000
00000000
00000100
,
00000000
00000010
00000000
00001000
00000000
00000000
00000100
00000000
,
00010000
00001000
00000010
00001000
,
00010000
00000000
00001000
00010000
,
00001000
00010000
00100000
01000000
,
00001000
00010000
01000000
10000000
,
00010000
01000000
00010000
10000000
,
01000000
01000000
01000000
00000000
00000000
00000000
00200000
00000000
,
00310000
00000000
00000000
10000000
00000000
00000000
01000000
00000000
,
00010000
00000000
00000000
00001000
00000000
00000000
00000010
00000000
,
00000100
00001000
00000100
00000001
,
00000100
00000000
00000000
00001000
00000000
00000000
00000001
00000000
,
00000100
00000000
00000000
00000010
00000000
00000000
00010000
00000000
,
00001000
00001000
00010000
00010000
,
00011000
00000000
00000000
00001000
00000000
00100000
00000000
00220000
,
00000000
00000000
00330000
00000000
,
00010000
00000000
00000000
01000000
00000000
00000000
00100000
00000000
,
10000000
00000000
00000000
01000000
00000000
00000000
00010000
00000000
,
00001000
00000010
00000100
00001000
,
00000001
00000000
00000000
00000100
00000000
00000000
00001000
00000000
,
00000100
00000000
00000000
00000010
00000000
00000000
00001000
00000000
,
00000100
00010000
00001000
00010000
,
00001000
00010000
00100000
00010000
,
00001000
00010000
00000010
00000000
,
00010000
00000000
00010000
00000000
00001000
00000000
00010000
00010000
,
00000000
00000100
00001000
00000000
00000001
00000000
00000100
00000000
,
00000001
00000010
00001000
00010000
,
01000000
10000000
00010000
00000000
,
10010000
00000000
10000000
00000000
01000000
00000000
00100000
00100000
,
00000000
00001000
00010000
00000000
00000100
00000100
00000100
00000000
,
00001000
00000000
00000001
00000000
00000100
00000000
00000000
00000010
,
00000000
00010000
00011000
00000000
00000000
00000000
00002000
00000000
,
00013000
00000000
00000000
00001000
00000000
00000000
00100000
00000000
,
00010000
00000000
00000000
10000000
00000000
00000000
00100000
00000000
,
01000000
00000000
00010000
00000000
10000000
01000000
00100000
00000000
,
00001000
00000000
00000000
00010000
00000000
00000000
00001000
00000000
,
00010000
00000000
00000000
00000010
00000000
00000000
00001000
00000000
,
00000100
00000100
00001000
00001000
,
00001001
00000000
00000000
00000001
00000000
00000100
00000000
00001000
,
00000000
00010000
00011000
00000000
00000000
00000000
00010000
00000000
,
00001000
00000000
00000000
00100000
00000000
00000000
00001000
00000000
,
00010000
00000000
00000000
00001000
00000000
00000000
01000000
00000000
,
00010000
00000000
10000000
00000000
01000000
00100000
01000000
00000000
,
10000000
00000000
00000000
00100000
00000000
00000000
00010000
00000000
,
00001000
00000000
00000000
00000100
00000000
00000000
00000010
00000000
,
00001000
00000000
00000001
00000000
00000100
00000010
00001000
00000000
,
00000100
00000100
00000000
00011000
00000000
00101000
00000000
00110000
,
00000000
01100000
00000000
10010000
00000000
00000000
10100000
00000000
;

//--------------- dance-double - Fred-104 ----------------
#NOTEDATA:;
#STEPSTYPE:dance-double;
#DESCRIPTION:Fred-104;
#DIFFICULTY:Medium;
#METER:13;
#CREDIT:Fred-104;
#NOTES:
00000000
00000000
00000000
00000000
,
00000000
00000000
00000000
00000000
,
00000000
00000000
00000000
00000000
,
00000000
00000000
00000000
00000000
,
00000000
00000000
00000000
00000000
,
00011000
00000000
01001000
00000000
00001000
00010000
00001000
01000000
,
00000000
00001000
00010000
00100000
10000000
00010000
01000000
00100000
,
20000000
00000000
00000000
00000000
00000000
00000000
30000000
01000000
,
00000000
01000000
01100000
00000000
00000000
00000000
00001000
00010000
,
00002000
00000000
00013000
00000020
00000000
00001030
00000010
00000100
,
00000002
00000000
00001003
00000200
00000000
00000310
00000001
00002000
,
00000000
00003001
00000100
00001000
00010000
00100000
02000000
00000000
,
03010000
00000000
00000000
10000000
00000000
00000000
00020000
00000000
00000000
00000000
01030000
00000000
00200000
00000000
00000000
00000000
,
10300000
00000000
00000000
01000000
00000000
00000000
00200000
00000000
00000000
00000000
00301000
00000000
00010000
00000000
00000000
00000000
,
00011000
00010010
00011000
00101000
,
00001000
00001000
00000000
00011000
00000000
00110000
00000000
10100000
,
00000000
00010000
10000000
00000000
00000000
00000000
10000000
01000000
,
00200000
00000000
00301000
00020000
00000000
00030010
00010000
00001000
,
00020000
00000000
00030100
00002000
00000000
00003100
00000010
00000002
,
00000000
00001003
00000010
00000100
00000001
00000100
00000020
00000000
,
00001030
00000000
00000000
00000001
00000000
00000000
00000020
00000000
00000000
00000000
00000130
00000000
00010000
00000000
00001000
00000000
,
00010000
00000000
00000000
00000010
00000000
00000000
00002000
00000000
00000000
00000000
00003100
00000000
00010000
00000000
00000000
00000000
,
00011000
00110000
10100000
11000000
,
02200000
00000000
00000000
00000000
,
00000000
00000000
00000000
03300000
,
10000000
00100000
01000000
00000000
00010000
00100000
00000000
01000000
,
00000000
00100000
00001000
00000000
00010000
00000010
00000000
00001000
,
00000000
00000001
00000010
00000100
00000010
00000001
00000000
00001000
,
00000001
00000100
00000001
00001000
00000000
00000100
00010000
00000000
,
00001000
00100000
00010000
00000000
10000000
00010000
00000000
00100000
,
00000000
01000000
00100000
00000000
00001000
00010000
00000000
00001000
,
00000000
01000000
00001000
00000000
00010000
00010000
00000000
00000100
,
00001000
00000001
00000100
00001000
00010000
00000000
00011000
00000000
,
00102000
00000000
00023000
00000000
,
00030020
00000000
00000000
00000000
,
00002030
00000000
00003200
00000000
,
00000320
00000000
00000000
00000000
,
00000032
00000000
00000203
00000000
,
00002300
00000000
00000000
00000000
,
00023000
00000000
00000000
00001000
00000000
00001000
00000000
00002000
,
00000000
00000000
00000000
00033000
,
01100000
00000000
10010000
00000000
00010000
00100000
01000000
00100000
,
00000000
10000000
00100000
00010000
00000000
10000000
00100000
00000000
,
00010000
00000000
00000000
00001000
00000000
00000000
00010000
00000000
00000010
00000000
00000000
00000100
00000000
00000000
00000001
00000000
,
00001000
00000000
00000100
00000010
00000001
00001000
00000010
00000000
,
00000100
00000001
00001000
00000000
00000010
00010000
00001000
00010000
,
00000000
00010100
00000000
00011000
00000000
00001000
00100000
00010000
,
10000000
00100000
01000000
00000000
00010000
00000000
01000000
00001000
,
00010000
00001000
00010000
00000000
00000000
00000000
00010000
00001000
,
00020000
00000000
00031000
00200000
00000000
00310000
00100000
01000000
,
20000000
00000000
30010000
02000000
00000000
03100000
10000000
00020000
,
00000000
10030000
01000000
00010000
00001000
00000010
00000200
00000000
,
00001300
00000000
00000000
00000001
00000000
00000000
00002000
00000000
00000000
00000000
00003100
00000000
00000020
00000000
00000000
00000000
,
00000031
00000000
00000000
00000100
00000000
00000000
00000020
00000000
00000000
00000000
00010030
00000000
00001000
00000000
00000000
00000000
,
00011000
00101000
00011000
00010010
,
00010000
00010000
00000000
00011000
00000000
00001010
00000000
00000011
,
00000000
00001000
00000001
00000000
00000000
00000000
00000001
00000100
,
00000020
00000000
00010030
00002000
00000000
00103000
00001000
00010000
,
00002000
00000000
01003000
00020000
00000000
01030000
00100000
20000000
,
00000000
30010000
00100000
01000000
10000000
01000000
00200000
00000000
,
00310000
00000000
00000000
10000000
00000000
00000000
00200000
00000000
00000000
00000000
01300000
00000000
00001000
00000000
00010000
00000000
,
00001000
00000000
00000000
00100000
00000000
00000000
00020000
00000000
00000000
00000000
01030000
00000000
00001000
00000000
00000000
00000000
,
00011000
00001010
00000011
00000101
,
00000220
00000000
00000000
00000000
,
00000000
00000000
00000000
00000330
,
00000001
00000000
00000001
00000000
00001000
00000100
00001000
00000100
,
00000000
00000000
00010000
00000000
00001000
00000000
00000000
00000000
00010000
00000000
00000010
00010000
00000010
00000000
00010000
00000000
,
00001000
00000000
00010000
00100000
01000000
00000000
00100000
00000000
,
10000000
00010000
00100000
00000000
00001000
00000000
00010000
00000000
,
00011000
00000000
00010010
00000000
00000010
00001000
00000010
00001000
,
00000000
00000000
00000001
00000000
00001000
00000000
00000100
00000000
00000010
00000000
00000001
00000100
00000001
00000000
00001000
00000000
,
00000200
00000000
00000000
00000000
00000000
00000000
00000300
00010000
,
00000000
00010000
00011000
00000000
00000000
00000000
00001000
00010000
,
00002000
00000000
00103000
00020000
00000000
10030000
00010000
10000000
,
02000000
00000000
03100000
02000000
00000000
13000000
00100000
01000000
,
00000000
00010000
10000000
00100000
00010000
00001000
00000100
00000010
,
00001000
00000000
00000000
00000001
00000000
00000000
00000200
00000000
00000000
00000000
00000310
00000000
00000100
00000000
00000000
00000000
,
00000001
00000000
00000000
00000010
00000000
00000000
00000200
00000000
00000000
00000000
00010300
00000000
00001000
00000000
00000000
00000000
,
00011000
00010100
00011000
00101000
,
00001000
00001000
00000000
00011000
00000000
00001010
00000000
00000011
,
00000000
00000001
00001000
00000000
00000000
00000000
00000001
00001000
,
00000200
00000000
00010300
00002000
00000000
00013000
00000010
00001000
,
00000020
00000000
00010030
00002000
00000000
00103000
00010000
20000000
,
00000000
30010000
00100000
01000000
00100000
00010000
10000000
00100000
,
01000000
00000000
00000000
00001000
00000000
00000000
00020000
00000000
00000000
00000000
00030100
00000000
00001000
00000000
00000000
00000000
,
00000001
00000000
00000000
00000100
00000000
00000000
00000010
00000000
00000000
00000000
00001000
00000000
00000100
00000000
00000000
00000000
,
00001100
00010100
00011000
01001000
,
00001000
00001000
00000000
00110000
00000000
10010000
00000000
11000000
,
00000000
01100000
00000000
00110000
00000000
00001000
00010000
00000000
;

//--------------- dance-double - Fred-104 ----------------
#NOTEDATA:;
#STEPSTYPE:dance-double;
#DESCRIPTION:Fred-104;
#DIFFICULTY:Hard;
#METER:16;
#CREDIT:Fred-104;
#NOTES:
00000000
00000000
00000000
00000000
,
00000000
00000000
00000000
00000000
,
00000000
00000000
00000000
00000000
,
00000000
00000000
00000000
00000000
,
00000000
00000000
00000000
00000000
,
00011000
00000000
00010010
00000000
00010000
00001000
00000100
00000010
,
00000000
00001000
00000100
00000010
00000001
00000100
00001000
00010000
,
00022000
00000000
00000000
00000000
00000000
00000000
00033000
01000000
,
00000000
00000000
01000000
00000000
10010000
00000000
00000000
00000000
00000000
00000000
00000000
00000000
00010000
10000000
00010000
10000000
,
00020000
00000000
10030000
00200000
00000000
00310000
00001000
00000100
,
00000002
00000000
00000013
00000200
00000000
00000310
00001000
00020000
,
00000000
00000000
01030000
00000000
00100000
00000000
00010000
00100000
01000000
00000000
10000000
00010000
01000000
00010000
10000000
00000000
,
00200000
00000000
00000000
02300000
00000000
00000000
03020000
00000000
00000000
00000000
00130000
00000000
00001000
00010000
00001000
00010000
,
00002000
00000000
00000000
00023000
00000000
00000000
00030020
00000000
00000000
00000000
00001030
00000000
00001100
00000000
00000000
00000000
,
00010010
00101000
00010100
01001000
,
00001000
00010000
00001000
00101000
00000000
00010100
00000000
01001000
,
00000000
00000000
00010010
00000000
00011000
00000000
00000000
00000000
00000000
00000000
00000000
00000000
00000010
00001000
00000010
00001000
,
00000002
00000000
00000103
00002000
00000000
00013000
00100000
01000000
,
00020000
00000000
10030000
02000000
00000000
03100000
01000000
00020000
,
00000000
00000000
00031000
00000000
00000010
00000000
00000100
00001000
00000001
00000000
00000100
00000001
00001000
00000001
00000010
00000000
,
00000200
00000000
00000000
00020300
00000000
00000000
00032000
00000000
00000000
00000000
00013000
00000000
00001000
00010000
00001000
00010000
,
00002000
00000000
00000000
00023000
00000000
00000000
00230000
00000000
00000000
00000000
01300000
00000000
00010000
00000000
10000000
00000000
,
11000000
00000000
01000000
00000000
01100000
00000000
00100000
00000000
00101000
00000000
00001000
00010000
00001000
00000000
00010000
00000010
,
00001000
00000001
00000010
00001000
00010000
00000000
01000000
00100000
,
00010000
10000000
00100000
00000000
00010000
00001000
00010000
00000000
,
00001000
01000000
00001000
00010000
00100000
10000000
01000000
00200000
,
00000000
00301000
00000010
00000100
00001000
00000010
00000100
00000002
,
00000000
00000103
00001000
00010000
00100000
02000000
00000000
03010000
,
10000000
00000000
01000000
00000000
00010000
00000000
00002000
00000000
00000000
00000000
00013000
00001000
00010000
00000000
00000010
00000000
,
00001000
00000100
00000010
00000100
00010000
00001000
00000100
00000010
,
00010000
00000000
00001000
00000000
00000010
00000000
00000100
00000000
00000000
00000000
00001000
00000001
00000010
00000000
00000100
00000000
,
00010000
00011000
00011000
00000000
00101000
00101000
00000000
00010010
,
00000000
01001000
00001000
00010000
00010100
00000000
00011000
00000000
,
00001000
00000000
00010000
00000000
00100000
01000000
00010000
00100000
,
00000000
01000000
10000000
00020000
00000000
00000000
00000000
00000000
,
10030000
00000000
00100000
00000000
00010000
00001000
00000100
00000010
,
00000000
00001000
00000100
00000020
00000000
00000000
00000000
00000000
,
00000031
00000000
00001000
00000000
00000001
00000100
00000010
00000200
,
00000000
00002300
00000000
00023000
00000000
00130000
10000000
00100000
,
02000000
00000000
00000000
03020000
00000000
20030000
00000000
02000000
,
00000000
00000000
00000000
00000000
00000000
00000000
33000000
01000000
,
00200000
00000000
00302000
00000000
00013000
00001000
00000100
00000002
,
00000000
00000000
00001003
00000000
00000100
00000000
00000020
00000000
00000000
00000000
00000031
00000000
00000100
00000000
00001000
00010000
,
00001000
00000000
00100000
00010000
00000000
10000000
00010000
00000000
01000000
00000000
00100000
10000000
00000000
00010000
00100000
00000000
,
00002000
00000000
00000000
00000000
00000000
00000000
00013000
00001000
00010000
00000000
00001000
00000000
00000100
00000000
00000010
00000000
,
00002000
00000000
00003002
00000000
00001003
00000001
00000100
00000010
,
00000000
00001010
00000000
00010100
00000000
00010000
00001000
00000010
,
00001000
00000000
00010000
00000000
00001000
00000000
00100000
00000000
00001000
00000000
00010000
00000000
00000010
00001000
00000010
00001000
,
00000001
00000000
00000010
00000000
00000110
00000000
00000000
00000000
00000000
00000000
00000000
00000000
00001000
00000100
00000010
00000001
,
00002000
00000000
00003001
00000200
00000000
00001300
00010000
00100000
,
20000000
00000000
31000000
00020000
00000000
00031000
00000010
00000002
,
00000000
00000000
00001003
00000001
00000100
00000000
00000001
00001000
00000100
00000000
00001000
00000001
00000100
00000010
00001000
00000000
,
00000200
00000000
00000000
00020300
00000000
00000000
00032000
00000000
00000000
00000000
00013000
00000000
01000000
00100000
00010000
00100000
,
00020000
00000000
00000000
20030000
00000000
00000000
30200000
00000000
00000000
00000000
01300000
00000000
00001000
00000000
00010000
00000000
,
00011000
00010010
00011000
01001000
,
00011000
00010100
00000000
00001001
00000000
00001100
00000000
00000101
,
00000000
00000000
00000110
00000000
00001001
00000000
00000000
00000000
00000000
00000000
00000000
00000000
00010000
00000010
00001000
00000010
,
00020000
00000000
00031000
00010000
00100000
10000000
01000000
00010000
,
00002000
00000000
00013000
00001000
00000010
00000001
00000100
00001000
,
00010000
00000000
00001000
00100000
00001000
00000000
00010000
00000010
00010000
00000000
00001000
00100000
00010000
10000000
00010000
00000000
,
02000000
00000000
00000000
03200000
00000000
00000000
20300000
00000000
00000000
00000000
31000000
00000000
00100000
00010000
00100000
00001000
,
00020000
00000000
00000000
00030020
00000000
00000000
00002030
00000000
00000000
00000000
00003100
00000000
00000110
00000000
00000001
00000000
,
00000101
00000000
00000100
00000000
00000010
00000000
00001000
00000000
00001100
00000000
00000100
00010000
00001000
00000000
00010000
00001000
,
00010000
00001000
00000010
00000001
00001000
00000000
00000010
00000100
,
00001000
00010000
00100000
00000000
01000000
00010000
10000000
00000000
,
00010000
00000000
10000000
00000000
01000000
00100000
00001000
00010000
,
00000000
00000000
00000000
00000100
00000000
00000000
00001000
00000000
00000000
00000001
00000000
00000000
00000100
00000000
00000000
00000010
00001000
00000010
00001000
00000000
00000000
00000100
00000000
00000000
,
00001000
00000001
00000100
00001000
00010000
00000000
00100000
01000000
,
00010000
10000000
01000000
00000000
00010000
00001000
00000100
00000001
,
00001001
00000000
00000100
00000000
00000011
00000001
00001000
00001100
,
00000000
00000000
00000000
00010100
00000000
00000000
00010000
00000000
00000000
00001000
00000000
00000000
00100000
00000000
00000000
00010000
10000000
00010000
10000000
00000000
00000000
01000000
00000000
00000000
,
00100000
00000000
00010000
00000000
01000000
00000000
00001000
00000000
00010000
00001000
00010000
00001000
00010000
00000000
00000010
00000000
,
00000000
00000000
00010000
00000000
00011000
00000000
00000000
00000000
00000000
00000000
00000000
00000000
00001000
00100000
00010000
10000000
,
00020000
00000000
00000000
00000000
10030000
00000000
01000000
00000000
00100000
00000000
10000000
00100000
00010000
00000000
00100000
00001000
,
00020000
00000000
00000000
00000000
00031000
00000000
00000100
00000000
00000001
00000000
00001000
00000010
00000001
00000000
00000010
00001000
,
00000100
00000000
00010000
00001000
00010000
00000000
00001000
00100000
00001000
00000000
00100000
00010000
10000000
00010000
01000000
00000000
,
00200000
00000000
00000000
20300000
00000000
00000000
32000000
00000000
00000000
00000000
03100000
00000000
00001000
00010000
00001000
00010000
,
00002000
00000000
00000000
00023000
00000000
00000000
00030020
00000000
00000000
00000000
00001030
00000000
00000100
00000000
00000010
00000000
,
00000011
00001010
00000101
00001100
,
00010010
00010010
00000000
00101000
00000000
00010100
00000000
01001000
,
00000000
00000000
00011000
00000000
00011000
00000000
00000000
00000000
00000000
00000000
00000000
00000000
00001000
00010000
00000010
00001000
,
00000002
00000000
00000000
00000000
00001003
00000000
00000100
00000000
00000010
00000001
00001000
00000000
00000010
00010000
00001000
00000000
,
00020000
00000000
00000000
00000000
00031000
00000000
00100000
00000000
00010000
10000000
00100000
00000000
01000000
00010000
10000000
00000000
,
01000000
00000000
00100000
00010000
00100000
00000000
00001000
00010000
00001000
00000000
00010000
00000010
00001000
00000001
00001000
00000000
,
00000200
00000000
00000000
00000320
00000000
00000000
00000032
00000000
00000000
00000000
00000103
00000000
00001000
00010000
00001000
00010000
,
00001000
00000000
01000000
00010000
00000000
01000000
00200000
00000000
00000000
00000000
10300000
00000000
00010000
00100000
01000000
00100000
,
00010000
00000000
00100000
00001000
00010000
00000000
00000010
00001000
00000100
00000000
00000010
00000001
00001000
00000001
00000100
00000000
,
00000101
00001010
00000000
01010000
00000000
10100000
00000000
11000000
,
00000000
00000000
00110000
00000000
00000000
00000000
00001100
00000000
00000000
00000000
00000010
00000001
00001000
00000000
00000000
00000000
;
