#TITLE:Get Back Up!;
#ARTIST:NMR runners;
#BANNER:Get Back Up!.png;
#BACKGROUND:Get Back Up!-bg.png;
#CDTITLE:./CDTitles/DDR II.png;
#MUSIC:Get Back Up!.ogg;
#SAMPLESTART:44.14;
#SAMPLELENGTH:15;
#BPMS:0=155;
#STAGE:4;

//--------------- dance-single - Fred-104 ----------------
#NOTES:
     dance-single:
     Fred-104:
     Beginner:
     2:
     :
0000
0000
0000
0000
,
0000
0000
0000
0000
,
0000
0000
0000
0000
,
1000
0000
0000
0000
,
0001
0000
0000
0000
,
1000
0000
0010
0000
,
1000
0000
0000
0000
,
0010
0000
0100
0000
,
0010
0000
0000
0000
,
0100
0000
0001
0000
,
0010
0000
0000
0000
,
0001
0000
1000
0000
,
0001
0000
0000
0000
,
1000
0000
0100
0000
,
0100
0000
0000
0000
,
1000
0000
0010
0000
,
0100
0000
0000
0000
,
0001
0000
0001
0000
,
0010
0000
0000
0000
,
0001
0000
0100
0000
,
0010
0000
0000
0000
,
1000
0000
0000
0000
,
0001
0000
1000
0000
,
0001
0000
0000
0000
,
0100
0000
0010
0000
,
1000
0000
0000
0000
,
0100
0000
0010
0000
,
0001
0000
1000
0000
,
1001
0000
0000
0000
,
0001
0000
1000
0000
,
0001
0000
0000
0000
,
0100
0000
0010
0000
,
0100
0000
0000
0000
,
0010
0000
1000
0000
,
0100
0000
0000
0000
,
1000
0000
0001
0000
,
1000
0000
0001
0000
,
1000
0000
1000
0000
,
0010
0000
0000
0000
,
0001
0000
0001
0000
,
0100
0000
0000
0000
,
1000
0000
0010
0000
,
0100
0000
0000
0000
,
0001
0000
1000
0000
,
1001
0000
0000
0000
,
0001
0000
1000
0000
,
0002
0000
0003
0000
,
0100
0000
0010
0000
,
0200
0000
0300
0000
,
0001
0000
0100
0000
,
0020
0000
0030
0000
,
0100
0000
0010
0000
,
2000
0000
3000
0000
,
0002
0000
0000
0003
,
2000
0000
0000
3000
,
0002
0000
0000
0003
,
2000
0000
0000
3000
,
2002
0000
0000
0000
,
3003
0000
0000
0000
;

//--------------- dance-single - Fred-104 ----------------
#NOTES:
     dance-single:
     Fred-104:
     Easy:
     7:
     :
0000
0000
0000
0000
,
0000
0000
0000
0000
,
0000
0000
0000
0000
,
1000
0100
1000
0010
,
0100
0100
0001
1000
,
0001
0000
0100
0000
0100
0000
0010
0010
,
0000
1000
0000
0000
0100
0000
1000
0000
,
0001
0000
0100
0000
0010
0000
0100
0100
,
0000
0001
0000
0000
1000
0000
0001
0000
,
0100
0000
0010
0000
1000
0000
0100
0100
,
0000
1000
0000
0000
0010
0000
0100
0000
,
0001
0000
0100
0000
0010
0000
1000
1000
,
0000
0001
0000
0000
0100
0000
0010
0000
,
0110
0100
0010
0000
,
1000
0100
0001
0000
,
0100
1000
0001
0000
,
0100
0010
1000
0000
,
1010
1000
0001
0000
,
0100
0010
1000
0000
,
0001
0010
1000
0000
,
0010
0001
1000
0000
,
0001
0100
0010
0100
,
0002
0023
0230
2300
,
3001
0100
0010
1000
,
0200
2300
0002
3003
,
1000
0100
0010
0001
,
0200
0000
0320
0000
,
1030
0010
0001
0100
,
1000
0000
0002
2003
,
3001
0000
0000
0100
0000
0000
0010
0000
,
1000
0010
0001
0010
,
1000
0100
0001
0100
,
1000
0000
0001
0100
,
0010
0000
0000
0100
0000
0000
0001
0000
,
1000
0010
0001
0010
,
1000
0000
0000
0001
0000
0000
0100
0000
,
0110
0000
0002
0203
,
0310
1000
0100
1000
,
0001
0100
0001
0100
,
1000
0010
1000
0010
,
1001
0000
0001
1000
,
0001
0100
0010
1000
,
0001
0100
1000
0100
,
0001
0000
0000
0100
0000
0000
0010
0000
,
0110
0000
1001
0000
,
1000
0010
0100
0100
,
0001
1000
2002
3003
,
0001
0100
0100
0010
,
1000
0010
0220
0330
,
0100
0001
1000
0001
,
0001
1000
2002
3003
,
0001
0010
0100
1000
,
0001
0100
0001
0000
1000
0010
1000
0000
,
1001
0000
0001
0000
0100
0010
0100
0000
,
0010
0000
1000
0000
0100
0010
0100
0000
,
0010
0000
0001
0000
0100
0010
1000
0000
,
0001
0100
0001
0000
1000
0010
1000
0000
,
2002
0000
0000
0000
,
3003
0000
0000
0000
;

//--------------- dance-single - Fred-104 ----------------
#NOTES:
     dance-single:
     Fred-104:
     Medium:
     11:
     :
0000
0000
0000
0000
,
0000
0000
0000
0000
,
0000
0000
0000
0000
,
1000
0010
1000
0010
0100
0001
0100
0001
,
0010
0001
1000
0001
0100
0010
1000
0000
,
0001
0000
0100
0000
0010
0000
1000
0200
,
0000
0320
0000
0032
1003
0001
0100
0000
,
0010
0000
0100
0000
0010
0000
1000
0200
,
0000
0320
0000
0032
0103
0010
0100
0000
,
0001
0000
0010
0000
1000
0000
0010
0002
,
0000
0203
0000
0320
1030
0010
0100
0000
,
0001
0100
0001
0100
0010
1000
0010
0100
,
0000
0101
0000
0001
1000
0010
0100
0000
,
0001
0000
0010
0000
0100
1000
0100
0010
,
0000
1000
0010
0001
1000
0000
0001
0000
,
0100
0000
0001
0000
0010
0001
1000
0001
,
0000
0100
0010
1000
0100
0000
0110
0000
,
0010
0000
0001
0000
1000
0001
0100
1000
,
0000
0100
0010
1000
0100
0000
0010
0000
,
0001
0000
1000
0000
0001
0100
0010
0001
,
0000
0010
1000
0001
0100
0000
0110
0000
,
0010
1000
0100
1000
0000
0100
0010
0001
,
2000
0010
0100
3100
,
0001
1000
0010
0100
0000
0001
0010
0100
,
0010
0000
0001
1000
0010
0000
0100
0010
,
0100
0001
0010
0001
0000
1000
0010
0100
,
0002
0100
0023
1000
,
0130
1000
0100
0010
0100
0010
0001
1000
,
1001
0000
0002
2003
,
3001
0100
0010
0100
0000
0001
0010
0100
,
1000
0100
0110
0000
0001
0100
0110
0000
,
1200
0310
0201
0310
,
1001
0000
2000
3020
,
0130
0001
0010
0001
0000
1000
0001
0100
,
0001
0010
0110
0000
1000
0010
0110
0000
,
0011
0000
0000
1010
0000
0001
0100
0010
,
1010
0000
0020
0230
,
0301
0000
0000
0001
0010
0000
0000
0010
0100
0000
0000
0100
1000
0000
0000
1000
,
0010
0000
0000
0010
0100
0000
0000
0100
0001
0000
0000
0001
1000
0000
0000
0010
,
1000
0000
0000
1000
0100
0000
0000
0100
0010
0000
0000
0010
0001
0000
0000
0000
,
0201
0010
2300
3002
,
1003
0001
0100
0010
0000
1000
0100
0010
,
0011
0001
0100
0000
1010
1000
0100
0000
,
1001
0000
0000
0110
0000
0001
1000
0010
,
0100
0001
1000
0000
0100
1000
0001
0000
,
1000
0000
0000
0010
0000
0000
0100
0000
0000
0000
0010
0000
1000
0000
0100
0000
,
0010
0000
0000
0001
0100
0000
0010
0000
0200
0000
0000
0000
0301
0000
0000
0000
,
1000
0000
0000
0001
0000
0000
0100
0000
0000
0000
0001
0000
0010
0000
0100
0000
,
0020
0000
0000
0031
0100
0000
0010
0000
2000
0000
0000
0000
3010
0000
0000
0000
,
0100
0000
0000
0001
0000
0000
0010
0000
0000
0000
0001
0000
1000
0000
0001
0000
,
1000
0000
0000
0100
1000
0000
0100
0000
0002
0000
0000
0000
0103
0000
0000
0000
,
1000
0000
0000
0010
0000
0000
0100
0000
0000
0000
0001
0000
1000
0000
0100
0000
,
0010
0000
0000
0001
1000
0000
0010
0000
0100
0000
0000
0000
0001
0000
0000
0000
,
1000
0000
0010
0000
0100
0000
0001
0000
0100
0000
0000
0010
0000
0000
1000
0000
,
0001
0000
0010
0000
0100
0000
0010
0000
0001
0000
0000
0001
0000
0000
1000
0000
,
0010
0000
0100
0000
0001
0000
1000
0000
0100
0000
0000
0001
0000
0000
0100
0000
,
1000
0000
0001
0000
0100
0000
0010
0000
1000
0000
0000
0010
0000
0000
0100
0000
,
0202
0000
0000
0000
,
0303
0000
0000
0000
;

//--------------- dance-single - Fred-104 ----------------
#NOTES:
     dance-single:
     Fred-104:
     Hard:
     15:
     :
0000
0000
0000
0000
,
0000
0000
0000
0000
,
0000
0000
0000
0000
,
1000
0100
1000
0100
0010
0100
0010
0100
0010
0001
0010
0001
1000
0001
1000
0001
,
1000
0010
1000
0010
0100
0001
0100
0001
1000
0100
0010
0001
1000
0001
1000
0000
,
1100
0000
1010
1000
1100
0000
0010
0110
,
0000
0110
0000
0110
0100
0001
0010
0001
,
0101
0000
0011
0001
0101
0000
0010
0110
,
0000
0110
0000
0110
0100
1000
0010
1000
,
1100
0000
0101
0100
1100
0000
1010
1010
,
0000
0011
0000
1010
1000
0001
0100
0010
,
1000
0100
1000
0100
1000
0010
1000
0010
0100
0001
0010
0001
1000
0000
1010
0000
,
0000
0000
0101
0000
0000
0000
1100
0000
0001
0000
0100
0000
0010
0000
1000
0001
,
1000
0000
0000
0000
0200
0000
0000
1300
0010
0000
0100
0000
0010
0000
1000
0000
,
0000
0100
0010
1000
0010
0001
1000
0001
,
0100
0000
0000
0000
0002
0000
0000
0013
0001
0000
0100
0000
0010
0000
1000
0000
,
0000
0001
0010
0100
1000
0000
1001
0000
,
0001
0000
0000
0000
0200
0000
0000
0310
0100
0000
0001
0000
0010
0000
0100
0000
,
0000
1000
0010
0001
0100
1000
0001
0100
,
0010
0000
0000
0000
2000
0000
0000
3100
1000
0000
0100
0000
0001
0000
0100
0000
,
0000
1000
0010
0100
0001
1000
1010
0000
,
1000
0100
0001
0200
0000
1300
0100
0010
,
0002
0100
0010
0103
,
0001
0100
1000
0200
0000
0301
0100
0010
,
1000
0000
0001
1000
0020
0000
0100
0000
,
0031
0100
0010
0200
0000
1300
0100
0010
,
0200
0000
0301
1000
0010
0100
0001
1000
,
0001
0100
0010
0000
0100
0010
1000
0000
0100
1000
0001
0100
0001
1000
0001
0000
,
1001
0000
0002
2003
,
3001
0000
0010
0100
1000
0000
0010
0000
1000
0100
0010
0000
0001
0000
1000
0000
,
0001
0000
0010
0001
0100
0000
0010
1000
0100
0000
0010
0001
0100
0000
0010
0000
,
1000
0000
0100
1000
0010
0000
0100
0001
0010
0000
0100
1000
0010
0000
0100
0000
,
0001
0010
0100
1000
2010
0000
3002
0000
,
0103
0000
0001
1000
0010
0000
1000
0000
0001
1000
0100
0000
0010
0000
0001
0000
,
1000
0000
0010
1000
0100
0000
0010
0001
0100
0000
0010
1000
0100
0000
0010
0000
,
0011
0000
1010
1010
0000
0101
0101
1001
,
1100
0000
0010
0100
0002
0000
2003
0000
,
3001
0100
0010
0000
1000
0100
0000
0010
0001
0000
0100
0010
0000
1000
0010
0000
,
0100
0001
0010
0000
0100
1000
0010
0000
0100
0001
0010
0000
0100
1000
0010
0000
,
1000
0010
0100
0000
0001
0100
0010
0000
1000
0100
0010
0000
0001
0010
0100
0000
,
1000
0000
0010
0000
0100
0010
1000
0000
0020
0000
0000
0000
0230
0000
0000
0000
,
0301
0000
0100
0001
0010
0000
0100
0000
0010
0001
0100
0000
0010
0000
1000
0000
,
0100
1000
0100
1000
0010
0100
0010
0100
0001
0010
0001
0010
0100
1000
0001
0010
,
0100
0000
1100
1100
0000
0011
0001
1000
,
0001
0000
0100
0010
1000
0010
0100
0001
1000
0001
0010
0000
0100
1000
0001
0100
,
0010
0000
1000
0100
0000
0010
0100
0000
1000
0000
0010
1000
0001
0000
0100
0000
,
0001
0000
0000
0100
0000
0000
0010
0000
0210
0000
0000
0000
0302
0000
0000
0000
,
1003
0000
0001
0010
0000
0100
0010
0000
0001
0000
0100
0001
0010
0000
0100
0000
,
1000
0000
0000
0001
0000
0000
0100
0000
2100
0000
0000
0000
3200
0000
0000
0000
,
0310
0000
1000
0100
0000
0010
0001
0000
0100
0000
0010
1000
0001
0000
0100
0000
,
0001
0000
0000
0010
0000
0000
1000
0000
2010
0000
0000
0000
3020
0000
0000
0000
,
0031
0000
0010
0001
0000
0100
0001
0000
1000
0010
0100
0001
0010
0000
0100
1000
,
0010
0000
0100
0001
0000
1000
0001
0000
1000
0100
0010
0001
0010
0100
1000
0000
,
0001
0000
0010
0000
0001
0100
0000
0001
0100
0000
0010
1000
0000
0010
1000
0000
,
0100
0000
0010
0000
0001
0010
0000
0001
0010
0000
0100
1000
0000
0100
1000
0000
,
0010
0000
1000
0000
0100
1000
0000
0100
1000
0000
0100
0010
0000
0001
0010
0000
,
0100
0000
1000
0000
0001
0100
0000
0010
1000
0000
0100
0010
0000
0001
1000
0000
,
2200
0000
0000
0000
,
3300
0000
0000
0000
;

//--------------- dance-double - Fred-104 ----------------
#NOTES:
     dance-double:
     Fred-104:
     Easy:
     7:
     :
00000000
00000000
00000000
00000000
,
00000000
00000000
00000000
00000000
,
00000000
00000000
00000000
00000000
,
00010000
00010000
00001000
00010000
,
00001000
00000010
00000001
00001000
,
00000001
00000000
00000100
00000000
00000010
00000000
00000100
00000100
,
00000000
00000010
00000000
00000000
00001000
00000000
00000010
00000000
,
00010000
00000000
00001000
00000000
00010000
00000000
00001000
00001000
,
00000000
00100000
00000000
00000000
00001000
00000000
00100000
00000000
,
00010000
00000000
10000000
00000000
00010000
00000000
01000000
01000000
,
00000000
00100000
00000000
00000000
01000000
00000000
00010000
00000000
,
10000000
00000000
01000000
00000000
00100000
00000000
00001000
00001000
,
00000000
00010000
00000000
00000000
00001000
00000000
00010000
00000000
,
00011000
00010000
00000100
00000000
,
00001000
00000001
00000100
00000000
,
00000001
00000010
00001000
00000000
,
00010000
00100000
10000000
00000000
,
10010000
00010000
01000000
00000000
,
00100000
10000000
01000000
00000000
,
00100000
00001000
00010000
00000000
,
00001000
00000010
00000001
00000000
,
00001000
00000100
00000001
00001000
,
00000002
00000023
00000230
00020300
,
00031000
00100000
00001000
00010000
,
00002000
00023000
00002000
00033000
,
00001000
00010000
01000000
00100000
,
20000000
00000000
30020000
00000000
,
10030000
00100000
00010000
00001000
,
00010000
00000000
00002000
00023000
,
00031000
00000000
00000000
00000100
00000000
00000000
00000001
00000000
,
00001000
00000001
00000100
00000010
,
00000100
00000001
00000010
00000100
,
00010000
00000000
00001000
00010000
,
00001000
00000000
00000000
00100000
00000000
00000000
00001000
00000000
,
00010000
00001000
01000000
00100000
,
01000000
00000000
00000000
00010000
00000000
00000000
10000000
00000000
,
10010000
00000000
20000000
30020000
,
01030000
00100000
01000000
00100000
,
10000000
01000000
10000000
01000000
,
00100000
00001000
00010000
00001000
,
00011000
00000000
00010000
00001000
,
00010000
00000010
00010000
00001000
,
00000100
00000010
00000001
00000100
,
00001000
00000000
00000000
00010000
00000000
00000000
00001000
00000000
,
00011000
00000000
01100000
00000000
,
10000000
01000000
00100000
00010000
,
01000000
00100000
02200000
03300000
,
00010000
01000000
00001000
00010000
,
00001000
00010000
00022000
00033000
,
00010000
00001000
00000010
00000001
,
00000100
00000010
00000220
00000330
,
00000001
00000100
00000010
00001000
,
00000010
00000100
00000010
00000000
00010000
00001000
00010000
00000000
,
00011000
00000000
00001000
00000000
00100000
00010000
00100000
00000000
,
00010000
00000000
10000000
00000000
00100000
01000000
00100000
00000000
,
10000000
00000000
01000000
00000000
00100000
00010000
00100000
00000000
,
00001000
00010000
00001000
00000000
00000100
00000010
00000100
00000000
,
00002002
00000000
00000000
00000000
,
00003003
00000000
00000000
00000000
;

//--------------- dance-double - Fred-104 ----------------
#NOTES:
     dance-double:
     Fred-104:
     Medium:
     11:
     :
00000000
00000000
00000000
00000000
,
00000000
00000000
00000000
00000000
,
00000000
00000000
00000000
00000000
,
00010000
00100000
00010000
00100000
01000000
00100000
01000000
00100000
,
00010000
10000000
00010000
10000000
01000000
00100000
00001000
00000000
,
00010000
00000000
00000100
00000000
00010000
00000000
00000100
00000020
,
00000000
00000032
00000000
00002003
00003001
00000100
00000010
00000000
,
00001000
00000000
00000001
00000000
00000010
00000000
00000100
00020000
,
00000000
00032000
00000000
00003200
00000310
00000001
00001000
00000000
,
00000001
00000000
00000100
00000000
00001000
00000000
00010000
02000000
,
00000000
23000000
00000000
30020000
01030000
00100000
10000000
00000000
,
00010000
00100000
01000000
10000000
00100000
01000000
00010000
00001000
,
00000000
00011000
00000000
00010000
00001000
00000100
00000001
00000000
,
00001000
00000000
00000001
00000000
00000100
00000001
00000100
00000010
,
00000000
00000010
00010000
00001000
00100000
00000000
01000000
00000000
,
10000000
00000000
00010000
00000000
01000000
00100000
10000000
00100000
,
00000000
10000000
01000000
00100000
00001000
00000000
00011000
00000000
,
00010000
00000000
00000010
00000000
00001000
00000010
00000100
00000001
,
00000000
00001000
00000100
00000010
00000001
00000000
00000100
00000000
,
00000001
00000000
00000100
00000000
00001000
00010000
01000000
10000000
,
00000000
00010000
01000000
00100000
10000000
00000000
10010000
00000000
,
10000000
01000000
00100000
00010000
00000000
01000000
00100000
00010000
,
00002000
00010000
00000010
00013000
,
00001000
00010000
00000100
00000010
00000000
00010000
00001000
00100000
,
01000000
00000000
10000000
00010000
01000000
00000000
00100000
10000000
,
01000000
00100000
00001000
00010000
00000000
01000000
10000000
00010000
,
02000000
00000000
03020000
00100000
,
00031000
00010000
00010000
00000100
00001000
00001000
00000100
00000010
,
00000011
00000000
00002000
00003020
,
00010030
00001000
01000000
00001000
00000000
00100000
00010000
10000000
,
01000000
00100000
00110000
00000000
01000000
00100000
10100000
00000000
,
20010000
31000000
00021000
00030100
,
00001001
00000000
00020000
00032000
,
00013000
00000100
00010000
00001000
00000000
00010000
00000010
00001000
,
00010000
00001000
00011000
00000000
01000000
00100000
01100000
00000000
,
11000000
00000000
00000000
00110000
00000000
10000000
00100000
01000000
,
01010000
00000000
00002000
00023000
,
00031000
00010000
00100000
00000000
10000000
00100000
00010000
00000000
,
00001000
00000100
00000001
00000000
00000100
00001000
00010000
00000000
,
00100000
10000000
00010000
10000000
01000000
00100000
00010000
00000000
,
00012000
00000000
02003000
03002000
,
00013000
00001000
00010000
00000100
00000000
00001000
00000100
00000010
,
00000011
00000001
00001000
00000000
00001010
00001000
00000001
00000000
,
00001001
00000000
00000000
00000110
00000000
00000010
00010000
00001000
,
00010000
01000000
00100000
00000000
01000000
00100000
10000000
00000000
,
00010000
00000000
00000000
00100000
00000000
00000000
10000000
00000000
00000000
00000000
00100000
00000000
00010000
00000000
10000000
00000000
,
00100000
00000000
00000000
01000000
00010000
00000000
00001000
00000000
00000200
00000000
00000000
00000000
00000310
00000000
00000000
00000000
,
00000001
00000000
00000000
00000100
00000000
00000000
00000010
00000000
00000000
00000000
00001000
00000000
00000100
00000000
00000010
00000000
,
00000002
00000000
00000000
00001003
00000010
00000000
00010000
00000000
00002000
00000000
00000000
00000000
00103000
00000000
00000000
00000000
,
00010000
00000000
00000000
10000000
00000000
00000000
00010000
00000000
00000000
00000000
01000000
00000000
00100000
00000000
01000000
00000000
,
00001000
00000000
00000000
00010000
00001000
00000000
00000100
00000000
00000020
00000000
00000000
00000000
00010030
00000000
00000000
00000000
,
00001000
00000000
00000000
00100000
00000000
00000000
01000000
00000000
00000000
00000000
00100000
00000000
00001000
00000000
00010000
00000000
,
00000010
00000000
00000000
00001000
00000100
00000000
00010000
00000000
00001000
00000000
00000000
00000000
00010000
00000000
00000000
00000000
,
00001000
00000000
00010000
00000000
01000000
00000000
10000000
00000000
00010000
00000000
00000000
10000000
00000000
00000000
01000000
00000000
,
00100000
00000000
00001000
00000000
00010000
00000000
00000100
00000000
00000010
00000000
00000000
00000001
00000000
00000000
00001000
00000000
,
00000001
00000000
00000100
00000000
00001000
00000000
00000100
00000000
00000001
00000000
00000000
00000100
00000000
00000000
00000010
00000000
,
00001000
00000000
00010000
00000000
01000000
00000000
00100000
00000000
10000000
00000000
00000000
01000000
00000000
00000000
00010000
00000000
,
00022000
00000000
00000000
00000000
,
00033000
00000000
00000000
00000000
;

//--------------- dance-double - Fred-104 ----------------
#NOTES:
     dance-double:
     Fred-104:
     Hard:
     15:
     :
00000000
00000000
00000000
00000000
,
00000000
00000000
00000000
00000000
,
00000000
00000000
00000000
00000000
,
00000001
00000100
00000001
00000000
00001000
00000010
00001000
00000000
00000100
00010000
00000100
00000000
00010000
00001000
00010000
00000000
,
00001000
00100000
00001000
00100000
00010000
00100000
00010000
00100000
00010000
10000000
00100000
10000000
00010000
10000000
01000000
00000000
,
11000000
00000000
01010000
00000000
00011000
00000000
00001100
00001100
,
00000000
00000101
00000000
00000001
00000010
00001000
00010000
00100000
,
10100000
00000000
00110000
00000000
00011000
00000000
00001010
00001010
,
00000000
00000011
00000000
00000001
00000100
00001000
00010000
01000000
,
11000000
00000000
01010000
00000000
00011000
00000000
00110000
00110000
,
00000000
10100000
00000000
10010000
10000000
00010000
01000000
00100000
,
01000000
00010000
01000000
00010000
00100000
00001000
00100000
00001000
00010000
00000100
00010000
00000100
00001000
00000000
00001001
00000000
,
00000000
00000000
00000110
00000000
00000000
00000000
00001001
00000000
00000001
00000000
00000100
00000000
00000010
00000000
00010000
00001000
,
00010000
00000000
00000000
00000000
00000020
00000000
00000000
00001030
00010000
00000000
01000000
00000000
00100000
00000000
00010000
00000000
,
00000000
00001000
00000100
00000010
00001000
00010000
01000000
00100000
,
01000000
00000000
00000000
00000000
00020000
00000000
00000000
00030010
00001000
00000000
00000100
00000000
00010000
00000000
00001000
00000000
,
00000000
00100000
01000000
00100000
00001000
00000000
00011000
00000000
,
00010000
00000000
00000000
00000000
00000200
00000000
00000000
00010300
00001000
00000000
00100000
00000000
01000000
00000000
10000000
00000000
,
00000000
00010000
00100000
10000000
00100000
00010000
10000000
01000000
,
00100000
00000000
00000000
00000000
00002000
00000000
00000000
00013000
00000010
00000000
00001000
00000000
00000100
00000000
00010000
00000000
,
00000000
00000010
00001000
00000001
00000100
00000010
00001010
00000000
,
00000001
00000100
00000010
00001000
00000000
00000001
00000100
00001000
,
00020000
00000010
01000000
00030100
,
00010000
00001000
00000010
00000001
00000000
00001000
00010000
00100000
,
01000000
00000000
10000000
00100000
00002000
00000000
00100000
00000000
,
00003010
00010000
00001000
00010000
00000000
01000000
00001000
00010000
,
00001000
00000000
00010000
00000010
00001000
00000100
00010000
00001000
,
00100000
00010000
10000000
00000000
00010000
10000000
01000000
00000000
00100000
00001000
00010000
00000000
00000010
00001000
00000100
00000000
,
00000110
00000000
00000002
00002003
,
00003001
00000000
00000010
00000001
00001000
00000000
00000100
00000000
00000010
00000001
00001000
00000000
00000010
00000000
00010000
00000000
,
00000010
00010000
00001000
00000000
00010000
00001000
00100000
00000000
00010000
10000000
00100000
00000000
01000000
00010000
10000000
00000000
,
00010000
00100000
01000000
00000000
10000000
00100000
00010000
00000000
00001000
00010000
00001000
00000000
00000010
00000000
00000001
00000000
,
00001000
00000100
00000010
00001000
00020000
00000000
00000100
00000000
,
01030000
00000000
00001000
00010000
00001000
00000000
00100000
00000000
00010000
10000000
00100000
00000000
01000000
00000000
00010000
00000000
,
10000000
01000000
00100000
00000000
00001000
00010000
00100000
00000000
10000000
00100000
01000000
00000000
00001000
00010000
00000100
00000000
,
00001100
00000000
00000101
00000101
00000000
00001010
00001010
00010010
,
00011000
00000000
00001000
00100000
02000000
00000000
03002000
00000000
,
00013000
00000100
00001000
00000000
00000001
00000010
00000000
00000100
00000010
00000000
00000001
00000100
00000000
00001000
00000100
00000000
,
00000001
00000000
00000010
00000100
00001000
00000000
00000010
00000100
00000001
00000000
00001000
00000010
00010000
00000000
00000100
00000000
,
00010000
00000000
00001000
00100000
00010000
00000000
10000000
00100000
01000000
00000000
00010000
10000000
01000000
00000000
00100000
00000000
,
00001000
00000000
00010000
00000000
00000100
00001000
00000010
00000000
00000200
00000000
00000000
00000000
00000302
00000000
00000000
00000000
,
00001003
00000000
00000001
00000010
00000100
00000000
00001000
00000000
00000100
00000010
00000001
00000000
00000100
00000000
00000010
00000000
,
00001000
00000100
00001000
00000100
00010000
00001000
00010000
00001000
00100000
00010000
00100000
00010000
10000000
00100000
01000000
00100000
,
01000000
00000000
01100000
10100000
00000000
01010000
00010000
00100000
,
00001000
00000000
00010000
00000100
00001000
00000010
00000100
00000001
00001000
00000100
00000010
00000000
00000001
00000100
00000010
00001000
,
00000001
00000000
00000010
00000100
00000000
00000010
00000001
00000000
00000000
00000000
00001000
00000000
00000010
00000000
00010000
00000000
,
00001000
00100000
00000000
00100000
01000000
00000000
10000000
00000000
00020000
00000000
00000000
00000000
01000000
00000000
00000000
00000000
,
00030100
00000000
00010000
00001000
00000000
01000000
00010000
00000000
00000000
00000000
00100000
00000000
00001000
00000000
00010000
00000000
,
00001000
00000100
00000000
00000100
00000010
00000000
00000001
00000000
00000200
00000000
00000000
00000000
00001000
00000000
00000000
00000000
,
00010300
00000000
00100000
10000000
00000000
00010000
10000000
00000000
00000000
00000000
00010000
00000000
10000000
00000000
01000000
00000000
,
00100000
00010000
00000000
01000000
00001000
00000000
00010000
00000000
00002000
00000000
00000000
00000000
00100000
00000000
00000000
00000000
,
00003010
00000000
00001000
00000010
00000000
00000100
00000010
00000000
00001000
00000000
00000001
00001000
00000010
00000000
00000100
00000000
,
00000001
00000000
00000010
00000100
00000000
00000100
00010000
00000000
00001000
00010000
00001000
00010000
00001000
00000000
00000000
00000000
,
00100000
00000000
00010000
00000000
10000000
01000000
00000000
01000000
00100000
00000000
00100000
00010000
00000000
00010000
10000000
00000000
,
00100000
00000000
01000000
00000000
00010000
00100000
00000000
00100000
00001000
00000000
00001000
00010000
00000000
00010000
00000010
00000000
,
00001000
00000000
00000100
00000000
00000010
00000001
00000000
00000001
00001000
00000000
00001000
00000010
00000000
00000010
00000100
00000000
,
00000001
00000000
00000100
00000000
00001000
00010000
00000000
01000000
10000000
00000000
00010000
01000000
00000000
00100000
10000000
00000000
,
20020000
00000000
00000000
00000000
,
30030000
00000000
00000000
00000000
;
