#TITLE:元禄花吹雪;
#ARTIST:泉 陸奥彦;
#TITLETRANSLIT:Genroku hanafubuki;
#ARTISTTRANSLIT:Mutsuhiko Izumi;
#BANNER:Genroku hanafubuki.png;
#BACKGROUND:Genroku hanafubuki-bg.png;
#CDTITLE:./CDTitles/GITADORA.png;
#MUSIC:Genroku hanafubuki.ogg;
#SAMPLESTART:24.001;
#SAMPLELENGTH:15;
#BPMS:0=170;
#STAGE:16;

//--------------- dance-single - Fred-104 ----------------
#NOTES:
     dance-single:
     Fred-104:
     Beginner:
     3:
     :
0000
0000
0000
0000
,
0000
0000
0000
0000
,
0000
0000
0000
0000
,
0001
0000
0000
0000
,
0000
0000
0000
0000
,
2000
3000
0020
0030
,
2000
3000
0200
0300
,
2000
3000
0002
0000
,
0000
0000
0000
0003
,
0001
0000
0100
0000
,
0001
0000
1000
0000
,
0001
0000
0010
0000
,
0001
1000
1001
0000
,
1000
0000
0010
0000
,
1000
0000
0100
0000
,
1000
0000
0001
0000
,
1000
0001
1001
0000
,
0002
0000
0000
0000
,
2003
0000
0000
0000
,
3002
0000
0000
0000
,
2003
0000
0000
0000
,
3020
0000
0000
0000
,
0230
0000
0000
0000
,
0320
0000
0000
0000
,
0230
0000
0000
0000
,
0301
0000
0000
0000
,
1000
0000
0000
0000
,
0001
0000
1000
0000
,
0001
0001
0002
0003
,
1000
0000
0010
0000
,
1000
0000
0100
0100
,
0100
0000
0010
0000
,
0001
0000
1000
1000
,
1000
0000
0001
0000
,
0100
0000
0010
0000
,
1000
0000
0100
0000
,
0001
0000
0010
0000
,
1000
0000
0001
0000
,
1000
0000
0100
0000
,
0010
0000
0001
0000
,
1000
0000
0001
0000
,
1000
0000
0100
0000
,
0010
0000
0001
0000
,
1000
0000
0100
0000
,
0001
0000
0010
0000
,
2000
0000
0000
0000
,
0000
0000
3000
0000
,
0002
0000
0000
0000
,
0000
0000
0000
0003
,
0002
0003
2000
3000
,
0002
0003
0200
0300
,
0020
0030
2000
0000
,
0000
0000
0000
3000
,
0002
0000
0000
0000
,
0203
0000
0000
0000
,
0320
0000
0000
0000
,
1030
0001
1001
0000
,
2000
0000
0000
0000
,
3002
0000
0000
0000
,
0203
0000
0000
0000
,
0310
0010
0010
0010
,
0110
0000
0000
0000
,
1001
0000
0000
0000
,
0001
0000
1000
0000
,
0002
0000
0000
0003
,
1000
0000
0010
0000
,
1000
0000
0001
0000
,
0100
0000
0010
0000
,
1000
1000
1000
1000
,
0000
0000
0000
0000
,
1000
0000
0000
0001
,
2002
0000
0000
0000
,
0000
3003
0000
0000
0000
0000
0000
0000
;

//--------------- dance-single - Fred-104 ----------------
#NOTES:
     dance-single:
     Fred-104:
     Easy:
     8:
     :
0000
0000
0000
0000
,
0000
0000
0000
0000
,
0000
0000
0000
0000
,
1001
0000
0000
0000
,
0000
0000
0000
0000
,
0001
0000
0000
0010
0000
0000
0100
0000
,
1000
0000
0000
0010
0000
0000
0100
0000
,
0010
0000
0000
1000
0000
0000
0100
0000
,
2002
0000
0000
0000
0000
3003
0000
0000
,
0001
0001
0100
0000
0010
0000
0100
0000
,
0001
1000
0200
0300
,
1000
1000
0100
0000
1000
0000
0001
0000
,
0100
0010
0200
0300
,
0001
0001
1000
0000
0010
0000
1000
0000
,
0100
0010
0002
0003
,
0010
0010
0100
0000
1000
0000
0001
0000
,
1000
0000
0001
1000
0001
0000
1001
0000
,
2000
3200
0320
0032
,
0203
0320
2030
3200
,
2300
0000
0000
3010
,
0100
0001
0100
0000
0010
1000
0010
0000
,
0200
0302
2003
3020
,
0230
0302
0023
0230
,
2300
0000
0000
3001
,
0100
0000
0010
0000
1000
0001
1000
0000
,
1001
0001
0000
0100
,
0110
0010
0000
1000
,
1100
0000
0100
0000
0010
0001
0010
0000
,
0002
0000
2000
3003
,
0001
0100
0010
0000
0100
0000
0001
0000
,
1000
0100
1000
0000
0020
0000
2030
0000
,
3100
1000
0001
0000
0100
0000
0010
0000
,
2000
0000
3002
0000
1003
0001
1000
0000
,
0001
0100
2000
3000
,
0001
0010
2000
3000
,
0001
1000
0010
0000
1000
0000
0100
0000
,
1000
0010
0001
0100
,
1000
1000
0001
0000
1000
0000
0010
0000
,
0100
0100
0010
0000
0200
0000
0300
0000
,
0001
0001
0100
0000
0010
0000
0100
0000
,
0010
0010
1000
0000
0100
0000
1000
0000
,
0001
1000
0001
0000
0100
0000
0010
0000
,
0100
0001
0100
0000
0010
0000
1000
0000
,
0001
0010
0100
0000
1000
0000
0001
0000
,
1000
0100
1000
0000
0001
0100
0001
0000
,
2002
0000
0000
0000
,
0000
0000
0000
3003
,
0220
0000
0000
0000
,
0000
0000
0000
0330
,
1000
0000
0000
0100
0000
0000
0001
0000
,
1000
0000
0000
0010
0000
0000
0001
0000
,
1000
0000
0000
0100
0000
0000
0001
0000
,
2002
0000
0000
3003
,
0002
0023
2030
3200
,
0302
0023
2030
3200
,
0302
0000
0000
1003
,
0001
0010
0100
0000
1000
0010
0100
0000
,
0020
2030
3200
2300
,
3020
0032
0203
2300
,
3002
0000
0000
0013
,
0001
0000
0000
2000
0000
0000
3000
0000
,
1001
0000
0000
0000
,
0110
0000
0000
0000
,
1001
0000
0110
0000
,
2000
0000
0000
3000
,
0001
0001
0100
0000
0010
0000
0100
0000
,
0001
1000
0100
0010
,
0100
0100
1000
0000
0001
0000
0100
0000
,
0001
0010
1000
0000
0001
0100
1000
0000
,
0000
0000
0000
0000
,
0001
0000
0000
1000
,
0010
0000
0000
0000
,
0000
1001
0000
0000
0000
0000
0000
0000
;

//--------------- dance-single - Fred-104 ----------------
#NOTES:
     dance-single:
     Fred-104:
     Medium:
     13:
     :
0000
0000
0000
0000
,
0000
0000
0000
0000
,
0000
0000
0000
0000
,
1001
0000
0000
0000
,
0000
0010
0010
0100
0100
0001
0001
1000
,
0001
0100
1000
0001
0010
1000
0001
0000
,
1000
0100
0001
1000
0010
0001
1000
0000
,
0001
0100
0010
0001
0010
1000
0001
1000
,
0000
0001
0001
1000
0001
1001
0000
0000
,
0001
0010
0100
1000
0001
0100
0100
1000
,
0001
1000
0100
0010
0001
0010
0010
1000
,
0001
1000
0010
0100
0001
0100
0100
1000
,
0001
1000
0100
0010
0001
0100
0100
1000
,
0001
0000
0010
0000
0100
0000
1000
0000
0001
0100
0001
0000
0010
0000
0001
0000
,
0100
0000
0010
0000
1000
0000
0100
0000
0010
0001
0010
0000
0001
0000
0100
0000
,
0010
0000
1000
0000
0001
0000
0100
0000
0001
0010
0001
0000
1000
0000
0100
0000
,
1000
0010
1010
1000
1001
0000
0110
0000
,
1200
0310
0201
0310
,
2100
3010
0102
0013
,
2000
0000
0000
0000
0000
0000
3001
0010
,
0100
1000
0100
0000
1000
0000
0010
0000
0100
0001
0100
0000
0001
0000
0010
0000
,
0021
0130
1020
0130
,
0012
0103
2010
3100
,
0002
0100
2003
0010
,
3001
0100
0010
1000
0001
1000
1001
0000
,
0001
0010
0010
0001
0010
0010
0001
0000
,
1000
0010
0010
1000
0010
0010
1000
0000
,
0001
0100
0100
0001
0100
0100
0001
0000
,
1000
0100
1000
0010
0100
0001
1000
0100
,
1000
0100
0010
0001
0100
0010
1000
0010
,
0100
0001
0010
0001
1000
0001
0100
0000
,
0001
0000
1000
0001
1000
0000
0010
0000
0100
0000
0010
0000
1000
0000
0000
0000
,
0001
0000
0010
0000
1000
0000
0100
0000
0001
1000
0001
0000
0200
0000
0000
0000
,
0310
1000
0100
1000
0002
0000
1003
0100
,
1000
0000
0000
0010
0000
0000
0100
0000
0102
0000
0000
0000
1003
0000
0000
0000
,
0001
0100
1000
0000
0001
0010
1000
0000
,
0001
0010
1000
0000
0001
0100
1000
0000
,
0001
0100
0010
0100
0001
0100
0010
0000
,
1000
0100
0010
0100
2000
0000
3020
0000
,
1030
0100
0001
0000
0001
0100
1000
0000
,
1000
0010
0001
0000
0001
0010
1000
0000
,
0001
0100
0010
0100
0001
1000
0020
0000
,
1030
0100
0010
0001
1000
0010
0100
0001
,
1000
0001
0010
0100
1000
0010
0100
0000
,
0001
0100
0001
0100
0010
1000
0100
0010
,
0200
0000
0000
0000
,
0000
0000
0000
0000
,
2300
0000
0000
0000
,
3000
1000
1000
0010
0100
0001
1000
0001
,
1000
0100
0100
1000
0100
0100
1000
0000
,
0001
0100
0100
0001
0100
0100
0001
0000
,
1000
0010
0010
1000
0010
0010
1000
0001
,
0000
1000
1000
0001
0001
1001
0000
0000
,
1100
0110
1100
0101
,
1100
0110
1100
0101
,
2001
0000
0000
0000
0000
0000
3001
1000
,
0010
1000
0010
0000
0100
0000
0001
0000
1000
0100
1000
0000
0010
0000
0100
0000
,
0101
0110
1100
0110
,
0101
0110
1010
0110
,
0001
0100
0010
0100
0001
1000
0100
0000
,
1000
0100
0001
0200
0000
0000
0000
0300
,
1001
0000
0000
0000
,
0110
0000
0000
0000
,
1000
0010
0100
0001
1000
0000
0000
0000
,
0001
1000
0010
0100
0001
0100
0010
1000
,
0001
0010
0010
0001
0010
0010
0001
0000
,
1000
0010
0010
1000
0010
0010
1000
0000
,
0001
0100
0100
0001
0100
0100
0001
0000
,
1000
0100
0010
0001
0010
0100
1000
0001
,
0000
0000
0000
0000
,
0100
0000
0000
0010
,
1000
0000
0000
0000
,
0000
1001
0000
0000
0000
0000
0000
0000
;

//--------------- dance-single - Fred-104 ----------------
#NOTES:
     dance-single:
     Fred-104:
     Hard:
     17:
     :
0000
0000
0000
0000
,
0000
0000
0000
0000
,
0000
0000
0000
0000
,
1001
0000
0000
0000
,
0000
0110
1010
1100
0110
0011
0101
1001
,
1100
0000
1000
0100
0010
0000
0100
0000
1000
0100
0010
0000
0100
0000
1000
0000
,
1001
0000
0001
0010
0100
0000
0010
0000
0001
0010
0100
0000
0010
0000
0001
0000
,
0101
0000
0001
0010
1000
0000
0010
0000
0001
0100
0010
0000
1000
0100
0010
0000
,
0000
0011
0101
0110
1010
1001
0000
0000
,
1000
0010
0100
0010
1000
0000
0100
0000
0010
0001
1000
0000
0001
0000
1000
0010
,
0100
0000
0001
1000
0100
0000
0010
0000
0100
1000
0010
0000
0100
0000
0001
1000
,
0010
0000
1000
0001
0010
0000
0100
0000
1000
0001
0010
0000
0100
0000
1000
0010
,
0100
0000
0001
1000
0010
0000
0100
0001
1000
0000
0001
0000
1000
0001
1000
0001
,
1000
0000
0001
0100
0010
0000
1000
0000
0001
0100
0010
0000
1000
0000
0001
0100
,
0010
0000
1000
0100
0010
0000
0001
0000
1000
0100
0010
0000
0001
0000
1000
0100
,
0010
0000
0001
0010
0100
0000
1000
0000
0001
0010
0100
0000
1000
0000
0001
0010
,
0100
0000
1000
0010
1000
0000
1100
0000
1001
0000
0000
0000
0001
1000
0001
1000
,
0001
1010
0101
1100
,
0011
0000
0000
1001
0000
0000
0001
0010
0010
1000
0100
0100
,
0002
0000
0010
0000
0100
0000
0013
0001
,
1000
0001
0010
0000
0001
0100
0010
0000
1000
0010
0100
0001
1000
0010
0100
0001
,
1000
1100
0101
1010
,
0011
0000
0000
0000
1001
0000
0000
0000
1000
0010
1000
0010
0100
0001
0100
0001
,
0100
0001
0010
0100
1000
0001
0100
0100
1000
0010
0010
0001
,
0100
0000
0100
0000
0010
0000
0010
0000
1000
0100
1000
0100
0010
0001
0010
0001
,
1000
0100
1000
0000
0001
0000
1000
0010
1000
0000
0100
0000
0010
0000
0001
0000
,
0100
0010
0100
0000
0001
0000
0010
0100
0010
0000
0001
0000
1000
0000
0010
0000
,
0100
0001
0100
0000
0001
0000
0010
0100
0010
0000
0100
1000
0001
0100
0010
1000
,
0001
0100
0001
0010
0100
1000
0010
0100
0001
0100
0010
1000
0001
0010
0001
0000
,
1000
0100
1000
0100
1000
0000
0001
0100
0001
0100
0001
0000
0100
0010
0100
0001
,
1000
0000
0001
0100
0010
1000
0010
0000
1000
0000
0100
0001
0100
0000
1000
0000
,
0001
0010
0001
0010
0001
0000
1000
0010
2000
0000
3020
0000
0230
0000
0302
0000
,
0023
0000
0230
0000
2300
0000
3002
0000
1003
0001
0010
0001
0200
0000
0000
0000
,
0301
0000
0100
0000
1000
0000
0100
0000
0002
0000
0000
0000
1003
0001
0100
0010
,
1000
0100
0000
0010
0001
0000
0100
0000
0201
0000
0000
0000
0301
0010
0100
0010
,
0001
0100
0010
1000
0001
0000
1000
0100
0010
0001
0100
0010
1000
0000
0010
1000
,
0002
0000
0203
0000
2300
0000
3020
0000
0031
1000
0001
1000
0002
0000
0000
0000
,
1003
0001
0100
0000
0001
0000
0010
0000
0001
0100
1000
0100
0010
0000
1000
0000
,
0001
1000
0010
0100
0001
0000
1000
0000
0200
0000
0000
0000
0320
0000
0000
0000
,
0031
0100
1000
0000
0100
0000
0001
0000
1000
0100
0001
0000
0100
0000
1000
0000
,
0001
0100
0010
0000
1000
0000
0100
0000
0010
0001
0010
0001
0010
0100
1000
0001
,
1000
0010
0100
0000
0001
0000
0010
0001
0100
0010
0100
0000
0020
0000
2030
0000
,
3001
1000
0001
0000
0200
0000
0320
0000
1030
0001
1000
0000
0200
0000
0320
0000
,
0031
0100
0001
0100
0010
1000
0010
1000
0100
0010
0100
0010
0001
0000
1000
0000
,
0100
1000
0010
1000
0100
0010
0001
1000
0010
0100
0001
0010
0100
1000
0001
0010
,
0002
0000
0000
0000
,
0000
0000
0000
0000
,
2003
0000
0000
0000
0000
0000
0000
3000
,
0000
1100
1010
0110
0101
0011
0101
1001
,
1000
0000
0100
0001
0100
0000
1000
0000
0010
0001
0010
0000
1000
0000
0001
0000
,
1000
0000
0100
0010
0100
0000
0001
0000
0100
0010
0100
0000
1000
0000
0001
0000
,
1000
0000
0010
0100
1000
0000
0100
0000
0010
1000
0100
0000
0010
0001
1000
0000
,
0000
0000
1100
0000
0110
0000
0011
0000
0101
0000
1001
0000
0001
0100
0010
1000
,
0001
0010
0100
0010
0001
1000
0010
0100
0001
1000
0100
0010
,
0100
1000
0010
1000
0001
0010
0001
1000
0010
0100
0001
0010
,
0200
0000
1000
0000
0010
0000
1300
0001
,
1000
0100
1000
0000
0001
0010
0100
0000
1000
0001
0010
0000
0001
0100
0010
0100
,
0001
1000
0010
0100
0001
0010
0100
0010
0001
1000
0010
0100
,
0010
1000
0100
1000
0010
0100
0001
0010
1000
0010
0001
0100
,
0001
0010
0001
0010
0100
1000
0100
1000
0001
0010
0100
1000
0200
0000
0000
0000
,
1300
0010
0001
0200
0000
0000
0000
0300
,
1001
0000
0000
0000
,
0110
0000
0000
0000
,
1000
0010
0001
0000
0000
0000
1000
0100
0001
0000
0000
0000
0000
0000
0000
0000
,
1000
0100
0010
0001
0100
0010
1000
0010
0100
0001
0010
0001
1000
0010
0100
0001
,
1000
0100
0010
0000
1000
0000
0010
0001
1000
0000
0001
0000
0100
0000
0010
0000
,
1000
0010
0001
0000
0010
0000
0100
0001
1000
0000
0100
0000
0010
0000
0100
0000
,
1000
0001
0010
0000
1000
0000
0010
0100
1000
0000
0001
0000
0100
0000
0010
0000
,
1000
0010
0100
0001
0010
0001
1000
0100
1000
0001
0010
0100
1000
0010
0100
0001
,
0000
0000
0000
0000
,
1000
0000
0000
0010
,
0001
0000
0000
0000
,
0000
1001
0000
0000
0000
0000
0000
0000
;

//--------------- dance-double - Fred-104 ----------------
#NOTES:
     dance-double:
     Fred-104:
     Easy:
     8:
     :
00000000
00000000
00000000
00000000
,
00000000
00000000
00000000
00000000
,
00000000
00000000
00000000
00000000
,
00011000
00000000
00000000
00000000
,
00000000
00000000
00000000
00000000
,
01000000
00000000
00000000
00010000
00000000
00000000
00000010
00000000
,
00000100
00000000
00000000
00001000
00000000
00000000
00010000
00000000
,
01000000
00000000
00000000
00100000
00000000
00000000
00010000
00000000
,
00022000
00000000
00000000
00000000
00000000
00033000
00000000
00000000
,
00001000
00000010
00000001
00000100
,
00010000
01000000
10000000
00100000
,
00001000
00000010
00000001
00000100
,
00010000
01000000
10000000
00100000
,
00001000
00000100
00000001
00000010
,
00010000
01000000
10000000
00100000
,
00001000
00000100
00000001
00000010
,
00010000
01000000
10000000
00100000
,
00002000
00023000
00032000
00023000
,
00030020
00002030
00003200
00020300
,
00032000
00000000
00000000
00103000
,
00010000
01000000
00010000
00000000
10000000
01000000
10000000
00000000
,
00020000
02030000
03020000
00230000
,
00302000
00023000
00032000
00003020
,
00002030
00000000
00000000
00013000
,
00001000
00000000
00010000
00000000
00001000
00010000
00001000
00000000
,
00011000
01000000
00000000
00100000
,
10010000
01000000
00000000
00100000
,
00101000
00000000
00001000
00000000
00010000
00001000
00010000
00000000
,
00002000
00000000
00020000
00033000
,
00010000
00000000
00000000
00001000
00000000
00000000
00000010
00000000
,
00000000
00000001
00000000
00000000
00001000
00000000
00000001
00000000
,
00001000
00010000
00001000
00000100
,
00000001
00001000
00010000
00001000
,
00000010
00000001
00002000
00003000
,
00000010
00001000
00020000
00030000
,
00100000
00010000
00001000
00010000
,
10000000
00010000
00001000
00010000
,
01000000
10000000
01000000
00000000
10000000
00000000
00010000
00000000
,
01000000
00100000
01000000
00000000
00020000
00000000
00030000
00000000
,
00100000
00010000
00100000
00000000
00001000
00000000
00010000
00000000
,
00000100
00001000
00000100
00000000
00010000
00000000
00000010
00000000
,
00010000
00001000
00010000
00000000
00000100
00000000
00001000
00000000
,
00000001
00000100
00000001
00000000
00000010
00000000
00000100
00000000
,
00000010
00000001
00000010
00000000
00000001
00000000
00001000
00000000
,
00000100
00010000
00000100
00000000
00010000
00001000
00010000
00000000
,
00022000
00000000
00000000
00000000
,
00000000
00000000
00000000
00033000
,
02200000
00000000
00000000
00000000
,
00000000
00000000
00000000
03300000
,
10000000
00000000
00000000
01000000
00000000
00000000
00010000
00000000
,
00001000
00000000
00000000
00010000
00000000
00000000
00100000
00000000
,
00010000
00000000
00000000
00001000
00000000
00000000
00000010
00000000
,
00022000
00000000
00000000
00033000
,
00020000
00032000
00003020
00000230
,
00020300
00032000
00003020
00000230
,
00020300
00000000
00000000
00031000
,
00010000
01000000
00001000
00000000
00010000
00000010
00001000
00000000
,
00020000
00030020
00002030
00003200
,
00020300
00032000
02003000
03020000
,
00230000
00000000
00000000
00301000
,
00010000
00000000
00000000
00002000
00000000
00000000
00003000
00000000
,
00011000
00000000
00000000
00000000
,
00001001
00000000
00000000
00000000
,
00000110
00000000
00001001
00000000
,
00000200
00000000
00000000
00000300
,
00000010
00000010
00000100
00000000
00000010
00000000
00010000
00000000
,
00001000
00010000
00001000
00100000
,
00010000
00010000
01000000
00000000
00100000
00000000
10000000
00000000
,
00010000
00100000
10000000
00000000
00010000
01000000
10000000
00000000
,
00000000
00000000
00000000
00000000
,
01000000
00000000
00000000
00001000
,
00000100
00000000
00000000
00000000
,
00000000
00001001
00000000
00000000
00000000
00000000
00000000
00000000
;

//--------------- dance-double - Fred-104 ----------------
#NOTES:
     dance-double:
     Fred-104:
     Medium:
     13:
     :
00000000
00000000
00000000
00000000
,
00000000
00000000
00000000
00000000
,
00000000
00000000
00000000
00000000
,
00001001
00000000
00000000
00000000
,
00000000
00000001
00000010
00001000
00010000
01000000
10000000
00000000
,
00010000
01000000
01000000
00100000
01000000
01000000
00010000
00000000
,
10000000
01000000
01000000
00100000
01000000
01000000
10000000
00000000
,
01000000
00010000
00010000
00100000
00010000
00010000
01000000
00001000
,
00000000
00010000
00001000
00000100
00000001
00001001
00000000
00000000
,
00000001
00000100
00000010
00000000
00001000
00000100
00000010
00000001
,
00000100
00001000
00010000
00000000
00001000
00010000
00100000
10000000
,
00010000
01000000
00100000
00000000
10000000
00100000
01000000
00010000
,
00100000
01000000
00100000
00000000
00001000
00010000
00000100
00001000
,
00000001
00000010
00000100
00000000
00000010
00001000
00010000
00001000
,
00100000
01000000
00100000
00000000
00010000
10000000
00010000
00100000
,
01000000
00100000
00001000
00000000
00010000
00000100
00001000
00000010
,
00000100
00000001
00000011
00000001
00000101
00000000
00000010
00000000
,
00001001
00000100
00011000
01000000
,
10010000
00100000
00011000
00000010
,
00002001
00000000
00000000
00000000
00000000
00000000
00003001
00001000
,
00000010
00001000
00000100
00000000
00010000
00000000
00001000
00000000
00100000
00010000
00100000
00000000
00010000
00000000
10000000
00000000
,
10010000
01000000
00011000
00000100
,
00001001
00000010
00011000
00100000
,
00002000
00000010
00010000
00103000
,
01000000
00100000
00001000
00010000
00001000
00010000
00011000
00000000
,
00001000
00000100
00000100
00001000
00000100
00000100
00001000
00000000
,
00000001
00000100
00000100
00000001
00000100
00000100
00000001
00000000
,
00001000
00000010
00000010
00001000
00000010
00000010
00001000
00000000
,
00000001
00000010
00001000
00010000
01000000
10000000
00010000
10000000
,
00100000
01000000
01000000
00010000
01000000
01000000
00100000
01000000
,
01000000
10000000
01000000
01000000
00100000
01000000
00010000
00000000
,
00100000
00000000
00001000
00010000
00001000
00000000
00010000
00000000
00000010
00000000
00001000
00000000
00000100
00000000
00000010
00000000
,
00000001
00000000
00000100
00000000
00001000
00000000
00000100
00000000
00000001
00001000
00000001
00000000
00000020
00000000
00000000
00000000
,
00000031
00000010
00000100
00010000
00002000
00000000
00103000
00001000
,
00010000
00000000
00000000
00001000
00000000
00000000
00010000
00000000
00012000
00000000
00000000
00000000
02003000
00000000
00000000
00000000
,
03010000
00100000
10000000
00000000
00010000
01000000
10000000
00000000
,
01000000
00010000
00001000
00010000
00100000
00010000
00001000
00000000
,
00010000
00001000
00000010
00000000
00001000
00010000
00100000
00000000
,
00010000
00001000
00000010
00001000
00020000
00000000
00032000
00000000
,
00003100
00000001
00001000
00000010
00000100
00000001
00000010
00000001
,
00001000
00000010
00010000
00001000
00010000
00000100
00010000
00000000
,
00001000
00010000
00100000
01000000
10000000
00010000
02000000
00000000
,
03010000
01000000
10000000
01000000
00010000
00100000
00010000
00000000
,
01000000
00001000
00010000
00001000
00000100
00001000
00010000
00000000
,
00001000
01000000
00100000
01000000
00010000
00100000
00001000
00010000
,
00000200
00000000
00000000
00000000
,
00000000
00000000
00000000
00000300
,
00000020
00000000
00000000
00000000
,
00000030
00000010
00001000
00000100
00000010
00000001
00001000
00000001
,
00001000
00000100
00000010
00000001
00000100
00000010
00001000
00000000
,
00000100
00010000
00001000
00100000
00010000
10000000
01000000
00000000
,
00100000
00010000
01000000
00001000
00010000
00000100
00001000
00000000
,
00000000
00000010
00000100
00000001
00001000
00001100
00000000
00000000
,
00001001
00000010
00011000
00100000
,
10010000
01000000
00011000
00000100
,
00001002
00000000
00000000
00000000
00000000
00000000
00000103
00000001
,
00000010
00000100
00000010
00000000
00000001
00000000
00000100
00000000
00001000
00010000
00001000
00000000
00010000
00000000
01000000
00000000
,
10010000
00100000
00011000
00000010
,
00001001
00000100
00011000
01000000
,
10000000
00010000
01000000
00010000
10000000
01000000
00100000
00000000
,
00001000
00010000
00001000
00000200
00000000
00000000
00000000
00000300
,
00001001
00000000
00000000
00000000
,
00011000
00000000
00000000
00000000
,
00001000
00001000
00010000
00010000
00001000
00000000
00000000
00000000
,
00010000
00001000
00100000
00010000
10000000
00100000
01000000
00010000
,
10000000
01000000
00010000
00001000
00000010
00000001
00001000
00000000
,
00000001
00000100
00001000
00010000
00100000
10000000
00010000
00000000
,
10000000
00100000
00010000
00001000
00000100
00000001
00001000
00000000
,
00000001
00000010
00000100
00010000
00001000
00100000
01000000
10000000
,
00000000
00000000
00000000
00000000
,
00010000
00000000
00000000
01000000
,
10000000
00000000
00000000
00000000
,
00000000
10010000
00000000
00000000
00000000
00000000
00000000
00000000
;

//--------------- dance-double - Fred-104 ----------------
#NOTES:
     dance-double:
     Fred-104:
     Hard:
     17:
     :
00000000
00000000
00000000
00000000
,
00000000
00000000
00000000
00000000
,
00000000
00000000
00000000
00000000
,
10010000
00000000
00000000
00000000
,
00000000
11000000
01000000
01100000
00100000
00101000
00001000
00011000
,
00010000
00000000
00000100
00001000
00000100
00000000
00010000
00000000
00000010
00001000
00000010
00000000
00001000
00000000
00000100
00000000
,
00000010
00000000
00000001
00000100
00000001
00000000
00000010
00000000
00000100
00001000
00000100
00000000
00010000
00000000
00001000
00000000
,
00100000
00000000
00001000
00010000
00001000
00000000
01000000
00000000
00010000
00100000
00010000
00000000
10000000
00000000
01000000
00000000
,
00000000
10100000
01000000
00110000
00100000
00011000
00000000
00000000
,
00001000
00000001
00001000
00000001
00000100
00000000
00000010
00000000
00001000
00000010
00000100
00000000
00000001
00000000
00000010
00000100
,
00000010
00000000
00000001
00000100
00000001
00000000
00000010
00000000
00000100
00001000
00000100
00000000
00010000
00000000
00001000
00100000
,
00001000
00000000
00100000
00010000
00100000
00000000
01000000
00000000
10000000
00100000
10000000
00000000
00100000
00000000
01000000
00010000
,
01000000
00000000
00010000
00100000
01000000
00000000
10000000
00100000
01000000
00000000
00001000
00000000
00010000
00001000
00010000
00001000
,
00010000
00000000
00000100
00001000
00000001
00000000
00001000
00000000
00000100
00000010
00000001
00000000
00001000
00000000
00000100
00000010
,
00000001
00000000
00000010
00000100
00001000
00000000
00000001
00000000
00000010
00000100
00001000
00000000
00000010
00000000
00010000
00001000
,
00010000
00000000
00000100
00010000
00001000
00000000
01000000
00000000
00010000
00100000
00001000
00000000
01000000
00000000
00010000
10000000
,
00100000
00000000
10000000
01000000
00100000
00000000
00001000
00000000
00011000
00000000
00000000
00000000
00010000
00001000
00010000
00001000
,
00010000
00010010
00101000
00010100
,
01001000
00000000
00000000
00010100
00000000
00000000
00100000
00001000
00010000
00000010
00010000
00001000
,
00020000
00000000
00000100
00000000
01000000
00000000
00030100
00010000
,
00001000
00100000
00010000
00000000
01000000
00100000
10000000
00000000
00010000
01000000
00010000
01000000
00100000
10000000
00010000
00000000
,
10010000
10100000
00110000
00011000
,
00001100
00000000
00000000
00000000
00000101
00000000
00000000
00000000
00000001
00000100
00000001
00000100
00000010
00001000
00000010
00001000
,
00000100
00000010
00000001
00000010
00000100
00001000
00010000
00001000
00000100
00001000
00010000
00100000
,
01000000
00000000
01000000
00000000
00100000
00000000
00100000
00000000
00001000
00010000
00001000
00010000
00001000
00010000
00001000
00010000
,
00001000
00010000
00000100
00000000
00001000
00000000
00000001
00000010
00001000
00000000
00000010
00000000
00000001
00000000
00000100
00000000
,
00000010
00001000
00000100
00000000
00000010
00000000
00000001
00000100
00001000
00000000
00010000
00000000
01000000
00000000
10000000
00000000
,
00010000
00100000
01000000
00000000
10000000
00000000
01000000
00010000
01000000
00000000
10000000
00100000
01000000
00000000
00010000
10000000
,
01000000
00100000
00010000
00100000
00001000
00010000
00000100
00001000
00000100
00000010
00000001
00001000
00000001
00000100
00000010
00000000
,
00001000
00000100
00001000
00000100
00001000
00000000
00000001
00000100
00000001
00000100
00000001
00000000
00001000
00000100
00010000
00001000
,
00100000
00000000
00010000
10000000
00100000
01000000
00010000
00000000
10000000
00000000
01000000
00100000
00001000
00000000
00010000
00000000
,
00100000
10000000
00010000
10000000
00010000
00000000
01000000
00001000
00020000
00000000
00032000
00000000
00003020
00000000
00000032
00000000
,
00002003
00000000
00003002
00000000
00000203
00000000
00000320
00000000
00000130
00000010
00001000
00000010
00000200
00000000
00000000
00000000
,
00000301
00000000
00000010
00000000
00000100
00000000
00010000
00000000
00002000
00000000
00000000
00000000
00013000
00000010
00001000
00000100
,
00010000
00001000
00000000
00001000
00100000
00000000
00010000
00000000
20010000
00000000
00000000
00000000
30010000
10000000
00010000
10000000
,
01000000
00100000
00010000
00100000
01000000
00000000
10000000
00100000
01000000
00010000
00100000
00001000
00010000
00000000
00001000
00100000
,
00020000
00000000
00230000
00000000
00302000
00000000
00003020
00000000
00010030
00001000
00010000
00001000
00020000
00000000
00000000
00000000
,
00031000
00010000
00000010
00000000
00001000
00000000
00000100
00000000
00000010
00000001
00000010
00000001
00000010
00000000
00000001
00000000
,
00001000
00000100
00001000
00000100
00001000
00000000
00000010
00000000
00000200
00000000
00000000
00000000
00020300
00000000
00000000
00000000
,
00031000
00010000
00001000
00000000
00000010
00000000
00001000
00000000
00010000
00001000
00010000
00000000
00100000
00000000
00010000
00000000
,
00001000
00010000
00001000
00000000
00000100
00000000
00001000
00000000
00010000
00001000
00010000
00001000
00010000
01000000
00010000
00000000
,
00001000
00010000
00100000
00000000
10000000
00000000
00010000
10000000
01000000
00100000
01000000
00000000
20000000
00000000
30200000
00000000
,
01300000
00100000
01000000
00000000
00002000
00000000
00023000
00000000
00030100
00000010
00000100
00000000
00020000
00000000
00032000
00000000
,
00013000
00000100
00001000
00000000
00000010
00001000
00000100
00000000
00000010
00000001
00001000
00000001
00000100
00000000
00000010
00000000
,
00001000
00000010
00001000
00000010
00000100
00000001
00000100
00000001
00001000
00000100
00001000
00000100
00010000
00001000
00010000
00001000
,
00020000
00000000
00000000
00000000
,
00000000
00000000
00000000
00000000
,
00032000
00000000
00000000
00000000
00000000
00000000
00000000
00003000
,
00000000
00011000
00010000
00110000
01000000
11000000
10000000
10010000
,
00010000
00000000
00100000
01000000
10000000
00000000
00010000
00000000
00100000
01000000
10000000
00000000
00010000
00000000
01000000
00000000
,
00100000
00000000
01000000
00001000
00010000
00000000
00000100
00000000
00001000
00000001
00000010
00000000
00000100
00000000
00000010
00000000
,
00000001
00000000
00000100
00001000
00000100
00000000
00000001
00000000
00000010
00001000
00000010
00000000
00000001
00000010
00000100
00000000
,
00000000
00000000
00001100
00000000
00010000
00000000
00011000
00000000
00100000
00000000
10010000
00000000
10000000
01000000
10000000
01000000
,
10000000
01000000
00100000
00010000
00100000
01000000
00100000
00010000
00001000
00010000
00100000
00010000
,
00001000
00000100
00001000
00010000
00001000
00000100
00000010
00000001
00000010
00000100
00001000
00010000
,
00002000
00000000
00100000
00000000
00000010
00000000
00013000
00001000
,
00100000
00010000
10000000
00000000
00010000
10000000
01000000
00000000
10000000
00100000
01000000
00000000
00010000
00100000
00010000
00100000
,
00010000
00001000
00000010
00000001
00000010
00001000
00010000
00001000
00000100
00001000
00010000
01000000
,
00010000
00001000
00010000
00100000
00010000
00001000
00000010
00001000
00010000
00100000
00010000
00001000
,
00010000
00001000
00010000
00001000
00000100
00000010
00000100
00000010
00000001
00001000
00000001
00001000
00000002
00000000
00000000
00000000
,
00000103
00001000
00010000
00200000
00000000
00000000
00000000
00300000
,
10010000
00000000
00000000
00000000
,
00011000
00000000
00000000
00000000
,
00001000
00000100
00000001
00000000
00000000
00000000
00000001
00000100
00001000
00000000
00000000
00000000
00000000
00000000
00000000
00000000
,
00000001
00000100
00000001
00000100
00000010
00001000
00000010
00001000
00000100
00010000
00000100
00010000
00001000
00010000
00001000
00010000
,
00001000
00100000
00010000
00000000
10000000
00000000
00010000
00100000
01000000
00000000
00100000
00000000
00001000
00000000
00010000
00000000
,
00000100
00001000
00000001
00000000
00001000
00000000
00000100
00000010
00000001
00000000
00000100
00000000
00001000
00000000
00010000
00000000
,
00100000
10000000
00010000
00000000
10000000
00000000
01000000
00100000
00010000
00000000
01000000
00000000
00100000
00000000
10000000
00000000
,
00010000
01000000
00100000
01000000
00010000
00100000
00001000
00010000
00000100
00001000
00000010
00000100
00000001
00000010
00000001
00001000
,
00000000
00000000
00000000
00000000
,
00010000
00000000
00000000
00001000
,
00010000
00000000
00000000
00000000
,
00000000
00011000
00000000
00000000
00000000
00000000
00000000
00000000
;
