#TITLE:Genesis At Oasis;
#ARTIST:白龍;
#ARTISTTRANSLIT:Hakuryu;
#BANNER:Genesis At Oasis.png;
#BACKGROUND:Genesis At Oasis-bg.png;
#CDTITLE:./CDTitles/RB groovin'!!.png;
#MUSIC:Genesis At Oasis.ogg;
#SAMPLESTART:87.17;
#SAMPLELENGTH:15;
#BPMS:0=212;
#BGSTAGE:30;

//--------------- dance-single - Fred-104 ----------------
#NOTES:
     dance-single:
     Fred-104:
     Beginner:
     3:
     :
0000
0000
0000
0000
,
0000
0000
0000
0000
,
0000
0000
0000
0000
,
0000
0000
0000
0000
,
0000
0000
0000
0000
,
1000
0000
0000
0000
,
0000
0000
0000
0000
,
0001
0000
0000
0000
,
0000
0000
0000
0000
,
1000
0000
0000
0000
,
0000
0000
0000
0000
,
0001
0000
0000
0000
,
0000
0000
0000
0000
,
1000
0000
0000
0000
,
0010
0000
0000
0000
,
1000
0000
0000
0000
,
0001
0000
0000
0000
,
1000
0000
0000
0000
,
0100
0000
0000
0000
,
1000
0000
0000
0000
,
0001
0000
0000
0000
,
1000
0000
0000
0000
,
0001
0000
0001
0000
,
0001
0000
0000
0000
,
0100
0000
0100
0000
,
0100
0000
0000
0000
,
0010
0000
0010
0000
,
0010
0000
0000
0000
,
1000
0000
1000
0000
,
1000
0000
0000
0000
,
0001
0000
1000
0000
,
0001
0000
0000
0000
,
0100
0000
0001
0000
,
0100
0000
0000
0000
,
0010
0000
0100
0000
,
0010
0000
0000
0000
,
1000
0000
0001
0000
,
1000
0000
0000
0000
,
0000
0000
0000
0000
,
0001
0000
0000
0000
,
0000
0000
0000
0000
,
0100
0000
0000
0000
,
0000
0000
0000
0000
,
0010
0000
0000
0000
,
0000
0000
0000
0000
,
1000
0000
0000
0000
,
0001
0000
0100
0000
,
0001
0000
0000
0000
,
0010
0000
0001
0000
,
0010
0000
0000
0000
,
0100
0000
1000
0000
,
0001
0000
0000
0000
,
1000
0000
0001
0000
,
1000
0000
0000
0000
,
0001
0000
1000
0000
,
0100
0000
0000
0000
,
1000
0000
0100
0000
,
0010
0000
0000
0000
,
0001
0000
0010
0000
,
0100
0000
0000
0000
,
1000
0000
0001
0000
,
2000
0000
0000
0000
,
0000
0000
0000
0000
,
0000
0000
0000
0000
,
3000
0000
0000
0000
,
0002
0000
0000
0000
,
0000
0000
0000
0000
,
0000
0000
0000
0000
,
0003
0000
0000
0000
,
2000
0000
0000
0000
,
0000
0000
0000
0000
,
0000
0000
0000
0000
,
3000
0000
0000
0000
,
0002
0000
0000
0000
,
0000
0000
0000
0000
,
0000
0000
0000
0000
,
0003
0000
0000
0000
,
1000
0000
0010
0000
,
1000
0000
0100
0000
,
1000
0000
0001
0000
,
1000
0000
0001
0000
,
0100
0000
0001
0000
,
1000
0000
0001
0000
,
0010
0000
0001
0000
,
1000
0000
0001
0000
,
1000
0000
0100
0000
,
1000
0000
0001
0000
,
0001
0000
0100
0000
,
0100
0000
0010
0000
,
1000
0000
1000
0000
,
0001
0000
0001
0000
,
1000
0000
1000
0000
,
0001
0000
0001
2002
,
0000
0000
0000
0000
,
3003
0000
0000
0000
;

//--------------- dance-single - Fred-104 ----------------
#NOTES:
     dance-single:
     Fred-104:
     Easy:
     9:
     :
0000
0000
0000
0000
,
0000
0000
0000
0000
,
0000
0000
0000
0000
,
0000
0000
0000
0000
,
0000
0000
0000
0000
,
1001
0001
0100
0100
,
0010
1000
0001
0000
,
1000
1000
0100
0100
,
0010
0100
1000
0000
,
0001
0001
0100
0100
,
0010
0100
0001
0000
,
1000
1000
0100
0010
,
0001
1000
1001
0000
,
0001
0001
0010
0010
,
0100
0100
1000
0000
,
0010
0010
0100
0100
,
0001
0001
1000
0000
,
1000
1000
0100
0100
,
0001
0010
1000
0000
,
0001
0100
0010
0100
,
0001
1000
0001
0100
,
0010
0000
0000
1000
0000
0000
0100
0000
,
1000
0000
0010
0000
0100
0000
0010
1000
,
0010
0000
0000
0100
0000
0000
0001
0000
,
1000
0100
0010
0001
,
0100
0000
0000
0001
0000
0000
0010
0000
,
0001
0100
0010
0100
,
0001
0000
0000
1000
0000
0000
0100
0000
,
1000
0010
0100
0010
,
1000
0000
0000
0100
0000
0000
0010
0000
,
0001
0000
1000
0000
0010
0000
0100
0010
,
0100
0000
0000
0001
0000
0000
1000
0000
,
0001
0010
0100
1000
,
0010
0000
0000
1000
0000
0000
0100
0000
,
1000
0001
0100
0010
,
0100
0000
0000
0001
0000
0000
1000
0000
,
0100
0000
0010
0000
0001
0000
1000
0001
,
1000
0000
0010
0000
,
0100
0100
0001
1000
,
0001
0000
0010
0000
,
0100
0100
1000
0001
,
0010
0000
0001
0000
,
1000
1000
0100
0010
,
0100
0000
1000
0000
,
0001
0001
0100
0010
,
0100
0000
0000
0001
0000
0000
0010
0000
,
0001
1000
0010
1000
,
0100
0000
0000
0010
0000
0000
0100
0000
,
1000
0010
0100
0001
,
0010
0000
0000
0100
0000
0000
1000
0000
,
0001
0100
0010
0100
,
0001
0000
0000
0100
0000
0000
0010
0000
,
1000
0100
0010
0100
,
1000
0000
0000
0001
0000
0000
0100
0000
,
0010
0000
1000
0000
0001
1000
0001
0000
,
0100
0000
0000
0010
0000
0000
0100
0000
,
0001
0000
1000
0000
0100
0010
0100
0000
,
0010
0000
0000
0001
0000
0000
1000
0000
,
0010
0000
0100
0000
0010
1000
0010
0000
,
0100
0000
0000
0001
0000
0000
1000
0000
,
0100
0000
0010
0000
0001
1000
0001
0000
,
2002
0000
0000
0000
,
0000
0000
0000
0000
,
0000
0000
0000
0000
,
3003
0000
0000
0000
,
0220
0000
0000
0000
,
0000
0000
0000
0000
,
0000
0000
0000
0000
,
0330
0000
0000
0000
,
0001
0001
0100
0100
,
0010
0000
1000
0000
0001
1000
0001
0000
,
0100
0100
0010
0010
,
1000
0000
0100
0000
0010
0100
0010
0000
,
0001
0001
1000
1000
,
0010
0000
0010
0000
0100
0001
0100
0000
,
0010
0010
1000
1000
,
0001
1000
2002
3003
,
1000
0000
1000
0000
0010
0100
0010
0000
,
1000
0100
0010
0000
,
0001
0000
0001
0000
0100
0001
0100
0000
,
0001
0010
0100
0000
,
0010
0000
0010
0000
0100
1000
0100
0000
,
1000
0010
0100
0000
,
0010
0000
0010
0000
1000
0100
1000
0000
,
0001
1000
0001
0000
,
0100
0000
0100
0000
0010
0100
0010
0000
,
1000
0100
0010
0001
,
1000
0000
1000
0000
0001
0100
0001
0000
,
0100
0010
1000
0001
,
0010
0000
0010
0000
0100
0010
0100
0000
,
1000
0010
1000
0100
,
1000
1000
0001
0001
,
1000
0001
1000
2002
,
0000
0000
0000
0000
,
3003
0000
0000
0000
;

//--------------- dance-single - Fred-104 ----------------
#NOTES:
     dance-single:
     Fred-104:
     Medium:
     13:
     :
0000
0000
0000
0000
,
0000
0000
0000
0000
,
0000
0000
0000
0000
,
0000
0000
0000
0000
,
0000
0000
0000
0000
,
1001
0001
0100
0100
,
0010
0010
1000
1000
,
0100
0100
0010
0010
,
0001
0001
1000
1000
,
0010
0010
0100
0100
,
0001
0001
1000
1000
,
0001
0001
0100
0100
,
1000
1000
0010
0010
,
0001
0000
0100
0000
0001
0010
0001
0000
,
0100
0000
0010
0000
1000
0001
0010
0000
,
0001
0000
0100
0000
0010
1000
0100
0000
,
1000
0000
0001
0000
1000
0100
0010
0000
,
0001
0000
0100
0000
0010
1000
0001
0000
,
1000
0000
0010
0000
0100
0001
0010
0000
,
0001
0000
0100
0000
0010
1000
0001
0000
,
1000
0100
1000
0000
0001
0100
0001
0000
,
1001
0000
0001
0100
0000
0010
0100
0000
,
0001
0000
0100
1000
0100
0000
0001
0010
,
0100
0000
0010
0001
0000
1000
0010
0000
,
1000
0000
0010
0001
0010
0000
1000
0100
,
1000
0000
0010
0100
0000
0010
1000
0000
,
0001
0000
0100
0010
0001
0000
0010
1000
,
0001
0000
0100
0010
0000
1000
0010
0000
,
0100
0000
0001
1000
0100
0000
0010
0001
,
1000
0000
0001
0100
0000
0010
0100
0000
,
0001
0010
0100
1000
0010
0000
0100
0001
,
0100
0000
0001
0010
0000
0100
0010
0000
,
0001
1000
0010
1000
0001
0000
1000
0100
,
0010
0000
0001
0100
0000
0010
0100
0000
,
0001
0010
0001
1000
0010
0000
0100
0001
,
0010
0000
0100
1000
0000
0100
0010
0000
,
0100
1000
0001
0100
0010
0000
1000
0001
,
1000
0100
1000
0000
0010
0000
0100
0010
,
0000
0010
1000
0000
0001
0100
0001
0000
,
0010
0100
0010
0000
0001
0000
0010
0100
,
0000
0100
1000
0000
0001
1000
0001
0000
,
0100
0010
0100
0000
0010
0000
1000
0100
,
0000
0100
0010
0000
0001
1000
0001
0000
,
1000
0010
1000
0000
0001
0000
1000
0010
,
0000
0010
0100
0000
0001
1000
0001
0000
,
1001
0000
0001
0100
0000
1000
0100
0000
,
0001
0000
0010
0001
1000
0000
0100
0010
,
0001
0000
0100
0010
0000
0100
0001
0000
,
0010
0000
0100
1000
0001
0000
0100
0010
,
1000
0000
0010
0100
0000
0010
1000
0000
,
0100
0000
0010
0001
1000
0000
0010
0100
,
0001
0000
0010
0001
0000
1000
0001
0000
,
0100
0000
0001
0010
0100
0000
0010
0001
,
0100
0000
0001
0010
0000
0001
1000
0000
,
0001
0100
0010
0100
0001
0000
1000
0001
,
0010
0000
0100
1000
0000
0100
0010
0000
,
0100
1000
0010
1000
0001
0000
0010
0100
,
0010
0000
0001
0100
0000
0010
1000
0000
,
0001
1000
0100
0010
0001
0000
0010
0100
,
0010
0000
0001
0100
0000
0001
0010
0000
,
0001
1000
0010
0100
0001
0000
1000
0000
,
1001
0000
0001
0010
0000
0100
0000
1000
,
0000
0000
0000
0000
,
0000
0000
0000
0000
0000
0000
0000
0100
,
0000
0000
0000
0010
0000
0100
0000
0001
,
1000
0000
1000
0010
0000
1000
0000
0001
,
0000
0000
0000
0000
,
0000
0000
0000
0000
0000
0000
0000
1000
,
0000
0010
0000
0001
0000
0100
0000
0000
,
1001
0000
0001
0100
0000
0010
0000
0100
,
0001
0000
0010
0000
0001
1000
0001
0000
,
0010
0000
0100
1000
0100
1000
0100
1000
,
0000
0010
0000
0100
0000
0010
1000
0000
,
0100
0000
0010
0001
0000
0010
0000
0001
,
1000
0000
0001
0000
0100
0010
0100
0000
,
0001
0000
0010
0000
0100
0000
1000
0001
,
0000
1000
0100
0010
0000
0100
0110
0000
,
0010
0001
1000
0000
0001
1000
0001
0000
,
0100
0010
1000
0010
0100
0001
0010
0000
,
0001
1000
0010
0000
1000
0001
0100
0000
,
0001
0010
0100
0010
0001
1000
0001
0000
,
1000
0010
1000
0000
0010
0100
0010
0000
,
1000
0001
0010
0001
1000
0010
0100
0000
,
0010
1000
0001
0000
0100
0001
0010
0000
,
0100
1000
0010
0100
0010
1000
0001
0000
,
1000
0100
1000
0100
0010
0100
0010
0000
,
0001
0100
0001
0100
0010
0100
0001
0000
,
0010
0001
0010
0001
1000
0001
1000
0000
,
0010
1000
0010
1000
0100
0010
0100
0000
,
1000
0010
1000
0100
1000
0010
0100
0000
,
0010
1000
0010
1000
0001
1000
0100
0000
,
0010
0001
1000
0000
0010
1000
0001
0000
,
1000
0100
1000
0010
0100
0001
1000
0002
,
0000
0000
0000
0000
,
0003
0000
0000
0000
;

//--------------- dance-single - Fred-104 ----------------
#NOTES:
     dance-single:
     Fred-104:
     Hard:
     16:
     :
0000
0000
0000
0000
,
0000
0000
0000
0000
,
0000
0000
0000
0000
,
0000
0000
0000
0000
,
0000
0000
0000
0000
,
1000
0100
1000
0100
1000
0010
1000
0010
,
0100
0001
0100
0001
0010
0100
0010
0000
,
0001
0100
0001
0100
0010
1000
0010
1000
,
0001
1000
0001
1000
0100
0010
0100
0000
,
1000
0010
1000
0010
1000
0100
1000
0100
,
0010
0100
0010
0100
0010
0001
1000
0000
,
0001
0100
0001
0100
0010
1000
0010
1000
,
0001
1000
0100
0010
0001
0100
0010
0000
,
1000
0001
0010
0100
0010
0001
0100
0010
,
0100
0001
0100
0010
1000
0001
0010
0100
,
1000
0010
1000
0100
1000
0001
0100
0010
,
1000
0001
0010
0100
0010
0001
1000
0001
,
0100
0010
0100
0001
0010
0100
1000
0001
,
1000
0100
0010
0100
1000
0001
0100
0010
,
0100
0001
0010
0100
1000
0001
0100
0001
,
1000
0100
0001
1000
0010
0001
1001
0000
,
2100
0000
3001
0200
0000
0310
0200
0000
,
0301
0000
0010
0000
0100
1000
0100
0000
1000
0000
0010
0000
0100
0001
0100
0000
,
0020
0000
1030
0200
0000
0310
0200
0000
,
1300
0000
0001
0000
0010
0001
0010
0000
0100
0000
0010
0000
0001
1000
0001
0000
,
0020
0000
0130
2000
0000
3010
2000
0000
,
3001
0000
1000
0000
0001
0100
0001
0000
0010
0000
0100
0000
1000
0010
1000
0000
,
0002
0000
1003
0002
0000
0103
0002
0000
,
0013
0000
0100
0000
0010
0001
0010
0000
0001
0000
1000
0000
0010
1000
0010
0000
,
0100
0001
1000
0010
0100
0000
0001
0010
,
0100
0000
1000
0000
0010
0000
0000
0000
0100
0000
0001
0000
1000
0010
1000
0000
,
0100
0010
0100
1000
0010
0000
0100
0001
,
1000
0000
0001
0000
0010
0000
0000
0000
0001
0000
0100
0000
0010
0100
0010
0000
,
1000
0001
0010
0001
1000
0000
0100
0010
,
0001
0000
1000
0000
0010
0000
0000
0000
0100
0000
0001
0000
1000
0001
1000
0000
,
0100
0010
0001
0100
0010
0000
1000
0001
,
0010
0000
0001
0000
0100
0010
0100
0010
0100
0000
0000
0000
0001
1000
0001
1000
,
0001
0010
0001
1000
0001
0000
0100
0010
,
0000
1000
0001
0000
0010
0100
0010
0100
,
1000
0100
0010
0100
1000
0000
0010
0100
,
0000
0010
1000
0000
0001
1000
0100
1000
,
0010
1000
0010
1000
0001
0000
0100
0010
,
0000
1000
0001
0000
0010
0100
1000
0010
,
0100
0001
0100
0001
0010
0000
0001
0100
,
0000
0010
1000
0001
0010
0100
1100
0000
,
1001
0000
1000
0100
0000
0001
0100
0000
,
1000
0000
0001
0000
0010
0100
0010
0000
0100
0000
1000
0000
0010
1000
0010
0000
,
0100
0000
0001
0010
0000
1000
0010
0000
,
0001
0000
1000
0000
0100
1000
0100
0000
0010
0000
0100
0000
0010
0001
0010
0000
,
0001
0000
1000
0010
0000
0001
0010
0000
,
0100
0000
0001
0000
1000
0001
1000
0000
0001
0000
0010
0000
0100
0010
0100
0000
,
1000
0000
0001
0100
0000
1000
0100
0000
,
0010
0000
1000
0000
0100
0010
0100
0000
0010
0000
0001
0000
1000
0001
1000
0000
,
0001
0000
0010
0001
1000
0001
0100
0000
,
0010
0000
1000
0000
0100
0010
0100
0000
1000
0000
0001
0000
0100
0010
0100
0000
,
0001
0000
1000
0100
0010
0001
0010
0000
,
0100
0000
1000
0000
0010
1000
0010
0000
0100
0000
0001
0000
0010
0100
0010
0000
,
0001
0010
1000
0010
0001
0000
1000
0001
,
0100
0000
0010
0000
1000
0100
1000
0000
0010
0000
0100
0000
0001
0010
0001
0000
,
1000
0100
0010
1000
0010
0000
0001
1000
,
0100
0000
0001
0000
0100
0010
0100
0000
0010
0000
0001
0000
1000
0001
1000
0000
,
0001
0000
1000
0010
0000
0100
0001
0100
,
0000
0000
0000
0000
,
0000
0000
0000
0000
0000
0000
0000
1000
,
0000
0000
0000
0100
0000
0001
0010
0100
,
0001
0000
0100
0010
0000
0001
1000
0001
,
0000
0000
0000
0000
,
0000
0000
0000
0000
0000
0000
0000
0100
,
0000
0010
0000
1000
0000
1001
0000
0000
,
0001
0010
0100
1000
0000
0010
0100
1000
,
0000
0100
0001
0000
1000
0001
0010
0000
,
0001
0100
0010
0000
0001
0000
0010
1000
,
0000
0001
1000
0010
0000
0100
0001
0000
,
1000
0010
0001
0010
0000
0100
0010
1000
,
0000
0001
1000
0000
0010
0100
0010
0000
,
1000
0000
0010
0100
0000
0010
1000
0001
,
0000
0010
0100
0010
0001
1000
1001
0000
,
0001
0010
0100
1000
0001
0100
0010
1000
,
0100
1000
0001
0100
0010
1000
0100
0010
,
0001
0100
0010
0100
0001
0010
0001
1000
,
0001
0010
0100
0010
0001
1000
0010
0100
,
0001
1000
0100
0010
0100
1000
0001
0100
,
0010
1000
0010
1000
0100
1000
0001
0100
,
0010
1000
0100
1000
0001
0010
0001
1000
,
0001
0100
1000
0001
0010
1000
0001
0000
,
1000
0000
0100
0000
0010
0000
0001
0000
0100
0001
0100
0001
0100
0000
0001
0000
,
0100
0000
0010
0000
0100
0000
0001
0000
1000
0000
0010
0000
0100
0010
0100
0010
,
0100
0000
0001
0000
1000
0000
0100
0000
1000
0100
1000
0100
1000
0000
0010
0000
,
0100
0000
0001
0000
0010
0000
0100
0000
1000
0000
0001
0000
1000
0001
1000
0001
,
1000
0000
0001
0000
0010
0000
0001
0000
0100
0010
0100
0010
0100
0000
0001
0000
,
1000
0000
0010
0000
0100
0000
0010
0000
1000
0000
0100
0000
1000
0001
1000
0001
,
1000
0100
0010
0001
0100
0010
1000
0100
,
1000
0010
1000
0000
0001
0100
0001
0000
1000
0000
0001
0000
1000
0100
0010
0002
,
0000
0000
0000
0000
,
0003
0000
0000
0000
;

//--------------- dance-single - Fred-104† ----------------
#NOTES:
     dance-single:
     Fred-104†:
     Challenge:
     17:
     :
0000
0000
0000
0000
,
0000
0000
0000
0000
,
0000
0000
0000
0000
,
0000
0000
0000
0000
,
0000
0000
0000
0000
,
1001
1000
0010
0010
,
0100
0100
0001
0001
,
0010
0010
0100
0100
,
1000
1000
0010
1000
,
0001
0001
0100
0100
,
0010
0010
0100
0001
,
1000
1000
0100
0100
,
0010
0000
0001
0000
1000
0001
1000
0000
,
0001
0000
0010
0000
0001
0000
1000
0000
0100
1000
0100
1000
0100
0000
0010
0000
,
0100
0000
1000
0000
0001
0000
0100
0000
0010
1000
0010
1000
0010
0000
0100
0000
,
0001
0000
0010
0000
0100
0000
0010
0000
0001
0010
0001
0010
0001
0000
1000
0000
,
0001
0000
0100
0000
0010
0000
1000
0000
0001
1000
0001
1000
0001
0000
0010
0000
,
0100
0000
1000
0000
0001
0000
0100
0000
0010
1000
0001
1000
0100
0000
0010
0000
,
0001
0000
0100
0000
0010
0000
0100
0000
0001
1000
0010
1000
0001
0000
0100
0000
,
0010
0000
1000
0000
0100
0000
0010
0000
0001
0100
0010
0100
0001
0000
1000
0000
,
0100
0000
1000
0000
0010
0000
0100
0000
0001
1000
0001
0000
1001
0000
0000
0000
,
1100
0000
0100
0010
0000
0001
0010
0000
,
0001
0000
0010
0000
0001
0100
0001
0100
0010
0000
1000
0000
0100
1000
0100
1000
,
0001
0000
0010
0100
0000
1000
0001
0000
,
1000
0000
0010
0000
0100
0001
0100
0001
0010
0000
0100
0000
1000
0001
1000
0001
,
1000
0000
0010
1000
0000
0010
0100
0000
,
0001
0000
1000
0000
0100
0010
0100
0010
0100
0000
0010
0000
0001
0100
0001
0100
,
0001
0000
0010
0100
0000
1000
0010
0000
,
1000
0000
0010
0000
0100
0010
0100
0010
1000
0000
0010
0000
0100
0001
0010
0001
,
0010
0001
0100
0010
0100
0000
0001
0010
,
0100
0000
1000
0000
0001
0010
0100
1000
0010
0000
0100
0000
0001
1000
0010
1000
,
0100
1000
0100
0010
0100
0000
1000
0001
,
0010
0000
0100
0000
0010
0001
1000
0010
0100
0000
0010
0000
1000
0100
0010
0001
,
1000
0010
0001
0010
0100
0000
0010
1000
,
0001
0000
0010
0000
0100
1000
0010
1000
0001
0000
0010
0000
0100
0010
0001
1000
,
0010
0100
1000
0100
0001
0000
1000
0001
,
0010
0000
0100
0000
0010
0001
1000
0010
0100
0000
0000
0000
0001
1000
0001
1000
,
0001
0100
1000
0100
0001
0000
0010
0100
,
0000
0010
0001
0000
1000
0001
0010
0100
,
0001
0100
1000
0001
0010
0000
0100
0010
,
0000
0001
1000
0000
0010
0001
1000
0100
,
0010
1000
0001
1000
0100
0000
0010
0001
,
0000
0100
0010
0000
0001
0010
0100
0001
,
0100
1000
0001
0010
1000
0000
0100
0010
,
0000
0001
0100
0010
1000
0001
1001
0000
,
0120
0000
1030
0020
0000
0031
0020
0000
,
1030
0000
0001
0000
0010
0100
1000
0001
0100
0000
0010
0000
1000
0001
0010
0001
,
0200
0000
0301
0200
0000
1300
0200
0000
,
0301
0000
1000
0000
0100
0010
0100
1000
0100
0000
1000
0000
0010
1000
0001
0100
,
0020
0000
1030
0200
0000
0301
2000
0000
,
3010
0000
0001
0000
1000
0001
0010
0100
0010
0000
0001
0000
0100
0001
0010
0001
,
2000
0000
3010
0002
0000
1003
0200
0000
,
0301
0000
1000
0000
0100
0010
0100
0010
0100
0000
0000
0000
1000
0001
1000
0001
,
2000
0000
3200
0302
0103
0020
0032
0000
,
1003
0000
0010
0000
1000
0010
0100
0001
0010
0000
0100
0000
0010
0001
1000
0010
,
0200
0000
0320
0032
0013
2000
3002
0000
,
1003
0000
0001
0000
1000
0010
0100
0001
0100
0000
0010
0000
0100
0001
1000
0010
,
0200
0301
0200
0320
0130
0002
2003
3100
,
0010
0000
0001
0000
0100
0010
0100
0010
0001
0000
0010
0000
0100
0001
0100
0001
,
2000
3001
0020
2030
3010
0200
2300
3001
,
1000
0000
0010
0000
0100
1000
0100
1000
0100
0000
0010
0000
1000
0001
1000
0001
,
1000
0000
1000
0001
0000
0100
0010
0100
,
0000
0000
0000
0000
,
0000
0000
0000
0000
0000
0000
0000
0001
,
0000
0001
0000
1000
0000
0100
1000
0001
,
0100
0000
0100
0010
0000
1000
0001
1000
,
0000
0000
0000
0000
,
0000
0000
0000
0000
0000
0000
0000
0100
,
0000
0010
0000
0100
0000
1000
0001
0000
,
0001
0100
0001
1000
0100
0010
0001
0100
,
1000
0001
0010
0100
0010
1000
1100
0000
,
1000
0001
1000
0100
1000
0001
0010
0100
,
0001
1000
0010
0100
0010
0001
0101
0000
,
0001
1000
0100
1000
0010
0001
0010
0100
,
1000
0001
0010
1000
0001
1000
1010
0000
,
0001
1000
0100
0010
0001
0100
1000
0001
,
0010
1000
0001
0010
0100
1000
1001
0000
,
1000
0000
0010
0000
0100
0000
0001
0000
0010
0001
1000
0001
0100
0000
0010
0000
,
1000
0100
0010
0001
1000
0000
0010
0000
0100
0000
0010
0000
0100
0001
0010
0001
,
0100
0000
0010
0000
1000
0000
0001
0000
0010
0100
1000
0100
0010
0000
0001
0000
,
1000
0000
0010
0000
0100
0001
1000
0010
0200
0000
0310
0000
1000
0100
0010
0001
,
0100
0000
0010
0000
1000
0000
0010
0000
0100
0001
0100
0010
0200
0000
0302
0000
,
1003
0000
0100
0000
0010
0000
0001
0000
0010
0000
0100
0000
1000
0001
0100
0001
,
1000
0001
0100
0010
0001
0010
1000
0001
,
1000
0100
0001
0100
0010
0001
1001
0000
,
0001
0000
0010
0000
0100
0000
1000
0000
0001
0010
0100
1000
0010
0000
0100
0000
,
0001
1000
0010
0100
0010
0000
1000
0000
0100
0000
1000
0000
0010
0100
0001
0100
,
0010
0000
1000
0000
0100
0000
0010
0000
0100
1000
0001
1000
0010
0000
0100
0000
,
0001
0000
0100
0000
0010
1000
0001
0010
0200
0000
1300
0000
0010
0100
0001
1000
,
0100
0000
0010
0000
0100
0000
1000
0000
0001
0100
0001
1000
0020
0000
0230
0000
,
0301
0000
0010
0000
0100
0000
0010
0000
0001
0000
0100
0000
0001
0010
0100
1000
,
0100
1000
0001
0100
0001
1000
0100
0010
,
0001
0100
0001
0100
0010
1000
0010
1000
0001
0010
0100
0010
0001
0100
0010
1000
,
0002
0000
0000
0000
,
0003
0000
0000
0000
;

//--------------- dance-double - Fred-104 ----------------
#NOTES:
     dance-double:
     Fred-104:
     Easy:
     9:
     :
00000000
00000000
00000000
00000000
,
00000000
00000000
00000000
00000000
,
00000000
00000000
00000000
00000000
,
00000000
00000000
00000000
00000000
,
00000000
00000000
00000000
00000000
,
10010000
10000000
00010000
00000000
,
00100000
00010000
00100000
00000000
,
00001000
00010000
00001000
00000000
,
00100000
00001000
00010000
00000000
,
00001000
00000010
00000001
00000000
,
00001000
00000001
00001000
00000000
,
00000001
00000100
00001000
00000000
,
00010000
00001000
00011000
00000000
,
00001000
00001000
00010000
00010000
,
01000000
10000000
00010000
00000000
,
10000000
10000000
01000000
01000000
,
00010000
00001000
00010000
00000000
,
00001000
00001000
00000100
00000100
,
00000001
00001000
00000001
00000000
,
00000010
00000010
00000100
00000100
,
00010000
00010000
00001000
00001000
,
00010000
00000000
00000000
00001000
00000000
00000000
00100000
00000000
,
00010000
10000000
00100000
01000000
,
00010000
00000000
00000000
10000000
00000000
00000000
01000000
00000000
,
00100000
00010000
01000000
00001000
,
00010000
00000000
00000000
00001000
00000000
00000000
00100000
00000000
,
00001000
00010000
00001000
00000100
,
00000001
00000000
00000000
00000100
00000000
00000000
00001000
00000000
,
00010000
00001000
00010000
00000000
,
00001000
00000000
00000000
00010000
00000000
00000000
00100000
00000000
,
10000000
00000000
00010000
00000000
01000000
00000000
00100000
01000000
,
00100000
00000000
00000000
10000000
00000000
00000000
01000000
00000000
,
00100000
01000000
10000000
00010000
,
01000000
00000000
00000000
00001000
00000000
00000000
00010000
00000000
,
00001000
00000000
00000010
00000000
00001000
00000000
00010000
00001000
,
00010000
00000000
00000000
00001000
00000000
00000000
00000010
00000000
,
00000100
00000000
00001000
00000000
00000001
00000000
00000100
00000010
,
00000100
00000000
00000001
00000000
,
00000100
00001000
00010000
00000000
,
01000000
00000000
00010000
00000000
,
00001000
00010000
00100000
00000000
,
00010000
00000000
00001000
00000000
,
00000010
00001000
00010000
00000000
,
00100000
00000000
00010000
00000000
,
00001000
00001000
00010000
00010000
,
00001000
00000000
00000000
00100000
00000000
00000000
00010000
00000000
,
10000000
00100000
10000000
01000000
,
00100000
00000000
00000000
00010000
00000000
00000000
01000000
00000000
,
00010000
00100000
00001000
00010000
,
00001000
00000000
00000000
01000000
00000000
00000000
00001000
00000000
,
00100000
00010000
00100000
00001000
,
00010000
00000000
00000000
00000010
00000000
00000000
00001000
00000000
,
00000100
00010000
00001000
00010000
,
01000000
00000000
00000000
10000000
00000000
00000000
00100000
00000000
,
01000000
00000000
00010000
00000000
10000000
00000000
00010000
10000000
,
00010000
00000000
00000000
00100000
00000000
00000000
01000000
00000000
,
10000000
00000000
00100000
00000000
01000000
00000000
00010000
00100000
,
00010000
00000000
00000000
00100000
00000000
00000000
00001000
00000000
,
00010000
00000000
00001000
00000000
00000100
00000001
00000100
00000000
,
00001000
00000000
00000000
00010000
00000000
00000000
01000000
00000000
,
00010000
00000000
00001000
00000000
00010000
00001000
00010000
00000000
,
00022000
00000000
00000000
00000000
,
00000000
00000000
00000000
00000000
,
00000000
00000000
00000000
00000000
,
00033000
00000000
00000000
00000000
,
00022000
00000000
00000000
00000000
,
00000000
00000000
00000000
00000000
,
00000000
00000000
00000000
00000000
,
00033000
00000000
00000000
00000000
,
00001000
00010000
00001000
00100000
,
00001000
00100000
00010000
01000000
,
00010000
10000000
01000000
00100000
,
01000000
10000000
00100000
00010000
,
00001000
00010000
01000000
10000000
,
00010000
00100000
01000000
00100000
,
00001000
00001000
00010000
00010000
,
00001000
00010000
00022000
00033000
,
00001000
00000000
00010000
00000000
00001000
00100000
00001000
00000000
,
00010000
00000100
00001000
00000000
,
00000100
00000000
00000010
00000000
00000100
00000010
00000100
00000000
,
00000010
00000001
00000100
00000000
,
00001000
00000000
00010000
00000000
00001000
00010000
00001000
00000000
,
00010000
00100000
01000000
00000000
,
00010000
00000000
10000000
00000000
00100000
01000000
00100000
00000000
,
10000000
01000000
00100000
00000000
,
01000000
00000000
10000000
00000000
00010000
00100000
00010000
00000000
,
01000000
00100000
10000000
00100000
,
01000000
00000000
00010000
00000000
00100000
01000000
00100000
00000000
,
00001000
00010000
00100000
00010000
,
00001000
00000000
00100000
00000000
00001000
00010000
00001000
00000000
,
01000000
00001000
00010000
00001000
,
00000100
00000001
00001000
00000100
,
00000010
00000001
00001000
00002002
,
00000000
00000000
00000000
00000000
,
00003003
00000000
00000000
00000000
;

//--------------- dance-double - Fred-104 ----------------
#NOTES:
     dance-double:
     Fred-104:
     Medium:
     13:
     :
00000000
00000000
00000000
00000000
,
00000000
00000000
00000000
00000000
,
00000000
00000000
00000000
00000000
,
00000000
00000000
00000000
00000000
,
00000000
00000000
00000000
00000000
,
00001001
00001000
00000001
00000001
,
00000100
00000100
00001000
00001000
,
00010000
00010000
01000000
01000000
,
10000000
10000000
00100000
00100000
,
10000000
10000000
00100000
00100000
,
00010000
00010000
00001000
00001000
,
00000010
00000010
00000100
00000100
,
00001000
00001000
00000001
00001000
,
00000001
00000010
00001000
00010000
,
00001000
00000100
00001000
00010000
,
01000000
00010000
00001000
00010000
,
00100000
01000000
00100000
00010000
,
00001000
00010000
01000000
00010000
,
00001000
00010000
00100000
00010000
,
00001000
00000100
00001000
00010000
,
01000000
00010000
00001000
00010000
,
00011000
00000000
00010000
00001000
00000000
00100000
00001000
00000000
,
00010000
00000000
00001000
01000000
00010000
00000000
10000000
01000000
,
00100000
00000000
01000000
10000000
00000000
00100000
01000000
00000000
,
00010000
00000000
10000000
01000000
00010000
00000000
01000000
10000000
,
00100000
00000000
01000000
00100000
00000000
10000000
00100000
00000000
,
01000000
00000000
00010000
00100000
00001000
00000000
00010000
00001000
,
01000000
00000000
00001000
00010000
00000000
00000100
00001000
00000000
,
00000010
00000000
00000100
00000001
00001000
00000000
00000001
00000010
,
00000100
00000000
00001000
00000010
00000000
00000100
00000001
00000000
,
00000010
00000000
00001000
00000010
00000001
00000000
00000100
00000010
,
00000100
00000000
00000001
00000100
00000000
00001000
00010000
00000000
,
00001000
00000000
00010000
01000000
10000000
00000000
00010000
01000000
,
00010000
00000000
00100000
01000000
00000000
00100000
00010000
00000000
,
10000000
00000000
00100000
00010000
00001000
00000000
00010000
00100000
,
01000000
00000000
00010000
00100000
00000000
00010000
10000000
00000000
,
01000000
00000000
00100000
00001000
00010000
00000000
00001000
00010000
,
00000010
00000000
00001000
00000000
00000100
00000000
00010000
00001000
,
00000000
01000000
00010000
00000000
00100000
01000000
00100000
00000000
,
00001000
00000000
00100000
00000000
00001000
00000000
00010000
00001000
,
00000000
00010000
00000010
00000000
00001000
00000100
00010000
00000000
,
00001000
00000000
01000000
00000000
00010000
00000000
00100000
01000000
,
00000000
00100000
00010000
00000000
10000000
00100000
10000000
00000000
,
01000000
00000000
00010000
00000000
00001000
00000000
00010000
00100000
,
00000000
00010000
00001000
00000000
00000010
00000001
00001000
00000000
,
00001001
00000000
00000001
00001000
00000000
00000001
00000100
00000000
,
00000001
00000000
00000010
00000001
00001000
00000000
00000010
00000100
,
00000001
00000000
00000010
00001000
00000000
00010000
00001000
00000000
,
00000100
00000000
00001000
00010000
00100000
00000000
00010000
00001000
,
00010000
00000000
00001000
00100000
00000000
00010000
10000000
00000000
,
01000000
00000000
00100000
00001000
00010000
00000000
00100000
01000000
,
00010000
00000000
10000000
01000000
00000000
00100000
00010000
00000000
,
00100000
00000000
00001000
00010000
00001000
00000000
01000000
00010000
,
00100000
00000000
00001000
00010000
00000000
00100000
01000000
00000000
,
00100000
00000000
00010000
00001000
00000100
00000000
00000001
00001000
,
00000001
00000000
00000010
00000100
00000000
00000010
00000001
00000000
,
00000100
00000000
00001000
00010000
00100000
00000000
01000000
00010000
,
10000000
00000000
00010000
00100000
00000000
01000000
10000000
00000000
,
00100000
00000000
01000000
00100000
10000000
00000000
01000000
00100000
,
00001000
00000000
00010000
00100000
00000000
01000000
00100000
00000000
,
00010000
00000000
00001000
00000010
00000100
00000000
00001000
00000001
,
00001001
00000000
00000001
00000100
00000000
00001000
00000000
00010000
,
00000000
00000000
00000000
00000000
,
00000000
00000000
00000000
00000000
00000000
00000000
00000000
00001000
,
00000000
00000000
00000000
00001000
00000000
00010000
00000000
00001000
,
00100000
00000000
00100000
00010000
00000000
10000000
00000000
00010000
,
00000000
00000000
00000000
00000000
,
00000000
00000000
00000000
00000000
00000000
00000000
00000000
10000000
,
00000000
00010000
00000000
00100000
00000000
01000000
00000000
00000000
,
10010000
00000000
10000000
01000000
00000000
00100000
00000000
10000000
,
00100000
00000000
01000000
00000000
10000000
00010000
10000000
00000000
,
00100000
00000000
01000000
00000000
00100000
00000000
00010000
00001000
,
00000000
00000100
00000010
00000001
00000000
00000010
00001000
00000000
,
00000001
00000000
00000010
00000100
00000000
00000001
00000000
00000100
,
00001000
00000000
00000001
00000000
00000010
00001000
00010000
00000000
,
00100000
00000000
01000000
00000000
00010000
00000000
10000000
01000000
,
00000000
00010000
00000000
01000000
00000000
10000000
10010000
00000000
,
00010000
01000000
00010000
00000000
10000000
00100000
10000000
00000000
,
01000000
00100000
00001000
00010000
00001000
00000000
01000000
00000000
,
00001000
00010000
00001000
00000000
00100000
00001000
00010000
00000000
,
00000100
00001000
00000001
00001000
00000100
00000000
00000010
00000000
,
00000001
00000100
00000001
00000000
00001000
00000010
00001000
00000000
,
00000001
00000100
00000010
00001000
00000100
00000000
00010000
00000000
,
00001000
00100000
00001000
00000000
01000000
00010000
01000000
00000000
,
00001000
00010000
00001000
00000000
00100000
00010000
10000000
00000000
,
00010000
01000000
10000000
01000000
00010000
10000000
01000000
00000000
,
00010000
00001000
00010000
00100000
00010000
00001000
00010000
00000000
,
00001000
00010000
00001000
00000100
00000010
00001000
00000001
00000000
,
00000010
00000100
00001000
00000100
00010000
00001000
00100000
00000000
,
00010000
00100000
01000000
10000000
00100000
01000000
00010000
00000000
,
10000000
01000000
00010000
00001000
00010000
00000100
00001000
00000000
,
00000100
00000010
00000001
00000000
00000100
00001000
00010000
00000000
,
01000000
00100000
00010000
01000000
00100000
00010000
00001000
00020000
,
00000000
00000000
00000000
00000000
,
00030000
00000000
00000000
00000000
;

//--------------- dance-double - Fred-104 ----------------
#NOTES:
     dance-double:
     Fred-104:
     Hard:
     16:
     :
00000000
00000000
00000000
00000000
,
00000000
00000000
00000000
00000000
,
00000000
00000000
00000000
00000000
,
00000000
00000000
00000000
00000000
,
00000000
00000000
00000000
00000000
,
00011000
00010000
00001000
00001000
,
00000010
00000010
00000001
00000001
,
00000100
00000100
00001000
00001000
,
00010000
00010000
00100000
00100000
,
10000000
10000000
01000000
01000000
,
00010000
00010000
00001000
00001000
,
00000010
00000010
00000001
00000001
,
00000100
00000100
00001000
00001000
,
00010000
00001000
00100000
00010000
10000000
00100000
01000000
00010000
,
00100000
01000000
10000000
00100000
00010000
00001000
00010000
00000000
,
01000000
10000000
00010000
00100000
01000000
00100000
00001000
00000010
,
00000100
00001000
00000001
00000100
00001000
00010000
00001000
00000000
,
00000100
00000010
00001000
00000001
00000010
00000100
00001000
00000010
,
00000100
00001000
00010000
00100000
01000000
00010000
10000000
00000000
,
01000000
00100000
00001000
00010000
00100000
10000000
00010000
00100000
,
00010000
01000000
00100000
00010000
00001000
00010000
00010100
00000000
,
00011000
00000000
00001000
00010000
00000000
00001000
00000100
00000000
,
00000001
00000000
00001000
00000000
00000100
00000010
00000100
00000000
00000010
00000000
00000001
00000000
00000100
00001000
00000100
00000000
,
00000001
00000000
00000010
00000100
00000000
00010000
00001000
00000000
,
00100000
00000000
00010000
00000000
10000000
00010000
10000000
00000000
00010000
00000000
00100000
00000000
01000000
10000000
01000000
00000000
,
00100000
00000000
00010000
01000000
00000000
00010000
10000000
00000000
,
00100000
00000000
10000000
00000000
01000000
00100000
01000000
00000000
00100000
00000000
00001000
00000000
00010000
00000100
00010000
00000000
,
00000100
00000000
00001000
00000001
00000000
00000010
00000001
00000000
,
00001000
00000000
00000010
00000000
00000100
00000001
00000100
00000000
00000010
00000000
00001000
00000000
00000001
00001000
00000001
00000000
,
00001000
00000100
00000010
00001000
00010000
01000000
10000000
00000000
,
00010000
00000000
10000000
00000000
00010000
01000000
00010000
00000000
01000000
00000000
00001000
00000000
00010000
00000100
00010000
00000000
,
00001000
00010000
01000000
00100000
01000000
00010000
00001000
00000000
,
00010000
00000000
00100000
00000000
01000000
00010000
01000000
00000000
00100000
00000000
10000000
00000000
01000000
00100000
01000000
00000000
,
00010000
00001000
00000010
00000100
00000001
00000000
00000100
00001000
,
00000001
00000000
00000100
00000000
00000010
00001000
00000010
00000000
00000100
00000000
00001000
00000000
00010000
00001000
00010000
00000000
,
00001000
00000010
00000001
00001000
00000100
00000000
00000010
00000001
,
00000100
00000000
00001000
00000000
00010000
00001000
00010000
00001000
00010000
00000000
00000000
00000000
00100000
01000000
00100000
01000000
,
00100000
10000000
00010000
00100000
01000000
00000000
10000000
00100000
,
00000000
00010000
00100000
00000000
01000000
00010000
10000000
01000000
,
00100000
01000000
00010000
00001000
00010000
00000000
00100000
01000000
,
00000000
00010000
10000000
00000000
01000000
00010000
00001000
00000100
,
00000001
00000010
00000100
00010000
00001000
00000000
00010000
00001000
,
00000000
00000100
00000001
00000000
00001000
00000100
00000010
00000001
,
00000010
00000100
00000001
00000100
00001000
00000000
00000001
00000100
,
00000000
00001000
00010000
01000000
10000000
00010000
10010000
00000000
,
10010000
00000000
00010000
01000000
00000000
10000000
01000000
00000000
,
00010000
00000000
10000000
00000000
01000000
00100000
00010000
00000000
00100000
00000000
00001000
00000000
00010000
00000010
00001000
00000000
,
00000010
00000000
00010000
00001000
00000000
00000100
00000001
00000000
,
00000010
00000000
00000100
00000000
00001000
00000100
00010000
00000000
00000100
00000000
00001000
00000000
00000100
00000010
00000001
00000000
,
00001000
00000000
00000010
00000001
00000000
00000010
00000100
00000000
,
00000001
00000000
00001000
00000000
00000001
00000100
00000001
00000000
00000010
00000000
00000100
00000000
00001000
00000100
00001000
00000000
,
00000010
00000000
00010000
00001000
00000000
00010000
01000000
00000000
,
10000000
00000000
00010000
00000000
01000000
00010000
01000000
00000000
00100000
00000000
01000000
00000000
00010000
10000000
00010000
00000000
,
10000000
01000000
00100000
00001000
00010000
00100000
10000000
00000000
,
01000000
00000000
00100000
00000000
00001000
00010000
00001000
00000000
00010000
00000000
00000100
00000000
00001000
00000100
00001000
00000100
,
00000010
00000001
00000100
00001000
00010000
00001000
00000010
00000000
,
00000100
00000000
00000010
00000000
00000001
00000100
00000010
00000000
00000100
00000000
00001000
00000000
00010000
00001000
00010000
00001000
,
00010000
00000010
00010000
00001000
01000000
00000000
00010000
00100000
,
00001000
00000000
00010000
00000000
00100000
01000000
00100000
00000000
10000000
00000000
00010000
00000000
00100000
01000000
00100000
01000000
,
00100000
00010000
01000000
00100000
00010000
00000000
00001000
00010000
,
00000010
00000000
00010000
00000000
00001000
00010000
00001000
00010000
00001000
00000000
00000000
00000000
00010000
00001000
00010000
00001000
,
00010000
00000000
00010000
00001000
00000000
00000010
00000000
00000001
,
00000000
00000000
00000000
00000000
,
00000000
00000000
00000000
00000000
00000000
00000000
00000000
00000100
,
00000000
00001000
00000000
00010000
00000000
00100000
10000000
00010000
,
10000000
00000000
01000000
00100000
00000000
00001000
00000000
00010000
,
00000000
00000000
00000000
00000000
,
00000000
00000000
00000000
00000000
00000000
00000000
00000000
00001000
,
00000000
00000010
00000000
00000001
00000000
00001000
00000000
00000000
,
00000001
00000100
00001000
00000100
00000001
00000100
00001000
00000000
,
00010000
00001000
00000010
00001000
00010000
00001000
00000100
00000000
,
00001000
00010000
01000000
00010000
00001000
00010000
00100000
00000000
,
10000000
00100000
00010000
00100000
10000000
00010000
10000000
00000000
,
01000000
00010000
00001000
00010000
00100000
00010000
00001000
00000000
,
00010000
01000000
00010000
00001000
00010000
00100000
00010000
00000000
,
00001000
00010000
00001000
00000010
00001000
00010000
00001000
00000000
,
00000100
00000001
00001000
00000100
00000010
00001000
00010000
00000000
,
00001000
00100000
00010000
10000000
00100000
01000000
00100000
00010000
,
00001000
00000000
00010000
00000000
00000010
00000000
00010000
00000000
00001000
00000000
00010000
00000000
00100000
01000000
00100000
01000000
,
00010000
10000000
01000000
00100000
00001000
00010000
00001000
01000000
,
00010000
00000000
00001000
00000000
00000010
00000000
00000100
00000000
00001000
00000000
00000100
00000000
00000001
00001000
00000001
00001000
,
00000001
00000010
00000100
00001000
00000001
00000100
00001000
00010000
,
00001000
00000000
01000000
00000000
00010000
00000000
00100000
00000000
00001000
00000000
01000000
00000000
00100000
10000000
00100000
10000000
,
00100000
10000000
01000000
00010000
00001000
00010000
00100000
00010000
,
00001000
00000100
00000001
00001000
00000100
00000010
00000011
00000000
,
00001000
00000010
00000100
00001000
00010000
00000010
00010000
00001000
,
00000100
00000010
00000100
00000001
00001000
00000000
00000100
00000000
00000010
00000000
00000001
00000000
00001000
00000010
00001000
00000010
,
00001000
00000100
00000010
00000001
00000100
00001000
00010000
00100000
,
10000000
00000000
00010000
00000000
00100000
01000000
00100000
01000000
00100000
00000000
00010000
00000000
10000000
00100000
10000000
00100000
,
10000000
01000000
00100000
00001000
00010000
00100000
00010000
00001000
,
00000100
00000010
00001000
00000100
00000010
00001000
00010000
01000000
,
00100000
00010000
10000000
00100000
00010000
00001000
00010000
00000100
,
00000010
00000001
00000100
00001000
00010000
01000000
00100000
00020000
,
00000000
00000000
00000000
00000000
,
00030000
00000000
00000000
00000000
;

//--------------- dance-double - Fred-104† ----------------
#NOTES:
     dance-double:
     Fred-104†:
     Challenge:
     18:
     :
00000000
00000000
00000000
00000000
,
00000000
00000000
00000000
00000000
,
00000000
00000000
00000000
00000000
,
00000000
00000000
00000000
00000000
,
00000000
00000000
00000000
00000000
,
00010000
00001000
00010000
00000010
00001000
00000100
00000010
00000001
,
00000100
00001000
01000000
00010000
00100000
00001000
00010000
01000000
,
00100000
00010000
10000000
00100000
01000000
00010000
00100000
10000000
,
00100000
01000000
00010000
00001000
00000010
00000100
00001000
00000001
,
00000100
00000010
00000100
00001000
00010000
00100000
01000000
00010000
,
00100000
01000000
00010000
10000000
00100000
01000000
10000000
00010000
,
00100000
01000000
00010000
00001000
00010000
00100000
00010000
00001000
,
00000100
00000010
00001000
00000001
00000010
00001000
00011000
00000000
,
00001000
00000000
00010000
00000000
01000000
00000000
00100000
00000000
00010000
01000000
00010000
01000000
00100000
00000000
10000000
00000000
,
00100000
00000000
00010000
00000000
00001000
00000000
01000000
00000000
00001000
00010000
00001000
00010000
00001000
00000000
00000010
00000000
,
00000100
00000000
00001000
00000000
00000001
00000000
00000100
00000000
00000010
00001000
00000010
00001000
00000001
00000000
00001000
00000000
,
00000100
00000000
00000010
00000000
00001000
00000000
00010000
00000000
00001000
00010000
00001000
00010000
00001000
00000000
00010000
00000000
,
00100000
00000000
01000000
00000000
00010000
00000000
10000000
00000000
00010000
00100000
01000000
00100000
00010000
00000000
01000000
00000000
,
00001000
00000000
00010000
00000000
00100000
00000000
10000000
00000000
01000000
00100000
00010000
00100000
00001000
00000000
00010000
00000000
,
00001000
00000000
00000100
00000000
00000010
00000000
00001000
00000000
00000001
00000010
00000100
00000010
00001000
00000000
00010000
00000000
,
00001000
00000000
00100000
00000000
01000000
00000000
10000000
00000000
00010000
01000000
00100000
00000000
01100000
00000000
00000000
00000000
,
10010000
00000000
10000000
01000000
00000000
00010000
00001000
00000000
,
00010000
00000000
00100000
00000000
10000000
00010000
10000000
01000000
00100000
00000000
00010000
00000000
00100000
00001000
00010000
00001000
,
01000000
00000000
00001000
00010000
00000000
00001000
00000100
00000000
,
00000001
00000000
00001000
00000000
00000001
00000010
00000100
00000010
00000001
00000000
00001000
00000000
00000010
00001000
00000100
00010000
,
00001000
00000000
00100000
10000000
00000000
00100000
00001000
00000000
,
00010000
00000000
00001000
00000000
00100000
00001000
00010000
00001000
01000000
00000000
00010000
00000000
00100000
00001000
00010000
00000010
,
00001000
00000000
00000100
00010000
00000000
01000000
00010000
00000000
,
00001000
00000000
00100000
00000000
00010000
00100000
01000000
10000000
00100000
00000000
01000000
00000000
00010000
10000000
01000000
00100000
,
00010000
01000000
00001000
00010000
00001000
00000000
00100000
00001000
,
00010000
00000000
00001000
00000000
00000010
00000100
00000010
00000001
00001000
00000000
00000010
00000000
00000100
00000001
00000010
00000100
,
00001000
00000001
00000100
00000010
00000100
00000000
00001000
00010000
,
00100000
00000000
01000000
00000000
00010000
00100000
01000000
10000000
00010000
00000000
10000000
00000000
00100000
01000000
00100000
10000000
,
00010000
00100000
01000000
00010000
00001000
00000000
01000000
00001000
,
00010000
00000000
00001000
00000000
00000100
00000001
00001000
00000001
00000010
00000000
00000100
00000000
00001000
00000100
00010000
00001000
,
00100000
00010000
01000000
00001000
00010000
00000000
00001000
00000100
,
00000010
00000000
00001000
00000000
00000001
00000010
00000100
00001000
00000100
00000000
00000000
00000000
00010000
00001000
00010000
00001000
,
00010000
00001000
00000010
00000100
00000001
00001000
00010000
00100000
,
00010000
00001000
00000010
00001000
00010000
00001000
00000100
00001000
,
00010000
00001000
00000100
00000010
00000001
00001000
00010000
00001000
,
00000010
00001000
00010000
00100000
00010000
00001000
00010000
01000000
,
00010000
00001000
00010000
00100000
01000000
10000000
00010000
00001000
,
00010000
01000000
00010000
00001000
00010000
00100000
00010000
00001000
,
00000010
00001000
00010000
00001000
00000100
00000001
00000100
00001000
,
00010000
00100000
01000000
00100000
10000000
00010000
10010000
00000000
,
01200000
00000000
10300000
00200000
00000000
00310000
00002000
00000000
,
00013000
00000000
01000000
00000000
10000000
00010000
01000000
00010000
10000000
00000000
01000000
00000000
00100000
00010000
01000000
00001000
,
00020000
00000000
00031000
00020000
00000000
01030000
00020000
00000000
,
00031000
00000000
00010000
00000000
00001000
00100000
00001000
00010000
00000010
00000000
00001000
00000000
00000100
00001000
00000100
00000010
,
00000002
00000000
00000103
00002000
00000000
00013000
00002000
00000000
,
00003010
00000000
00000001
00000000
00001000
00000001
00000100
00000010
00000100
00000000
00001000
00000000
00010000
00001000
00100000
00010000
,
20000000
00000000
30100000
00020000
00000000
00030010
00020000
00000000
,
00031000
00000000
00100000
00000000
01000000
00100000
01000000
00100000
10000000
00000000
00000000
00000000
00100000
00010000
00100000
00010000
,
02000000
03100000
00020000
00032000
00003100
00000020
00002030
00000000
,
00003100
00000000
00000010
00000000
00001000
00010000
00001000
01000000
00010000
00000000
00100000
00000000
01000000
00100000
00001000
00010000
,
00002000
00003100
00000020
00002030
00013000
02000000
03200000
00000000
,
01300000
00000000
00001000
00000000
00010000
00001000
00000010
00001000
00010000
00000000
00001000
00000000
00100000
00001000
00010000
00001000
,
00020000
01030000
00200000
00320000
00031000
00000200
00000320
00000000
,
00000130
00000000
00010000
00000000
00001000
00010000
00000010
00010000
00001000
00000000
00010000
00000000
00001000
01000000
00010000
01000000
,
00002000
00013000
00200000
02300000
03100000
00020000
00032000
01003000
,
00001000
00000000
00010000
00000000
00001000
00000100
00000010
00001000
00000100
00000000
00000010
00000000
00001000
00010000
01000000
00100000
,
00010000
00000000
10000000
00010000
00000000
01000000
00001000
00010000
,
00000000
00000000
00000000
00000000
,
00000000
00000000
00000000
00000000
00000000
00000000
00000000
00000010
,
00000000
00010000
00000000
00000100
00000000
00010000
00001000
00000100
,
00000001
00000000
00001000
00000100
00000000
00000010
00000001
00000100
,
00000000
00000000
00000000
00000000
,
00000000
00000000
00000000
00000000
00000000
00000000
00000000
00001000
,
00000000
00010000
00000000
00100000
00000000
10000000
00000000
00000000
,
00010000
00100000
01000000
10000000
00100000
00010000
00001000
01000000
,
00100000
00010000
00001000
00000100
00000010
00001000
00001001
00000000
,
00000001
00000010
00001000
00000010
00000001
00000100
00001000
00010000
,
01000000
00100000
00010000
10000000
00100000
01000000
01010000
00000000
,
00010000
10000000
00100000
00010000
00000010
00001000
00000100
00001000
,
00000001
00000100
00001000
00010000
00001000
00000100
00000110
00000000
,
00001000
00000001
00000100
00000010
00000001
00000010
00000100
00001000
,
00010000
00100000
01000000
10000000
01000000
00010000
10010000
00000000
,
10000000
00000000
01000000
00000000
00010000
00000000
00001000
00000000
00010000
00001000
01000000
00010000
00100000
00000000
00001000
00000000
,
00010000
00000100
00001000
00000010
00000100
00000000
00000001
00000000
00001000
00000000
00000100
00000000
00010000
00001000
01000000
00010000
,
00100000
00000000
00001000
00000000
00010000
00000000
00100000
00000000
01000000
00100000
00010000
00001000
00000100
00000000
00000010
00000000
,
00001000
00000000
00010000
00000000
01000000
00001000
00010000
00001000
00200000
00000000
00301000
00000000
00010000
00000100
00001000
00000001
,
00000100
00000000
00000010
00000000
00001000
00000000
00000001
00000000
00000100
00000010
00000100
00001000
00020000
00000000
00230000
00000000
,
01300000
00000000
00100000
00000000
00010000
00000000
00001000
00000000
00000100
00000000
00000010
00000000
00010000
00001000
00010000
00001000
,
00010000
00000100
00001000
00000010
00010000
00001000
00100000
00010000
,
01000000
00001000
00010000
00001000
00000010
00000100
00000110
00000000
,
00000001
00000000
00000100
00000000
00000010
00000000
00001000
00000000
00000001
00000010
00000100
00001000
00000100
00000000
00010000
00000000
,
00001000
00010000
00100000
01000000
10000000
00000000
01000000
00000000
00010000
00000000
10000000
00000000
01000000
00100000
00010000
10000000
,
00010000
00000000
01000000
00000000
00100000
00000000
00010000
00000000
00001000
00010000
00001000
01000000
00001000
00000000
00010000
00000000
,
00000100
00000000
00001000
00000000
00000100
00000010
00000001
00000100
00000020
00000000
00001030
00000000
00000001
00000010
00000100
00001000
,
00000010
00000000
00000100
00000000
00000010
00000000
00001000
00000000
00000100
00010000
00001000
00010000
00200000
00000000
20300000
00000000
,
30010000
00000000
10000000
00000000
01000000
00000000
00100000
00000000
00010000
00000000
01000000
00000000
00100000
10000000
01000000
00100000
,
00010000
00100000
01000000
00010000
00001000
00000010
00000100
00001000
,
00000001
00001000
00000010
00000100
00001000
00010000
00100000
01000000
00100000
10000000
00010000
00100000
01000000
10000000
00010000
20000000
,
00000000
00000000
00000000
00000000
,
30000000
00000000
00000000
00000000
;
