#VERSION:0.83;
#TITLE:月光蝶;
#ARTIST:あさき;
#TITLETRANSLIT:Gekkou chou;
#ARTISTTRANSLIT:Asaki;
#GENRE:VISUAL;
#BANNER:Gekkou chou.png;
#BACKGROUND:Gekkou chou-bg.png;
#CDTITLE:./CDTitles/GF 9thMIX & dm 8thMIX.png;
#MUSIC:Gekkou chou.ogg;
#SAMPLESTART:58.623;
#SAMPLELENGTH:15;
#BPMS:0=109,28=218;
#STAGE:14;

//--------------- dance-single - Fred-104 ----------------
#NOTEDATA:;
#STEPSTYPE:dance-single;
#DESCRIPTION:Fred-104;
#DIFFICULTY:Beginner;
#METER:5;
#CREDIT:Fred-104;
#NOTES:
0000
0000
0000
0000
,
0000
0000
0000
0000
,
0000
0000
0000
0000
,
0000
0000
0000
0000
,
0000
0000
0000
0000
,
0000
0000
0000
0000
,
0000
0000
0000
0000
,
0001
0000
1000
0000
,
0001
0000
1000
0000
,
0010
0000
1000
0000
,
0001
0000
0100
0000
,
0000
0100
0000
0000
,
0000
0001
0000
0000
,
0000
1000
0000
1000
,
0000
1000
0000
0000
,
0001
0000
0001
0000
,
1000
0000
1000
0000
,
1000
0000
0001
0000
,
0001
0000
1000
0000
,
1000
0000
0100
0000
,
0010
0000
0001
0000
,
1000
0000
0001
0000
,
1000
0000
0000
0000
,
0001
0000
0001
0000
,
1000
0000
1000
0000
,
1000
0000
0001
0000
,
0010
0000
0100
0000
,
0001
0000
1000
0000
,
0100
0000
0010
0000
,
1000
0000
0001
0000
,
1000
0000
0000
0000
,
0100
0000
0000
0000
,
0001
0000
0000
0000
,
0010
0000
0000
0000
,
1000
0000
0000
0000
,
0001
0000
0000
0000
,
1000
0000
0000
0000
,
1001
0000
0000
0000
,
0000
0000
0000
0000
,
0010
0000
1000
0000
,
0010
0000
0001
0000
,
0100
0000
1000
0000
,
0001
0000
0100
0000
,
1000
0000
1000
0000
,
0001
0000
0001
0000
,
1000
1000
0001
0001
,
2002
0000
0000
3003
,
0001
0000
0100
0000
,
1000
0000
1000
0000
,
0001
0000
0001
0000
,
0001
0000
0100
0000
,
1000
0000
0010
0000
,
0001
0000
0100
0000
,
0010
0000
1000
0000
,
0100
0000
1000
0000
,
0001
0000
0100
0000
,
0010
0000
0100
0000
,
0001
0000
1000
0000
,
0010
0000
0001
0000
,
0010
0000
1000
0000
,
0100
0000
0001
0000
,
1000
0000
0000
0000
,
0001
0000
0000
0000
,
0010
0010
0000
1000
,
0000
0001
0000
0100
,
0000
0010
0000
1000
,
0000
0100
0000
1000
,
0000
0001
0000
0100
,
0000
1000
0000
0100
,
0000
0001
0000
0010
,
0000
1000
0000
0001
,
0000
0100
0000
1000
,
0000
0010
0000
0100
,
0000
0001
0000
0001
,
0000
1000
0000
1000
,
0000
0001
0000
1000
,
0000
0100
0000
0010
,
0010
0000
0000
0000
,
0100
0000
0000
0000
,
2002
0000
0000
0000
,
0000
0000
0000
0000
,
0000
0000
0000
0000
,
3003
0000
0000
0000
;

//--------------- dance-single - Fred-104 ----------------
#NOTEDATA:;
#STEPSTYPE:dance-single;
#DESCRIPTION:Fred-104;
#DIFFICULTY:Easy;
#METER:8;
#CREDIT:Fred-104;
#NOTES:
0000
0000
0000
0000
,
0000
0000
0000
0000
,
0000
0000
0000
0000
,
0000
0000
0000
0000
,
0000
0000
0000
0000
,
0000
0000
0000
0000
,
0000
0000
0000
0000
,
1000
0000
0000
0000
0001
0000
0000
0100
,
0000
0000
0001
0000
0001
0000
0000
0010
,
0000
0000
0100
0000
1000
0000
0000
0010
,
0000
0000
1000
0000
1000
0000
0000
0100
,
0000
0010
0001
0100
,
0000
0010
1000
0100
,
0000
0010
0100
0010
,
1000
0001
0100
0001
,
0010
1000
0001
0010
,
0000
0100
1000
0010
,
0100
0001
1000
0100
,
0000
1000
0001
0100
,
0010
0001
0100
0001
,
0000
0001
1000
0100
,
1000
0000
0000
0000
0001
0000
0000
1001
,
0000
1000
0001
0010
,
0001
1000
0001
0100
,
0000
0001
0010
0001
,
1000
0010
1000
0100
,
0000
1000
0001
0100
,
1000
0100
0001
1000
,
0000
0001
0100
0010
,
0100
0001
0010
1000
,
0000
0000
0000
0000
0010
0000
0000
0000
0001
0000
0000
0001
0000
0000
0001
0000
,
1000
0000
0000
0001
0000
0000
0100
0000
,
0000
0001
1000
0000
,
0010
0000
0000
1000
0000
0000
0100
0000
,
0000
1000
0001
0000
,
0100
0000
0000
0001
0000
0000
0010
0000
,
0000
0100
1000
0000
,
0001
0000
0000
1000
0000
0000
1001
0000
,
0000
0001
0010
0100
,
0000
1001
0010
1000
,
0000
0001
1000
0100
,
0000
0001
1000
0010
,
0000
0100
1000
0010
,
0001
0000
0000
1000
0000
0000
0010
0000
,
0100
0000
0000
0001
0000
0000
0010
0000
,
2000
0000
0000
0002
3003
0000
0110
0000
,
0000
0001
0010
0100
,
0010
0001
0100
0010
,
0000
0100
0001
1000
,
0000
0010
1000
0100
,
0000
0001
0100
1000
,
0010
0001
0100
0010
,
1000
0100
1000
0001
,
0100
0000
0010
0000
1000
0000
0000
0100
,
0000
0000
0001
0000
0000
1000
0000
0110
,
0000
1000
0010
0001
,
0000
0010
0100
1000
,
0000
0010
0001
0100
,
1000
0000
0001
0000
0000
0010
0000
1001
,
0000
0100
1000
0001
,
0000
1000
0010
1000
,
0100
0010
1000
0100
,
0001
0100
1000
0000
,
0010
1000
0100
0010
,
0000
0100
0010
0001
,
0010
1000
0100
0010
,
0000
0001
0100
0010
,
0000
0010
1000
0100
,
0001
0100
1000
0010
,
0001
0000
0100
0000
0001
0000
0000
1000
,
0000
0000
0100
0000
0000
1000
0000
0001
,
0000
1000
0001
0100
,
0000
0010
0100
0001
,
0000
1000
0001
0010
,
0000
0000
0001
0000
0000
0100
0000
1001
,
0000
0100
1000
0001
,
0000
1000
0010
1000
,
0000
0010
1000
0100
,
0001
0100
0010
1001
,
2000
0000
0000
0200
3000
0000
0020
0000
,
0330
2002
0000
0000
,
0000
0000
0000
0000
,
3003
0000
0000
0000
;

//--------------- dance-single - Fred-104 ----------------
#NOTEDATA:;
#STEPSTYPE:dance-single;
#DESCRIPTION:Fred-104;
#DIFFICULTY:Medium;
#METER:12;
#CREDIT:Fred-104;
#NOTES:
0000
0000
0000
0000
,
0000
0000
0000
0000
,
0000
0000
0000
0000
,
0000
0000
0000
0000
,
0000
0000
0000
0000
,
0000
0000
0000
0000
,
0000
0000
0000
0000
,
0001
0000
0100
0000
0001
0000
0100
0010
,
0000
0010
1000
0000
1000
0100
0000
0001
,
0000
0100
1000
0000
0010
0000
0001
0010
,
0000
1000
0001
0000
0100
0010
0000
0110
,
0000
0000
1001
0000
0100
0010
0000
0001
,
0000
0100
0001
0000
0100
0010
0010
1000
,
0000
1000
0100
0010
0001
0100
0001
0100
,
0000
0000
0100
0010
1000
0001
1000
0000
,
1001
0000
0001
0000
1000
0000
0010
0100
,
0000
1000
0100
0000
0001
0000
0010
0000
,
0100
0000
1000
0000
0001
0000
0100
0010
,
0000
0100
0001
0000
1000
0000
0100
0000
,
0010
0000
1000
0000
0100
0000
1000
0010
,
0100
0000
0001
1000
0000
0001
0100
0000
,
0001
0010
0100
1000
0010
0010
0100
0001
,
0000
0000
0001
0100
1000
0100
0001
0000
,
1000
0000
0001
0000
1000
0000
0100
0010
,
0000
0100
1000
0010
0100
0001
1000
0000
,
0001
0000
1000
0000
0001
0000
0100
0001
,
0000
0010
0001
1000
0100
0001
0100
1000
,
0001
0000
0100
0100
0000
0100
0001
0100
,
0000
0010
1000
0000
0100
0010
0010
0000
,
0100
0000
1000
0010
1000
1000
0001
0100
,
0000
0000
0000
0000
0001
0000
0001
0000
0010
0000
0000
0001
0000
0000
1000
0000
,
0011
0000
0000
1100
0000
0000
0210
0000
,
0000
1000
0001
0310
,
1001
0000
0000
0011
0000
0000
2010
0000
,
0000
0100
0001
3010
,
0101
0000
0000
1001
0000
0000
0012
0000
,
0000
1000
0010
0103
,
1000
0000
0000
0001
0000
0000
1001
0000
,
0100
0000
1000
0000
0010
0000
1000
0001
,
0000
0000
1010
0000
0100
0000
0001
0010
,
0000
0010
1000
0000
0001
0000
0100
0010
,
0000
0010
0100
0000
0001
0000
1000
0100
,
0000
0100
0000
1000
0001
0010
0001
1000
,
1001
0000
0000
0001
0000
0000
0010
0100
,
0010
0000
0000
0001
0000
0000
1000
0100
,
2000
0000
0000
0002
3003
0000
0220
0000
,
0330
0000
0000
0000
1000
0000
0000
0000
0100
1000
0100
0000
1000
0000
0000
0000
,
0001
0001
1000
0001
0100
0000
0010
0100
,
0000
1000
0100
0000
1000
0000
0001
0010
,
0000
0010
0001
0000
1000
0000
0010
0100
,
0000
0100
1000
0100
0010
0001
1000
0001
,
0000
0010
0001
0000
0100
0000
0010
1000
,
0000
0010
0100
0001
1000
0000
1000
0100
,
0000
0100
0010
0000
0001
0000
0100
0001
,
0000
1000
0100
0000
1000
0001
0000
0110
,
0000
0000
0001
0000
0010
0000
0100
1000
,
0000
1000
0001
0000
0100
0000
0001
0010
,
0000
0001
0000
1000
0000
0100
0000
0010
,
0000
0100
1000
0100
0000
0110
0000
1001
,
0000
0010
0100
0000
0001
0000
1000
0100
,
0000
1000
0001
0000
0010
0000
0001
1000
,
0000
0100
0000
0010
0000
0001
0000
0100
,
1000
0100
0001
0010
1000
0010
0001
0000
,
0010
0000
0001
0000
0100
0000
0010
1000
,
0000
0001
0100
0000
0010
0000
1000
0010
,
0000
0010
1000
0000
0100
0000
0010
0100
,
0000
0100
1000
0100
0000
0010
0000
0001
,
0000
1000
0010
0000
0100
0000
0010
1000
,
0000
1000
0000
0100
0010
0001
0100
0010
,
0000
1000
0010
0000
1000
0000
0001
0100
,
0000
1000
0100
0000
0001
0010
0000
1001
,
0000
0000
0001
0000
1000
0000
0100
0010
,
0000
0001
0010
0000
0100
0000
1000
0010
,
0000
1000
0001
0000
1000
0000
0010
0100
,
0000
0001
0010
0001
0000
0110
0000
1001
,
0000
0010
0100
0000
0001
0000
1000
0100
,
0000
1000
0001
0000
0010
0000
0001
1000
,
0001
1000
0001
0000
0100
0000
1000
0000
,
0010
0000
0001
0100
0001
0000
1001
0000
,
0002
0000
0000
0200
0003
0000
0020
0000
,
0330
2002
0000
0000
,
0000
0000
0000
0000
,
3003
0000
0000
0000
;

//--------------- dance-single - Fred-104 ----------------
#NOTEDATA:;
#STEPSTYPE:dance-single;
#DESCRIPTION:Fred-104;
#DIFFICULTY:Hard;
#METER:16;
#CREDIT:Fred-104;
#NOTES:
0000
0000
0000
0000
,
0000
0000
0000
0000
,
0000
0000
0000
0000
,
0000
0000
0000
0000
,
0000
0000
0000
0000
,
0000
0000
0000
0000
,
0000
0000
0000
0000
,
1000
0100
1000
0010
1000
0100
0010
0001
,
0100
0100
0001
0010
0001
0101
0000
0110
,
0010
1000
1001
0000
1000
0100
1000
0001
,
1000
0100
0010
0001
0100
0110
0000
1010
,
1000
0001
0011
0000
0001
0100
0001
0010
,
0001
0010
0100
1000
0001
1000
0100
1100
,
0000
0010
0100
0001
1000
1000
0001
0001
,
1000
0000
0010
0000
0100
0000
0001
0000
0100
0000
0001
1000
0001
0000
1000
0010
,
2000
0000
3020
0000
0230
0000
0301
0010
,
0000
0010
0100
0000
1000
0100
0001
0100
,
2000
0000
3200
0000
0302
0000
0103
1000
,
0000
0010
0100
0000
0001
0010
1000
0010
,
0001
0000
0100
0010
1000
0000
0001
0010
,
0100
1000
0001
0100
0001
0100
0010
0100
,
0001
0000
0000
0000
0000
0000
0000
0000
1000
0000
0000
0000
0000
0000
0000
0000
0200
0300
0000
0000
0000
0000
0000
0000
0200
0300
0000
0000
0000
0000
0000
0000
0001
0000
0000
0000
0000
0000
0000
0000
0100
0000
0000
0000
0000
0000
0000
0000
0010
0000
0000
0000
0000
0000
0000
0000
1010
0000
0000
0000
0000
0000
0000
0000
,
0000
0000
1000
0000
0100
0000
0010
0000
0001
0000
0100
0010
0100
0000
0001
0010
,
0001
0100
0020
0100
0130
0001
1000
0200
,
0000
1300
0010
0100
0101
0000
1100
0000
,
0100
0001
0020
0100
0130
1000
0010
0200
,
0000
0301
0100
0010
1010
0000
0101
0000
,
1000
0001
0100
0010
1000
0100
0010
0011
,
0000
0001
0100
0010
1000
1000
0001
0001
,
1000
0100
2000
0001
3001
0100
0010
0110
,
0000
0000
1010
0000
1000
0000
0001
0000
0100
0000
0000
0010
0000
0000
1000
0000
,
1001
0000
0000
1010
0000
0000
0101
0000
,
0001
0000
0100
0000
0010
0000
1000
0010
,
0110
0000
0000
1100
0000
0000
0101
0000
,
1000
0000
0100
0010
0010
0001
1000
0001
,
1001
0000
0000
0011
0000
0000
1100
0000
,
0001
0000
1000
0010
0010
0010
0100
0001
,
1001
0000
0000
0110
0000
0000
1001
0000
,
0100
0100
0100
0100
0010
0010
0010
0110
,
0000
0000
1001
0001
0100
0010
1000
0200
,
0000
0301
0100
1000
0010
0100
0001
2000
,
0000
3100
0010
0100
1000
0010
1000
0002
,
0000
0103
0010
0100
0001
0010
0001
1000
,
1001
0000
0000
0000
0001
0000
0100
0000
0010
0000
1000
0001
1000
0000
0100
0000
,
0010
0001
0010
0000
0001
0100
0001
0000
0100
0010
1000
0010
1000
0000
1000
0000
,
0001
0100
0001
0100
0010
0000
1000
0100
1000
0100
0010
0000
0100
0000
0100
0000
,
1001
0000
0000
0000
0001
0010
0100
0000
1000
0010
0100
0000
0001
0010
0100
0000
,
1000
0001
0100
0010
1000
0100
0010
0100
,
0000
0100
1000
0010
0100
0001
0010
0100
,
0000
0100
0010
0001
1000
0001
0010
0100
,
0000
1000
0010
1000
0001
1000
0100
0010
,
0000
0010
0011
0000
1001
0000
1000
1100
,
0000
0010
0110
0000
0101
0000
0001
1001
,
0000
1000
0010
0100
0001
1000
0100
0110
,
0000
0000
0001
0010
0001
0000
1000
0000
0001
0000
0100
0000
0000
0000
0110
0000
,
0000
0010
1000
0100
1000
0001
0100
0110
,
0000
0010
1000
0100
1000
0001
0100
0101
,
0000
0011
0001
0010
0100
1000
0010
0110
,
0100
0001
1000
1001
0000
0110
0000
1001
,
0000
0001
0100
0000
0010
1000
0100
0110
,
0000
0010
0001
1000
0010
0100
0001
0101
,
0000
0000
0001
0000
1000
0000
0010
1000
0010
0000
1000
0001
1000
0100
1000
0100
,
1000
0000
0001
0100
0010
1000
0001
0000
1000
0100
1000
0100
0010
0001
0010
0001
,
2000
0000
3002
0000
0103
0010
0100
0002
,
0000
1003
0010
0100
0001
0010
0100
2100
,
0000
3001
1001
0000
0100
0010
1000
2010
,
0000
3100
0010
0011
0000
0001
1000
1002
,
0000
0103
0010
1000
0010
0100
0010
2000
,
0000
3200
0000
0302
0000
0203
0000
2300
,
0000
3001
0100
0010
0100
0001
1000
1001
,
0000
0000
0001
0100
0001
0000
0100
0000
0010
0000
1010
0000
0000
0000
1001
0000
,
0000
0001
1000
0010
1000
0100
0010
0200
,
0000
0000
0000
0000
0000
0000
0000
0000
1300
0000
0000
0000
0000
0000
0000
0000
0020
0030
0000
0000
0000
0000
0000
0000
0020
0030
0000
0000
0000
0000
0000
0000
0001
0000
0000
0000
0000
0000
0000
0000
1000
0000
0000
0000
0000
0000
0000
0000
0100
0000
0000
0000
0000
0000
0000
0000
0010
0000
0000
0000
0000
0000
0000
0000
,
0002
0000
0100
0000
0010
0000
0103
0110
,
0000
0010
1000
1001
0000
0110
0000
1001
,
0000
0001
0100
0000
0010
1000
0001
0012
,
0000
0000
2003
0000
3002
0000
0103
0120
,
0000
0000
2030
0000
3001
0000
0100
0010
0100
0000
0001
0100
0001
0000
1000
0000
,
0001
0000
0010
0000
0100
0000
1000
0000
0001
1000
0010
0100
0001
0000
0200
0000
,
0002
0000
0303
0220
0000
0330
2020
0000
,
0000
3030
2002
0000
0000
0000
0000
0000
,
0000
0000
0000
0000
,
3003
0000
0000
0000
;

//--------------- dance-double - Fred-104 ----------------
#NOTEDATA:;
#STEPSTYPE:dance-double;
#DESCRIPTION:Fred-104;
#DIFFICULTY:Easy;
#METER:8;
#CREDIT:Fred-104;
#NOTES:
00000000
00000000
00000000
00000000
,
00000000
00000000
00000000
00000000
,
00000000
00000000
00000000
00000000
,
00000000
00000000
00000000
00000000
,
00000000
00000000
00000000
00000000
,
00000000
00000000
00000000
00000000
,
00000000
00000000
00000000
00000000
,
00010000
00010000
00001000
00000000
,
00100000
00000000
00010000
00000000
10000000
00000000
00000000
00010000
,
00000000
10000000
01000000
00100000
,
00001000
00000000
00001000
00000000
00010000
00000000
00000000
00001000
,
00000000
00010000
00000100
00001000
,
00000010
00000000
00000010
00000000
00000100
00000000
00000000
00000001
,
00000000
00000000
00001000
00000000
00000001
00000000
00000000
00000100
,
00000000
00000010
00001000
00000100
,
00010000
00000000
00000010
00000000
,
00010000
00001000
00100000
00010000
,
10000000
00000000
00010000
00000000
,
10000000
01000000
00010000
00001000
,
00000100
00000000
00000001
00000000
,
00001000
00000000
00000001
00000010
00000000
00000000
00001000
00000000
,
00010000
00000000
00000000
00000000
00001000
00000000
00000000
00010000
,
00000000
00000000
00001000
00010000
,
00001000
00000000
00100000
00000000
,
00010000
01000000
00100000
01000000
,
00010000
00000000
10000000
00000000
,
01000000
01000000
00100000
00001000
,
00010000
00000000
00000000
00001000
00000000
00000000
00000000
00001000
,
00000000
00010000
00000010
00001000
,
00000010
00000000
00000000
00000000
00000100
00000000
00000000
00000001
,
00000000
00000000
00000000
00000000
00001000
00000000
00000000
00000000
00000010
00000000
00000000
00000010
00000000
00000000
00000010
00000000
,
00010000
00000000
00000000
00001000
00000000
00000000
00010000
00000000
,
00000000
00001000
00100000
00010000
,
10000000
00000000
00000000
00010000
00000000
00000000
10000000
00000000
,
00000000
00010000
10000000
01000000
,
00100000
00000000
00000000
00001000
00000000
00000000
00010000
00000000
,
00000000
00000100
00001000
00000001
,
00001001
00000000
00000000
00000110
00000000
00000000
00001001
00000000
,
00000001
00000000
00000100
00000000
00000100
00000000
00000000
00000010
,
00000000
00000000
00001000
00000000
00000100
00000000
00000000
00010000
,
00000000
00000000
00001000
00000000
00100000
00000000
00000000
00001000
,
00000000
00000000
00010000
00000000
00001000
00000000
00000000
00001000
,
00000000
00100000
00000000
00010000
00000000
00000000
10000000
00000000
,
10000000
00000000
00000000
00010000
00000000
00000000
10000000
00000000
,
01000000
00000000
00000000
00100000
00000000
00000000
00100000
00000000
,
00002000
00000000
00000000
00023000
00000000
00000000
00031000
00000000
,
00022000
00033000
00001000
00001000
,
00011000
00010000
00000100
00001000
,
00000000
00010000
00001000
00000100
,
00000000
00000001
00000010
00000100
,
00000000
00000000
00010000
00000000
00001000
00000000
00000000
00010000
,
00000000
00000000
00001000
00000000
00100000
00000000
00000000
00010000
,
00000000
00000000
10000000
00000000
00100000
00000000
00000000
01000000
,
00000000
00000000
00100000
00000000
10000000
00000000
01000000
00100000
,
01000000
00000000
00000000
00000000
10000000
00000000
00000000
10010000
,
00000000
01000000
00100000
00001000
,
00000000
00000000
00010000
00000000
00000100
00000000
00000000
00001000
,
00000000
00000010
00000000
00000100
00000000
00000001
00000000
00001000
,
00000000
00000001
00000000
00000100
00000000
00000010
00000000
00000110
,
00000000
00000000
00000010
00000000
00010000
00000000
00000000
00001000
,
00000000
00000000
00100000
00000000
00010000
00000000
00000000
01000000
,
00000000
00010000
10000000
00010000
,
10000000
01000000
00010000
00001000
,
00010000
00000000
00001000
00000000
00010000
00000000
00000000
00000100
,
00000000
00000000
00001000
00000000
00000010
00000000
00000000
00000100
,
00000000
00000000
00000001
00000000
00000010
00000000
00000000
00000100
,
00000000
00000000
00000000
00010000
00000000
00000000
00000000
00001000
,
00000000
00000000
00010000
00000000
00001000
00000000
00000000
00020000
,
00000000
00032000
00000000
00203000
00000000
00302000
00000000
00023000
,
00000000
00030000
00001000
00000000
01000000
00000000
00000000
00010000
,
00000000
00000000
10000000
00000000
10000000
00000000
00000000
00100000
,
00000000
00000000
00010000
00000000
00001000
00000000
00000000
00000010
,
00000000
00000001
00000100
00000010
,
00000200
00000000
00000000
00000000
00000302
00000000
00001003
00000001
,
00000000
00000100
00000000
00000100
00000000
00000010
00000000
00000110
,
00000000
00000000
00010000
00000000
00001000
00000000
00000000
00010000
,
00000000
00000000
00001000
00000000
00100000
00000000
00000000
00010000
,
00000000
10000000
01000000
00100000
,
00001000
00010000
00100000
10000000
,
00020000
00000000
00000000
20030000
00000000
00000000
30020000
00000000
,
00000000
00030000
02020000
00000000
00000000
00000000
00000000
00000000
,
00000000
00000000
00000000
00000000
,
03030000
00000000
00000000
00000000
;

//--------------- dance-double - Fred-104 ----------------
#NOTEDATA:;
#STEPSTYPE:dance-double;
#DESCRIPTION:Fred-104;
#DIFFICULTY:Medium;
#METER:13;
#CREDIT:Fred-104;
#NOTES:
00000000
00000000
00000000
00000000
,
00000000
00000000
00000000
00000000
,
00000000
00000000
00000000
00000000
,
00000000
00000000
00000000
00000000
,
00000000
00000000
00000000
00000000
,
00000000
00000000
00000000
00000000
,
00000000
00000000
00000000
00000000
,
00001000
00100000
00001000
00000000
01000000
00010000
01000000
00000000
,
00001000
00010000
00001000
00000000
00010000
00001000
00000000
00011000
,
00000000
00000000
00010000
00000000
00000010
00001000
00000010
00000000
,
00001000
00000100
00010000
00001000
00010000
00010000
00000000
00011000
,
00000000
00001000
00100000
00000000
00010000
00100000
00000000
01000000
,
10000000
00100000
10000000
00000000
00010000
10000000
00010000
10010000
,
00000000
01000000
00100000
00001000
00010000
00000100
00000010
00000100
,
00000000
00000000
00001000
00000100
00000001
00000100
00001000
00000010
,
00000100
00000000
00000001
00000000
00000010
00000000
00000100
00000020
,
00000000
00010030
00001000
00010000
,
00001000
00000000
00100000
00000000
00010000
00000000
10000000
02000000
,
00000000
03010000
01000000
10000000
,
00020000
00000000
10000000
00000000
01030000
00000000
00100000
00001000
,
00020000
00000000
00000000
00030010
00000000
00000000
00010000
00000000
,
00001000
00000000
00010000
00010000
00000100
00001000
00000010
00000100
,
00000000
00000002
00000203
00002300
,
00003001
00000100
00000001
00000000
00001000
00000000
00000010
00000200
,
00000000
00010300
00001000
00100000
,
01000000
00100000
01000000
00000000
00010000
00000000
10000000
02000000
,
00000000
03010000
00001000
00000100
,
00000001
00000000
00000000
00000100
00000000
00000000
00000010
00001000
,
00000000
00000100
00000010
00001000
,
00010000
00001000
00010000
00000000
00100000
00000000
01000000
01000000
,
00000000
00000000
10000000
00000000
00100000
00000000
01000000
00000000
00010000
00000000
00000000
00010000
00000000
00000000
10000000
00000000
,
10010000
00000000
00000000
01000000
00000000
00000000
01200000
00000000
,
00000000
00001000
00010000
00301000
,
00011000
00000000
00000000
00000100
00000000
00000000
00000210
00000000
,
00000000
00000001
00001000
00000301
,
00000101
00000000
00000000
00000010
00000000
00000000
00001200
00000000
,
00000000
00010000
00001000
00010300
,
00010100
00000000
00000000
00011000
00000000
00000000
01001000
00000000
,
00001000
00000000
00010000
00000000
00100000
00000000
10000000
10000000
,
00000000
00000000
00010000
00000000
01000000
00100000
00000000
00100000
,
00000000
10000000
01000000
00000000
00100000
00000000
00001000
00010000
,
00000000
00000100
00001000
00000000
00000010
00000010
00001000
00000001
,
00000000
00001000
00000000
00000010
00000000
00010000
00001000
00000000
,
00011000
00000000
00000000
00110000
00000000
00000000
01000000
00000000
,
10100000
00000000
00000000
01010000
00000000
00000000
00001000
00000000
,
00020000
00000000
00000000
00030200
00000000
00000300
00000110
00000000
,
00002002
00003003
00010000
00001000
,
00010000
00001000
00100000
00010000
00100000
00000000
00010000
01000000
,
00000000
00100000
10000000
00000000
01000000
00000000
00100000
00001000
,
00000000
00010000
00100000
00000000
10000000
00000000
01000000
00100000
,
00000000
00001000
00010000
00000000
00000100
00000000
00000010
00000001
,
00000000
00001000
00000001
00000000
00000100
00000000
00000010
00001000
,
00000000
00000001
00000010
00000000
00000100
00000000
00001000
00000010
,
00000000
00000100
00000001
00000000
00001000
00000100
00000010
00000100
,
00000000
00010000
00001000
00000000
00010000
00001000
00000000
00011000
,
00000000
00000000
00110000
00000000
00010000
00000000
10000000
01000000
,
00000000
01000000
00100000
00000000
00001000
00000000
00010000
00100000
,
00000000
10000000
00000000
00010000
00000000
10000000
01000000
00100000
,
00000000
00001000
00010000
00000100
00000000
00001000
00000001
00000100
,
00000000
00000010
00000100
00000000
00000001
00000100
00001000
00010000
,
00000000
01000000
10000000
00000000
00010000
10000000
01000000
00100000
,
00000000
00001000
00010000
00000100
00001000
00000010
00000100
00000000
,
00000001
00000100
00000001
00000000
00000100
00000010
00001000
00000000
,
00011000
00000000
00001000
00000000
00100000
00010000
10000000
00010000
,
00000000
01000000
00100000
01000000
00010000
00010000
00000000
10010000
,
00000000
10000000
01000000
00000000
00100000
00100000
00001000
00010000
,
00000000
00000010
00001000
00000100
00000000
00000010
00000000
00001001
,
00000000
00000000
00000100
00000000
00000010
00000000
00001000
00000002
,
00000000
00000023
00000000
00000230
00000000
00020300
00000000
00032000
,
00000000
00103000
00010000
00000000
10000000
00010000
01000000
00010000
,
00000000
10000000
00100000
00010000
00000000
00001000
00000010
00000001
,
00000000
00001000
00000001
00000000
00000100
00000010
00000100
00000001
,
00000000
00001000
00000100
00000000
00001000
00000000
00000010
00000000
,
00020000
00000000
00031000
00000000
00002000
00000000
00103000
00100000
,
00000000
00010000
10000000
00010000
00000000
01100000
00000000
10010000
,
00000000
10000000
01000000
00000000
00100000
00001000
00000000
00010000
,
00000000
00100000
10000000
00000000
01000000
00000000
00100000
00001000
,
00000000
00010000
00000100
00000000
00000010
00000000
00000001
00000100
,
00000010
00001000
00000001
00000010
00000100
00010000
00001000
00000000
,
00022000
00000000
00033000
00020020
00000000
00030030
00002020
00000000
,
00000000
00003030
00022000
00000000
00000000
00000000
00000000
00000000
,
00000000
00000000
00000000
00000000
,
00033000
00000000
00000000
00000000
;

//--------------- dance-double - Fred-104 ----------------
#NOTEDATA:;
#STEPSTYPE:dance-double;
#DESCRIPTION:Fred-104;
#DIFFICULTY:Hard;
#METER:16;
#CREDIT:Fred-104;
#NOTES:
00000000
00000000
00000000
00000000
,
00000000
00000000
00000000
00000000
,
00000000
00000000
00000000
00000000
,
00000000
00000000
00000000
00000000
,
00000000
00000000
00000000
00000000
,
00000000
00000000
00000000
00000000
,
00000000
00000000
00000000
00000000
,
00000001
00000100
00001000
00010000
01000000
10000000
00010000
01000000
,
00100000
10000000
01000000
00100000
00001000
00011000
00000000
00010010
,
00000000
00000000
00001010
00000000
00000001
00000100
00000010
00001000
,
00000001
00000100
00001000
00010000
01000000
10000000
00000000
10010000
,
00000000
00000000
01010000
00000000
01000000
00100000
10000000
00100000
,
00010000
00001000
00010000
01000000
10000000
00010000
01000000
01100000
,
00000000
00100000
10000000
01000000
00100000
00001000
00010000
00010000
,
00000100
00000000
00001000
00000000
00000100
00000000
00000010
00000000
00000001
00000000
00000100
00000010
00000100
00000000
00000001
00000000
,
00002000
00000000
00000010
00000000
00003100
00000000
00000001
00000100
,
00000000
00001000
00000100
00000000
00000001
00000010
00000100
00000000
,
00020000
00000000
00000010
00000000
00130000
00000000
00001000
00010000
,
00000000
00001000
00100000
00000000
00010000
10000000
01000000
00000000
,
00100000
00000000
00010000
01000000
00100000
00000000
10000000
01000000
,
00100000
00001000
00010000
00100000
10000000
01000000
00010000
00000000
,
00001000
00010000
00001000
00000100
00000001
00001000
00000001
00000101
,
00000000
00000000
00000100
00000000
00000010
00000000
00000010
00000000
00001000
00000000
00000010
00000100
00000010
00000000
00010000
00000000
,
00012000
00000010
00100000
00003010
,
00010000
00001000
00010000
00100000
00010000
00001000
00010000
00000010
,
00020000
00000000
00000100
00000000
01000000
00000000
00030100
00010000
,
00000000
00010000
00001000
00100000
00110000
00000000
10010000
00000000
,
10000000
00100000
01000000
00100000
10000000
01000000
00100000
00110000
,
00000000
00001000
00010000
00000010
00001000
00000100
00010000
00001000
,
00010000
00000010
00001000
00000001
00000100
00000010
00000100
00000110
,
00000000
00000000
00000001
00000000
00000010
00000000
00001000
00000000
00010000
00000000
00000000
01000000
00000000
00000000
10000000
00000000
,
10010000
00000000
00000000
00011000
00000000
00000000
00001001
00000000
,
00000001
00000000
00000100
00000000
00001000
00000000
00010000
01000000
,
10000000
00000000
00000000
10010000
00000000
00000000
00011000
00000000
,
00001001
00000000
00001000
00000001
00000100
00000010
00001000
00000100
,
00010000
00000000
00000000
00011000
00000000
00000000
10010000
00000000
,
00010000
00000000
10000000
01000000
00010000
00001000
00000010
00000001
,
00001000
00000000
00000000
00001001
00000000
00000000
00011000
00000000
,
00010000
00010000
00010000
00010000
00001000
00001000
00001000
00001000
,
00000000
00000000
00010000
00001000
00100000
00010000
10000000
02000000
,
00000000
03010000
01000000
10000000
00100000
01000000
00010000
20000000
,
00000000
31000000
00010000
00001000
00000100
00000001
00001000
00000002
,
00000000
00000103
00000010
00000100
00000001
00000010
00001000
00000010
,
00000011
00000000
00000000
00000000
00000001
00000000
00001000
00000000
00000010
00000000
00010000
00001000
00010000
00000000
00001000
00000000
,
00100000
00010000
00100000
00000000
00010000
10000000
00010000
00000000
01000000
00100000
01000000
00100000
01000000
00000000
00010000
00000000
,
10000000
01000000
10000000
00000000
01000000
00000000
00100000
00001000
00100000
00000000
00001000
00000000
00010000
00001000
00010000
00000000
,
00011000
00000000
00000000
00000000
00001000
00000010
00001000
00000000
00000001
00000100
00000001
00000000
00000100
00000010
00001000
00000000
,
00000001
00000100
00001000
00000100
00000001
00000010
00000100
00001000
,
00000000
00001000
00010000
00100000
10000000
01000000
00100000
00001000
,
00000000
00001000
00010000
00000010
00001000
00000100
00010000
00001000
,
00000000
00000010
00000001
00001000
00000001
00000100
00001000
00010000
,
00000000
00001000
00011000
00000000
01100000
00000000
00010000
10010000
,
00000000
10000000
10100000
00000000
10010000
00000000
01000000
01100000
,
00000000
00001000
00010000
00000010
00001000
00000100
00010000
00011000
,
00000000
00000000
00010000
00000010
00010000
00000000
00000100
00000000
00001000
00000000
00000010
00000000
00000000
00000000
00000110
00000000
,
00000000
00000001
00000100
00001000
00000100
00000001
00000010
00000011
,
00000000
00000001
00000010
00001000
00010000
00100000
01000000
01100000
,
00000000
01000000
10000000
00010000
01000000
00100000
10000000
10000000
,
00010000
10000000
01000000
01100000
00000000
00011000
00000000
00000110
,
00000000
00000001
00001000
00000000
00000010
00001000
00000001
00000101
,
00000000
00000010
00001000
00000001
00000010
00000100
00000010
00000110
,
00000000
00000000
00000010
00000000
00010000
00000000
00000100
00001000
00000100
00000000
00010000
00001000
00010000
00000000
00001000
00100000
,
00001000
00000000
00100000
00010000
00100000
00010000
00100000
00000000
00010000
10000000
00010000
10000000
00010000
00000000
01000000
00000000
,
00200000
00000000
20300000
00000000
31000000
00100000
00001000
00020000
,
00000000
00030100
00000010
00001000
00000100
00000010
00000001
00002001
,
00000000
00003010
00000110
00000000
00000001
00000100
00001000
00012000
,
00000000
00103000
01000000
01100000
00000000
00001000
00010000
00012000
,
00000000
00013000
00000100
00001000
00000001
00000100
00000010
00002000
,
00000000
00003002
00000000
00000203
00000000
00000320
00000000
00002030
,
00000000
00003001
00000100
00001000
00010000
01000000
10000000
10010000
,
00000000
00000000
00100000
01000000
00100000
00000000
10000000
00000000
01000000
00000000
01100000
00000000
00000000
00000000
00110000
00000000
,
00000000
00001000
00010000
00000010
00001000
00000100
00010000
00002000
,
00000000
00013000
00001000
00000100
00000001
00001000
00000100
00000010
,
00000002
00000000
00000100
00000000
00002003
00000000
00003010
00000011
,
00000000
00000001
00001000
00001001
00000000
00000110
00000000
00001001
,
00000000
00000010
00010000
00000000
00001000
00100000
00010000
00120000
,
00000000
00000000
02030000
00000000
03200000
00000000
01300000
01200000
,
00000000
00000000
20300000
00000000
30010000
00000000
10000000
01000000
10000000
00000000
00010000
00000000
01000000
00000000
00100000
00000000
,
10000000
00000000
01000000
00000000
00100000
00000000
00001000
00000000
00010000
00001000
00010000
00001000
00010000
00000000
00001000
00000000
,
00020000
00000000
00000000
00030020
00000000
00000000
00000032
00000000
,
00000000
00000003
00002002
00000000
00000000
00000000
00000000
00000000
,
00000000
00000000
00000000
00000000
,
00003003
00000000
00000000
00000000
;
