#TITLE:檄;
#ARTIST:Ryu☆ feat.青龍;
#TITLETRANSLIT:Geki;
#ARTISTTRANSLIT:Ryu☆ feat.Seiryu;
#BANNER:Geki.png;
#BACKGROUND:Geki-bg.png;
#CDTITLE:./CDTitles/jb Qubell.png;
#MUSIC:Geki.ogg;
#SAMPLESTART:72.88;
#SAMPLELENGTH:15;
#DISPLAYBPM:95.5:191;
#BPMS:0=191,71=382,71.5=191,71.75=95.5,83=191,84=95.5,87.5=191,183=382,183.5=191,183.75=95.5,199.5=191,231=382,231.5=191,231.75=95.5,232=191,236=95.5,238=191,242=95.5,243=191;
#STOPS:83=0.052,83.166667=0.053,83.333333=0.052,83.5=0.052,83.666667=0.052,83.833333=0.053,87.5=0.157,199.5=0.157,243=0.052,243.166667=0.053,243.333333=0.052,243.5=0.052,243.666667=0.053,243.833333=0.052;
#TIMESIGNATURES:0=4=4,236=2=4,238=4=4,242=2=4,244=4=4;
#BGSTAGE:28;

//--------------- dance-single - Fred-104 ----------------
#NOTES:
     dance-single:
     Fred-104:
     Beginner:
     4:
     :
0000
0000
0000
0000
,
0000
0000
0000
0000
,
0000
0000
0000
0000
,
0000
0000
0000
0000
,
0000
0000
0000
0000
,
0000
0000
0000
0000
,
1000
0000
0000
0000
,
0001
0000
0000
0000
,
0100
0000
0000
0000
,
0001
0000
0000
0000
,
1000
0000
0000
0000
,
0000
0000
0000
0000
,
0001
0000
0000
0000
,
0000
0000
0000
0000
,
1000
0000
0000
0000
,
0001
0000
0000
0000
,
1000
0000
0001
0000
,
1000
0000
0000
0000
,
0000
0001
0000
0100
,
0000
0001
0000
1000
,
0000
0001
0000
0000
,
0000
1000
0001
1000
,
0000
0000
0001
0000
,
0100
0000
0001
0001
,
0001
0000
1000
0000
,
0001
0000
1000
1000
,
1000
0000
0001
0000
,
0100
0000
0100
0000
,
0010
0000
0100
0000
,
0001
0000
0000
1000
,
2000
0000
0000
0000
,
3000
0000
0000
0000
,
0002
0000
0000
0000
,
0003
0000
0000
0000
,
0200
0000
0000
0000
,
0300
0000
0000
0000
,
0020
0000
0000
0000
,
0030
0000
0000
0000
,
1000
0000
0000
0000
,
0010
0000
0000
0000
,
1000
0000
0000
0000
,
0100
0000
0000
0000
,
0010
0000
0010
0000
,
0001
0000
0001
0000
,
2000
0000
3002
0000
,
1003
0000
0001
0000
,
0000
1000
0001
0100
,
0100
0000
0001
1000
,
0001
0000
0010
0001
,
1000
0000
0001
1000
,
0000
0000
0001
0001
,
0100
0000
0010
0000
,
0100
0000
0001
1000
,
0001
0000
1000
0000
,
0010
0000
1000
1000
,
1000
0000
0010
0000
,
1000
0000
0001
0000
,
1000
1000
1000
0000
,
0001
0000
1000
0000
,
0200
0000
0310
0000
,
0001
0000
2000
0000
,
3001
0000
0100
0000
,
0010
0000
1000
0000
,
0001
0000
1000
0000
,
0001
0001
0001
0001
,
2002
0000
0000
0000
,
3003
0000
0000
0000
;

//--------------- dance-single - Fred-104 ----------------
#NOTES:
     dance-single:
     Fred-104:
     Easy:
     9:
     :
0000
0000
0000
0000
,
0000
0000
0000
0000
,
0000
0000
0000
0000
,
0000
0000
0000
0000
,
0000
0000
0000
0000
,
0000
0000
0000
0000
,
1000
0000
0001
0000
0000
0100
0010
0000
,
0100
0000
0001
0010
0000
0010
0001
0000
,
0100
0000
0001
0000
0000
1000
0100
0000
,
1000
0000
0010
0100
0000
0100
0001
0000
,
1000
0100
1000
0000
,
0001
0100
0001
0000
,
0100
0010
0100
0000
,
0001
1000
0001
0000
,
1000
1000
0100
0100
,
0010
0010
0001
0001
,
0100
0010
0100
0000
0001
1000
0001
0000
,
1000
0000
0000
0000
1000
0000
0000
0000
0001
0000
0000
0000
2002
0000
0000
3003
,
2000
0000
3001
0100
0001
1000
0100
0020
,
0031
2000
3010
0100
0010
1000
2002
3003
,
0001
0010
0100
1000
0001
1000
0020
0000
,
1030
0100
0001
0010
1000
0100
0010
0001
,
2000
0000
3010
1000
0100
0000
1000
0000
,
0001
0000
0000
0100
0000
0000
0001
0000
,
0020
0000
0230
1300
,
0001
0100
0001
0000
0110
0000
1001
0000
,
2000
0000
3010
1000
0100
0000
1000
0000
,
0001
0100
0020
0230
,
0301
0000
0010
0000
0001
1000
0001
0000
,
0100
0000
0000
0010
0000
0000
0100
0000
,
2002
0000
0000
0000
,
0000
0000
0000
0000
,
3003
0000
0000
0000
,
0000
0000
0000
0000
,
1000
1000
0010
0000
,
0100
0100
0001
0000
,
0010
0010
0100
0000
,
1000
0000
1000
0000
0010
0100
0010
0000
,
0100
0100
0001
0001
,
0010
0100
1000
0000
,
0001
0001
1000
1000
,
0001
0100
0010
0000
,
0100
0100
0010
0010
,
1000
1000
0001
0001
,
1000
0100
1000
0000
0001
0010
0001
0000
,
0100
0000
0000
0000
0100
0000
0000
0000
0100
0000
0000
0000
0220
0000
0000
0330
,
1001
0001
0100
0020
0130
0001
2002
3003
,
1000
0100
1000
0000
0001
0100
0010
0200
,
0301
0010
0011
0000
1000
0001
0200
0000
,
0301
0010
1000
0100
0001
0010
0100
1000
,
0001
0000
1000
0000
0010
1000
0100
0000
,
1000
0010
0100
0001
,
1000
0000
0100
0000
0010
0001
0010
0000
,
0001
0100
0010
0100
,
0001
0000
1000
0000
0001
0010
0001
0000
,
0100
0010
1000
0010
,
0100
0000
0001
0000
1000
0100
0010
0000
,
0001
0000
0000
0000
0000
0000
1000
0000
0000
0000
0000
0000
2002
0000
0000
3003
,
0001
0000
0100
0000
0010
1000
0100
0000
,
2000
3002
0103
0010
,
0100
0001
0010
0000
0002
0000
2003
0000
,
3001
0000
0010
0000
0100
0010
0100
0000
,
1000
0000
0010
0000
0100
0010
0100
0000
,
0001
0010
0001
0000
1000
0100
1000
0000
,
0100
0100
0100
0110
,
2002
0000
0000
0000
,
3003
0000
0000
0000
;

//--------------- dance-single - Fred-104 ----------------
#NOTES:
     dance-single:
     Fred-104:
     Medium:
     13:
     :
0000
0000
0000
0000
,
0000
0000
0000
0000
,
0000
0000
0000
0000
,
0000
0000
0000
0000
,
0000
0000
0000
0000
,
0000
0000
0000
0000
,
1000
0000
1001
0000
0000
0001
0100
0000
,
0010
0000
0100
0010
0000
1000
0001
0000
,
1000
0000
1010
0000
0000
0010
0100
0000
,
0001
0000
1000
0100
0000
0010
0001
0000
,
0100
0100
0100
0100
,
0010
0010
0010
0010
,
1000
1000
1000
1000
,
0001
0001
0001
0001
,
1000
0100
1000
0100
0010
0001
0100
0000
,
0001
0010
0001
0010
0001
1000
0010
0000
,
0100
0001
0100
0010
0100
0001
1000
0100
,
0010
0000
0010
0000
0001
1000
0002
0000
,
1003
0000
0000
0000
0020
0000
0000
0000
1030
0000
0000
0000
0100
0000
0000
0000
1000
0000
0000
1000
0000
0000
1000
0000
0001
0000
0100
0000
0001
0000
0000
0000
,
0200
0000
0000
0000
0320
0000
0000
0000
0130
0000
0001
0000
1000
0000
0000
0000
0001
0000
0000
0001
0000
0000
0001
0000
0100
0000
0010
0000
0200
0000
0000
0000
,
0302
0000
0000
0000
0023
0000
0000
0000
0130
0000
1000
0000
0100
0000
0000
0000
1000
0000
0000
1000
0000
0000
1000
0000
0002
0000
0000
0000
0203
0000
0000
0000
,
0310
1001
0100
1001
1100
0101
1010
0011
,
2001
0000
3100
0000
1000
0001
0010
0001
,
0100
0010
0100
0001
0000
1000
0002
0000
,
0013
0010
0010
0001
1000
1000
1000
0010
,
0100
0001
1000
0100
1100
0000
0101
0000
,
2001
0000
3001
0010
0100
0010
0002
0000
,
1003
0100
0010
0001
0200
0000
0320
0000
,
1030
0001
0010
0100
0001
1000
0010
0001
,
1000
0010
0100
1000
0100
0001
1001
0000
,
2100
0000
0000
0000
,
3020
0000
0230
0000
,
0302
0000
0000
0000
,
0023
0000
0230
1300
,
1001
0001
0100
0100
,
0010
0010
1000
1000
,
0100
0100
0010
0010
,
0001
0000
0001
0000
0100
0010
0100
0000
,
0001
0000
0001
0000
1000
0010
0100
0000
,
0001
0000
0001
0000
1000
0100
0010
0000
,
0100
0000
0100
0000
1000
0001
0010
0000
,
0001
0000
0001
0000
0100
0010
1000
0000
,
0001
0010
0001
1000
0001
0100
0010
0000
,
0100
0001
0010
0001
1000
0010
0100
0000
,
0001
0010
0100
1000
0001
0100
0010
1000
,
0100
0000
0000
0000
0100
0000
0000
0000
0010
0000
0100
0000
0220
0000
0000
0330
,
1002
0000
0000
0000
1003
0000
0100
0000
0010
0000
0001
0000
1000
0000
0001
0000
0100
0000
0000
0100
0000
0000
0100
0000
0001
0000
1000
0000
0020
0000
0000
0000
,
1030
0000
0000
0000
0100
0000
1000
0000
0010
0000
1000
0000
0000
0000
0001
0000
1000
0000
0000
0010
0000
0000
0100
0000
0001
0000
1000
0000
0002
0000
0000
0000
,
0203
0000
0000
0000
0301
0000
0010
0000
0100
0000
1000
0000
0001
0000
0100
0000
0010
0000
0000
1000
0000
0000
0100
0000
2000
0000
0000
0000
3002
0000
0000
0000
,
1003
0100
0010
0000
0001
0100
0010
0000
1100
0000
0101
0000
1010
0000
0011
0000
,
1000
0001
0010
0100
0001
1000
0010
0001
,
1000
0010
0100
1000
0100
0001
1000
0000
,
0001
1000
0010
0100
1000
0100
0001
1000
,
0001
0010
0100
0001
1000
0010
0001
0000
,
1000
0001
0100
1000
0001
0010
0100
0001
,
1000
0100
0001
0100
0010
0001
1000
0000
,
0001
1000
0100
0001
1000
0010
0100
1000
,
0001
0100
1000
0100
0010
1000
0002
0000
,
1003
0001
0100
0010
0001
0010
0100
0001
,
0200
0000
0320
0000
1030
0001
1000
0001
1000
0000
0001
0000
0010
0000
1000
0000
,
0010
0000
0000
0000
0100
0000
0000
0000
1000
0000
0000
0000
0100
0000
0000
0000
0010
0000
0000
0001
0000
0000
1000
0000
0002
0000
0000
0000
2003
0000
0000
0000
,
3001
0010
1000
0001
0100
1000
0001
0000
,
1000
0010
0001
1000
0100
0001
1000
0000
,
0001
0010
0100
1000
0010
0100
0001
1000
,
0100
0000
0100
0000
0100
0010
0110
0000
,
2002
0000
0000
0000
,
3003
0000
0000
0000
;

//--------------- dance-single - Fred-104 ----------------
#NOTES:
     dance-single:
     Fred-104:
     Hard:
     17:
     :
0000
0000
0000
0000
,
0000
0000
0000
0000
,
0000
0000
0000
0000
,
0000
0000
0000
0000
,
0000
0000
0000
0000
,
0000
0000
0000
0000
,
1000
0000
1100
0000
0000
0010
0100
0000
,
0001
0000
0010
0011
0000
0001
1001
0000
,
0001
0000
0101
0000
0000
1000
1010
0000
,
0110
0000
0100
0110
0000
0001
1001
0000
,
0001
0000
0010
0000
0001
1000
0010
0000
,
0100
0000
0001
0000
1000
0001
0010
0000
,
0100
0000
1000
0000
0010
1000
0001
0000
,
1000
0000
0100
0000
0010
0100
1000
0000
,
0010
0100
0010
0100
0001
0010
0001
0010
,
0100
1000
0100
1000
0001
0100
0001
0100
,
0001
0010
0001
0010
0001
0010
0001
0100
0010
1000
0010
1000
0010
1000
0010
1000
,
0100
0000
0000
0000
0100
0000
0000
0000
0100
0000
0010
0000
2002
0000
0000
3003
,
2100
0000
0000
0000
3020
0000
0030
0000
0110
0000
0100
0000
0001
1000
0001
1000
0001
0000
0000
0010
0000
0000
0010
0000
1000
0000
0100
0000
0020
0000
0000
0000
,
0032
0000
0000
0000
0103
0001
0100
0001
0100
0000
0001
0000
1000
0100
1000
0100
1000
0000
0000
0100
0000
0000
0100
0000
0001
0000
0010
0000
0200
0000
0000
0000
,
2300
0000
0000
0000
0000
0000
0000
0000
0000
0000
0000
0000
0000
0000
0000
0000
0000
0000
0000
0000
0000
0000
0000
0000
3001
0000
0000
0000
0000
0000
0000
0000
0000
0000
0000
0000
0100
0000
0000
0000
0000
0000
0000
0000
0000
0000
0000
0000
0020
0000
0000
0000
0000
0000
0000
0000
0000
0000
0000
0000
0230
0000
0000
0000
0000
0000
0000
0000
0000
0000
0000
0000
0301
0000
0000
0000
0000
0000
0100
0000
0000
0000
0000
0000
0001
0000
0000
0000
0000
0000
0100
0000
0000
0000
0000
0000
0010
0000
0000
0000
0000
0000
0000
0000
0000
0000
0000
0000
0000
0000
0000
0000
0000
0000
1000
0000
0000
0000
0000
0000
0000
0000
0000
0000
0000
0000
0000
0000
0000
0000
0000
0000
0100
0000
0000
0000
0000
0000
0000
0000
0000
0000
0000
0000
2000
0000
0000
3000
0000
0000
0000
0000
0200
0000
0000
0300
0000
0000
0000
0000
0020
0000
0000
0030
0000
0000
0000
0000
0002
0000
0000
0003
0000
0000
0000
0000
2000
0000
0000
3000
0000
0000
0000
0000
0002
0000
0000
0003
0000
0000
0000
0000
,
1000
0000
0000
0000
0100
0000
0000
0000
0110
0000
0000
0000
0000
0000
0000
0000
0001
0000
0000
0000
0100
0000
0000
0000
0110
0000
0000
0000
0000
0000
0000
0000
1100
0000
0000
0000
0000
0000
0000
0000
0101
0000
0000
0000
0000
0000
0000
0000
1000
0000
0000
0000
0001
0000
0000
0000
2002
3003
0000
0000
0000
0000
0000
0000
,
2010
0000
0000
0000
3010
0000
1000
0000
0100
0010
0100
0000
0010
0001
0010
0001
,
2000
3010
0200
2300
3100
0002
2003
0000
,
3001
1000
0010
1000
0010
0000
0100
0000
0001
0010
0001
0010
0100
1000
0100
1000
,
0001
0000
0100
0010
0200
0000
0302
0000
1003
0000
1010
0000
0001
0000
0101
0000
,
2001
0000
0000
0000
3010
0000
1000
0001
0010
0000
0100
1000
0010
1000
0010
1000
,
0200
0000
0000
0310
0000
0000
0001
0000
0000
0200
0000
0000
0310
0000
1000
0000
0010
0000
0100
0000
0001
0000
1000
0000
,
0002
0013
0001
1000
0002
0203
2300
3200
,
0301
0010
0001
0100
0010
0000
1000
0010
0100
0001
1000
0100
0010
0000
0000
0000
,
1002
0000
0000
0000
,
0203
0000
0320
0000
,
2030
0000
0000
0000
,
3200
0000
0320
0031
,
1000
0001
0010
0100
0001
1000
0010
0001
,
1000
0001
0100
1000
0100
0010
1000
0001
,
1000
0100
0001
1000
0010
0100
1000
0001
,
0100
0010
0001
0010
0100
0001
1001
0000
,
0001
0000
0010
0000
0001
0000
1000
0000
0001
0100
0000
0010
0000
1000
0100
0000
,
0010
0000
0001
0000
0100
0000
0010
0000
0100
0001
0000
1000
0000
0010
0100
0000
,
0010
0000
1000
0000
0100
0000
0010
0000
0001
0100
0000
0100
0000
1000
0001
0000
,
0010
0000
0100
0000
1000
0000
0010
0000
1000
0010
0000
0010
0000
0001
0010
0000
,
0100
1000
0010
1000
0100
0010
0001
1000
,
0001
0010
0001
1000
0010
0100
0010
1000
,
0100
1000
0100
1000
0100
1000
0100
0010
0001
0100
0001
0100
0001
0100
0001
1000
,
0001
0000
0100
0010
0100
0000
0001
1000
0001
0100
0010
0000
2002
0000
0000
3003
,
2100
0000
0000
0000
3010
0000
1000
0000
0001
0000
0010
0000
0001
0100
0010
0100
0001
0000
0000
0100
0000
0000
0100
0000
1000
0000
0100
0000
0010
0001
0010
0001
,
0020
0000
0000
0000
0031
1000
0001
1000
0001
0000
2000
0000
0000
0000
3010
0000
1000
0000
0000
0100
0000
0000
0100
0000
0001
0000
0100
0000
0020
0000
0000
0000
,
0230
0000
0000
0000
0000
0000
0000
0000
0000
0000
0000
0000
0301
0000
0000
0000
0000
0000
1000
0000
0000
0000
0000
0000
0100
0000
0000
0000
0000
0000
0010
0000
0000
0000
0000
0000
0100
0000
0000
1000
0000
0000
0100
0000
0000
1000
0000
0000
0001
0000
0000
0000
0000
0000
0000
0000
0000
0010
0000
0000
0000
0000
0000
0000
0000
0000
0010
0000
0000
0000
0000
0000
1000
0000
0000
0000
0100
0000
0000
0000
1000
0000
0000
0000
0001
0000
0000
0000
0010
0000
0000
0000
0100
0000
0000
0000
,
0010
0000
0000
0000
0001
0000
0000
0000
0101
0000
0000
0000
0000
0000
0000
0000
0010
0000
0000
0000
1000
0000
0000
0000
1100
0000
0000
0000
0000
0000
0000
0000
1010
0000
0000
0000
0000
0000
0000
0000
0011
0000
0000
0000
0000
0000
0000
0000
1000
0000
0000
0000
0001
0000
0000
0000
2002
3003
0000
0000
0000
0000
0000
0000
,
1000
0000
0001
0000
0010
0000
0001
0000
0100
0010
0000
1000
0000
0001
0010
0100
,
0010
0000
0001
0000
1000
0000
0001
0000
1000
0100
0000
0010
0000
0001
1000
0010
,
0100
0000
0010
0000
1000
0000
0100
0000
1000
0001
0000
0010
0000
0100
1000
0001
,
0100
0000
0010
0000
0100
0000
0001
0000
0010
0100
0000
1000
0000
0100
0010
0001
,
1000
0000
0010
0000
0100
0000
0001
0000
1000
0100
0000
1000
0000
0001
0010
0100
,
0010
0000
0001
0000
1000
0000
0001
0000
1000
0010
0000
0100
0000
0001
1000
0100
,
0010
0000
0001
0000
1000
0000
0001
0000
0010
0100
0000
0010
0000
0001
0100
0010
,
1000
0100
1000
0001
0100
0000
0001
0010
0100
1000
0010
0100
0002
0000
0000
0000
,
1003
0010
1000
0000
0001
0000
0010
0000
0100
1000
0000
0001
0000
0100
0010
1000
,
0002
0000
0000
0000
2003
0000
0000
0000
3100
0000
0010
0000
0001
1000
0001
1000
0001
0000
0000
0000
0100
0000
0001
0000
0010
0000
0000
0000
0100
0000
0000
0000
,
1000
0000
0000
0000
0000
0000
0000
0000
0000
0000
0000
0000
0010
0000
0000
0000
0000
0000
0000
0000
0000
0000
0000
0000
0000
0000
0000
0000
0000
0000
0000
0000
0000
0000
0000
0000
1000
0000
0000
0000
0000
0000
0000
0000
0000
0000
0000
0000
0000
0000
0000
0000
0000
0000
0000
0000
0000
0000
0000
0000
0001
0000
0000
0000
0000
0000
0000
0000
0000
0000
0000
0000
0010
0000
0000
0000
0000
0000
0000
0000
0000
0000
0000
0000
0100
0000
0000
0000
0000
0000
0000
0000
0000
0000
0000
0000
1000
0000
0000
0000
0000
0000
0000
0000
0000
0000
0000
0000
0000
0000
0000
0000
0000
0000
0010
0000
0000
0000
0000
0000
0000
0000
0000
0000
0000
0000
0000
0000
0000
0000
0000
0000
0010
0000
0000
0000
0000
0000
0000
0000
0000
0000
0000
0000
0002
0000
0000
0003
0000
0000
0000
0000
0020
0000
0000
0030
0000
0000
0000
0000
0200
0000
0000
0300
0000
0000
0000
0000
2000
0000
0000
3000
0000
0000
0000
0000
0200
0000
0000
0300
0000
0000
0000
0000
0020
0000
0000
0030
0000
0000
0000
0000
,
0001
0000
1000
0001
0010
0000
0001
0000
1000
0100
0000
0100
0000
0001
0100
0001
,
1000
0000
0001
0000
0010
0000
0100
0000
1000
0010
0000
0010
0000
0001
1000
0100
,
0010
0001
0010
0001
0010
0001
1000
0001
0100
0010
0100
0010
0100
0010
0100
0001
,
0100
0000
0100
0000
0100
0010
0110
0000
,
2002
0000
0000
0000
,
3003
0000
0000
0000
;

//--------------- dance-double - Fred-104 ----------------
#NOTES:
     dance-double:
     Fred-104:
     Easy:
     9:
     :
00000000
00000000
00000000
00000000
,
00000000
00000000
00000000
00000000
,
00000000
00000000
00000000
00000000
,
00000000
00000000
00000000
00000000
,
00000000
00000000
00000000
00000000
,
00000000
00000000
00000000
00000000
,
00001000
00000000
00100000
00000000
00000000
00010000
01000000
00000000
,
00001000
00000000
00010000
00000100
00000000
00000100
00001000
00000000
,
00000010
00000000
00000100
00000000
00000000
00000001
00000010
00000000
,
00000100
00000000
00000010
00000001
00000000
00000001
00001000
00000000
,
00000001
00000100
00001000
00000000
,
00010000
00100000
10000000
00000000
,
00010000
01000000
00100000
00000000
,
10000000
01000000
00100000
00000000
,
00010000
00010000
01000000
01000000
,
00001000
00001000
00010000
00010000
,
00000010
00001000
00000010
00000000
00001000
00000100
00001000
00000000
,
00000001
00000000
00000000
00000000
00000100
00000000
00000000
00000000
00001000
00000000
00000000
00000000
00022000
00000000
00000000
00033000
,
00002000
00000000
00013000
01000000
00100000
00010000
10000000
00200000
,
10300000
02000000
03100000
00010000
00100000
00001000
00022000
00033000
,
01000000
00001000
01000000
00001000
00010000
00000100
00020000
00000000
,
00030100
00001000
00000010
00000100
00000001
00000010
00001000
00010000
,
00002000
00000000
00103000
01000000
10000000
00000000
00010000
00000000
,
10000000
00000000
00000000
00100000
00000000
00000000
01000000
00000000
,
00020000
00000000
20030000
30100000
,
01000000
00001000
00010000
00000000
00011000
00000000
00010010
00000000
,
00020000
00000000
00031000
00000100
00000001
00000000
00001000
00000000
,
00000100
00000010
00000002
00002003
,
00003010
00000000
00010000
00000000
00001000
00010000
00001000
00000000
,
00100000
00000000
00000000
00001000
00000000
00000000
00010000
00000000
,
00022000
00000000
00000000
00000000
,
00000000
00000000
00000000
00000000
,
00033000
00000000
00000000
00000000
,
00000000
00000000
00000000
00000000
,
00001000
00010000
00100000
00000000
,
00010000
00001000
00000010
00000000
,
00001000
00010000
01000000
00000000
,
00010000
00001000
00000100
00001000
,
00010000
00001000
00010000
00001000
,
01000000
00010000
01000000
00000000
,
00010000
10000000
00010000
10000000
,
00100000
01000000
00010000
00000000
,
00100000
00001000
00010000
00001000
,
00000010
00000001
00001000
00000001
,
00000100
00000010
00000100
00000000
00000001
00001000
00000010
00000000
,
00010000
00000000
00000000
00000000
00010000
00000000
00000000
00000000
00001000
00000000
00000000
00000000
00022000
00000000
00000000
00033000
,
00011000
00001000
00100000
00020000
10030000
01000000
02200000
03300000
,
10000000
01000000
00010000
00000000
01000000
10000000
00010000
02000000
,
03001000
00010000
00011000
00000000
00010000
00001000
00000020
00000000
,
00000031
00001000
00000100
00000010
00000001
00000100
00001000
00010000
,
00001000
00000000
01000000
00000000
00100000
10000000
00010000
00000000
,
10000000
01000000
00100000
01000000
,
10000000
00000000
00100000
00000000
01000000
00010000
01000000
00000000
,
00001000
00010000
00100000
00010000
,
00001000
00000000
01000000
00000000
00001000
00010000
00001000
00000000
,
00100000
00001000
00010000
00000010
,
00001000
00000000
00000100
00000000
00001000
00000001
00000100
00000000
,
00000010
00000000
00000000
00000000
00000000
00000000
00000100
00000000
00000000
00000000
00000000
00000000
00002002
00000000
00000000
00003003
,
00000001
00000000
00001000
00000000
00000010
00010000
00001000
00000000
,
00020000
00032000
00103000
00010000
,
10000000
00100000
01000000
00000000
00020000
00000000
20030000
00000000
,
31000000
00000000
00100000
00000000
00001000
00010000
00001000
00000000
,
00000010
00000000
00000100
00000000
00001000
00000001
00001000
00000000
,
00000001
00000010
00001000
00000000
00010000
01000000
10000000
00000000
,
00010000
01000000
00001000
00011000
,
00000220
00000000
00000000
00000000
,
00000330
00000000
00000000
00000000
;

//--------------- dance-double - Fred-104 ----------------
#NOTES:
     dance-double:
     Fred-104:
     Medium:
     13:
     :
00000000
00000000
00000000
00000000
,
00000000
00000000
00000000
00000000
,
00000000
00000000
00000000
00000000
,
00000000
00000000
00000000
00000000
,
00000000
00000000
00000000
00000000
,
00000000
00000000
00000000
00000000
,
00001000
00000000
00011000
00000000
00000000
00001000
00100000
00000000
,
00010000
00000000
10000000
01000000
00000000
00100000
00010000
00000000
,
01000000
00000000
01100000
00000000
00000000
10000000
00100000
00000000
,
00010000
00000000
00001000
00010000
00000000
00000100
00000010
00000000
,
00000001
00000001
00000010
00000010
,
00001000
00001000
00010000
00010000
,
01000000
01000000
00100000
00100000
,
00010000
00010000
10000000
10000000
,
00100000
10000000
00100000
01000000
00001000
00010000
00001000
00000000
,
00100000
00001000
00010000
00001000
00000010
00000100
00001000
00000000
,
00000001
00000100
00000001
00000010
00000001
00001000
00000010
00000100
,
00000001
00000000
00000001
00000000
00001000
00000010
00002000
00000000
,
00003100
00000000
00000000
00000000
00020000
00000000
00000000
00000000
00031000
00000000
00000000
00000000
00010000
00000000
00000000
00000000
00000100
00000000
00000000
00010000
00000000
00000000
00001000
00000000
00100000
00000000
00010000
00000000
01000000
00000000
00000000
00000000
,
00020000
00000000
00000000
00000000
20030000
00000000
00000000
00000000
30100000
00000000
10000000
00000000
01000000
00000000
00000000
00000000
00100000
00000000
00000000
00001000
00000000
00000000
00010000
00000000
00001000
00000000
00000010
00000000
00000002
00000000
00000000
00000000
,
00000203
00000000
00000000
00000000
00000320
00000000
00000000
00000000
00001030
00000000
00000001
00000000
00000010
00000000
00000000
00000000
00000100
00000000
00000000
00010000
00000000
00000000
00010000
00000000
02000000
00000000
00000000
00000000
03200000
00000000
00000000
00000000
,
01300000
10010000
00001000
00011000
00101000
00010010
01001000
00010100
,
00021000
00000000
00030100
00000000
00010000
00001000
00000010
00000001
,
00001000
00000100
00000010
00000001
00000000
00000100
00000020
00000000
,
00000130
00000100
00000100
00000001
00000010
00000010
00000010
00000001
,
00000100
00001000
00010000
00001000
00011000
00000000
00110000
00000000
,
20100000
00000000
30010000
01000000
00100000
10000000
02000000
00000000
,
03100000
00001000
00010000
00001000
00000020
00000000
00000230
00000000
,
00001300
00000001
00000010
00000100
00001000
00000100
00000010
00000001
,
00000100
00001000
00010000
00100000
10000000
00010000
10010000
00000000
,
21000000
00000000
00000000
00000000
,
32000000
00000000
03200000
00000000
,
00302000
00000000
00000000
00000000
,
00023000
00000000
00032000
00013000
,
00011000
00010000
00000100
00000100
,
00000010
00000010
00000001
00000001
,
00000100
00000100
00001000
00001000
,
00010000
00000000
00010000
00000000
01000000
00100000
00010000
00000000
,
10000000
00000000
10000000
00000000
00100000
01000000
00100000
00000000
,
01000000
00000000
01000000
00000000
00001000
00010000
00001000
00000000
,
00100000
00000000
00100000
00000000
00001000
00010000
00001000
00000000
,
00010000
00000000
00010000
00000000
00000010
00001000
00000100
00000000
,
00001000
00000100
00000010
00000001
00001000
00000010
00000100
00000000
,
00000001
00000010
00001000
00010000
01000000
00100000
00010000
00000000
,
10000000
01000000
00100000
00001000
00010000
00001000
01000000
00001000
,
00010000
00000000
00000000
00000000
00010000
00000000
00000000
00000000
00001000
00000000
00010000
00000000
00022000
00000000
00000000
00033000
,
00021000
00000000
00000000
00000000
00030100
00000000
00001000
00000000
00000100
00000000
00000010
00000000
00000001
00000000
00000100
00000000
00000010
00000000
00000000
00010000
00000000
00000000
00010000
00000000
00100000
00000000
00010000
00000000
02000000
00000000
00000000
00000000
,
03010000
00000000
00000000
00000000
10000000
00000000
01000000
00000000
00100000
00000000
01000000
00000000
00000000
00000000
00010000
00000000
01000000
00000000
00000000
10000000
00000000
00000000
00010000
00000000
00100000
00000000
00001000
00000000
00020000
00000000
00000000
00000000
,
00032000
00000000
00000000
00000000
00003010
00000000
00000100
00000000
00001000
00000000
00000001
00000000
00000010
00000000
00000100
00000000
00001000
00000000
00000000
00000010
00000000
00000000
00010000
00000000
00002000
00000000
00000000
00000000
00023000
00000000
00000000
00000000
,
01030000
00100000
00010000
00000000
10000000
01000000
00100000
00000000
01100000
00000000
01001000
00000000
00010010
00000000
00011000
00000000
,
00010000
00001000
00000010
00000001
00001000
00000100
00000010
00000000
,
00000001
00000100
00001000
00010000
00100000
01000000
00010000
00000000
,
10000000
00010000
00100000
01000000
00100000
00001000
00010000
00000000
,
00001000
00000010
00000001
00001000
00000010
00000100
00000001
00000000
,
00000100
00000010
00000100
00001000
00010000
00100000
01000000
00000000
,
00010000
00100000
01000000
10000000
00010000
01000000
00100000
00000000
,
10000000
01000000
00010000
00001000
00000010
00000100
00001000
00000000
,
00000001
00000100
00001000
00000100
00000001
00000010
00000200
00000000
,
00000310
00000001
00000100
00001000
00010000
00100000
01000000
00010000
,
20000000
00000000
32000000
00000000
03100000
00001000
00100000
00001000
00010000
00000000
00001000
00000000
00000010
00000000
00000001
00000000
,
00001000
00000000
00000000
00000000
00000001
00000000
00000000
00000000
00000100
00000000
00000000
00000000
00001000
00000000
00000000
00000000
00010000
00000000
00000000
00001000
00000000
00000000
01000000
00000000
00200000
00000000
00000000
00000000
20300000
00000000
00000000
00000000
,
30010000
01000000
10000000
01000000
00010000
10000000
01000000
00000000
,
00100000
00001000
00010000
00001000
00000010
00000001
00001000
00000000
,
00000001
00000010
00000100
00010000
00001000
00100000
01000000
10000000
,
00010000
00000000
00010000
00000000
10000000
01000000
01100000
00000000
,
00022000
00000000
00000000
00000000
,
00033000
00000000
00000000
00000000
;

//--------------- dance-double - Fred-104 ----------------
#NOTES:
     dance-double:
     Fred-104:
     Hard:
     17:
     :
00000000
00000000
00000000
00000000
,
00000000
00000000
00000000
00000000
,
00000000
00000000
00000000
00000000
,
00000000
00000000
00000000
00000000
,
00000000
00000000
00000000
00000000
,
00000000
00000000
00000000
00000000
,
00001000
00100000
00010000
10000000
00100000
00010000
00001000
00010000
,
00000010
00000100
00000001
00001000
00000001
00000010
00000100
00000010
,
00001000
00010000
01000000
00100000
00010000
10000000
00100000
00010000
,
00001000
01000000
00001000
00010000
00001000
00000010
00000001
00000000
,
00001000
00000000
00000010
00000000
00000100
00000001
00000010
00000000
,
00000100
00000000
00010000
00000000
00001000
00010000
01000000
00000000
,
00100000
00000000
00010000
00000000
10000000
01000000
00100000
00000000
,
00001000
00000000
00010000
00000000
00000010
00001000
00000100
00000000
,
00001000
00000100
00000010
00000001
00000100
00000010
00000100
00001000
,
00010000
00100000
01000000
00010000
00100000
01000000
10000000
00010000
,
10000000
01000000
10000000
00000000
00010000
01000000
00010000
00000000
00100000
00001000
00100000
00000000
00001000
00010000
00001000
00000000
,
00010000
00000000
00000000
00000000
00010000
00000000
00000000
00000000
00010000
00000000
00001000
00000000
00022000
00000000
00000000
00033000
,
00021000
00000000
00000000
00000000
00030020
00000000
00000000
00000000
00001030
00000000
00000100
00000000
00001000
00000001
00001000
00000001
00001000
00000000
00000000
00000010
00000000
00000000
00000010
00000000
00000001
00000000
00000010
00000000
00000200
00000000
00000000
00000000
,
00020300
00000000
00000000
00000000
00031000
00010000
00001000
00010000
00001000
00000000
00100000
00000000
00010000
10000000
00010000
10000000
00010000
00000000
00000000
01000000
00000000
00000000
01000000
00000000
10000000
00000000
00100000
00000000
02000000
00000000
00000000
00000000
,
03020000
00000000
00000000
00000000
00000000
00000000
00000000
00000000
00000000
00000000
00000000
00000000
00000000
00000000
00000000
00000000
00000000
00000000
00000000
00000000
00000000
00000000
00000000
00000000
10030000
00000000
00000000
00000000
00000000
00000000
00000000
00000000
00000000
00000000
00000000
00000000
01000000
00000000
00000000
00000000
00000000
00000000
00000000
00000000
00000000
00000000
00000000
00000000
00200000
00000000
00000000
00000000
00000000
00000000
00000000
00000000
00000000
00000000
00000000
00000000
00320000
00000000
00000000
00000000
00000000
00000000
00000000
00000000
00000000
00000000
00000000
00000000
00130000
00000000
00000000
00000000
00000000
00000000
00001000
00000000
00000000
00000000
00000000
00000000
00010000
00000000
00000000
00000000
00000000
00000000
00001000
00000000
00000000
00000000
00000000
00000000
00010000
00000000
00000000
00000000
00000000
00000000
00000000
00000000
00000000
00000000
00000000
00000000
00000000
00000000
00000000
00000000
00000000
00000000
00001000
00000000
00000000
00000000
00000000
00000000
00000000
00000000
00000000
00000000
00000000
00000000
00000000
00000000
00000000
00000000
00000000
00000000
00000010
00000000
00000000
00000000
00000000
00000000
00000000
00000000
00000000
00000000
00000000
00000000
00000200
00000000
00000000
00000300
00000000
00000000
00000000
00000000
00002000
00000000
00000000
00003000
00000000
00000000
00000000
00000000
00000002
00000000
00000000
00000003
00000000
00000000
00000000
00000000
00000200
00000000
00000000
00000300
00000000
00000000
00000000
00000000
00002000
00000000
00000000
00003000
00000000
00000000
00000000
00000000
00020000
00000000
00000000
00030000
00000000
00000000
00000000
00000000
,
00001000
00000000
00000000
00000000
01000000
00000000
00000000
00000000
00100000
00000000
00000000
00000000
00000000
00000000
00000000
00000000
10000000
00000000
00000000
00000000
01000000
00000000
00000000
00000000
00100000
00000000
00000000
00000000
00000000
00000000
00000000
00000000
00001000
00000000
00000000
00000000
00001000
00000000
00000000
00000000
00010000
00000000
00000000
00000000
00010000
00000000
00000000
00000000
00001000
00000000
00000000
00000000
00010000
00000000
00000000
00000000
00022000
00033000
00000000
00000000
00000000
00000000
00000000
00000000
,
00001002
00000000
00000000
00000000
00001003
00000000
00000010
00000000
00000100
00000001
00000100
00000000
00000001
00000010
00000001
00000010
,
00000200
00000301
00000200
00002300
00003001
00000020
00000230
00000000
,
00010300
00001000
00010000
00001000
00010000
00000000
00000010
00000000
00001000
00000100
00010000
00000000
00001000
00100000
00010000
00000000
,
01000000
00000000
00010000
10000000
00020000
00000000
20030000
00000000
31000000
00000000
01100000
00000000
00001000
00000000
00011000
00000000
,
00020010
00000000
00000000
00000000
00031000
00000000
00010000
00000100
00001000
00000000
00000010
00001000
00000100
00001000
00000100
00001000
,
00000100
00000000
00000000
00000010
00000000
00000000
00000001
00000000
00000000
00000100
00000000
00000000
00001000
00000000
00010000
00000000
00100000
00000000
01000000
00000000
00010000
00000000
00100000
00000000
,
02000000
13000000
00010000
10000000
02000000
03020000
00032000
00023000
,
00030100
00000010
00000100
00000010
00000001
00000000
00001000
00000001
00000100
00000001
00000100
00000010
00000100
00000000
00000000
00000000
,
00001002
00000000
00000000
00000000
,
00002003
00000000
00003002
00000000
,
00000023
00000000
00000000
00000000
,
00002030
00000000
00023000
00031000
,
00010000
00001000
00000010
00000100
00010000
00001000
00100000
01000000
,
00010000
00001000
00000010
00000001
00001000
00000100
00000010
00000001
,
00000100
00000010
00000100
00001000
00010000
00100000
01000000
00010000
,
10000000
00100000
00010000
00001000
00000010
00000100
00001100
00000000
,
00000001
00000000
00000010
00000000
00000100
00000000
00000010
00000000
00000001
00001000
00000000
00000010
00000000
00001000
00000100
00000000
,
00000010
00000000
00000001
00000000
00000100
00000000
00001000
00000000
00010000
00001000
00000000
01000000
00000000
00100000
10000000
00000000
,
00010000
00000000
00100000
00000000
00010000
00000000
01000000
00000000
00001000
00010000
00000000
00000010
00000000
00001000
00000100
00000000
,
00010000
00000000
00001000
00000000
01000000
00000000
00010000
00000000
00100000
00001000
00000000
00010000
00000000
00000100
00001000
00000000
,
00000010
00001000
00000100
00010000
00000100
00001000
00000001
00000010
,
00001000
00010000
01000000
00100000
00010000
01000000
00001000
00010000
,
00001000
00100000
00001000
00100000
00001000
00100000
00010000
10000000
01000000
10000000
01000000
10000000
01000000
10000000
01000000
00100000
,
00010000
00000000
01000000
00010000
01000000
00000000
00001000
00010000
00001000
00010000
00001000
00000000
00022000
00000000
00000000
00033000
,
00102000
00000000
00000000
00000000
00013000
00000000
00001000
00000000
00100000
00000000
00010000
00000000
01000000
00100000
01000000
00100000
01000000
00000000
00000000
00010000
00000000
00000000
10000000
00000000
01000000
00000000
00100000
00000000
00001000
00010000
00001000
00010000
,
00002000
00000000
00000000
00000000
00013000
00000010
00010000
00000010
00010000
00000000
00002000
00000000
00000000
00000000
00013000
00000000
00000100
00000000
00000000
00001000
00000000
00000000
00000001
00000000
00000100
00000000
00000010
00000000
00000200
00000000
00000000
00000000
,
00000302
00000000
00000000
00000000
00000000
00000000
00000000
00000000
00000000
00000000
00000000
00000000
00001003
00000000
00000000
00000000
00000000
00000000
00000001
00000000
00000000
00000000
00000000
00000000
00000100
00000000
00000000
00000000
00000000
00000000
00000010
00000000
00000000
00000000
00000000
00000000
00001000
00000000
00000000
00000100
00000000
00000000
00001000
00000000
00000000
00000100
00000000
00000000
00001000
00000000
00000000
00000000
00000000
00000000
00000000
00000000
00000000
00000010
00000000
00000000
00000000
00000000
00000000
00000000
00000000
00000000
00010000
00000000
00000000
00000000
00000000
00000000
00001000
00000000
00000000
00000000
00010000
00000000
00000000
00000000
00100000
00000000
00000000
00000000
10000000
00000000
00000000
00000000
00010000
00000000
00000000
00000000
10000000
00000000
00000000
00000000
,
01000000
00000000
00000000
00000000
00100000
00000000
00000000
00000000
00110000
00000000
00000000
00000000
00000000
00000000
00000000
00000000
01000000
00000000
00000000
00000000
00100000
00000000
00000000
00000000
10100000
00000000
00000000
00000000
00000000
00000000
00000000
00000000
10000000
00000000
00000000
00000000
01000000
00000000
00000000
00000000
00010000
00000000
00000000
00000000
00001000
00000000
00000000
00000000
00000010
00000000
00000000
00000000
00000001
00000000
00000000
00000000
00002002
00003003
00000000
00000000
00000000
00000000
00000000
00000000
,
00000001
00000000
00001000
00000000
00000010
00000000
00000100
00000000
00000001
00000010
00000000
00000100
00000000
00000010
00000001
00001000
,
00000010
00000000
00010000
00000000
00001000
00000000
00010000
00000000
00000010
00010000
00000000
00001000
00000000
00100000
00010000
01000000
,
00001000
00000000
00010000
00000000
00001000
00000000
00100000
00000000
00010000
01000000
00000000
00001000
00000000
00010000
00001000
00000010
,
00000100
00000000
00001000
00000000
00000001
00000000
00000010
00000000
00000100
00000010
00000000
00001000
00000000
00010000
01000000
00100000
,
00010000
00000000
10000000
00000000
00010000
00000000
01000000
00000000
00100000
10000000
00000000
01000000
00000000
00100000
01000000
00010000
,
00001000
00000000
00000010
00000000
00000100
00000000
00001000
00000000
00000010
00000100
00000000
00000001
00000000
00000010
00000100
00000010
,
00000001
00000000
00001000
00000000
00000100
00000000
00010000
00000000
00000010
00001000
00000000
00000010
00000000
00010000
00001000
00100000
,
00001000
00010000
00001000
00100000
00010000
00000000
01000000
00100000
10000000
00010000
00100000
01000000
00200000
00000000
00000000
00000000
,
00310000
10000000
00010000
00000000
00100000
00000000
01000000
00000000
00010000
00001000
00000000
00001000
00000000
00000100
00001000
00000001
,
00000200
00000000
00000000
00000000
00002300
00000000
00000000
00000000
00013000
00000000
00010000
00000000
00001000
00010000
00001000
00010000
00001000
00000000
00000000
00000000
00100000
00000000
00000000
00000000
01000000
00000000
00000000
00000000
10000000
00000000
00000000
00000000
,
00010000
00000000
00000000
00000000
00000000
00000000
10000000
00000000
00000000
00000000
00000000
00000000
00000000
00000000
00000000
00000000
00000000
00000000
10000000
00000000
00000000
00000000
00000000
00000000
00000000
00000000
00000000
00000000
00000000
00000000
01000000
00000000
00000000
00000000
00000000
00000000
00100000
00000000
00000000
00000000
00000000
00000000
00001000
00000000
00000000
00000000
00000000
00000000
00010000
00000000
00000000
00000000
00000000
00000000
00000000
00000000
00000000
00010000
00000000
00000000
00000000
00000000
00000000
00000000
00000000
00000000
00010000
00000000
00000000
00000000
00000000
00000000
00000100
00000000
00000000
00000000
00010000
00000000
00000000
00000000
00001000
00000000
00000000
00000000
00010000
00000000
00000000
00000000
01000000
00000000
00000000
00000000
00100000
00000000
00000000
00000000
,
00010000
00000000
10000000
00000000
00100000
00000000
10000000
00000000
00010000
01000000
00000000
00001000
00000000
00010000
00001000
00100000
,
00010000
00000000
01000000
00000000
00001000
00000000
00010000
00000000
00000010
00001000
00000000
00000100
00000000
00010000
00000100
00001000
,
00000010
00001000
00000010
00001000
00000010
00001000
00000010
00001000
00000001
00000100
00000001
00000100
00000001
00000100
00000001
00001000
,
00000100
00000000
00000100
00000000
00010000
00001000
00011000
00000000
,
02200000
00000000
00000000
00000000
,
03300000
00000000
00000000
00000000
;
