#VERSION:0.83;
#TITLE:Ganymede kamome mix;
#ARTIST:kamome sano;
#TITLETRANSLIT:Ganymede (kamome mix);
#BANNER:Ganymede kamome mix.png;
#BACKGROUND:Ganymede kamome mix-bg.png;
#CDTITLE:./CDTitles/SDVX BOOTH.png;
#MUSIC:Ganymede kamome mix.ogg;
#SAMPLESTART:79.02;
#SAMPLELENGTH:15;
#BPMS:0=200,60=100,60.5=150.25,61.25=250,62.5=300,64=400,67.75=196.721,68=100,84=200,116=400,187=200,238=400,303=100,308=400,496=100;
#STOPS:67.75=0.562,238=0.05,238.333333=0.05,238.666667=0.05,307.875=0.6,438.666667=0.15,441.666667=0.15,452.666667=0.15,455.666667=0.15;
#TIMESIGNATURES:0=4=4,184=3=4,193=5=4,198=3=4,207=4=4,303=5=4,308=4=4,436=3=4,442=4=4,450=3=4,456=4=4;
#BGSTAGE:28;

//--------------- dance-single - Fred-104 ----------------
#NOTEDATA:;
#STEPSTYPE:dance-single;
#DESCRIPTION:Fred-104;
#DIFFICULTY:Beginner;
#METER:7;
#CREDIT:Fred-104;
#NOTES:
0000
0000
0000
0000
,
0000
0000
0000
0000
,
0000
0000
0000
0000
,
0000
0000
0000
0000
,
0000
0000
0000
0000
,
2000
3000
0000
0000
0000
0000
0000
0000
,
0000
0000
0000
0000
,
0002
0003
0000
0000
0000
0000
0000
0000
,
0000
0000
0000
0000
,
2000
3000
0000
0000
0000
0000
0000
0000
,
0002
0003
0000
0000
0000
0000
0000
0000
,
2000
3000
0000
0000
0002
0003
0000
0000
,
2000
3000
0000
0000
0002
0003
0000
0000
,
1000
0000
1000
0000
,
0001
0001
0001
0001
,
0001
0000
0000
0000
,
0000
0000
0000
0000
,
0000
2000
3002
2003
,
3002
0000
0203
0320
,
0230
0000
0302
0000
,
2003
0000
0002
3003
,
1000
0000
0200
0000
,
0320
0000
0032
0000
,
2003
0000
0000
0000
,
3002
0000
2003
0000
,
3002
0000
0000
0000
,
0203
0000
0000
0000
,
0320
0000
0000
0000
,
0200
0000
0000
0330
,
0001
0000
0001
0000
,
0001
0000
0000
0000
,
1000
0000
1000
0000
,
1000
0000
0000
0000
,
0001
0000
0001
0000
,
0001
0000
0000
0000
,
1000
0000
1000
0000
,
1000
0000
0000
0000
,
0001
0000
1000
0000
,
1001
0000
0000
0000
,
1000
0000
0001
0000
,
1001
0000
0000
0000
,
0001
0000
1000
0000
,
1001
0000
0000
0000
,
1000
0000
0001
0000
,
1001
0000
0000
0000
,
1001
0000
0000
0000
,
0000
0000
0000
0001
,
0000
0000
1000
0000
,
0000
2002
0000
0000
,
0000
3003
1000
0000
,
0000
0001
0000
0000
,
1000
1000
1000
2002
,
0000
0000
0000
0000
,
0000
0000
3003
2002
,
0000
0000
0000
0000
,
0000
0000
3003
0001
,
0000
1000
0000
0001
,
0000
1000
0000
0100
,
0000
0010
0000
0001
,
0001
1001
0000
1000
,
0000
0000
0000
1000
,
0000
0000
0000
0100
,
0000
0000
0000
0100
,
0000
0000
0000
0010
,
0000
0000
0000
0010
,
0000
0000
0000
0001
,
0000
0000
0000
0001
,
0000
0000
0000
1000
,
0000
0000
0000
0001
,
0000
0000
0000
1000
,
0000
0000
0000
0001
,
0000
0000
0000
0100
,
0000
0000
0000
0010
,
0000
0000
0000
0100
,
0000
0000
0000
0010
,
0000
0000
0000
0220
,
0000
0000
0000
0330
,
0001
0000
0000
0000
,
0001
0000
0000
0000
,
0010
0000
0000
0000
,
0010
0000
0000
0000
,
0100
0000
0000
0000
,
0100
0000
0000
0000
,
1000
0000
0000
0000
,
1000
0000
0000
0000
,
0001
0000
0000
0000
,
0001
0000
0000
0000
,
1000
0000
0000
0000
,
1000
0000
0000
0000
,
0010
0000
0000
0000
,
0010
0000
0000
0000
,
0100
0000
0000
0000
,
0100
0000
0000
0000
,
0001
0000
0000
0000
,
0001
0000
0000
0000
,
0010
0000
0000
0000
,
0010
0000
0000
0000
,
0100
0000
0000
0000
,
0100
0000
0000
0000
,
1000
0000
0000
0000
,
1000
0000
0000
0000
,
0001
0000
0000
0000
,
1000
0000
0000
0000
,
0001
0000
0000
0000
,
0100
0000
0000
0000
,
0001
0000
0000
0000
,
1000
0000
0000
0000
,
0001
0000
0000
0000
,
0010
0000
0000
0000
,
0002
0000
0003
2000
,
0000
3000
0002
0000
,
0000
0003
2000
0000
,
0000
3000
0002
0000
,
0003
2000
0000
3000
,
0002
0000
0000
0003
,
2000
0000
0000
3000
,
0100
0000
0100
0000
,
0010
0000
0000
0000
,
0001
0000
1000
0000
,
0001
0000
0000
0000
,
1000
0000
0000
0000
,
0001
0000
0000
0000
,
1000
0000
1000
0000
,
1000
0000
1000
0000
,
2000
0000
0000
3000
,
0200
0000
0000
0300
,
0020
0000
0000
0030
,
0002
0000
0000
0000
0000
0000
0000
0000
0000
0000
0000
0000
0000
0000
0000
0003
;

//--------------- dance-single - Fred-104 ----------------
#NOTEDATA:;
#STEPSTYPE:dance-single;
#DESCRIPTION:Fred-104;
#DIFFICULTY:Easy;
#METER:10;
#CREDIT:Fred-104;
#NOTES:
0000
0000
0000
0000
,
0000
0000
0000
0000
,
0000
0000
0000
0000
,
0000
0000
0000
0000
,
0000
0000
0000
0000
,
0002
0003
0000
0000
0000
0000
0000
0000
,
0000
0000
0000
0000
,
2000
3000
0000
0000
0000
0000
0000
0000
,
0000
0000
0000
0000
,
0020
0030
0000
0000
0000
0000
0000
0000
,
0200
0300
0000
0000
0000
0000
0000
0000
,
0002
0003
0000
0000
0020
0030
0000
0000
,
2000
3000
0000
0000
0200
0300
0000
0000
,
0001
0000
1000
0000
,
0100
0100
0100
0100
,
0220
0000
0000
0000
,
0000
0000
0000
0000
0000
0000
0000
0000
0000
0000
0000
0000
0000
0000
0000
0330
,
0000
0002
0023
0230
,
2300
0000
3002
0203
,
0320
0000
2030
0000
,
3002
0000
2000
3003
,
2000
0000
3200
0000
,
0320
0000
0032
0000
,
2003
0000
0000
0000
,
3002
0000
0203
0000
,
0320
0000
0000
0000
,
0230
0000
0000
0000
,
0302
0000
0000
0000
,
2000
0000
0000
3003
,
1000
0000
1000
0000
,
0100
0000
0100
0000
,
0010
0000
0010
0000
,
0001
0000
0001
0000
,
1000
0000
1000
0000
,
0001
0000
0001
0000
,
0100
0000
0100
0000
,
0010
0000
0010
0000
,
1000
0000
0100
0000
,
0110
0000
0000
0000
,
0001
0000
0100
0000
,
0110
0000
0000
0000
,
1000
0000
0001
0000
,
1001
0000
0000
0000
,
0001
0000
1000
0000
,
1001
0000
0000
0000
,
0110
0000
0000
0000
,
0000
0000
0000
2000
,
0000
3000
0002
0000
,
0003
2002
0000
0000
,
0000
0000
3003
0000
0001
0010
0001
0000
,
1000
0010
1000
0000
0001
0000
0100
0000
,
0010
0100
0010
0220
,
0000
0000
0000
0000
,
0000
0000
0330
2002
,
0000
0000
0000
0000
,
0000
0000
3003
1000
,
1000
0100
0100
0001
,
0001
1000
1000
0010
,
0010
0001
0001
1000
,
0001
1000
1001
1000
,
0000
1000
0000
0100
,
0000
0100
0000
0010
,
0000
0010
0000
0001
,
0000
0001
0000
1000
,
0000
0001
0000
0100
,
0000
0010
0000
0100
,
0000
0001
0000
0010
,
0000
0100
0000
1000
,
0000
1000
0000
0001
,
0000
0001
0000
0100
,
0000
0100
0000
0010
,
0000
0010
0000
0100
,
0000
0001
0000
0010
,
0000
0001
0000
0100
,
0000
0010
0000
1000
,
0000
0100
0000
0220
,
0000
0000
0030
0300
,
1000
0000
0100
0000
,
1000
0000
1000
0000
,
0001
0000
0100
0000
,
0010
1000
0010
0000
,
0100
0000
0100
0000
,
0001
0000
1000
0000
,
0100
0000
0010
0000
,
0001
0010
0001
0000
,
1000
0000
1000
0000
,
0001
0000
0100
0000
,
0010
0000
1000
0000
,
0001
1000
0001
0000
,
0010
0000
0100
0000
,
1000
0000
0001
0000
,
0100
0010
0100
0000
,
0010
1000
0010
0000
,
1000
0000
0100
0000
,
0010
0000
0001
0000
,
0100
0000
0010
0000
,
1000
0001
0010
0000
,
0100
0000
1000
0000
,
0010
0000
0100
0000
,
0010
0000
1000
0000
,
0001
1000
0100
0000
,
0010
0000
0001
0000
,
0100
0000
0010
0000
,
0100
0000
0001
0000
,
0010
0100
1000
0000
,
0001
0000
0100
0000
,
0010
0000
1000
0000
,
0001
0010
0001
0000
,
1000
0010
1000
0000
,
0002
0000
0003
2000
,
0000
3000
0001
0000
,
0100
0000
1000
0000
,
0010
0000
0002
0000
,
0003
2000
0000
3000
,
0001
0000
0010
0000
,
1000
0000
0100
0000
,
0001
0100
0001
0000
,
1000
0100
1000
0000
,
0001
0010
0001
0000
,
1000
0001
1000
0000
,
0100
0010
0100
0010
,
0001
0010
0001
1000
,
1001
0000
0110
0000
,
1010
0000
0101
0000
,
2000
3200
0320
0032
,
2003
3020
0230
0302
,
2003
3200
0320
0032
,
0203
0000
0000
0000
0320
0000
0000
0000
2030
0000
0000
0000
3002
0000
0000
0003
;

//--------------- dance-single - Fred-104 ----------------
#NOTEDATA:;
#STEPSTYPE:dance-single;
#DESCRIPTION:Fred-104;
#DIFFICULTY:Medium;
#METER:14;
#CREDIT:Fred-104;
#NOTES:
0000
0000
0000
0000
,
0000
0000
0000
0000
,
0000
0000
0000
0000
,
0000
0000
0000
0000
,
0000
0000
0000
0000
,
0001
0001
0000
0000
0000
0000
0000
0000
,
0000
0000
0000
0000
,
1000
1000
0000
0000
0000
0000
0000
0000
,
0000
0000
0000
0000
,
0001
0001
0000
0000
0000
0000
0000
0000
,
1000
1000
0000
0000
0000
0000
0000
0000
,
0001
0001
0000
0000
0100
0100
0000
0000
,
1000
1000
0000
0000
0010
0010
0000
0000
,
0001
0100
0010
1000
,
0001
0010
0100
1000
0001
0100
0010
1000
,
0002
0000
0000
0000
,
0000
0000
0000
0000
0000
0000
0000
0000
0000
0000
0000
0000
0000
0000
0000
0003
,
0002
0023
0230
2300
,
3002
0000
2003
3020
,
0032
0000
0023
0000
,
0230
0000
0002
0303
,
2000
0000
3200
0000
,
0320
0000
0032
0000
,
2003
0000
0000
0000
,
3002
0000
2003
0000
,
3020
0000
0000
0000
,
0230
0000
0000
0000
,
0302
0000
0000
0000
,
2000
0000
0000
3003
,
1000
0100
1000
0100
,
0010
0001
0010
0000
,
0001
0100
0001
0100
,
0010
1000
0010
0000
,
1000
0001
1000
0001
,
0010
0100
1000
0000
,
0001
1000
0001
1000
,
0010
0100
0001
0000
,
1000
0100
0010
0001
,
1000
0000
1001
0000
,
0001
0100
0010
1000
,
0001
0001
0001
0000
,
0010
0100
1000
0000
,
0010
0100
0001
0000
,
1000
0100
0010
0001
,
1000
0010
0100
0001
,
0100
0000
0010
0000
,
0110
0000
0000
1001
,
1000
0100
0110
0010
,
0001
2002
0000
0000
,
0000
0000
3003
0000
1000
0100
1000
0000
,
0001
0100
0010
0000
1000
0001
0010
0000
,
0100
1000
0001
2002
,
0000
0000
0000
0000
,
0000
0000
3003
0220
,
0000
0000
0000
0000
,
0000
0000
0330
1000
,
1000
0100
0100
0010
,
0010
0000
0000
0001
0000
0000
0001
0000
0000
1000
0000
1000
,
0001
0000
0001
0100
0000
0100
0010
0000
0010
1000
0000
1000
,
0001
0000
0001
0010
0000
0010
0200
0000
0000
1300
0000
0000
,
0000
1100
0000
0001
,
0000
0101
0000
1000
,
0000
1000
0000
0100
0000
0000
0000
0000
0000
0010
0000
0000
,
0000
0010
0000
0001
0000
0000
0000
0000
0000
0001
0000
0000
,
0000
0011
0000
1000
,
0000
1010
0000
0001
,
0000
0001
0000
0100
0000
0000
0000
0100
0000
0010
0000
0000
,
0000
0010
0000
1000
0000
0000
0000
1000
0000
0001
0000
0000
,
0000
0110
0000
1000
,
0000
0110
0000
0001
,
0000
0001
0000
1000
0000
0000
0000
1000
0000
0100
0000
0000
,
0000
0100
0000
0010
0000
0000
0000
0010
0000
0002
0000
0000
,
0000
2003
0000
3002
,
0000
0203
0000
0310
,
0000
0010
0000
1000
0000
0000
0000
1000
0000
0001
0000
0000
,
0000
0001
0000
0010
0000
0000
0000
0020
0000
0200
0000
0000
,
0000
0000
0030
0300
,
1000
0100
1000
0100
,
0010
0100
1000
0000
,
0001
0100
0001
0100
,
0010
1000
0001
0000
,
0010
0100
0010
0100
,
1000
0001
1000
0000
,
0100
0000
0010
0000
,
0001
0000
1000
0000
,
0001
0100
0001
1000
,
0001
0010
0001
0000
,
1000
0100
1000
0001
,
0100
0010
1000
0000
,
0001
0000
0010
0000
,
0100
0000
1000
0000
,
0001
0000
0000
0000
0001
0000
1000
0000
0000
0000
1000
0000
,
0010
0000
0000
0000
0010
0000
0100
0000
0000
0000
0100
0000
,
0001
0000
1001
0000
,
1000
0100
0010
0000
,
0001
0000
0101
0000
,
0001
1000
0010
0000
,
0100
0000
0101
0000
,
1000
0100
0010
0000
,
0001
0010
1000
0000
,
0001
0100
1000
0000
,
0001
0000
0101
0000
,
1000
0000
1100
0000
,
0001
0000
0011
0000
,
1000
0000
1010
0000
,
0001
0000
0000
0000
0001
0000
0010
0000
0000
0000
0010
0000
,
0100
0000
0000
0000
0100
0000
1000
0000
0000
0000
1000
0000
,
0001
0000
0000
0000
0001
0000
0100
0000
0000
0000
0100
0000
,
0010
0000
0000
0000
1000
0000
0001
0000
0000
0000
0000
0000
,
1000
0000
0100
0000
1000
0000
0002
0000
0003
0001
0000
0100
,
0000
0001
0000
2000
0000
3000
1000
0000
0000
0000
0000
0000
,
0100
0000
0001
0000
,
0010
0000
0000
0000
0000
0000
1000
0000
0010
0000
1000
0000
,
0002
0000
0003
0001
0000
0010
0000
0001
0000
2000
0000
3000
,
1000
0000
0010
0000
,
0001
0000
0100
0000
,
1000
0000
0001
0000
,
0100
0010
0100
0000
,
0001
0000
0000
0000
0001
0000
1000
0000
0000
0000
1000
0000
,
0100
0000
0000
0000
0100
0000
0010
0000
0000
0000
0010
0000
,
0001
1000
0001
0000
,
0100
0010
0100
0000
,
0101
0000
1010
0000
,
0011
0000
1100
0000
,
1002
2003
3002
2003
3200
0320
0230
0320
,
0032
2003
3020
0230
0302
2003
3200
0320
,
0032
2003
3200
0302
0203
2300
3002
0203
,
2300
0000
3200
0000
0302
0000
2003
0000
3200
0000
0320
0000
0032
0000
2003
3000
;

//--------------- dance-single - Fred-104 ----------------
#NOTEDATA:;
#STEPSTYPE:dance-single;
#DESCRIPTION:Fred-104;
#DIFFICULTY:Hard;
#METER:17;
#CREDIT:Fred-104;
#NOTES:
0000
0000
0000
0000
,
0000
0000
0000
0000
,
0000
0000
0000
0000
,
0000
0000
0000
0000
,
0000
0000
0000
0000
,
0101
0101
0000
0000
0000
0000
0000
0000
,
0000
0000
0000
0000
,
1001
1001
0000
0000
0000
0000
0000
0000
,
0000
0000
0000
0000
,
1010
1010
0000
0000
0000
0000
0000
0000
,
0011
0011
0000
0000
0000
0000
0000
0000
,
1100
1100
0000
0000
0101
0101
0000
0000
,
0110
0110
0000
0000
1001
1001
0000
0000
,
1000
0100
1000
0100
0010
0001
0010
0001
,
1000
0010
1000
0000
0001
0100
0001
0000
1000
0100
1000
0000
0001
0010
0001
0000
,
2002
0000
0000
0000
,
0000
0000
0000
0000
0000
0000
0000
0000
0000
0000
0000
0000
0000
0000
0000
3003
,
2000
3200
0320
0032
,
2003
0000
3002
0203
,
2300
0000
3020
0000
,
0032
0000
0000
0000
2000
0000
0000
3003
,
0002
0100
2003
0010
,
3200
1000
0320
0100
,
0032
0100
1000
0013
,
0200
0010
2300
0001
,
3001
0100
1000
0000
0001
0010
2000
3000
,
0001
0010
1000
0010
0002
0203
2300
3200
,
0301
0010
0000
0010
0100
0000
1000
0000
0001
0000
0100
0000
0010
0000
1000
0000
,
0001
0000
0010
0001
0010
0000
0011
0000
0000
0000
0100
0000
1100
0000
0000
0000
,
0001
0000
1000
0010
1000
0000
0001
0010
,
0001
0000
1000
0010
1000
0000
0001
0000
,
1000
0000
0001
0100
0001
0000
1000
0100
,
1000
0000
0001
0100
0001
0000
1000
0000
,
0100
0000
1000
0001
1000
0000
0010
1000
,
0010
0000
1000
0001
1000
0000
0001
0000
,
0010
0000
0100
0010
0100
0000
1000
0000
,
0001
1000
0001
1000
0001
0000
0000
0000
,
0010
0000
0100
1000
0100
0000
1000
0000
,
0001
0100
0001
0100
0000
0100
0001
0000
,
1000
0000
0001
0010
0001
0000
1000
0000
,
0010
0100
0010
0100
0010
0000
0000
0000
,
1000
0000
1000
0000
0001
0010
0000
0010
,
0001
0010
0000
0010
0001
0000
1000
0000
,
0010
0100
0001
0100
0010
0100
0000
0100
,
0001
0000
1000
0000
0100
0010
0100
0010
,
0001
1000
0001
1001
,
0000
1000
0000
0001
0000
0100
0000
0010
0000
1000
0000
0000
,
0001
0100
1000
0100
0001
0000
1000
0100
,
0010
0001
2002
0000
0000
0000
0000
0000
,
0000
0000
0000
0000
3003
0000
0000
0000
1000
0100
0010
0000
0001
0000
1000
0000
,
0010
0000
0100
0001
1000
0000
0001
0000
0010
0000
0100
0000
1000
0000
0001
0100
,
0010
1000
0001
0010
0100
0010
0100
2000
0000
3001
0000
0001
,
0010
0000
0010
0100
0000
0100
1000
0000
1000
0001
0000
0001
,
0100
0000
0100
0010
0000
0010
1000
0000
1000
0001
0000
0001
,
0100
0000
0100
1000
0000
1000
0001
0000
0001
0010
0000
0010
,
1000
0000
1000
0001
0000
0001
1000
0000
1000
0001
0010
0100
,
1000
0000
1000
0001
0100
0010
1000
0000
1000
0001
1000
0100
,
0010
0000
0010
0001
1000
0010
0100
0000
0100
0001
0000
0001
,
0100
0000
0100
0010
0000
0010
1000
0000
1000
0001
1000
0100
,
0010
0001
0010
0100
1000
0001
2000
0000
0000
3001
0000
0010
,
0000
0100
0000
1000
0000
0000
0000
0001
0000
1000
0000
0010
,
0000
0100
0000
0001
0000
0000
0000
1000
0000
0001
0000
0010
,
0000
0100
0000
0010
0000
0000
0000
0001
0000
1000
0000
0010
,
0000
0100
0000
0010
0000
0000
0000
1000
0000
0001
0000
1000
,
0000
0100
0000
1000
0000
0000
0000
0001
0000
1000
0000
0010
,
0000
1000
0000
0001
0000
0000
0000
1000
0000
0100
0000
0000
,
0000
0100
0000
0010
0000
0000
0000
0010
0000
0001
0000
1000
,
0000
0010
0000
0100
0000
0001
0000
1000
0000
0001
0000
0010
,
0000
0100
0000
1000
0000
0000
0000
1000
0000
0001
0000
0100
,
0000
0010
0000
1000
0000
0010
0000
0100
0000
0001
0000
0000
,
0000
0001
0000
1000
0000
0000
0000
1000
0000
0100
0000
0010
,
0000
0001
0000
0100
0000
0010
0000
1000
0000
0001
0000
0010
,
0000
0100
0000
0010
0000
0100
0000
1000
0000
0001
0000
0100
,
0000
0010
0000
0100
0000
0010
0000
1000
0000
0001
0000
0010
,
0000
0100
0000
1000
0000
0010
0000
0100
0000
0001
0000
0100
,
0000
0010
0000
1000
0000
0100
0000
0010
0000
0002
0000
0000
,
0000
0000
0000
0000
0000
0000
0000
0000
0000
0000
0000
0000
0000
0000
0000
0000
2003
0000
0000
0000
0000
0000
0000
0000
3002
0000
0000
0000
0000
0000
0000
0003
,
1000
0001
0100
0010
,
1000
0000
0001
0000
0010
0000
0100
0000
1000
0000
0010
0000
,
0100
0001
1000
0100
,
0010
0000
0001
0000
1000
0000
0001
0000
0100
0000
0010
0000
,
0100
0001
1000
0001
,
0010
0000
0100
0000
1000
0000
0001
0000
0100
0000
0010
0000
,
1000
0000
0000
0000
1000
0000
0001
0000
0000
0000
0001
0000
,
1000
0000
0001
0000
0100
0000
0001
0000
0010
0000
0100
0000
,
1000
0000
0001
0000
1000
0000
0010
0000
0000
0000
0010
0000
,
0100
0000
0001
0000
1000
0000
0001
0000
0000
0000
0001
0000
,
0010
0000
0000
0000
0010
0000
0100
0000
0000
0000
0100
0000
,
1000
0000
0001
0000
0100
0000
0010
0000
1000
0000
0100
0000
,
0010
0000
0001
0000
0010
0000
0100
0000
1000
0000
0001
0000
,
1000
0000
0010
0000
1000
0000
0001
0000
0100
0000
0010
0000
,
1000
0000
0001
0000
0010
0000
0100
0000
1000
0000
0010
0000
,
0100
0000
0001
0000
1000
0000
0100
0000
0010
0000
0001
0000
,
1000
0000
0001
0000
0100
0000
0010
0000
1000
0000
0001
0000
,
0010
0000
0100
0000
1000
0000
0010
0000
0100
0000
0001
0000
,
0010
0000
0100
0000
1000
0000
0100
0000
0010
0000
0001
0000
,
1000
0000
0001
0000
0100
0000
0001
0000
0010
0000
0100
0000
,
1000
0000
0001
0000
0100
0000
0010
0000
1000
0000
0100
0000
,
0010
0000
0001
0000
0100
0000
0010
0000
1000
0000
0100
0000
,
0010
0000
0001
0000
1000
0000
0001
0000
0100
0000
0010
0000
,
1000
0000
0010
0000
0100
0000
0001
0000
0000
0000
0000
0000
,
1000
0000
0100
0000
0010
0000
0100
0000
1000
0000
0001
0000
,
1000
0000
0010
0000
0100
0000
0010
0000
1000
0000
0001
0000
,
1000
0000
0100
0000
0010
0000
0100
0000
0010
0000
0001
0000
,
1000
0000
0010
0000
0100
0000
0010
0000
0100
0000
0001
0000
,
1000
0000
0100
0000
1000
0000
0010
0000
0100
0000
0001
0000
,
0010
0000
0100
0000
1000
0000
0001
0000
0100
0000
0010
0000
,
1000
0000
0001
0000
0010
0000
0100
0000
0010
0000
0001
0000
,
0010
0001
1000
0100
1000
0001
0100
0001
,
1000
0000
0100
0000
0010
0000
0001
0000
2000
3001
0000
0100
,
0000
0010
0000
1000
0000
0002
1003
0000
0100
0000
1000
0000
,
0001
0000
0100
0000
0001
0000
0010
0000
0100
0000
0010
0000
,
0001
0000
0000
0000
0000
0000
1000
0000
0001
0000
0010
0000
,
0100
0000
2000
3001
0000
1000
0000
0010
0000
0100
0000
0002
,
1003
0000
0001
0000
0010
0000
0100
0000
1000
0000
0010
0000
,
0100
0000
0001
0000
0100
0000
0001
0000
0100
0000
0001
0000
,
1000
0000
0001
0000
0010
0000
0100
0000
1000
0000
0001
0000
,
0100
0010
1000
0000
0001
0010
0100
0000
,
1000
0000
0010
0000
0100
0000
0001
0000
0100
0000
0010
0000
,
1000
0000
0001
0000
0010
0000
0100
0000
1000
0000
0001
0000
,
1000
0100
1000
0100
0010
0000
0001
0000
,
1000
0010
0100
0001
0010
0001
1000
0000
,
1100
0000
0101
0000
,
0011
0000
1010
0000
,
0002
0023
0230
2300
3002
0203
0320
2030
,
3002
0203
2300
3200
0302
0023
2030
3020
,
0032
0203
2300
3020
0032
0023
2030
3200
,
0302
0000
2003
0000
3200
0000
0302
0000
2003
0000
3020
0000
0032
0000
2003
3000
;

//--------------- dance-single - Fred-104† ----------------
#NOTEDATA:;
#STEPSTYPE:dance-single;
#DESCRIPTION:Fred-104†;
#DIFFICULTY:Challenge;
#METER:18;
#CREDIT:Fred-104;
#NOTES:
0000
0000
0000
0000
,
0000
0000
0000
0000
,
0000
0000
0000
0000
,
0000
0000
0000
0000
,
0000
0000
0000
0000
,
0110
0110
0000
0000
0000
0000
0000
0000
,
0000
0000
0000
0000
,
1100
1100
0000
0000
0000
0000
0000
0000
,
0000
0000
0000
0000
,
1010
1010
0000
0000
0000
0000
0000
0000
,
0011
0011
0000
0000
0000
0000
0000
0000
,
0101
0101
0000
0000
1100
1100
0000
0000
,
0110
0110
0000
0000
1001
1001
0000
0000
,
0001
0010
0100
1000
0001
0100
0010
1000
,
0001
0010
0001
0010
0001
0010
0001
0010
0100
1000
0100
1000
0100
1000
0100
1000
,
0002
0000
0000
0000
,
0000
0000
0000
0000
0000
0000
0000
0000
0000
0000
0000
0000
0000
0000
0000
0003
,
0002
0023
2030
3200
,
0302
0000
2003
3020
,
0032
0000
2003
0000
,
3200
0000
0002
0303
,
1000
0000
0100
0000
1000
0000
0001
0100
0001
0100
0001
0000
1000
0000
0100
0010
,
0100
0000
0010
0000
0001
0000
1000
0010
1000
0010
1000
0000
0001
0000
0010
0100
,
0010
0000
0001
0000
1000
0000
0001
0010
0001
0010
0001
0000
1000
0000
0010
0100
,
0010
0000
1000
0001
1000
0000
0001
0000
0010
0000
0100
0000
1000
0000
0001
0000
,
0100
0000
0010
1000
0010
0000
0100
0000
0001
1000
0001
0000
0010
0000
0100
0000
,
1000
0000
0001
0000
0100
0000
0001
1000
0100
0010
0001
0000
1000
0010
2000
0000
,
3001
0010
0100
1000
0001
0000
0100
0000
0010
0000
0010
0000
0100
0000
0100
0000
,
0001
0000
1000
0100
0010
0000
0011
0000
0000
0000
1100
0000
0101
0000
0000
0000
,
1000
0100
1000
0001
0200
0000
0001
1300
,
0200
0000
1000
0301
0100
0000
0010
0000
,
1000
0010
1000
0001
0020
0000
0001
1030
,
0020
0000
1000
0031
0010
0000
0100
0000
,
0010
0001
1000
0001
0200
0000
0001
1300
,
0200
0000
1000
0301
0100
0000
0001
0000
,
1000
0100
0010
0001
1000
0000
0010
0100
,
0001
0100
0001
1000
0001
0000
0000
0000
,
1000
0001
0100
0001
1000
0000
0001
0010
,
0100
1000
0001
0100
0010
0100
0001
0000
,
0010
0100
0010
0001
1000
0000
0001
1000
,
0001
0100
0001
0100
0001
0000
1000
0000
,
0001
1000
0010
0100
0001
1000
0000
1000
,
0100
0010
0000
0010
0001
1000
0001
1000
,
0001
0010
0100
1000
0001
0010
0000
0100
,
1000
0000
0001
0000
0100
0010
1000
0001
,
0010
0000
0100
0000
1100
0000
1000
0001
,
1000
0000
0000
0000
0000
0000
0001
0000
0000
0000
1000
0000
0000
0000
0001
0000
0000
0000
1000
0000
0000
0100
0000
0000
,
0001
1000
0010
0001
1000
0010
0001
1000
,
0100
0001
2002
0000
0000
0000
0000
0000
,
0000
0000
0000
0000
0000
0000
3003
0000
0000
0000
0000
0000
1000
0100
1000
0100
0000
0000
0010
0000
0000
0100
0000
0000
,
1000
0000
0000
0001
1000
0001
1000
0000
0000
0001
0000
0000
0010
0000
0000
0100
0000
0000
1000
0000
0000
0001
0100
0001
,
0100
0010
1000
0001
0010
0100
1000
0001
0000
2001
0000
0000
,
0000
0000
0000
0000
,
0000
0000
0000
0002
,
0000
0000
0000
0000
,
0000
0000
0000
0000
0000
0000
3003
0000
0000
1001
0000
0001
,
0011
0000
1000
1010
0000
0001
0101
0000
1000
1100
0000
0100
,
0110
0000
0010
0011
0000
0001
0101
0000
0100
0110
0000
0010
,
1010
0000
1000
1100
0000
1000
1001
0000
0001
1001
1000
0100
,
1000
0001
0100
0010
1000
0001
0020
0230
0320
0130
0000
1000
,
0000
0001
0000
0100
0000
0010
0000
1000
0000
0001
0000
0010
,
0000
0100
0000
1000
0000
0001
0000
0100
0000
0001
0000
1000
,
0000
0100
0000
0010
0000
0001
0000
1000
0000
0001
0000
0010
,
0000
0100
0000
1000
0000
0001
0000
0100
0000
0001
0000
1000
,
0000
0100
0000
0010
0000
0001
0000
1000
0000
0010
0000
1000
,
0000
0001
0000
0010
0000
0100
0000
1000
0000
0001
0000
1000
,
0000
0010
0000
0100
0000
1000
0000
0100
0000
0010
0000
0100
,
0000
0001
0000
1000
0000
0100
0000
1000
0000
0001
0000
0100
,
0000
1000
0000
0100
0000
0010
0000
0100
0000
0001
0000
1000
,
0000
0010
0000
0001
0000
0010
0000
0100
0000
0001
0000
1000
,
0000
0100
0000
0001
0000
0100
0000
1000
0000
0001
0000
0010
,
0000
1000
0000
0010
0000
0100
0000
0010
0000
0001
0000
0000
,
0000
0001
0000
1000
0000
0000
0000
1000
0000
0010
0000
0000
,
0000
0010
0000
1000
0000
0000
0000
1000
0000
0001
0000
0010
,
0000
0001
0000
1000
0000
0010
0000
0100
0000
0001
0000
0100
,
0000
0010
0000
1000
0000
0001
0000
0010
0000
2002
0000
0000
,
0000
0000
3000
0003
,
1000
0100
0010
0001
0010
0100
1000
0000
,
0001
1000
0010
1000
0001
0010
0100
0000
,
1000
0000
0001
1000
0100
0000
1000
0001
,
0100
0001
1000
0100
0010
0001
1000
0000
,
0001
0000
1000
0001
0010
0000
0100
0010
,
0001
1000
0010
0000
0100
0010
1000
0000
,
0001
0010
0100
0000
1000
0100
0010
0000
,
0001
0000
1000
0000
0100
0000
1000
0000
0010
0000
0100
0000
,
0001
0000
1000
0000
0100
0000
0010
0001
,
1000
0010
0100
0000
0001
0010
0100
0000
,
1000
0001
1000
0100
1000
0000
0010
0100
,
0001
0100
0010
0100
0001
1000
0100
0000
,
1000
0001
0100
1000
,
0001
0010
0100
0001
,
1000
0000
0100
0000
0010
0000
0001
0000
0100
0000
0010
0000
,
1000
0000
0000
0000
0001
0000
0000
0000
0010
0000
0000
0000
0100
0000
0000
1000
0000
0000
0100
0000
0000
1000
0000
0000
,
0001
0000
1000
0000
0010
0000
0001
0000
0010
0000
0100
0000
,
0010
1000
0010
0000
0100
0001
1000
0000
,
0100
0000
0010
0000
0001
0000
1000
0010
,
0100
0001
1000
0100
0010
0001
0010
0000
,
0001
0000
1000
0000
0010
0000
1000
0000
0001
0000
0100
0000
,
0001
0000
1000
0000
0100
0000
1000
0000
0001
0000
0010
0000
,
0100
0000
1000
0000
0001
0000
0100
0000
0010
0000
1000
0000
,
0001
0010
0100
0010
0100
1000
0001
0000
,
0100
0001
1000
0001
0010
0100
1000
0000
,
0001
0100
0001
1000
0100
0010
0001
0000
,
1000
0010
1000
0001
0100
0010
1000
0000
,
0001
0000
0010
0000
0100
0000
1000
0000
0001
0000
1000
0000
,
0001
0000
0100
0000
1000
0000
0100
0000
0010
0000
1000
0000
,
0100
0000
0010
0000
1000
0000
0010
0000
0001
0000
1000
0000
,
0010
0000
0001
0000
0010
0000
0100
0000
0001
0000
1000
0000
,
0100
1000
0001
0100
0001
1000
0100
0010
,
0001
0000
0000
0000
0000
0000
0000
0000
0000
0000
0000
0000
0000
0000
0000
0000
0000
0000
0000
0000
0000
0000
0000
0000
0000
0000
0000
0000
0000
0000
0000
0000
0010
0000
0000
0000
0000
0000
0000
0000
0000
0000
0000
0000
0000
0000
0000
0000
0000
0000
0000
0000
0000
0000
0000
0000
0000
0000
0000
0000
0000
0000
0000
0000
0100
0000
0000
0000
0000
0000
0000
0000
0000
0000
0000
0000
0000
0000
0000
0000
0000
0000
0000
0000
0000
0000
0000
0000
0000
0000
0000
0000
0000
0000
0000
0000
1000
0000
0000
0000
0000
0000
0000
0000
0000
0000
0000
0000
0000
0000
0000
0000
0000
0000
0000
0000
0000
0000
0000
0000
0000
0000
0000
0000
0000
0000
0000
0000
2200
3300
0000
0000
0000
0000
0000
0000
0000
0000
0000
0000
0000
0000
0000
0000
1000
0000
0000
0000
0000
0000
0000
0000
0000
0000
0000
0000
0000
0000
0000
0000
0000
0000
0000
0000
0000
0000
0000
0000
0000
0000
0000
0000
0000
0000
0000
0000
0010
0000
0000
0000
0000
0000
0000
0000
0000
0000
0000
0000
0000
0000
0000
0000
,
0000
0000
0000
0000
0000
0000
0000
0000
0000
0000
0000
0000
0000
0000
0000
0000
0100
0000
0000
0000
0000
0000
0000
0000
0000
0000
0000
0000
0000
0000
0000
0000
0000
0000
0000
0000
0000
0000
0000
0000
0000
0000
0000
0000
0000
0000
0000
0000
0001
0000
0000
0000
0000
0000
0000
0000
0000
0000
0000
0000
0000
0000
0000
0000
0000
0000
0000
0000
0000
0000
0000
0000
0000
0000
0000
0000
0000
0000
0000
0000
0202
0303
0000
0000
0000
0000
0000
0000
0000
0000
0000
0000
0000
0000
0000
0000
0001
0000
0000
0000
0000
0000
0000
0000
0000
0000
0000
0000
0000
0000
0000
0000
0000
0000
0000
0000
0000
0000
0000
0000
0000
0000
0000
0000
0000
0000
0000
0000
0010
0000
0000
0000
0000
0000
0000
0000
0000
0000
0000
0000
0000
0000
0000
0000
0000
0000
0000
0000
0000
0000
0000
0000
0000
0000
0000
0000
0000
0000
0000
0000
0100
0000
0000
0000
0000
0000
0000
0000
0000
0000
0000
0000
0000
0000
0000
0000
0000
0000
0000
0000
0000
0000
0000
0000
0000
0000
0000
0000
0000
0000
0000
0000
,
1000
0000
0001
0000
0100
0000
0010
0000
1000
0000
0001
0000
,
0010
0000
0001
0000
1000
0000
0001
0000
0100
0000
0010
0000
,
1000
0000
0000
0000
0000
0000
0000
0000
0000
0000
0000
0000
0000
0000
0000
0000
0000
0000
0000
0000
0000
0000
0000
0000
0000
0000
0000
0000
0000
0000
0000
0000
2020
3030
0000
0000
0000
0000
0000
0000
0000
0000
0000
0000
0000
0000
0000
0000
1000
0000
0000
0000
0000
0000
0000
0000
0000
0000
0000
0000
0000
0000
0000
0000
0000
0000
0000
0000
0000
0000
0000
0000
0000
0000
0000
0000
0000
0000
0000
0000
0100
0000
0000
0000
0000
0000
0000
0000
0000
0000
0000
0000
0000
0000
0000
0000
0000
0000
0000
0000
0000
0000
0000
0000
0000
0000
0000
0000
0000
0000
0000
0000
0010
0000
0000
0000
0000
0000
0000
0000
0000
0000
0000
0000
0000
0000
0000
0000
0000
0000
0000
0000
0000
0000
0000
0000
0000
0000
0000
0000
0000
0000
0000
0000
0001
0000
0000
0000
0000
0000
0000
0000
0000
0000
0000
0000
0000
0000
0000
0000
0000
0000
0000
0000
0000
0000
0000
0000
0000
0000
0000
0000
0000
0000
0000
0000
0022
0033
0000
0000
0000
0000
0000
0000
0000
0000
0000
0000
0000
0000
0000
0000
,
1000
0000
0100
0000
0010
0000
1000
0000
0010
0000
0001
0000
,
1000
0000
0010
0000
0001
0000
0010
0000
0100
0000
0001
0000
,
1000
0000
0100
0000
1000
0000
0001
0000
0100
0000
0010
0000
,
1000
0001
0010
0001
1000
0010
1000
0001
,
1000
0000
0001
0000
0100
0000
0010
0000
0100
0000
0001
0000
,
1000
0000
0100
0000
0010
0000
0001
0000
1000
0000
0001
0000
,
0100
0010
1000
0010
0100
0001
1000
0100
,
0010
0001
1000
0010
0100
0010
1000
0001
,
1000
0000
0100
0000
0001
0000
1000
0000
0010
0000
0001
0000
,
1000
0000
0010
0000
0001
0000
1000
0000
0100
0000
0010
0000
,
2000
3200
0302
0023
2030
3200
0302
0023
,
2030
3020
0032
0203
2300
3020
0032
0203
,
2300
3002
0203
0320
2030
3002
0023
0230
,
2300
0000
3200
0000
0320
0000
0032
0000
2003
0000
3020
0000
0230
0000
0302
0003
;

//--------------- dance-double - Fred-104 ----------------
#NOTEDATA:;
#STEPSTYPE:dance-double;
#DESCRIPTION:Fred-104;
#DIFFICULTY:Easy;
#METER:10;
#CREDIT:Fred-104;
#NOTES:
00000000
00000000
00000000
00000000
,
00000000
00000000
00000000
00000000
,
00000000
00000000
00000000
00000000
,
00000000
00000000
00000000
00000000
,
00000000
00000000
00000000
00000000
,
00002000
00003000
00000000
00000000
00000000
00000000
00000000
00000000
,
00000000
00000000
00000000
00000000
,
00020000
00030000
00000000
00000000
00000000
00000000
00000000
00000000
,
00000000
00000000
00000000
00000000
,
00002000
00003000
00000000
00000000
00000000
00000000
00000000
00000000
,
02000000
03000000
00000000
00000000
00000000
00000000
00000000
00000000
,
00020000
00030000
00000000
00000000
20000000
30000000
00000000
00000000
,
02000000
03000000
00000000
00000000
00200000
00300000
00000000
00000000
,
00001000
00000000
00010000
00000000
,
00001000
00000100
00000001
00000010
,
00000220
00000000
00000000
00000000
,
00000000
00000000
00000000
00000000
00000000
00000000
00000000
00000000
00000000
00000000
00000000
00000000
00000000
00000000
00000000
00000330
,
00000000
00020000
00032000
02003000
,
03002000
00000000
00023000
00032000
,
00203000
00000000
00320000
00000000
,
20030000
00000000
00020000
30030000
,
20000000
00000000
32000000
00000000
,
03020000
00000000
00032000
00000000
,
00003020
00000000
00000000
00000000
,
00000032
00000000
00002003
00000000
,
00003020
00000000
00000000
00000000
,
00020030
00000000
00000000
00000000
,
00032000
00000000
00000000
00000000
,
00020000
00000000
00000000
00033000
,
00001000
00000000
00001000
00000000
,
00010000
00000000
00010000
00000000
,
00100000
00000000
00100000
00000000
,
10000000
00000000
10000000
00000000
,
00010000
00000000
10000000
00000000
,
01000000
00000000
00100000
00000000
,
00001000
00000000
00010000
00000000
,
00001000
00000000
00000100
00000000
,
00000001
00000000
00000010
00000000
,
00000110
00000000
00000000
00000000
,
00010000
00000000
00001000
00000000
,
00011000
00000000
00000000
00000000
,
01000000
00000000
00100000
00000000
,
01100000
00000000
00000000
00000000
,
00010000
00000000
10000000
00000000
,
10010000
00000000
00000000
00000000
,
01100000
00000000
00000000
00000000
,
00000000
00000000
00000000
20000000
,
00000000
30000000
02000000
00000000
,
03000000
00022000
00000000
00000000
,
00000000
00000000
00033000
00000000
00010000
00001000
00010000
00000000
,
00000100
00001000
00000001
00000000
00000100
00001000
00010000
00000000
,
00100000
10000000
01000000
02200000
,
00000000
00000000
00000000
00000000
,
00000000
00000000
03300000
00022000
,
00000000
00000000
00000000
00000000
,
00000000
00000000
00033000
00010000
,
00010000
00001000
00001000
00000100
,
00000100
00000001
00000001
00000010
,
00001000
00010000
01000000
10000000
,
00100000
00010000
00001000
00011000
,
00000000
00010000
00000000
00001000
,
00000000
00001000
00000000
00000100
,
00000000
00000001
00000000
00000010
,
00000000
00000100
00000000
00010000
,
00000000
00010000
00000000
00001000
,
00000000
00001000
00000000
01000000
,
00000000
00010000
00000000
00100000
,
00000000
00001000
00000000
00010000
,
00000000
00010000
00000000
00001000
,
00000000
00001000
00000000
00100000
,
00000000
00010000
00000000
01000000
,
00000000
00100000
00000000
10000000
,
00000000
01000000
00000000
00100000
,
00000000
00001000
00000000
00010000
,
00000000
00000100
00000000
00000010
,
00000000
00000001
00000000
00002002
,
00000000
00000000
00000003
00003000
,
00000001
00000000
00000100
00000000
,
00001000
00000000
00010000
00000000
,
00001000
00000000
01000000
00000000
,
00010000
00100000
00010000
00000000
,
00100000
00000000
01000000
00000000
,
10000000
00000000
00100000
00000000
,
00010000
00000000
00001000
00000000
,
00010000
00000010
00001000
00000000
,
00000100
00000000
00000010
00000000
,
00000001
00000000
00001000
00000000
,
00000010
00000000
00010000
00000000
,
00001000
01000000
00001000
00000000
,
00010000
00000000
00001000
00000000
,
00000100
00000000
00000010
00000000
,
00001000
00000100
00001000
00000000
,
00000100
00000010
00000001
00000000
,
00001000
00000000
00000010
00000000
,
00000100
00000000
00001000
00000000
,
00010000
00000000
00001000
00000000
,
01000000
00001000
00010000
00000000
,
00001000
00000000
00100000
00000000
,
00010000
00000000
10000000
00000000
,
00100000
00000000
01000000
00000000
,
00100000
00010000
00001000
00000000
,
00010000
00000000
00001000
00000000
,
00000100
00000001
00000010
00000000
,
00000100
00000000
00010000
00000000
,
00001000
01000000
00001000
00000000
,
00010000
00000000
00010000
00000000
,
00001000
00000000
00001000
00000000
,
00010000
00100000
10000000
00000000
,
00010000
00100000
01000000
00000000
,
20000000
00000000
30000000
00020000
,
00000000
00030000
10000000
00000000
,
01000000
00000000
00010000
00000000
,
00001000
00000000
00020000
00000000
,
00030000
00002000
00000000
00003000
,
00010000
00000000
00001000
00000000
,
00000100
00000000
00000001
00000000
,
00000010
00000100
00000010
00000000
,
00000100
00010000
00001000
00000000
,
01000000
00000000
00001000
00000000
,
00010000
00000000
00000100
00000000
,
00010000
00001000
00010000
00001000
,
00100000
00001000
00100000
00001000
,
00011000
00000000
00010010
00000000
,
00011000
00000000
00101000
00000000
,
00020000
00032000
00003200
00000320
,
00002030
00003002
00000023
00000230
,
00020300
00032000
00203000
00320000
,
20030000
00000000
00000000
00000000
30200000
00000000
00000000
00000000
02300000
00000000
00000000
00000000
03020000
00000000
00000000
00030000
;

//--------------- dance-double - Fred-104 ----------------
#NOTEDATA:;
#STEPSTYPE:dance-double;
#DESCRIPTION:Fred-104;
#DIFFICULTY:Medium;
#METER:14;
#CREDIT:Fred-104;
#NOTES:
00000000
00000000
00000000
00000000
,
00000000
00000000
00000000
00000000
,
00000000
00000000
00000000
00000000
,
00000000
00000000
00000000
00000000
,
00000000
00000000
00000000
00000000
,
00010000
00010000
00000000
00000000
00000000
00000000
00000000
00000000
,
00000000
00000000
00000000
00000000
,
00001000
00001000
00000000
00000000
00000000
00000000
00000000
00000000
,
00000000
00000000
00000000
00000000
,
01000000
01000000
00000000
00000000
00000000
00000000
00000000
00000000
,
00000010
00000010
00000000
00000000
00000000
00000000
00000000
00000000
,
00001000
00001000
00000000
00000000
00000001
00000001
00000000
00000000
,
00000100
00000100
00000000
00000000
00001000
00001000
00000000
00000000
,
00010000
00100000
10000000
01000000
,
00010000
00001000
00000100
00000010
00000001
00000010
00001000
00000001
,
00002000
00000000
00000000
00000000
,
00000000
00000000
00000000
00000000
00000000
00000000
00000000
00000000
00000000
00000000
00000000
00000000
00000000
00000000
00000000
00003000
,
00000002
00000023
00002030
00023000
,
00032000
00000000
02003000
03002000
,
00023000
00000000
00230000
00000000
,
20300000
00000000
02000000
33000000
,
20000000
00000000
32000000
00000000
,
03200000
00000000
00302000
00000000
,
00023000
00000000
00000000
00000000
,
00032000
00000000
00003200
00000000
,
00000302
00000000
00000000
00000000
,
00000023
00000000
00000000
00000000
,
00000230
00000000
00000000
00000000
,
00020000
00000000
00000000
00030300
,
00010000
00001000
00000010
00001000
,
00010000
00001000
00010000
00000000
,
00001000
00010000
00100000
00010000
,
00001000
00010000
00001000
00000000
,
00010000
00001000
00000100
00001000
,
00010000
00001000
00010000
00000000
,
00001000
00010000
01000000
00010000
,
00001000
00010000
00001000
00000000
,
00010000
00001000
00000100
00000001
,
00000010
00000000
00000110
00000000
,
00001000
00000001
00000100
00001000
,
00010000
00001000
00010000
00000000
,
00001000
00010000
00100000
00000000
,
01000000
00010000
10000000
00000000
,
00010000
00100000
01000000
00100000
,
00001000
00010000
00000010
00001000
,
00000100
00000000
00000010
00001000
,
00010000
00000000
00000000
00011000
,
00000000
00000000
00000110
00000000
,
00000000
00002002
00000000
00000000
,
00000000
00000000
00003003
00000000
00000001
00000100
00001000
00000000
,
00010000
01000000
10000000
00000000
00010000
00000000
01000000
00000000
,
00100000
00010000
00001000
00022000
,
00000000
00000000
00000000
00000000
,
00000000
00000000
00033000
00000220
,
00000000
00000000
00000000
00000000
,
00000000
00000000
00000330
00000001
,
00000001
00000010
00000010
00001000
,
00001000
00000000
00000000
00010000
00000000
00000000
00010000
00000000
00000000
00001000
00000000
00001000
,
01000000
00000000
01000000
00010000
00000000
00010000
10000000
00000000
10000000
01000000
00000000
01000000
,
00100000
00000000
00100000
00001000
00000000
00001000
00020000
00000000
00000000
00031000
00000000
00000000
,
00000000
00101000
00000000
00010000
,
00000000
00010010
00000000
00001000
,
00000000
00001000
00000000
00010000
00000000
00000000
00000000
00000000
00000000
00010000
00000000
00000000
,
00000000
00010000
00000000
00001000
00000000
00000000
00000000
00000000
00000000
00010000
00000000
00000000
,
00000000
00010100
00000000
00001000
,
00000000
01001000
00000000
00010000
,
00000000
00010000
00000000
00001000
00000000
00000000
00000000
00001000
00000000
00010000
00000000
00000000
,
00000000
00010000
00000000
00001000
00000000
00000000
00000000
00001000
00000000
00010000
00000000
00000000
,
00000000
01000000
00000000
10000000
,
00000000
10000000
00000000
00100000
00000000
00000000
00000000
00000000
00000000
00010000
00000000
00000000
,
00000000
00001000
00000000
00000100
,
00000000
00000100
00000000
00000001
00000000
00000000
00000000
00000000
00000000
00000020
00000000
00000000
,
00000000
00000230
00000000
00020300
,
00000000
00032000
00000000
00013000
,
00000000
00010000
00000000
00100000
00000000
00000000
00000000
00100000
00000000
10000000
00000000
00000000
,
00000000
10000000
00000000
00010000
00000000
00000000
00000000
00020000
00000000
20000000
00000000
00000000
,
00000000
00000000
00030000
30000000
,
00001000
00000000
00010000
00000000
,
00001000
00000000
00000100
00000000
,
00000001
00000000
00001000
00000000
,
00000100
00000010
00000001
00000000
,
00000100
00000000
00001000
00000000
,
00010000
00000000
00001000
00000000
,
01000000
00000000
00010000
00000000
,
00100000
00001000
00010000
00000000
,
00001000
00000000
00000100
00000000
,
00000010
00000000
00001000
00000000
,
00000100
00000000
00000010
00000001
,
00000100
00000000
00001000
00000000
,
00010000
00000000
00100000
00000000
,
10000000
00010000
00100000
00000000
,
01000000
00000000
00000000
00000000
01000000
00000000
10000000
00000000
00000000
00000000
10000000
00000000
,
00100000
00000000
00000000
00000000
00100000
00000000
00010000
00000000
00000000
00000000
00010000
00000000
,
00001000
00000000
00010000
00000000
,
00001000
01000000
00010000
00000000
,
01000000
00010000
00100000
00000000
,
01000000
10000000
00100000
00000000
,
00010000
00000000
00001000
00000000
,
00010000
00001000
00000010
00000000
,
00001000
00010000
00001000
00000000
,
00000100
00000010
00001000
00000000
,
00000100
00000000
00000010
00000000
,
00000001
00000100
00001000
00000000
,
00010000
01000000
10000000
00000000
,
00010000
00100000
01000000
00000000
,
10000000
00000000
00000000
00000000
10000000
00000000
00100000
00000000
00000000
00000000
00100000
00000000
,
00010000
00000000
00000000
00000000
00010000
00000000
00001000
00000000
00000000
00000000
00001000
00000000
,
00000100
00000000
00000000
00000000
00000100
00000000
00000010
00000000
00000000
00000000
00000010
00000000
,
00001000
00000000
00000000
00000000
00001000
00000000
00000001
00000000
00000000
00000000
00000001
00000000
,
00001000
00000000
00000100
00000000
00000010
00000000
00000002
00000000
00000003
00000001
00000000
00000100
,
00000000
00000010
00000000
00002000
00000000
00003000
00000010
00000000
00000000
00000000
00000000
00000000
,
00000100
00000000
00001000
00000000
,
00010000
00000000
00000000
00000000
00000000
00000000
00001000
00000000
01000000
00000000
00001000
00000000
,
00020000
00000000
00030000
00010000
00000000
00000100
00000000
00010000
00000000
00002000
00000000
00003000
,
00001000
00000000
00000000
00000000
00001000
00000000
00010000
00000000
00000000
00000000
00010000
00000000
,
00100000
00000000
00000000
00000000
00100000
00000000
10000000
00000000
00000000
00000000
00000000
00000000
,
10010000
00000000
00000000
00000000
10000000
00000000
01000000
00000000
00000000
00000000
01000000
00000000
,
00100000
00000000
00000000
00000000
00100000
00000000
00001000
00000000
00000000
00000000
00001000
00000000
,
00010000
00000000
00000000
00000000
00001000
00000000
00010000
00000000
00000000
00000000
00001000
00000000
,
00010000
00000000
00000000
00000000
00000010
00000000
00010000
00000000
00000000
00000000
00000010
00000000
,
00010000
00001000
00010000
00001000
,
00000100
00000001
00001000
00000100
,
00010100
00000000
00001100
00000000
,
00000101
00000000
00000110
00000000
,
00000002
00000023
00000230
00002300
00003020
00000230
00002300
00023000
,
00230000
02300000
03020000
00230000
02300000
23000000
30020000
20030000
,
30200000
02300000
03020000
00230000
02300000
03020000
00032000
00003020
,
00000230
00000000
00002300
00000000
00003020
00000000
00000230
00000000
00000302
00000000
00000023
00000000
00002030
00000000
00023000
00030000
;

//--------------- dance-double - Fred-104 ----------------
#NOTEDATA:;
#STEPSTYPE:dance-double;
#DESCRIPTION:Fred-104;
#DIFFICULTY:Hard;
#METER:17;
#CREDIT:Fred-104;
#NOTES:
00000000
00000000
00000000
00000000
,
00000000
00000000
00000000
00000000
,
00000000
00000000
00000000
00000000
,
00000000
00000000
00000000
00000000
,
00000000
00000000
00000000
00000000
,
00011000
00011000
00000000
00000000
00000000
00000000
00000000
00000000
,
00000000
00000000
00000000
00000000
,
00010100
00010100
00000000
00000000
00000000
00000000
00000000
00000000
,
00000000
00000000
00000000
00000000
,
01001000
01001000
00000000
00000000
00000000
00000000
00000000
00000000
,
00010010
00010010
00000000
00000000
00000000
00000000
00000000
00000000
,
00101000
00101000
00000000
00000000
00110000
00110000
00000000
00000000
,
11000000
11000000
00000000
00000000
10010000
10010000
00000000
00000000
,
10000000
00100000
01000000
00100000
00010000
00001000
00000100
00000001
,
00001000
00000100
00000010
00001000
00010000
01000000
00100000
00001000
,
00022000
00000000
00000000
00000000
,
00000000
00000000
00000000
00000000
00000000
00000000
00000000
00000000
00000000
00000000
00000000
00000000
00000000
00000000
00000000
00033000
,
00002000
00023000
00230000
20300000
,
32000000
00000000
03020000
00032000
,
00003020
00000000
00000032
00000000
,
00000203
00000000
00002300
00000000
,
00013000
00001000
00010000
00000100
00000010
00001000
00000010
00000000
,
00000001
00001000
00000010
00000100
00001000
00010000
00100000
00000000
,
01000000
00010000
10000000
01000000
00010000
00001000
00010000
00000000
,
00100000
00010000
00001000
00000100
00000001
00000100
00000010
00000000
,
00001000
00000001
00000010
00001000
00010000
00001000
00000100
00001000
,
00010000
00001000
00010000
01000000
00200000
00320000
02030000
03020000
,
10030000
01000000
00000000
10000000
01000000
00000000
00100000
00000000
00001000
00000000
00010000
00000000
00001000
00000000
00000100
00000000
,
00000001
00000000
00000010
00000100
00000010
00000000
00000110
00000000
00000000
00000000
00010000
00000000
00011000
00000000
00000000
00000000
,
00001000
00000000
00100000
00010000
00100000
00000000
00001000
00010000
,
00001000
00000000
01000000
00010000
01000000
00000000
00001000
00000000
,
00010000
00000000
00000100
00001000
00000100
00000000
00010000
00001000
,
00010000
00000000
00000010
00001000
00000010
00000000
00010000
00000000
,
00001000
00000000
01000000
00010000
01000000
00000000
00001000
00010000
,
00001000
00000000
00100000
00010000
00100000
00000000
00001000
00000000
,
00010000
00000000
00000010
00001000
00000010
00000000
00010000
00000000
,
00001000
01000000
00001000
01000000
00001000
00000000
00000000
00000000
,
00010000
00000000
00001000
00010000
00001000
00000000
01000000
00000000
,
00010000
00000000
10000000
01000000
00000000
10000000
01000000
00000000
,
00100000
00000000
00001000
00010000
00001000
00000000
00010000
00000000
,
00000010
00001000
00000010
00001000
00000001
00000000
00000000
00000000
,
00000010
00000000
00000100
00000000
00010000
00001000
00000000
00001000
,
00010000
00001000
00000000
00001000
01000000
00000000
00010000
00000000
,
10000000
01000000
00100000
01000000
10000000
00000000
00010000
00000000
,
00100000
00000000
00001000
00000000
00010000
00001000
00010000
00000000
,
00001000
00000100
00000001
00001001
,
00000000
00000001
00000000
00000010
00000000
00000100
00000000
00001000
00000000
00000001
00000000
00000000
,
00001000
00000010
00000100
00001000
00010000
00100000
01000000
00010000
,
00100000
00001000
00022000
00000000
00000000
00000000
00000000
00000000
,
00000000
00000000
00000000
00000000
00033000
00000000
00000000
00000000
00001000
00010000
00001000
00000000
00010000
00000000
00001000
00000000
,
00000100
00000000
00000001
00000010
00000001
00000000
00001000
00000000
00000010
00000000
00000100
00000000
00001000
00000000
00010000
00001000
,
00010000
00001000
01000000
00010000
01000000
00100000
10000000
00020000
00000000
10030000
00000000
10000000
,
01000000
00000000
01000000
00100000
00000000
00100000
00001000
00000000
00001000
00000010
00000000
00000010
,
00000100
00000000
00000100
00001000
00000000
00001000
00000001
00000000
00000000
00000001
00000000
00000100
,
00001000
00000000
00001000
00010000
00000000
00010000
00100000
00000000
00100000
01000000
00000000
01000000
,
00010000
00000000
00010000
10000000
00000000
10000000
00010000
00000000
00000000
00100000
00000000
00100000
,
00001000
00000000
00001000
00010000
00000000
00010000
00000010
00000000
00000010
00001000
00000000
00001000
,
00000010
00000000
00000010
00000100
00000000
00000100
00000001
00000000
00000000
00000001
00000000
00000010
,
00001000
00000000
00001000
00010000
00000000
00010000
01000000
00000000
01000000
10000000
00100000
01000000
,
00100000
00010000
00001000
00000100
00000010
00001000
00000002
00000000
00000000
00001003
00000000
00000100
,
00000000
00001000
00000000
00000001
00000000
00000000
00000000
00000001
00000000
00000100
00000000
00001000
,
00000000
00010000
00000000
00001000
00000000
00000000
00000000
00001000
00000000
00010000
00000000
01000000
,
00000000
00100000
00000000
00010000
00000000
00000000
00000000
00010000
00000000
10000000
00000000
00010000
,
00000000
01000000
00000000
00001000
00000000
00000000
00000000
00001000
00000000
00010000
00000000
00000100
,
00000000
00001000
00000000
00000100
00000000
00000000
00000000
00000100
00000000
00000010
00000000
00000001
,
00000000
00001000
00000000
00000010
00000000
00000000
00000000
00000010
00000000
00010000
00000000
00000000
,
00000000
00010000
00000000
00001000
00000000
00000000
00000000
00001000
00000000
00010000
00000000
00001000
,
00000000
00100000
00000000
00001000
00000000
00010000
00000000
00001000
00000000
01000000
00000000
00010000
,
00000000
01000000
00000000
00010000
00000000
00000000
00000000
10000000
00000000
01000000
00000000
00100000
,
00000000
01000000
00000000
00100000
00000000
00000000
00000000
00001000
00000000
00010000
00000000
00001000
,
00000000
00010000
00000000
00001000
00000000
00000000
00000000
00000100
00000000
00000001
00000000
00001000
,
00000000
00000100
00000000
00000010
00000000
00000001
00000000
00001000
00000000
00000001
00000000
00000000
,
00000000
00000001
00000000
00000100
00000000
00000000
00000000
00000100
00000000
00001000
00000000
00000000
,
00000000
00001000
00000000
00010000
00000000
00000000
00000000
00010000
00000000
00001000
00000000
01000000
,
00000000
00010000
00000000
10000000
00000000
01000000
00000000
00100000
00000000
00001000
00000000
00010000
,
00000000
00000100
00000000
00000010
00000000
00000001
00000000
00001000
00000000
00000020
00000000
00000000
,
00000000
00000000
00000000
00000000
00000000
00000000
00000000
00000000
00000000
00000000
00000000
00000000
00000000
00000000
00000000
00000000
00020030
00000000
00000000
00000000
00000000
00000000
00000000
00000000
00032000
00000000
00000000
00000000
00000000
00000000
00000000
00003000
,
10000000
01000000
00100000
00001000
,
00010000
00000000
00001000
00000000
00010000
00000000
00001000
00000000
00000010
00000000
00000100
00000000
,
00000010
00000001
00001000
00000010
,
00000100
00000000
00001000
00000000
00010000
00000000
00001000
00000000
01000000
00000000
00010000
00000000
,
10000000
01000000
00100000
00001000
,
00010000
00000000
00001000
00000000
01000000
00000000
00010000
00000000
01000000
00000000
00001000
00000000
,
00010000
00000000
00000000
00000000
00010000
00000000
00001000
00000000
00000000
00000000
00001000
00000000
,
00010000
00000000
00001000
00000000
00000100
00000000
00000001
00000000
00001000
00000000
00000001
00000000
,
00000010
00000000
00000100
00000000
00001000
00000000
00000100
00000000
00000000
00000000
00000100
00000000
,
00010000
00000000
00001000
00000000
00010000
00000000
00100000
00000000
00000000
00000000
00100000
00000000
,
01000000
00000000
00010000
00000000
10000000
00000000
01000000
00000000
00000000
00000000
01000000
00000000
,
00100000
00000000
00001000
00000000
00010000
00000000
00001000
00000000
01000000
00000000
00001000
00000000
,
00010000
00000000
00001000
00000000
00010000
00000000
00000100
00000000
00001000
00000000
00000001
00000000
,
00000100
00000000
00000010
00000000
00001000
00000000
00000001
00000000
00000010
00000000
00000100
00000000
,
00010000
00000000
00001000
00000000
00010000
00000000
00100000
00000000
01000000
00000000
10000000
00000000
,
01000000
00000000
00010000
00000000
10000000
00000000
00010000
00000000
00000000
00000000
00000000
00000000
,
10000000
00000000
01000000
00000000
00100000
00000000
00001000
00000000
00010000
00000000
00001000
00000000
,
01000000
00000000
00001000
00000000
00010000
00000000
00000100
00000000
00001000
00000000
00000100
00000000
,
00000010
00000000
00000001
00000000
00001000
00000000
00000001
00000000
00000100
00000000
00000010
00000000
,
00001000
00000000
00000001
00000000
00000010
00000000
00000100
00000000
00001000
00000000
00000100
00000000
,
00000010
00000000
00000100
00000000
00010000
00000000
00001000
00000000
00100000
00000000
00010000
00000000
,
00100000
00000000
01000000
00000000
00100000
00000000
00010000
00000000
10000000
00000000
00100000
00000000
,
00010000
00000000
00001000
00000000
00010000
00000000
00001000
00000000
00000100
00000000
00000010
00000000
,
00001000
00000000
00000100
00000000
00000010
00000000
00000001
00000000
00000000
00000000
00000000
00000000
,
00001000
00000000
00000100
00000000
00000010
00000000
00000001
00000000
00000100
00000000
00000010
00000000
,
00001000
00000000
00000100
00000000
00010000
00000000
00001000
00000000
00100000
00000000
00010000
00000000
,
00100000
00000000
01000000
00000000
10000000
00000000
00010000
00000000
01000000
00000000
00100000
00000000
,
10000000
00000000
00010000
00000000
00100000
00000000
00001000
00000000
00010000
00000000
00001000
00000000
,
01000000
00000000
00001000
00000000
00010000
00000000
00001000
00000000
00000100
00000000
00000001
00000000
,
00001000
00000000
00000100
00000000
00000010
00000000
00000001
00000000
00000100
00000000
00000010
00000000
,
00001000
00000000
00000100
00000000
00010000
00000000
00001000
00000000
01000000
00000000
00010000
00000000
,
10000000
00000000
01000000
00000000
00100000
00000000
00010000
00000000
01000000
00000000
00100000
00000000
,
10000000
00000000
01000000
00000000
00010000
00000000
00001000
00000000
00020000
00031000
00000000
00010000
,
00000000
00100000
00000000
01000000
00000000
00020000
10030000
00000000
01000000
00000000
00100000
00000000
,
00001000
00000000
00010000
00000000
00000100
00000000
00000010
00000000
00000001
00000000
00001000
00000000
,
00000001
00000000
00000000
00000000
00000000
00000000
00000001
00000000
00000100
00000000
00001000
00000000
,
00010000
00000000
00002000
00013000
00000000
00001000
00000000
00000010
00000000
00000100
00000000
00002000
,
00003001
00000000
00000100
00000000
00000010
00000000
00000100
00000000
00001000
00000000
00010000
00000000
,
00100000
00000000
01000000
00000000
00010000
00000000
10000000
00000000
00010000
00000000
10000000
00000000
,
01000000
00000000
00100000
00000000
00010000
00000000
00100000
00000000
00001000
00000000
00010000
00000000
,
00001000
00000010
00000100
00000000
00001000
00000100
00000010
00000000
,
00000001
00000000
00001000
00000000
00000010
00000000
00000100
00000000
00001000
00000000
00010000
00000000
,
00001000
00000000
01000000
00000000
00010000
00000000
01000000
00000000
00010000
00000000
10000000
00000000
,
00010000
01000000
00010000
10000000
01000000
00000000
00100000
00000000
,
00001000
00010000
00000010
00001000
00000010
00000100
00000001
00000000
,
00001001
00000000
00010010
00000000
,
00101000
00000000
10010000
00000000
,
00020000
20030000
32000000
03200000
00320000
00032000
00003200
00000320
,
00000032
00000203
00002300
00023000
00230000
20300000
32000000
03020000
,
00032000
00003020
00000230
00002300
00003020
00000230
00002300
00023000
,
00230000
00000000
02300000
00000000
03002000
00000000
00023000
00000000
02030000
00000000
23000000
00000000
30200000
00000000
02300000
03000000
;

//--------------- dance-double - Fred-104† ----------------
#NOTEDATA:;
#STEPSTYPE:dance-double;
#DESCRIPTION:Fred-104†;
#DIFFICULTY:Challenge;
#METER:18;
#CREDIT:Fred-104;
#NOTES:
00000000
00000000
00000000
00000000
,
00000000
00000000
00000000
00000000
,
00000000
00000000
00000000
00000000
,
00000000
00000000
00000000
00000000
,
00000000
00000000
00000000
00000000
,
00011000
00011000
00000000
00000000
00000000
00000000
00000000
00000000
,
00000000
00000000
00000000
00000000
,
11000000
11000000
00000000
00000000
00000000
00000000
00000000
00000000
,
00000000
00000000
00000000
00000000
,
00000011
00000011
00000000
00000000
00000000
00000000
00000000
00000000
,
00011000
00011000
00000000
00000000
00000000
00000000
00000000
00000000
,
10100000
10100000
00000000
00000000
00011000
00011000
00000000
00000000
,
00010010
00010010
00000000
00000000
00000101
00000101
00000000
00000000
,
00000001
00000010
00000100
00010000
00001000
00100000
01000000
10000000
,
00010000
01000000
00010000
01000000
00010000
01000000
00010000
01000000
00100000
10000000
00100000
10000000
00100000
10000000
00100000
10000000
,
00020000
00000000
00000000
00000000
,
00000000
00000000
00000000
00000000
00000000
00000000
00000000
00000000
00000000
00000000
00000000
00000000
00000000
00000000
00000000
00030000
,
20000000
30200000
00302000
00003020
,
00020030
00000000
00032000
00003200
,
00000302
00000000
00002003
00000000
,
00003200
00000000
00000000
00000000
00000020
00000000
00000000
00000330
,
00000001
00000000
00000100
00000000
00001000
00000000
00010000
00001000
00010000
00001000
00010000
00000000
00100000
00000000
01000000
00000000
,
00010000
00000000
00100000
00000000
01000000
00000000
10000000
01000000
10000000
01000000
00100000
00000000
00001000
00000000
00010000
00000000
,
00001000
00000000
00000100
00000000
00000010
00000000
00001000
00000010
00001000
00000010
00000100
00000000
00000001
00000000
00000010
00000000
,
00000100
00000000
00001000
00000100
00001000
00000000
00000010
00000000
00000100
00000000
00001000
00000000
00010000
00000000
00100000
00000000
,
10000000
00000000
01000000
00100000
01000000
00000000
10000000
00000000
00100000
01000000
00100000
00000000
10000000
00000000
01000000
00000000
,
00010000
00000000
00001000
00000000
00010000
00000000
00000100
00001000
00000100
00001000
00000100
00000000
00000010
00000001
00002000
00000000
,
00003001
00000100
00000001
00000100
00000010
00000000
00001000
00000000
00001001
00000000
00000001
00000000
00001001
00000000
00001000
00000000
,
00000100
00000000
00010000
00001000
01000000
00000000
01010000
00000000
00000000
00000000
11000000
00000000
01100000
00000000
00000000
00000000
,
00010000
00100000
00010000
10000000
00200000
00000000
10000000
00310000
,
00200000
00000000
00010000
10300000
00100000
00000000
00010000
00000000
,
00001000
00010000
00000010
00010000
00002000
00000000
00010000
00003100
,
00002000
00000000
00000100
00013000
00001000
00000000
00010000
00000000
,
00001000
00000100
00000001
00001000
00000200
00000000
00000010
00000301
,
00000200
00000000
00000010
00001300
00000100
00000000
00000010
00000000
,
00000001
00001000
00000100
00010000
00001000
00000000
01000000
00010000
,
00100000
00010000
10000000
00100000
01000000
00000000
00000000
00000000
,
00010000
10000000
00010000
10000000
00010000
00000000
10000000
01000000
,
00100000
00010000
00100000
00001000
00000000
00001000
00010000
00000000
,
00001000
00010000
00000010
00001000
00000010
00000000
00000100
00000001
,
00001000
00000100
00001000
00000001
00001000
00000000
00000010
00000000
,
00010000
00001000
00010000
00000010
00010000
00001000
00000000
00001000
,
01000000
00010000
00000000
00010000
10000000
01000000
10000000
01000000
,
00100000
00010000
00100000
00010000
00100000
00001000
00000000
00001000
,
00010000
00000000
00001000
00000000
00000100
00000001
00000100
00000001
,
00000010
00000000
00000100
00000000
00010000
00000000
00001000
00010000
,
00001000
00000000
00000000
00010000
00000000
00100000
00000000
01000000
00000000
01010000
00000000
00000000
,
00010000
00100000
01000000
10000000
00010000
01000000
10000000
01000000
,
00010000
00100000
02200000
00000000
00000000
00000000
00000000
00000000
,
00000000
00000000
00000000
00000000
03300000
00000000
00000000
00000000
10000000
00100000
01000000
00000000
00100000
00000000
00010000
00000000
,
00001000
00000000
00010000
00000100
00001000
00000000
00000100
00000000
00000010
00000000
00000001
00000000
00001000
00000000
00000010
00000100
,
00000001
00000100
00001000
00010000
00100000
10000000
01000000
00100000
00000000
00022000
00000000
00000000
,
00000000
00000000
00000000
00000000
,
00000000
00000000
00033000
02200000
,
00000000
00000000
00000000
00000000
,
00000000
00000000
00000000
00000000
00000000
00000000
03300000
00000000
00000000
10010000
00000000
10000000
,
01000000
00000000
01000000
00010000
00000000
00010000
00001000
00000000
00001000
00000010
00000000
00000010
,
00000001
00000000
00000001
00000100
00000000
00000100
00001000
00000000
00001000
00011000
00000000
00010000
,
00011000
00000000
00001000
01001000
00000000
01000000
01010000
00000000
00010000
10000000
00100000
01000000
,
00100000
00010000
00001000
00000100
00000001
00000010
00000200
00002300
00003200
00010300
00000000
00001000
,
00000000
00010000
00000000
00001000
00000000
01000000
00000000
00010000
00000000
01000000
00000000
00010000
,
00000000
10000000
00000000
01000000
00000000
00100000
00000000
00010000
00000000
00100000
00000000
00001000
,
00000000
00010000
00000000
00001000
00000000
00000100
00000000
00000001
00000000
00001000
00000000
00000100
,
00000000
00000010
00000000
00000001
00000000
00001000
00000000
00000001
00000000
00001000
00000000
00000010
,
00000000
00000100
00000000
00001000
00000000
00010000
00000000
00001000
00000000
00010000
00000000
00100000
,
00000000
01000000
00000000
00100000
00000000
00010000
00000000
00001000
00000000
00010000
00000000
00100000
,
00000000
10000000
00000000
00010000
00000000
00100000
00000000
01000000
00000000
10000000
00000000
00100000
,
00000000
01000000
00000000
00010000
00000000
00100000
00000000
01000000
00000000
10000000
00000000
00010000
,
00000000
10000000
00000000
01000000
00000000
00100000
00000000
00010000
00000000
00100000
00000000
00001000
,
00000000
00010000
00000000
00000100
00000000
00001000
00000000
00000100
00000000
00000010
00000000
00000001
,
00000000
00001000
00000000
00000001
00000000
00000100
00000000
00000010
00000000
00001000
00000000
00000100
,
00000000
00010000
00000000
00001000
00000000
01000000
00000000
00010000
00000000
00100000
00000000
00001000
,
00000000
00100000
00000000
00010000
00000000
01000000
00000000
00100000
00000000
10000000
00000000
00010000
,
00000000
00100000
00000000
01000000
00000000
00100000
00000000
00010000
00000000
10000000
00000000
00100000
,
00000000
00010000
00000000
00001000
00000000
00000100
00000000
00000001
00000000
00001000
00000000
00000100
,
00000000
00000010
00000000
00001000
00000000
00010000
00000000
01000000
00000000
00200000
00000000
00000000
,
00000000
00000000
00000000
00000000
00000000
00000000
00000000
00000000
00000000
00000000
00000000
00000000
00000000
00000000
00000000
00000000
00302000
00000000
00000000
00000000
00000000
00000000
00000000
00000000
00020000
00000000
00000000
00000000
00000000
00000000
00000000
00033000
,
00001000
00100000
00010000
00100000
00001000
00010000
00001000
00000000
,
01000000
00000000
00010000
00000000
10000000
00000000
01000000
00000000
00100000
00000000
00001000
00000000
,
00010000
00000000
00001000
00000000
00000100
00000000
00000001
00001000
,
00000100
00000010
00000001
00001000
00000010
00010000
00001000
00000000
,
00100000
00000000
00001000
00010000
00001000
00000000
01000000
00010000
,
10000000
00010000
00100000
00000000
01000000
00100000
00010000
00000000
,
10000000
00000000
00100000
00000000
01000000
00000000
00100000
00000000
00010000
00000000
00001000
00000000
,
00010000
00000000
00000100
00000000
00000010
00000000
00000001
00000000
00001000
00000000
00000010
00000000
,
00000100
00000000
00000000
00000000
00000010
00000000
00000000
00000000
00001000
00000000
00000000
00000000
00000001
00000000
00000000
00000000
00000000
00000000
00000010
00000000
00000000
00000100
00000000
00000000
,
00001000
00000100
00010000
00000000
00001000
01000000
00010000
00000000
,
01000000
00010000
10000000
01000000
10000000
00000000
00010000
10000000
,
01000000
00100000
00010000
00100000
00001000
00010000
00000010
00000000
,
00010000
00001000
00000010
00000100
,
00001000
00010000
00100000
01000000
,
10000000
00000000
00010000
00000000
01000000
00000000
10000000
00000000
01000000
00000000
00010000
00000000
,
10000000
00000000
01000000
00000000
00010000
00000000
00001000
00000000
00000100
00000000
00000001
00000000
,
00000010
00000000
00000100
00000000
00001000
00000000
00000010
00000000
00000100
00000000
00001000
00000000
,
00010000
00001000
01000000
00000000
00010000
00100000
01000000
00000000
,
10000000
00000000
01000000
00000000
00010000
00000000
00001000
00010000
,
00000100
00001000
00000010
00001000
00000100
00000010
00000001
00000000
,
00001000
00000000
00000010
00000000
00000100
00000000
00001000
00000000
00010000
00000000
00100000
00000000
,
01000000
00000000
00010000
00000000
00100000
00000000
01000000
00000000
00010000
00000000
00001000
00000000
,
00000010
00000000
00000100
00000000
00001000
00000000
00010000
00000000
00100000
00000000
01000000
00000000
,
10000000
00000000
00100000
00000000
00010000
00000000
00001000
00000000
00000100
00000000
00000001
00000000
,
00001000
00000000
00000100
00000000
00000010
00000000
00000001
00000000
00000100
00000000
00001000
00000000
,
00010000
00001000
01000000
00000000
00010000
10000000
00100000
00000000
,
01000000
00100000
10000000
00100000
01000000
00100000
10000000
00000000
,
00010000
00000000
00100000
00000000
01000000
00000000
00010000
00000000
00001000
00000000
00000010
00000000
,
00000100
00000000
00001000
00000000
00000010
00000000
00000100
00000000
00001000
00000000
00010000
00000000
,
00100000
00000000
01000000
00000000
00010000
00000000
00100000
00000000
01000000
00000000
00010000
00000000
,
00001000
00000000
00010000
00000000
01000000
00000000
00010000
00000000
00001000
00000000
00000010
00000000
,
00000001
00001000
00000100
00001000
00000001
00000100
00000010
00001000
,
00000001
00000000
00000000
00000000
00000000
00000000
00000000
00000000
00000000
00000000
00000000
00000000
00000000
00000000
00000000
00000000
00000000
00000000
00000000
00000000
00000000
00000000
00000000
00000000
00000000
00000000
00000000
00000000
00000000
00000000
00000000
00000000
00000010
00000000
00000000
00000000
00000000
00000000
00000000
00000000
00000000
00000000
00000000
00000000
00000000
00000000
00000000
00000000
00000000
00000000
00000000
00000000
00000000
00000000
00000000
00000000
00000000
00000000
00000000
00000000
00000000
00000000
00000000
00000000
00001000
00000000
00000000
00000000
00000000
00000000
00000000
00000000
00000000
00000000
00000000
00000000
00000000
00000000
00000000
00000000
00000000
00000000
00000000
00000000
00000000
00000000
00000000
00000000
00000000
00000000
00000000
00000000
00000000
00000000
00000000
00000000
00010000
00000000
00000000
00000000
00000000
00000000
00000000
00000000
00000000
00000000
00000000
00000000
00000000
00000000
00000000
00000000
00000000
00000000
00000000
00000000
00000000
00000000
00000000
00000000
00000000
00000000
00000000
00000000
00000000
00000000
00000000
00000000
02000000
03000000
00000000
00000000
00000000
00000000
00000000
00000000
00000000
00000000
00000000
00000000
00000000
00000000
00000000
00000000
10000000
00000000
00000000
00000000
00000000
00000000
00000000
00000000
00000000
00000000
00000000
00000000
00000000
00000000
00000000
00000000
00000000
00000000
00000000
00000000
00000000
00000000
00000000
00000000
00000000
00000000
00000000
00000000
00000000
00000000
00000000
00000000
00100000
00000000
00000000
00000000
00000000
00000000
00000000
00000000
00000000
00000000
00000000
00000000
00000000
00000000
00000000
00000000
,
00000000
00000000
00000000
00000000
00000000
00000000
00000000
00000000
00000000
00000000
00000000
00000000
00000000
00000000
00000000
00000000
00010000
00000000
00000000
00000000
00000000
00000000
00000000
00000000
00000000
00000000
00000000
00000000
00000000
00000000
00000000
00000000
00000000
00000000
00000000
00000000
00000000
00000000
00000000
00000000
00000000
00000000
00000000
00000000
00000000
00000000
00000000
00000000
00001000
00000000
00000000
00000000
00000000
00000000
00000000
00000000
00000000
00000000
00000000
00000000
00000000
00000000
00000000
00000000
00000000
00000000
00000000
00000000
00000000
00000000
00000000
00000000
00000000
00000000
00000000
00000000
00000000
00000000
00000000
00000000
00000200
00000300
00000000
00000000
00000000
00000000
00000000
00000000
00000000
00000000
00000000
00000000
00000000
00000000
00000000
00000000
00000001
00000000
00000000
00000000
00000000
00000000
00000000
00000000
00000000
00000000
00000000
00000000
00000000
00000000
00000000
00000000
00000000
00000000
00000000
00000000
00000000
00000000
00000000
00000000
00000000
00000000
00000000
00000000
00000000
00000000
00000000
00000000
00000010
00000000
00000000
00000000
00000000
00000000
00000000
00000000
00000000
00000000
00000000
00000000
00000000
00000000
00000000
00000000
00000000
00000000
00000000
00000000
00000000
00000000
00000000
00000000
00000000
00000000
00000000
00000000
00000000
00000000
00000000
00000000
00000100
00000000
00000000
00000000
00000000
00000000
00000000
00000000
00000000
00000000
00000000
00000000
00000000
00000000
00000000
00000000
00000000
00000000
00000000
00000000
00000000
00000000
00000000
00000000
00000000
00000000
00000000
00000000
00000000
00000000
00000000
00000000
,
00000010
00000000
00001000
00000000
00010000
00000000
01000000
00000000
00100000
00000000
00010000
00000000
,
10000000
00000000
00010000
00000000
10000000
00000000
00100000
00000000
00010000
00000000
00001000
00000000
,
00000100
00000000
00000000
00000000
00000000
00000000
00000000
00000000
00000000
00000000
00000000
00000000
00000000
00000000
00000000
00000000
00000000
00000000
00000000
00000000
00000000
00000000
00000000
00000000
00000000
00000000
00000000
00000000
00000000
00000000
00000000
00000000
00000002
00000003
00000000
00000000
00000000
00000000
00000000
00000000
00000000
00000000
00000000
00000000
00000000
00000000
00000000
00000000
00000001
00000000
00000000
00000000
00000000
00000000
00000000
00000000
00000000
00000000
00000000
00000000
00000000
00000000
00000000
00000000
00000000
00000000
00000000
00000000
00000000
00000000
00000000
00000000
00000000
00000000
00000000
00000000
00000000
00000000
00000000
00000000
00000010
00000000
00000000
00000000
00000000
00000000
00000000
00000000
00000000
00000000
00000000
00000000
00000000
00000000
00000000
00000000
00000000
00000000
00000000
00000000
00000000
00000000
00000000
00000000
00000000
00000000
00000000
00000000
00000000
00000000
00000000
00000000
00001000
00000000
00000000
00000000
00000000
00000000
00000000
00000000
00000000
00000000
00000000
00000000
00000000
00000000
00000000
00000000
00000000
00000000
00000000
00000000
00000000
00000000
00000000
00000000
00000000
00000000
00000000
00000000
00000000
00000000
00000000
00000000
00010000
00000000
00000000
00000000
00000000
00000000
00000000
00000000
00000000
00000000
00000000
00000000
00000000
00000000
00000000
00000000
00000000
00000000
00000000
00000000
00000000
00000000
00000000
00000000
00000000
00000000
00000000
00000000
00000000
00000000
00000000
00000000
02000000
03000000
00000000
00000000
00000000
00000000
00000000
00000000
00000000
00000000
00000000
00000000
00000000
00000000
00000000
00000000
,
10000000
00000000
00100000
00000000
01000000
00000000
10000000
00000000
01000000
00000000
00100000
00000000
,
00010000
00000000
00001000
00000000
00000100
00000000
00000001
00000000
00001000
00000000
00000100
00000000
,
00000010
00000000
00000001
00000000
00001000
00000000
00000010
00000000
00010000
00000000
00001000
00000000
,
00100000
00010000
01000000
00010000
00100000
00001000
00010000
00000000
,
00000010
00000000
00010000
00000000
00001000
00000000
00010000
00000000
00000100
00000000
00000010
00000000
,
00000001
00000000
00001000
00000000
00000010
00000000
00000100
00000000
00000010
00000000
00010000
00000000
,
00001000
00100000
00010000
10000000
00100000
01000000
00010000
00000000
,
10000000
01000000
00100000
00001000
00010000
00000010
00001000
00000000
,
00000100
00000000
00000010
00000000
00000001
00000000
00000100
00000000
00001000
00000000
00010000
00000000
,
00100000
00000000
01000000
00000000
10000000
00000000
01000000
00000000
00010000
00000000
10000000
00000000
,
00020000
20030000
32000000
03002000
00003002
00000203
00020300
02030000
,
03002000
00023000
00230000
20300000
32000000
03020000
00032000
00023000
,
00030020
00000032
00000023
00002030
00023000
00230000
02300000
23000000
,
30020000
00000000
02030000
00000000
03200000
00000000
00320000
00000000
00032000
00000000
00003200
00000000
00000302
00000000
00000023
00000030
;
