#VERSION:0.83;
#TITLE:GLOW DOMINATE THE DARKNESS;
#ARTIST:SOUND HOLIC Vs. BEMANI Sound Team "T.Kakuta" feat. Nana Takahashi;
#ARTISTTRANSLIT:SOUND HOLIC Vs. T.Kakuta feat. Nana Takahashi;
#BANNER:GLOW DOMINATE THE DARKNESS.png;
#BACKGROUND:GLOW DOMINATE THE DARKNESS-bg.png;
#CDTITLE:./CDTitles/GITADORA FUZZ-UP.png;
#MUSIC:GLOW DOMINATE THE DARKNESS.ogg;
#SAMPLESTART:51.1;
#SAMPLELENGTH:15;
#BPMS:0=196;
#BGSTAGE:27;

//--------------- dance-single - Fred-104 ----------------
#NOTEDATA:;
#STEPSTYPE:dance-single;
#DESCRIPTION:Fred-104;
#DIFFICULTY:Beginner;
#METER:4;
#CREDIT:Fred-104;
#NOTES:
0000
0000
0000
0000
,
0000
0000
0000
0000
,
0000
0000
0000
0000
,
0000
0000
0000
0000
,
0000
0000
0000
0000
,
0000
0000
0000
0000
,
1000
0000
0010
0000
,
1000
0000
0001
0001
,
0001
0000
0000
0000
,
1000
0000
0001
0000
,
1000
0000
0000
0000
,
0010
0000
1000
0000
,
0001
0000
0000
0000
,
0100
0000
0001
0000
,
0001
0000
1000
0000
,
0001
0000
0100
0000
,
0010
0000
0010
0000
,
2000
0000
3000
0000
,
0001
0000
1000
0000
,
0001
0000
0100
0100
,
0100
0000
0001
0000
,
1000
0000
0001
0001
,
0001
0000
1000
0000
,
0001
0000
1000
0000
,
0010
0000
1000
0000
,
0001
0000
0000
0000
,
0001
0000
0000
0001
,
0000
0000
0001
0000
,
1000
0000
0000
1000
,
0000
0000
1000
0000
,
0010
0000
0000
0010
,
0000
0000
0010
0000
,
0100
0000
0100
0000
,
0001
0000
1000
0000
,
0001
0000
0001
0000
,
1000
0000
0010
0000
,
1000
0000
1000
0000
,
0001
0000
0001
0000
,
1000
0000
0000
0001
,
0001
0000
0000
1000
,
1000
0000
0001
0000
,
0000
2002
0000
3003
,
1000
0000
0010
0000
,
1000
0000
0000
0000
,
0001
0000
0010
0000
,
0001
0000
0000
0000
,
1000
0000
0100
0000
,
1000
0000
0001
0000
,
1000
0000
1000
0000
,
0002
0000
0003
0000
,
0001
0000
0001
0000
,
0100
0000
0001
0000
,
0001
0000
0100
0000
,
0010
0000
0100
0000
,
0010
0000
0000
0000
,
1000
0000
0000
0000
,
0001
0000
0000
0000
,
1000
0000
0001
0000
,
2000
0000
3000
0000
,
0002
0000
0003
0000
,
0200
0000
0300
0000
,
0020
0000
0030
0000
,
1000
0000
1000
0000
,
0001
0000
0100
0000
,
0001
0000
0000
0000
,
1000
0000
0001
0000
,
1001
0000
0000
0000
,
1000
0000
0100
0000
,
0010
0000
0100
0000
,
1000
1000
1000
0000
,
0001
0000
0100
0000
,
0001
0000
0010
0000
,
0001
0000
0000
0001
,
0000
0000
1000
0000
,
1001
0000
0000
0000
,
0010
0000
0000
0000
,
1000
0000
0000
0000
,
0001
0000
0100
0000
,
0001
0000
0001
0000
,
1000
0000
1000
1000
,
0000
0000
0001
0000
,
2002
0000
0000
3003
,
1000
0000
0010
0000
,
1000
0000
0001
0001
,
0001
0000
0100
0000
,
0001
0000
0100
0100
,
0100
0000
0010
0000
,
0100
0000
0010
0000
,
1000
0000
0001
0000
,
2000
0000
3000
0000
,
0001
0000
0100
0000
,
0001
0000
0010
0000
,
0001
0000
0001
0000
,
1000
0000
0001
0001
,
0001
0000
1000
0000
,
0010
0000
1000
0000
,
0001
0000
0001
0000
,
0100
0000
0010
0000
,
0010
0000
0100
0000
,
0001
0000
1000
0000
,
0001
0000
0000
2002
,
0000
0000
0000
0000
0000
0000
0000
3003
;

//--------------- dance-single - Fred-104 ----------------
#NOTEDATA:;
#STEPSTYPE:dance-single;
#DESCRIPTION:Fred-104;
#DIFFICULTY:Easy;
#METER:8;
#CREDIT:Fred-104;
#NOTES:
0000
0000
0000
0000
,
0000
0000
0000
0000
,
0000
0000
0000
0000
,
0000
0000
0000
0000
,
0000
0000
0000
0000
,
0000
0000
0000
0000
,
1000
0000
0000
0010
0000
0000
1000
0000
,
0010
0010
1000
0001
,
1000
0000
0000
0001
0000
0000
0100
0000
,
0001
1000
2002
3003
,
0001
0000
0010
0000
,
0001
0001
1000
0001
,
0100
0000
0010
0000
,
0100
0001
1000
0001
,
0000
0000
1000
0000
0010
0100
0010
0000
,
0000
0000
0001
0000
0010
0001
0010
0000
,
0001
0000
0000
1000
0000
0000
0001
0000
,
0100
0000
0000
0220
0000
0000
0330
0000
,
0001
0000
0100
0000
,
0010
0000
0010
0000
1000
0010
1000
0000
,
0001
0000
1000
0000
,
0100
0000
1000
0000
0001
1000
0001
0000
,
1000
0010
1000
1000
,
0001
0100
0010
0100
,
0001
0010
0100
1000
,
0001
1000
0001
0000
1000
0000
0010
0000
,
1000
0000
0000
0010
0000
0000
1000
0000
,
0000
0001
0000
0000
1000
0000
0100
0000
,
0010
0000
0001
0000
,
1000
0000
0001
0000
1000
0001
1000
0000
,
0001
0000
0000
0010
0000
0000
0100
0000
,
0000
1000
0000
0000
0010
0000
1000
0000
,
0001
0000
0100
0000
,
0010
0000
0100
0000
0010
0100
0010
0000
,
2000
0000
3001
0100
,
0001
0000
0100
0010
0000
0100
0010
0000
,
0100
0000
0000
0001
0000
0000
1000
0000
,
0001
0000
0000
1000
0000
0000
0010
0000
,
1000
0000
0000
1100
0000
0000
1000
0000
,
0001
0000
0000
0101
0000
0000
0001
0000
,
1000
0010
0100
0001
,
0000
1000
0002
0000
0000
0000
0003
0000
,
1000
0000
0000
0100
0000
0000
1000
0000
,
0001
0001
0100
0010
,
0100
0000
0000
0001
0000
0000
0010
0000
,
0001
0000
0000
1000
0000
0010
0000
0000
,
1000
0000
0000
0100
0000
0000
1000
0000
,
0001
0000
0000
0100
0000
0000
0001
0000
,
0010
0001
0001
1000
,
0001
0000
0000
1000
0000
1001
0000
0000
,
0001
0000
0000
1000
0000
0000
0010
0000
,
1000
0000
0010
0100
,
0001
0000
0000
1000
0000
0000
0001
0000
,
0000
0100
0000
0000
0010
0000
0010
0000
,
1000
0000
0010
0000
,
0001
0000
0100
0000
,
1000
0000
0001
0000
,
1000
0000
0001
0001
,
1000
0000
0000
1010
0000
0000
1000
0000
,
0001
0000
0000
0011
0000
0000
0001
0000
,
1000
0000
0000
1100
0000
0000
1000
0000
,
0001
0000
0000
0101
0000
0000
0001
0000
,
1000
0010
1000
0010
,
0100
0001
0100
0001
,
1000
0000
0000
0001
0000
0000
0100
0000
,
0001
0001
2000
0000
,
3001
0001
0000
0100
,
0100
0000
0010
0000
,
1000
1000
0010
1000
,
1000
0000
0000
0001
0000
0000
1000
0000
,
0001
0000
0000
0100
0000
0000
0010
0000
,
1000
0000
0000
0100
0000
0000
0010
0000
,
0001
0000
0000
1000
0000
0000
0001
0000
,
0000
0100
0000
0000
0010
0000
1000
0000
,
2002
0000
0000
3003
,
1000
0000
0010
0000
,
0200
0000
0000
0300
,
0001
0000
1000
0000
,
0001
0000
0000
0010
0000
0000
0001
0000
,
0100
0000
0000
0010
0000
0000
1000
0002
,
0000
0000
0000
0003
,
1000
0000
0000
0001
0000
1001
0000
0000
,
0001
0000
0000
0100
0000
0000
0010
0000
,
1000
0000
0100
0000
1000
0001
1000
0000
,
0001
0000
0000
0010
0000
0000
0100
0000
,
1000
0000
0010
0000
0100
0001
0100
0000
,
0001
0010
0001
0000
,
1000
0001
1000
0000
,
0001
0000
0100
0000
0100
0000
0010
1000
,
0000
0010
0100
0000
0001
0000
1000
0000
,
0001
0000
0000
0001
0000
0000
0100
0000
,
0010
1000
0010
1000
,
0001
0000
0000
1000
0000
0000
0010
0000
,
1000
0000
0100
0000
0010
0100
0010
0000
,
0001
0000
0000
0100
0000
0000
0001
0000
,
1001
0000
0100
0100
,
0001
0100
0001
0001
,
0010
0001
0010
0100
,
1000
0001
0100
0100
,
0010
1000
0001
1000
,
0001
0000
0000
1000
0000
0000
2002
0000
,
0000
0000
0000
3003
0000
0001
0100
0010
;

//--------------- dance-single - Fred-104 ----------------
#NOTEDATA:;
#STEPSTYPE:dance-single;
#DESCRIPTION:Fred-104;
#DIFFICULTY:Medium;
#METER:13;
#CREDIT:Fred-104;
#NOTES:
0000
0000
0000
0000
,
0000
0000
0000
0000
,
0000
0000
0000
0000
,
0000
0000
0000
0000
,
0000
0000
0000
0000
,
0000
0000
0000
0000
,
0001
0000
0100
0010
0000
0100
0001
0000
,
1000
0000
0001
1000
0200
0000
2300
0000
,
3001
0000
0100
0100
0000
0010
0010
0000
,
1100
0000
0011
0000
1000
0001
0100
0010
,
1000
0000
0001
0200
0000
0320
0000
0230
,
0000
0302
0000
2003
0000
3002
0000
0000
,
1003
0000
0010
1000
0001
2000
0000
3200
,
0000
0320
0000
0031
0100
0001
0100
0010
,
0000
1000
0100
0000
1000
0010
0100
0010
,
0000
1000
0100
0010
0000
0001
0000
1000
,
0001
0000
0100
0100
0000
0001
0010
0000
,
0001
1000
0001
0100
0000
0001
0010
0100
,
1000
0000
0001
0100
0000
0010
0000
1000
,
0000
0100
0000
0010
0001
1000
0000
0001
,
0100
0010
0100
0010
1000
0100
0000
0110
,
0000
1001
0000
0001
0100
0100
0010
0100
,
0000
0001
1000
0000
0010
0000
1000
0000
,
0001
0100
0001
0100
0010
1000
0010
0000
,
1000
0100
1000
0001
1000
0100
0010
0000
,
0001
0100
1000
0100
0000
0001
0000
0000
,
1001
0000
0000
0110
0000
0000
1010
0000
,
0000
0101
0000
0001
1000
0001
0100
0010
,
1000
0000
1000
0000
0001
1000
0100
1000
,
0000
0010
1000
0010
0100
0010
1000
0000
,
1100
0000
0000
0011
0000
0000
1010
0000
,
0000
0101
0000
0000
0001
1000
0001
0000
,
0100
0010
0100
0010
1000
0001
1000
0000
,
1010
0101
1100
0011
,
2000
0010
3100
0002
,
0013
0001
1000
0001
0000
0100
0010
0000
,
1000
0000
0010
1000
0000
0010
0100
0001
,
1000
0100
0010
0001
0100
0010
0100
0000
,
0001
0000
0000
0101
0000
0000
0100
0000
,
0010
0000
0000
1010
0000
0000
1000
0000
,
0100
1000
0001
1000
0100
0010
0100
1000
,
0000
0001
2002
0000
0000
0000
3003
0000
,
1000
0100
0010
0100
1000
0010
1000
0000
,
0001
0010
0100
1000
0001
0100
0001
0000
,
0100
0010
1000
0001
1000
0010
0100
0000
,
0001
0010
0001
0100
0010
0100
0100
0001
,
1000
0100
0010
0100
0010
0100
1000
0000
,
0001
0100
0010
0100
0001
1000
0001
0010
,
0001
0000
0101
0000
0100
0010
1000
0000
,
0001
0010
0100
1000
0000
1010
0000
0000
,
0001
0100
0100
0010
0100
0001
1000
0200
,
0000
0310
0100
1000
0010
0100
0001
1000
,
0001
1000
0010
1000
0010
0100
0010
2000
,
0000
3001
0010
0100
1000
0001
0100
0010
,
1000
0000
0100
0100
1000
0002
0000
0203
,
0000
0320
0000
2030
3000
1001
0000
0000
,
0001
0100
0001
0000
0100
0000
1000
0100
,
0000
0100
0001
0000
1000
0100
0010
0001
,
0100
0010
0100
0100
0000
0001
0010
0001
,
1000
1000
0010
0100
0000
0001
1000
0001
,
0100
0000
0010
0100
0010
0000
2000
0000
0000
0000
3010
0000
1000
0000
0100
0000
,
1000
0100
0010
0100
0010
0001
1000
0000
,
1100
1100
0110
0110
,
0011
0011
1001
1001
,
0001
0100
0100
0001
0100
0100
0001
0100
,
0001
0010
0100
1000
0002
0000
0000
0000
,
1003
0000
1010
0000
1000
0010
0100
0000
,
0001
0000
0010
0100
0000
0010
0001
1000
,
0001
0001
0000
1000
0000
0010
0100
0000
,
0001
0100
0010
0200
0000
0000
0301
0000
,
1000
0000
0010
0100
0000
0010
1000
0000
,
0001
0000
0010
0100
0000
0010
0001
1000
,
0100
0000
0000
1001
0000
0000
0010
0000
,
0000
1001
0000
0000
0100
0010
0100
0010
,
2000
0000
0000
3200
0000
0000
0320
0000
,
0032
0000
1003
0010
,
0200
0000
0000
0302
0000
0000
0023
0000
,
0230
0000
0000
1300
0000
1001
0000
0000
,
0001
0001
1000
1000
,
0001
0100
0001
1000
0010
0100
0001
2000
,
0000
0000
0000
3000
,
1000
0010
0100
0001
0000
1001
0000
0000
,
1000
0000
0001
1000
0000
0010
0100
0010
,
1000
0100
0010
0000
0001
1000
0001
0000
,
0100
0000
0001
0010
0000
0001
0100
0010
,
0000
0100
0000
0001
0100
0010
0100
0000
,
1001
0000
0001
0100
0001
0100
0000
0010
,
0000
1000
0000
0100
0000
1100
0000
0000
,
1000
0000
0010
0000
1000
0000
0010
0001
,
0000
0010
1000
0000
0001
0100
0010
1000
,
0001
0000
0100
0010
0000
0100
0010
1000
,
0100
1000
0100
1000
0010
0100
0001
0000
,
1000
0000
0001
0100
0000
0010
0100
0001
,
0100
0000
0010
0100
0010
0000
1000
0000
0000
0000
1001
0000
0000
0000
0000
0000
,
1000
0000
0001
0010
0000
0100
0010
0001
,
1000
0000
0010
0000
1000
0100
0010
0001
,
1000
0100
1000
0010
1000
0100
0010
0000
,
0001
0100
0001
0010
0001
0100
0010
0000
,
1000
0001
0100
0001
1000
0100
0010
0000
,
0001
0100
0010
0100
0001
0010
0100
0000
,
1100
0000
0000
0101
0000
0000
2002
0000
,
0000
0000
0000
0000
3003
0001
1000
1001
;

//--------------- dance-single - Fred-104 ----------------
#NOTEDATA:;
#STEPSTYPE:dance-single;
#DESCRIPTION:Fred-104;
#DIFFICULTY:Hard;
#METER:17;
#CREDIT:Fred-104;
#NOTES:
0000
0000
0000
0000
,
0000
0000
0000
0000
,
0000
0000
0000
0000
,
0000
0000
0000
0000
,
0000
0000
0000
0000
,
0000
0000
0000
0000
,
1001
0000
0001
0100
0010
1000
0001
0000
,
0011
0000
0010
0100
1000
0001
0200
0000
,
0301
0010
0001
0010
0001
0000
1000
0010
1000
0010
1000
0000
0001
0100
0001
0000
,
1000
0100
1000
0000
0001
0010
0001
0000
1000
0100
1000
0100
0010
0001
0010
0001
,
1000
0000
0010
0020
0000
2030
0000
3200
,
0000
0320
0000
0032
0000
2003
0000
0000
,
3001
0100
0020
2030
3002
0203
0000
2300
,
0000
3200
0000
0301
0100
0010
1000
1100
,
0000
0000
1000
0000
0100
0000
1000
0001
1000
0000
0100
0000
0010
0000
0012
0000
,
0000
0000
0103
0000
0001
0000
0020
0000
0032
0000
2003
0000
3001
0010
0001
0000
,
1000
0100
0010
1000
0010
0100
1000
0000
,
0001
0000
0100
0010
1000
0001
1000
0000
0000
0000
0001
0100
0001
0010
0100
1000
,
0100
0000
1000
1010
0000
0001
1000
1100
,
0000
0110
0000
0011
0001
1000
0001
1000
,
0100
0000
0010
0100
0010
0000
0001
0000
1000
0000
1000
0000
0000
0000
1001
0000
,
0000
0000
0001
0100
0001
0010
0001
0010
0001
0100
0001
0100
0010
1000
0001
0000
,
0101
1001
1100
1001
,
0001
0010
0100
1000
0001
0100
1000
0200
,
0000
0301
0010
0100
1000
0010
0100
0001
,
1000
0000
0001
0100
0001
0000
0100
0000
0010
0000
0100
0010
1000
0010
0100
0001
,
1000
0000
0000
1010
1000
0001
0101
0000
,
0000
0000
0110
0000
0010
0000
1000
0000
0001
0000
0010
0000
0100
1000
0100
0000
,
1100
0000
1001
1000
0001
0100
0010
0200
,
0000
0000
0301
0000
1001
0000
0000
0000
1000
0000
1000
0000
0010
0100
0010
0000
,
1010
0000
0000
0110
0100
0001
0101
0000
,
0000
0000
0011
0000
0000
0000
0001
1000
0001
0000
0100
0000
0020
0000
0000
0000
,
1030
0100
0001
0100
1000
0001
0010
0100
,
1100
0101
1010
0011
,
1000
0001
0010
0001
0100
0010
0100
0001
,
1000
0100
0001
1000
0010
0001
1000
0000
,
0001
0000
0000
0000
0000
0000
0000
0000
1000
0000
0000
0000
0000
0000
0000
0000
0200
0300
0000
0000
0000
0000
0000
0000
0200
0300
0000
0000
0000
0000
0000
0000
0001
0000
0000
0000
0000
0000
0000
0000
0010
0000
0000
0000
0000
0000
0000
0000
0100
0000
0000
0000
0000
0000
0000
0000
1000
0000
0000
0000
0000
0000
0000
0000
,
0000
0000
1000
0000
0010
0000
1000
0000
0001
0000
0100
0001
1000
0001
1000
0000
,
1100
0000
0000
0000
1000
0000
1001
0000
0000
0000
1000
0000
0001
0100
0001
0100
,
0010
0000
0000
0000
0100
0000
0010
0000
1000
0100
1000
0100
0010
0100
0010
0100
,
1000
0000
0001
0100
0010
1000
0010
1000
0001
0100
0001
0000
0100
0010
0100
0000
,
0000
0010
2002
0000
0000
0000
3003
0000
,
1000
0010
0100
0000
0010
0000
1000
0100
0010
0000
0100
0000
1000
0010
0100
0000
,
0001
0100
0001
0000
0100
0010
0100
0000
0010
1000
0010
0000
1000
0100
1000
0000
,
0001
0010
0100
0000
0010
0000
0001
0100
0010
0000
0100
0000
0001
0010
0100
0000
,
1000
0100
1000
0100
1000
0000
0001
0100
0010
0100
0001
0100
0001
1000
0001
0000
,
1000
0001
0100
0000
0001
0000
1000
0001
0100
0000
0001
0000
1000
0001
0100
0000
,
0001
1000
0010
0000
1000
0000
0001
1000
0010
0000
1000
0000
0001
1000
0010
0000
,
1000
0100
0010
0000
0001
0000
0100
0010
0100
0000
0001
0000
0100
0010
1000
0000
,
0001
0100
0001
0100
0010
0100
0010
0000
0000
0000
2002
0000
0000
0000
3003
0000
,
1000
0100
1000
0001
0100
0010
0100
0002
,
0000
0000
0103
0000
1000
0000
0100
0000
0001
0000
0010
0100
1000
0000
0001
0000
,
1000
0100
0010
0000
0001
0000
1000
0010
0100
0000
0001
0000
1000
0100
0010
0000
,
0001
0000
0100
0000
0010
0000
0100
0000
0001
0000
1000
0001
0100
0000
0010
0000
,
0110
0000
0010
1000
0001
0201
0000
0320
,
0000
2030
0000
3002
0000
0023
0031
1000
,
0001
0010
0100
0000
1010
0000
1000
0001
,
0000
0000
0100
0000
0010
0000
0000
0000
1000
0010
1000
0100
1000
0001
0100
0001
,
1000
0000
0100
0000
1000
0000
1002
0000
0000
0000
0103
0000
0001
0010
0001
0010
,
0001
0000
0100
0010
0100
0000
0102
0000
0000
0000
1003
0001
0100
0001
0100
0000
,
0001
0000
1000
0100
1000
0000
1002
0000
0000
0000
0103
0000
0010
0000
0100
0000
,
0001
0100
0001
0000
1000
0010
1000
0000
0001
0010
0001
0010
0100
1000
0100
1000
,
0001
0000
0100
0001
0010
0000
0100
0000
1000
0000
0010
1000
0100
0000
0010
0000
,
0001
0000
0100
0000
0010
0000
0100
0000
0001
0100
0010
1000
0001
0100
0001
0000
,
1000
0010
1000
0010
1000
0000
0001
0100
0001
0100
0001
0000
1000
0001
1000
0000
,
1010
0000
0101
0000
2002
0000
0000
3003
,
1000
0000
2010
0000
3001
0100
0010
1000
,
0001
0010
0100
0020
0000
0031
1000
0010
,
1000
0100
0100
0010
0100
0100
1001
0000
,
1000
0100
0010
0002
0000
0103
0010
0100
,
0001
0000
0100
0010
0100
0000
0001
0000
0010
0100
0010
0000
0001
0000
0000
0000
,
1000
0000
0100
0010
0100
0000
1000
0000
0010
0100
0010
0000
1000
0000
0001
0000
,
1001
0000
0000
0110
0000
0000
1010
0000
,
0000
0000
0101
0000
0000
0000
0000
0000
1000
0010
1000
0001
0100
0001
1000
0100
,
2000
0000
0000
3020
0000
0000
0230
0000
,
0301
0001
0100
0010
0100
0001
1000
0001
,
0020
0000
0000
0032
0000
0000
2003
0000
,
3020
0000
0030
0110
0000
1001
0000
0000
,
1000
0100
1000
0010
0100
0001
1000
0000
,
0001
0010
0100
1000
0001
0100
0010
0110
,
0000
0000
0000
0000
0000
0000
1000
0100
1000
0100
0010
0001
0100
0001
0100
0010
,
1000
0100
0001
0100
0000
2002
0000
3003
,
1000
0001
0100
0000
0010
0000
0100
0001
1000
0000
0100
0000
0010
0100
1000
0000
,
0001
0000
0100
0010
0100
0000
0001
0100
0001
0000
1000
0010
1000
0000
0001
0000
,
1000
0001
0010
0000
0100
0000
0010
0001
1000
0000
0010
0000
0100
0010
1000
0000
,
0001
0000
1000
0010
1000
0000
0001
0100
0001
0000
1000
0100
1000
0000
0001
0000
,
0100
0000
0010
0010
0100
0100
0000
0101
,
0000
1100
0000
0101
0000
0100
0010
1000
,
0001
0000
0010
0000
0110
0000
1000
0100
,
0000
0001
0100
0000
1000
0100
0001
0100
,
1000
0010
1000
1100
0000
0100
0010
0001
,
0100
0000
0001
0000
0010
0000
0100
0000
1000
0000
0001
0100
0001
0000
0100
0000
,
0001
0100
0010
1000
0100
0010
0100
1000
,
0001
0100
0001
0100
0010
1000
0001
0100
0010
0000
2000
0000
0000
0000
0000
0000
,
3001
0010
0001
1000
0000
0010
0100
0001
,
0000
0000
1001
0000
1000
0100
0010
0001
,
1000
0000
0010
1000
0010
0000
1000
0100
1000
0001
0100
0000
0001
0010
0001
0000
,
1000
0000
0001
0100
0010
0100
0010
0100
0010
1000
0001
1000
0001
0000
1000
0000
,
0100
0000
0010
0001
0010
0000
0001
0100
0010
1000
0010
0000
1000
0100
1000
0000
,
0001
0000
1000
0010
1000
0000
0001
0100
0001
0100
0010
1000
0010
1000
0010
1000
,
0001
0100
0010
1000
0001
0000
1000
0100
0010
0001
1000
0000
2002
0000
0000
0000
,
0000
0000
0000
0000
3003
0100
0010
0110
;

//--------------- dance-double - Fred-104 ----------------
#NOTEDATA:;
#STEPSTYPE:dance-double;
#DESCRIPTION:Fred-104;
#DIFFICULTY:Easy;
#METER:8;
#CREDIT:Fred-104;
#NOTES:
00000000
00000000
00000000
00000000
,
00000000
00000000
00000000
00000000
,
00000000
00000000
00000000
00000000
,
00000000
00000000
00000000
00000000
,
00000000
00000000
00000000
00000000
,
00000000
00000000
00000000
00000000
,
00001000
00000000
00000000
00010000
00000000
00000000
00001000
00000000
,
00010000
00001000
00010000
01000000
,
10000000
00000000
00000000
00010000
00000000
00000000
01000000
00000000
,
00100000
10000000
20020000
30030000
,
00010000
00000000
10000000
00000000
,
00010000
10000000
01000000
00100000
,
00001000
00000000
00010000
00000000
,
00000010
00001000
00000001
00001000
,
00000000
00000000
00001000
00000000
00000100
00000010
00000100
00000000
,
00000000
00000000
00000001
00000000
00000100
00000010
00000100
00000000
,
00001000
00000000
00000000
00000001
00000000
00000000
00001000
00000000
,
00000010
00000000
00000000
00000220
00000000
00000000
00000330
00000000
,
00000010
00000000
00001000
00000000
,
00000100
00000000
00010000
00000000
00001000
00100000
00001000
00000000
,
00100000
00000000
00010000
00000000
,
10000000
00000000
01000000
00000000
00100000
01000000
00100000
00000000
,
00010000
10000000
01000000
10000000
,
01000000
00100000
01000000
00100000
,
00001000
00010000
00000010
00001000
,
00000100
00001000
00000100
00000000
00010000
00000000
00000010
00000000
,
00001000
00000000
00000000
00000100
00000000
00000000
00000001
00000000
,
00000000
00000100
00000000
00000000
00001000
00000000
00000100
00000000
,
00010000
00000000
00001000
00000000
,
00010000
00000000
01000000
00000000
00100000
01000000
00100000
00000000
,
10000000
00000000
00000000
00100000
00000000
00000000
00010000
00000000
,
00000000
00100000
00000000
00000000
01000000
00000000
00010000
00000000
,
10000000
00000000
01000000
00000000
,
00100000
00000000
00001000
00000000
00010000
00001000
00010000
00000000
,
00020000
00000000
00030010
00001000
,
00000100
00000000
00010000
00001000
00000000
00010000
00001000
00000000
,
00100000
00000000
00000000
00010000
00000000
00000000
10000000
00000000
,
01000000
00000000
00000000
00010000
00000000
00000000
00001000
00000000
,
00010000
00000000
00000000
00010010
00000000
00000000
00000010
00000000
,
00001000
00000000
00000000
00001100
00000000
00000000
00000100
00000000
,
00000010
00000001
00000100
00000010
,
00000000
00000100
00000200
00000000
00000000
00000000
00000300
00000000
,
00000001
00000000
00000000
00001000
00000000
00000000
00000100
00000000
,
00010000
00001000
00010000
00001000
,
00010000
00000000
00000000
00100000
00000000
00000000
01000000
00000000
,
00100000
00000000
00000000
10000000
00000000
00010000
00000000
00000000
,
10000000
00000000
00000000
00100000
00000000
00000000
01000000
00000000
,
00010000
00000000
00000000
01000000
00000000
00000000
10000000
00000000
,
01000000
00010000
01000000
00001000
,
00010000
00000000
00000000
00010000
00000000
00011000
00000000
00000000
,
00000010
00000000
00000000
00001000
00000000
00000000
00000001
00000000
,
00000100
00000000
00000010
00000100
,
00000001
00000000
00000000
00000100
00000000
00000000
00001000
00000000
,
00000000
00000100
00000000
00000000
00000001
00000000
00000010
00000000
,
00000100
00000000
00001000
00000000
,
00010000
00000000
00100000
00000000
,
01000000
00000000
10000000
00000000
,
00010000
00000000
10000000
10000000
,
01000000
00000000
00000000
01100000
00000000
00000000
00100000
00000000
,
00010000
00000000
00000000
00011000
00000000
00000000
00010000
00000000
,
00000100
00000000
00000000
00000110
00000000
00000000
00000010
00000000
,
00001000
00000000
00000000
00001001
00000000
00000000
00000001
00000000
,
00000100
00000010
00000100
00001000
,
00010000
00100000
01000000
00010000
,
10000000
00000000
00000000
00010000
00000000
00000000
01000000
00000000
,
00001000
00010000
00020000
00000000
,
00031000
00010000
00000000
00000010
,
00010000
00000000
00001000
00000000
,
00100000
00010000
10000000
00010000
,
00100000
00000000
00000000
00001000
00000000
00000000
00010000
00000000
,
00000010
00000000
00000000
00010000
00000000
00000000
00001000
00000000
,
01000000
00000000
00000000
00001000
00000000
00000000
00010000
00000000
,
00000100
00000000
00000000
00010000
00000000
00000000
00001000
00000000
,
00000000
00100000
00000000
00000000
00001000
00000000
00010000
00000000
,
00022000
00000000
00000000
00033000
,
00001000
00000000
00010000
00000000
,
02000000
00000000
00000000
03000000
,
10000000
00000000
00010000
00000000
,
10000000
00000000
00000000
00100000
00000000
00000000
00010000
00000000
,
00001000
00000000
00000000
00000100
00000000
00000000
00000010
00002000
,
00000000
00000000
00000000
00003000
,
00000001
00000000
00000000
00001000
00000000
00001001
00000000
00000000
,
00000001
00000000
00000000
00001000
00000000
00000000
00000010
00000000
,
00010000
00000000
00001000
00000000
00010000
00001000
00010000
00000000
,
00001000
00000000
00000000
00100000
00000000
00000000
00010000
00000000
,
01000000
00000000
00010000
00000000
10000000
00010000
10000000
00000000
,
00010000
01000000
00100000
00000000
,
10000000
01000000
00100000
00000000
,
00001000
00000000
00010000
00000000
00010000
00000000
00001000
00010000
,
00000000
00000100
00010000
00000000
00001000
00000000
00010000
00000000
,
00000010
00000000
00000000
00001000
00000000
00000000
00000100
00000000
,
00010000
00001000
00000100
00000001
,
00001000
00000000
00000000
00000001
00000000
00000000
00001000
00000000
,
00000001
00000000
00000010
00000000
00000100
00001000
00000100
00000000
,
00001000
00000000
00000000
00000001
00000000
00000000
00000100
00000000
,
00000110
00000000
00010000
00001000
,
00010000
00001000
00100000
00010000
,
01000000
00100000
10000000
01000000
,
00010000
00001000
00000010
00000100
,
00001000
00000001
00001000
00000010
,
00000100
00000000
00000000
00000001
00000000
00000000
00002002
00000000
,
00000000
00000000
00000000
00003003
00000000
00000010
00000100
00000010
;

//--------------- dance-double - Fred-104 ----------------
#NOTEDATA:;
#STEPSTYPE:dance-double;
#DESCRIPTION:Fred-104;
#DIFFICULTY:Medium;
#METER:13;
#CREDIT:Fred-104;
#NOTES:
00000000
00000000
00000000
00000000
,
00000000
00000000
00000000
00000000
,
00000000
00000000
00000000
00000000
,
00000000
00000000
00000000
00000000
,
00000000
00000000
00000000
00000000
,
00000000
00000000
00000000
00000000
,
10000000
00000000
00010000
01000000
00000000
00100000
01000000
00000000
,
00010000
00000000
10000000
01000000
00200000
00000000
00302000
00000000
,
00013000
00000000
00001000
00001000
00000000
00010000
00010000
00000000
,
01001000
00000000
00010100
00000000
00010000
00001000
00000100
00000001
,
00000010
00000000
00000001
00002000
00000000
00003002
00000000
00000023
,
00000000
00002030
00000000
00023000
00000000
00230000
00000000
00000000
,
01300000
00000000
00010000
10000000
00100000
02000000
00000000
03200000
,
00000000
20300000
00000000
31000000
00100000
00001000
00010000
00001000
,
00000000
00000010
00000100
00000000
00001000
00000010
00000100
00000001
,
00000000
00000100
00000010
00000100
00000000
00000001
00000000
00001000
,
00000010
00000000
00001000
00000100
00000000
00010000
00001000
00000000
,
00010000
00000010
00001000
00000010
00000000
00010000
00001000
00100000
,
00001000
00000000
00100000
00010000
00000000
10000000
00000000
00010000
,
00000000
10000000
00000000
00010000
01000000
00010000
00000000
01000000
,
00001000
00010000
00000100
00001000
00000010
00000100
00000000
00000010
,
00000000
00000110
00000000
00000001
00000100
00001000
00010000
00100000
,
00000000
01000000
00010000
00000000
10000000
00000000
01000000
00000000
,
00100000
00001000
00100000
00001000
00010000
00001000
00010000
00001000
,
00000000
00010000
00000100
00001000
00000100
00000010
00000001
00000000
,
00000100
00001000
00000100
00000001
00000000
00000010
00000000
00000000
,
00000110
00000000
00000000
00011000
00000000
00000000
01100000
00000000
,
00000000
10010000
00000000
00010000
01000000
00010000
10000000
01000000
,
00100000
00000000
00001000
00000000
00100000
00001000
00010000
00001000
,
00000000
00010000
00001000
00010000
00000100
00001000
00000001
00000000
,
00001001
00000000
00000000
00000110
00000000
00000000
00001010
00000000
,
00000000
00000101
00000000
00000000
00000001
00000100
00001000
00000000
,
00010000
01000000
10000000
00010000
01000000
00100000
10000000
00000000
,
10010000
01000000
00011000
00000100
,
00002002
00000000
00003003
00000002
,
00000103
00000001
00000100
00000010
00000000
00010000
00001000
00000000
,
00100000
00000000
00010000
01000000
00000000
00010000
10000000
00010000
,
00000000
10000000
01000000
00100000
00001000
00010000
00001000
00000000
,
00010000
00000000
00000000
01001000
00000000
00000000
00001000
00000000
,
00010000
00000000
00000000
00010010
00000000
00000000
00001000
00000000
,
00010000
00001000
00000010
00000100
00010000
00001000
00000010
00000100
,
00000000
00010000
00022000
00000000
00000000
00000000
00033000
00000000
,
00001000
00010000
01000000
10000000
00010000
01000000
00100000
00000000
,
10000000
01000000
00010000
00001000
00000010
00000100
00001000
00000000
,
00000001
00000100
00001000
00010000
00100000
01000000
00010000
00000000
,
10000000
00100000
00010000
00001000
00010000
00100000
01000000
00010000
,
10000000
00010000
00100000
00010000
01000000
00001000
00010000
00000000
,
00001000
00010000
00000010
00001000
00000100
00010000
00001000
00000000
,
00010000
00000000
00011000
00000000
00001000
00010000
01000000
00000000
,
00100000
00010000
00001000
00000100
00000000
00000110
00000000
00000000
,
00000001
00000100
00001000
00010000
01000000
10000000
00010000
00200000
,
00000000
01300000
00100000
00010000
10000000
00100000
10000000
00100000
,
01000000
00010000
01000000
00001000
00010000
00000100
00001000
00000200
,
00000000
00001300
00000001
00000100
00000010
00001000
00000001
00000100
,
00001000
00000000
00010000
00001000
00010000
00020000
00000000
00032000
,
00000000
00203000
00000000
00302000
00003000
00011000
00000000
00000000
,
00000100
00010000
00000100
00000000
00010000
00000000
00001000
01000000
,
00000000
00001000
00010000
00000000
00001000
00100000
00001000
00100000
,
00010000
00100000
01000000
10000000
00000000
00010000
01000000
00100000
,
10000000
01000000
00100000
01000000
00000000
00100000
00001000
00010000
,
00001000
00000000
00000010
00000100
00001000
00000000
00000200
00000000
00000000
00000000
00000310
00000000
00000001
00000000
00000100
00000000
,
00000010
00000100
00001000
00010000
00100000
10000000
00010000
00000000
,
10010000
00011000
00001001
00011000
,
10010000
00011000
00001001
00011000
,
10010000
00000000
00000000
00011000
00000000
00000000
00001001
00000000
,
00000001
00000010
00000100
00010000
00002000
00000000
00000000
00000000
,
00013000
00000000
00011000
00000000
00001000
00010000
00001000
00000000
,
00100000
00000000
00001000
00100000
00000000
00010000
10000000
01000000
,
00010000
01000000
00000000
10000000
00000000
00100000
01000000
00000000
,
00010000
00100000
00001000
00020000
00000000
00000000
00030000
00000000
,
00010000
00000000
00000010
00001000
00000000
00000010
00000100
00000000
,
00000001
00000000
00000100
00001000
00000000
00010000
01000000
00000000
,
10010000
00000000
00000000
00011000
00000000
00000000
00001001
00000000
,
00000000
00011000
00000000
00000000
10010000
00000000
10000000
00100000
,
02000000
00000000
00000000
03200000
00000000
00000000
20300000
00000000
,
32000000
00000000
03100000
00001000
,
00020000
00000000
00000000
00030020
00000000
00000000
00002030
00000000
,
00003200
00000000
00000000
00010300
00000000
00011000
00000000
00000000
,
00010000
00001000
00000100
00000001
,
00001000
00000100
00000010
00000001
00000100
00000010
00000100
00000200
,
00000000
00000000
00000000
00000300
,
00000001
00000010
00001000
00010000
00000000
00011000
00000000
00000000
,
00001000
00000000
00010000
00001000
00000000
00100000
00001000
00100000
,
00010000
01000000
00010000
00000000
01000000
00100000
10000000
00000000
,
00010000
00000000
01000000
00100000
00000000
10000000
01000000
00100000
,
00000000
00001000
00000000
00010000
00000100
00001000
00000100
00000000
,
00000110
00000000
00000010
00000001
00001000
00000001
00000000
00001000
,
00000000
00000010
00000000
00010000
00000000
00011000
00000000
00000000
,
00001000
00000000
00010000
00000000
00100000
00000000
10000000
10000000
,
00000000
00100000
01000000
00000000
00010000
00100000
00001000
00010000
,
00000010
00000000
00010000
00010000
00000000
00000100
00001000
00000001
,
00001000
00000010
00001000
00000010
00000100
00000001
00001000
00000000
,
00000001
00000000
00001000
00000001
00000000
00001000
00000010
00010000
,
00001000
00000000
00100000
00001000
00100000
00000000
00001000
00000000
00000000
00000000
00011000
00000000
00000000
00000000
00000000
00000000
,
00001000
00000000
01000000
00010000
00000000
10000000
00010000
01000000
,
00100000
00000000
10000000
00000000
01000000
00100000
00001000
00010000
,
00001000
00100000
00001000
00010000
00001000
01000000
00001000
00000000
,
00010000
00000100
00001000
00000100
00010000
00000010
00001000
00000000
,
00000100
00000010
00000001
00001000
00000001
00000100
00000010
00000000
,
00001000
00000001
00000010
00001000
00010000
01000000
10000000
00000000
,
11000000
00000000
00000000
01010000
00000000
00000000
00022000
00000000
,
00000000
00000000
00000000
00000000
00033000
00010000
00001000
00011000
;

//--------------- dance-double - Fred-104 ----------------
#NOTEDATA:;
#STEPSTYPE:dance-double;
#DESCRIPTION:Fred-104;
#DIFFICULTY:Hard;
#METER:17;
#CREDIT:Fred-104;
#NOTES:
00000000
00000000
00000000
00000000
,
00000000
00000000
00000000
00000000
,
00000000
00000000
00000000
00000000
,
00000000
00000000
00000000
00000000
,
00000000
00000000
00000000
00000000
,
00000000
00000000
00000000
00000000
,
00001001
00000000
00000001
00000100
00001000
00010000
00001000
00000000
,
00010000
00000000
00001000
00100000
00010000
00000000
10000000
00100000
,
01000000
00010000
01000000
00000000
00100000
00000000
01000000
00100000
01000000
00000000
00010000
00000000
10000000
01000000
10000000
00000000
,
01000000
00100000
01000000
00000000
00100000
00010000
00100000
00000000
00010000
00001000
00010000
00000100
00001000
00000100
00010000
00000000
,
00000010
00000000
00001000
00002000
00000000
00003002
00000000
00000203
,
00000000
00000320
00000000
00002030
00000000
00003200
00000000
00000000
,
00000301
00000100
00002000
00003020
00000230
00000302
00000000
00000023
,
00000000
00002030
00000000
00013000
01000000
00100000
00010000
10000000
,
00000000
00000000
00100000
00000000
10000000
00000000
01000000
00100000
01000000
00000000
00100000
00000000
00001000
00000000
00021000
00000000
,
00000000
00000000
00030010
00000000
00001000
00000000
00000200
00000000
00020300
00000000
00032000
00000000
00013000
00001000
00010000
00000000
,
00000010
00001000
00000100
00010000
00001000
00100000
01000000
00000000
,
00100000
00000000
00001000
00010000
00001000
00010000
00001000
00000000
00000000
00000000
00010000
00000010
00001000
00000010
00010000
00001000
,
00010000
00000000
00001000
00011000
00000000
00010000
00000010
00001000
,
00000000
00001010
00000000
00010010
00010000
00001000
00100000
00010000
,
00100000
00000000
00001000
00010000
00001000
00000000
00100000
00000000
00010000
00000000
01000000
00000000
00000000
00000000
01100000
00000000
,
00000000
00000000
01000000
00001000
01000000
00001000
00010000
00001000
00010000
00000100
00001000
00000100
00000010
00000000
00000001
00000000
,
00001001
00000100
00011000
01000000
,
10010000
00010000
01000000
00100000
10000000
01000000
00100000
02000000
,
00000000
03100000
01000000
00010000
00001000
00000010
00000100
00001000
,
00000001
00000000
00000100
00000010
00000100
00000000
00000001
00000000
00001000
00000000
00000001
00000100
00000001
00000100
00000010
00000100
,
00000010
00000000
00000000
00001010
00001000
00000001
00001001
00000000
,
00000000
00000000
00011000
00000000
00010000
00000000
00000010
00000000
00010000
00000000
00001000
00000000
00100000
00010000
00100000
00000000
,
00110000
00000000
10010000
00010000
01000000
00100000
01000000
00200000
,
00000000
00000000
10300000
00000000
11000000
00000000
00000000
00000000
00010000
00000000
01000000
00000000
00001000
00010000
00001000
00000000
,
00011000
00000000
00000000
00010100
00000100
00001000
00001100
00000000
,
00000000
00000000
00001001
00000000
00000000
00000000
00000100
00000010
00000100
00000000
00000001
00000000
00000200
00000000
00000000
00000000
,
00000301
00000100
00001000
00000100
00000001
00000010
00000100
00010000
,
00011000
00010010
00011000
01001000
,
00001000
00010000
00001000
00100000
00010000
10000000
00100000
01000000
,
00010000
10000000
01000000
00010000
00001000
00000100
00000001
00000000
,
00001000
00000001
00000100
00000010
00001000
00000100
00001000
00000010
,
00000000
00000000
00000100
00000000
00000001
00000000
00000010
00000000
00000100
00000000
00010000
00001000
00010000
00001000
00010000
00000000
,
00011000
00000000
00000000
00000000
00010000
00000000
00010100
00000000
00000000
00000000
00010000
00000000
00001000
01000000
00001000
00000000
,
00010000
00000000
00000000
00000000
00000100
00000000
00001000
00000000
00000010
00001000
00000010
00000000
00010000
00001000
00010000
00000000
,
00001000
00000000
00100000
00010000
00100000
00010000
10000000
00100000
01000000
00010000
10000000
00000000
00010000
10000000
00010000
00000000
,
00000000
01000000
02200000
00000000
00000000
00000000
03300000
00000000
,
00010000
00100000
01000000
00000000
00100000
00000000
00010000
00100000
00001000
00000000
00010000
00000000
00000010
00001000
00000001
00000000
,
00001000
00000100
00001000
00000000
00000001
00000100
00000001
00000000
00000100
00000010
00000100
00000000
00000001
00001000
00000001
00000000
,
00001000
00000010
00000100
00000000
00000010
00000000
00001000
00000010
00010000
00000000
00001000
00000000
00100000
00010000
10000000
00000000
,
00100000
10000000
00100000
10000000
01000000
00000000
00100000
00010000
00100000
00001000
00010000
00000000
00000100
00001000
00000100
00000000
,
00000010
00000001
00001000
00000000
00000100
00000000
00010000
00001000
00100000
00000000
00010000
00000000
10000000
00100000
01000000
00000000
,
00010000
10000000
00100000
00000000
01000000
00000000
00001000
00010000
00000100
00000000
00001000
00000000
00000100
00000010
00000001
00000000
,
00001000
00000100
00000010
00000000
00000001
00000000
00000010
00000100
00001000
00000000
00000001
00000000
00000100
00000010
00001000
00000000
,
00000001
00000010
00000100
00001000
00000100
00010000
00001000
00000000
00000000
00000000
00022000
00000000
00000000
00000000
00033000
00000000
,
00001000
00010000
00100000
10000000
00010000
01000000
10000000
02000000
,
00000000
00000000
03010000
00000000
10000000
00000000
01000000
00000000
00100000
00000000
00001000
00010000
00001000
00000000
00010000
00000000
,
00000010
00001000
00000100
00000000
00010000
00000000
00001000
00100000
00010000
00000000
01000000
00000000
00001000
00010000
00000100
00000000
,
00001000
00000000
00000010
00000000
00010000
00000000
00000100
00000000
00001000
00000000
00000010
00010000
00001000
00000000
00100000
00000000
,
00110000
00000000
00001000
00001000
00010000
00010200
00000000
00020300
,
00000000
00032000
00000000
02003000
00000000
03002000
00013000
00000100
,
00001000
00000100
00000010
00000000
00000001
00000000
00000100
00001000
,
00000000
00000000
00010000
00000000
00100000
00000000
00000000
00000000
01000000
00000000
00010000
10000000
00010000
10000000
01000000
10000000
,
01000000
00000000
00100000
00000000
00001000
00000000
00012000
00000000
00000000
00000000
01003000
00000000
00001000
00010000
00001000
00000000
,
00010000
00000000
00000100
00001000
00000100
00000000
00020100
00000000
00000000
00000000
00031000
01000000
00001000
01000000
00001000
00000000
,
00010000
00000000
00000010
00001000
00000010
00000000
00000210
00000000
00000000
00000000
00000310
00000000
00001000
00000000
00000100
00000000
,
00010000
00001000
00010000
00000000
00001000
00100000
00001000
00000000
00100000
00010000
10000000
00000000
00100000
10000000
00010000
00000000
,
10000000
00000000
01000000
00100000
00010000
00000000
01000000
00000000
00001000
00000000
00010000
00001000
00000010
00000000
00000100
00000000
,
00001000
00000000
00000010
00000000
00000100
00000000
00000001
00000000
00000010
00000100
00000010
00000100
00000010
00000001
00001000
00000000
,
00000010
00010000
00000010
00010000
00001000
00000000
00010000
00001000
00100000
00001000
00100000
00000000
00001000
00010000
00001000
00000000
,
00011000
00010010
02002000
03003000
,
01100000
00000000
00000000
00000000
00000000
00000000
00000000
00000000
00000000
00000000
00000000
00000000
00000000
00000000
00000000
00000000
10010000
00000000
00000000
00000000
00000000
00000000
00000000
00000000
00000000
00000000
00000000
00000000
00000000
00000000
00000000
00000000
00010000
00000000
00000000
00000000
00000000
00000000
00000000
00000000
01000000
00000000
00000000
00000000
00000000
00000000
00000000
00000000
00200000
00300000
00000000
00000000
00000000
00000000
00000000
00000000
00200000
00300000
00000000
00000000
00000000
00000000
00000000
00000000
,
00010000
10000000
00100000
20000000
00000000
31000000
00100000
00010000
,
00001000
00000100
00001000
00010000
00100000
00001000
00011000
00000000
,
00010000
00001000
00000100
00000002
00000000
00001003
00000010
00000100
,
00000001
00000000
00000010
00000100
00001000
00000000
00010000
00000000
00100000
01000000
10000000
00000000
00010000
00000000
00000000
00000000
,
10000000
00000000
00100000
01000000
00010000
00000000
00001000
00000000
00000010
00000100
00000001
00000000
00001000
00000000
00000001
00000000
,
00000101
00000000
00000000
00001100
00000000
00000000
00011000
00000000
,
00000000
00000000
01100000
00000000
00000000
00000000
00000000
00000000
10000000
00010000
10000000
00100000
01000000
00010000
10000000
00010000
,
02000000
00000000
00000000
03020000
00000000
00000000
20030000
00000000
,
31000000
00100000
00001000
00010000
00000100
00000010
00000001
00001000
,
00000002
00000000
00000000
00000023
00000000
00000000
00000230
00000000
,
00020300
00000000
00030000
00011000
00000000
01001000
00000000
00000000
,
00001000
00010000
01000000
10000000
00010000
10000000
00100000
00000000
,
01000000
00100000
00010000
00001000
00000100
00000010
00001000
00001001
,
00000000
00000000
00000000
00000000
00000000
00000000
00000001
00000100
00000010
00000100
00000001
00000010
00000100
00001000
00000100
00010000
,
00001000
00010000
00001000
00010000
00000000
00022000
00000000
00033000
,
00001000
00100000
00010000
00000000
01000000
00000000
00010000
00100000
00001000
00000000
00010000
00000000
00000010
00001000
00000100
00000000
,
00010000
00000000
00001000
00010000
00001000
00000000
00100000
00010000
00100000
00000000
00001000
00000000
01000000
00000000
00001000
00000000
,
00010000
00000010
00001000
00000000
00000001
00000000
00001000
00000010
00010000
00000000
00001000
00000000
00100000
00010000
10000000
00000000
,
00010000
00000000
01000000
00100000
01000000
00000000
00001000
00010000
00001000
00000000
00100000
00000000
00001000
00000000
00010000
00000000
,
00000010
00000000
00001000
00001000
00000001
00000001
00000000
00000101
,
00000000
00001100
00000000
00000101
00000000
00000100
00000001
00001000
,
00000001
00000000
00000100
00000000
00001000
00000000
00010000
00100000
,
00000000
01000000
00010000
00000000
10000000
01000000
00100000
00001000
,
00010000
00001000
00010000
00010100
00000000
00010000
00000010
00001000
,
00000100
00000000
00001000
00000000
00000001
00000000
00000100
00000000
00000001
00000000
00000100
00000010
00000100
00000000
00000001
00000000
,
00001000
00000100
00000010
00000100
00000000
00000010
00000001
00001000
,
00000001
00001000
00000001
00001000
00000001
00000010
00000100
00001000
00000100
00000000
00020000
00000000
00000000
00000000
00000000
00000000
,
00031000
00010000
00100000
10000000
00000000
01000000
00010000
00001000
,
00000000
00000000
00011000
00000000
00010000
00001000
00000100
00000001
,
00001000
00000000
00000001
00000100
00000010
00000000
00001000
00000100
00000010
00000000
00000001
00000000
00001000
00000001
00000010
00000000
,
00000001
00000000
00001000
00000010
00010000
00000000
00000100
00010000
00001000
00000000
00100000
00010000
10000000
00000000
00010000
00000000
,
01000000
00000000
00100000
10000000
00010000
00000000
10000000
01000000
00100000
00000000
00001000
00000000
00010000
00001000
00100000
00000000
,
00001000
00000000
00010000
00001000
01000000
00000000
00001000
00010000
00000100
00010000
00000100
00001000
00000100
00000010
00000001
00001000
,
00000001
00000010
00000100
00010000
00001000
00000000
00100000
00010000
10000000
00100000
01000000
00000000
02200000
00000000
00000000
00000000
,
00000000
00000000
00000000
00000000
03300000
00010000
10000000
10010000
;
