#TITLE:GET UP AGAIN;
#ARTIST:Zekk feat. くらべ;
#ARTISTTRANSLIT:Zekk feat. kurabe;
#GENRE:COMPETITIVE DRUMSTEP;
#BANNER:GET UP AGAIN.png;
#BACKGROUND:GET UP AGAIN-bg.png;
#CDTITLE:./CDTitles/bm IIDX 30 RESIDENT.png;
#MUSIC:GET UP AGAIN.ogg;
#SAMPLESTART:43.83;
#SAMPLELENGTH:15;
#BPMS:0=180;

//--------------- dance-single - Fred-104 ----------------
#NOTES:
     dance-single:
     Fred-104:
     Beginner:
     2:
     :
0000
0000
0000
0000
,
0000
0000
0000
0000
,
0000
0000
0000
0000
,
0000
0000
0000
0000
,
0000
0000
0000
0000
,
0000
0000
0000
0000
,
1000
0000
0000
0000
,
0001
0000
0000
0000
,
1000
0000
0000
0000
,
0000
0000
0000
0000
,
0002
0000
0000
0000
,
0003
0000
0000
0000
,
2000
0000
0000
0000
,
3000
0000
0000
0000
,
0002
0000
0000
0000
,
0003
0000
0000
0000
,
2000
0000
0000
0000
,
3000
0000
0000
0000
,
0001
0000
0000
0000
,
1000
0000
0000
0000
,
0010
0000
0000
0000
,
1000
0000
0000
0000
,
0001
0000
0000
0000
,
1000
0000
0000
0000
,
0100
0000
0000
0000
,
0010
0000
0000
0000
,
0001
0000
0000
0000
,
0000
0000
0000
0000
,
1000
0000
0000
0000
,
0000
0000
0000
0000
,
0001
0000
0000
0000
,
1000
0000
0000
0000
,
0001
0000
0001
0000
,
1001
0000
0000
0000
,
1000
0000
0000
0000
,
0001
0000
0000
0000
,
1000
0000
0000
0000
,
0010
0000
0000
0000
,
0100
0000
0000
0100
,
0000
0000
0100
0000
,
0001
0000
0000
0000
,
1001
0000
0000
0000
,
1000
0000
1000
0000
,
0001
0000
0001
0000
,
0010
0000
0000
0000
,
0010
0000
0000
0000
,
0100
0000
0000
0100
,
0000
0000
0100
0000
,
1000
0000
0000
0000
,
0001
0000
0000
0000
,
2000
0000
0000
0000
,
0000
0000
3000
0000
,
0002
0000
0000
0000
,
0000
0000
0003
0000
,
2000
0000
0000
0000
,
0000
0000
3000
0000
,
0002
0000
0000
0000
,
0003
0000
0000
0000
,
2000
0000
0000
0000
,
0000
0000
0000
3000
,
0002
0000
0000
0000
,
0000
0000
0000
0003
,
1000
0000
0000
0000
,
0001
0000
0000
0000
,
1000
0000
1000
0000
,
1001
0000
0000
0000
,
0001
0000
0000
0000
,
1000
0000
0000
0000
,
0010
0000
0010
0000
,
0010
0000
0000
0000
,
1000
0000
0000
0000
,
0001
0000
0001
0000
,
0001
0000
0000
0000
,
1000
0000
0000
0000
,
0100
0000
0100
0000
,
0100
0000
0000
0000
,
1000
0000
1000
0000
,
1000
0000
0000
0000
,
0002
0000
0000
0000
,
0003
0000
0000
0000
,
2002
0000
0000
0000
,
0000
0000
0000
0000
,
0000
0000
0000
0000
,
0000
0000
0000
0000
0000
0000
0000
3003
;

//--------------- dance-single - Fred-104 ----------------
#NOTES:
     dance-single:
     Fred-104:
     Easy:
     7:
     :
0000
0000
0000
0000
,
0000
0000
0000
0000
,
0000
0000
0000
0000
,
0000
0000
0000
0000
,
0000
0000
0000
0000
,
0000
0000
0000
0000
,
1000
0100
1000
0000
,
0001
1000
0001
0000
,
0100
0000
0000
0010
0000
0100
0000
0110
,
0000
0001
0000
0001
1000
0000
0000
0000
,
0002
0000
0023
0000
,
0230
0000
0000
0300
,
2000
0000
3002
0000
,
0203
0000
0000
0300
,
0002
0000
2003
0000
,
3002
0000
0000
0003
,
2000
0000
0002
0000
,
3003
0000
0000
0000
,
0001
0010
0010
0001
,
1000
0010
0100
0000
,
0001
0001
1000
0100
,
1000
0001
0100
0000
,
0001
0100
1000
0100
,
0001
1000
0100
0010
,
0001
1000
0001
0100
,
0110
0000
0010
0000
0000
0010
0000
0000
,
1001
0000
1000
0100
,
0010
0000
0001
1000
,
1001
0000
0001
0100
,
1000
0100
0001
1000
,
0110
0000
0000
0001
0000
0000
0001
0000
,
1000
0000
0000
1000
0000
0000
0010
0000
,
0100
0100
0001
0001
,
1001
0000
0000
0000
,
1000
0100
1000
1000
,
0001
0000
0000
0100
0000
0010
0000
0010
,
0200
0000
0301
1000
,
0001
0010
0100
1000
,
0001
0000
0000
0100
0000
0000
1000
0000
,
0000
0010
0000
0000
0001
0000
1000
0000
,
0001
0000
1000
0000
0010
0000
0000
0100
,
0000
0000
0001
0000
1000
0000
0000
1001
,
0000
0000
0001
0000
0010
0000
0000
0100
,
0000
1000
0001
0100
,
0020
0000
0000
0000
0130
0000
0000
0100
,
0000
0000
0001
0000
1000
0001
1000
0000
,
0001
0000
0000
1000
0000
0000
0010
0000
,
0000
0100
0000
0000
0001
0000
1000
0000
,
1001
0000
0000
0001
0000
0000
0000
2002
,
0000
0000
3003
0000
,
0001
0000
0001
0000
0001
0000
0000
0001
,
0000
0000
0001
0000
0000
0001
0000
0000
,
1000
0000
1000
0000
1000
0000
0000
1000
,
0000
0000
1000
0000
0000
1000
0000
0000
,
0010
0000
0010
0000
0010
0000
0000
0100
,
0000
0000
0100
0000
0000
0100
0000
0000
,
0001
0000
1000
0000
0001
0000
0000
2002
,
0000
0000
0000
3003
,
2000
0000
3002
0000
,
0023
0000
0000
0000
,
0230
0000
2300
0000
,
3002
0000
0003
0000
,
1000
1000
0001
0001
,
0100
0100
0010
0000
,
0100
0000
0100
0000
0001
0000
0000
1000
,
0000
0100
0010
0000
0001
0000
0000
1001
,
0000
1000
0010
0100
,
0010
0000
0010
0000
1000
0001
1000
0000
,
0100
0010
0010
0001
,
1000
0000
0001
0000
0010
0010
0010
0000
,
0002
0000
0003
0000
2000
0000
3000
0001
,
0000
0100
0000
0010
0000
0100
0000
0100
,
0000
0001
1000
0100
,
0010
0000
0000
0001
0000
1000
0000
0001
,
0200
0000
0310
0100
,
0001
1000
0001
1000
,
0100
0000
0000
0010
0000
0000
0001
0000
,
0000
0010
0000
0000
0100
0000
1000
0000
,
0001
0000
0000
1000
0000
0000
0001
0002
,
0000
0000
0003
0000
,
2001
0000
0000
0000
,
3002
0000
0000
0000
,
0203
0000
0000
0000
,
0020
0000
0000
0000
0000
0000
0000
0330
;

//--------------- dance-single - Fred-104 ----------------
#NOTES:
     dance-single:
     Fred-104:
     Medium:
     11:
     :
0000
0000
0000
0000
,
0000
0000
0000
0000
,
0000
0000
0000
0000
,
0000
0000
0000
0000
,
0000
0000
0000
0000
,
0000
0000
0000
0000
,
1000
1000
0100
0100
,
0010
0001
0010
0000
0001
1000
0001
0000
,
0100
0010
0100
0001
0000
1000
0001
1001
,
0000
0100
0000
0100
0110
0000
0000
0000
,
1001
0000
0001
0000
0010
0000
0000
0020
,
0000
0000
0000
0000
0130
0000
1000
0100
,
0000
0010
0001
0000
1000
0000
0001
0200
,
0000
0000
0000
0310
0100
0010
0000
2001
,
0000
0000
0000
0000
0000
0000
3100
0200
,
0000
0000
0000
0310
0001
0010
0001
0000
,
2000
0000
0002
0000
,
3003
0000
0000
0000
1000
0001
1000
0100
,
0000
0010
0001
0000
1000
0000
0001
0100
,
0000
0010
0100
0000
0010
1000
0100
0000
,
1000
0001
1000
0100
0010
0000
0001
1000
,
0000
0010
0100
0001
1000
0100
0010
0001
,
2000
0000
0010
0000
0100
0000
3010
1000
,
0001
0000
0010
0100
1000
0001
0000
0001
,
0100
0000
0010
0100
0010
0000
0110
0000
,
1001
0000
1000
0100
1000
0100
0000
0000
,
0110
0000
0000
0001
1000
0000
0110
0000
,
0001
0001
0000
0010
0100
1000
0001
0000
,
1001
0000
0000
0000
1000
0100
0001
0100
,
1000
0001
0100
0010
1000
0001
0010
0000
,
0100
0000
1000
1000
0000
0001
1000
0010
,
0100
0100
0001
0010
0000
0001
1000
0000
,
0001
0000
0001
0000
0010
0100
0010
0100
,
1000
0001
0000
0100
0000
0001
1000
0001
,
0000
0001
0010
0100
1000
0000
0001
1000
,
0010
0100
0000
1000
0000
0100
0001
1000
,
0100
0000
0010
0000
0001
0010
0001
1000
,
0000
0010
0000
1000
0000
0001
0010
0000
,
0100
1000
0000
0100
1000
0000
0001
0100
,
0000
0001
1000
0001
0010
0100
0100
1000
,
0001
0000
0100
0000
0010
0100
0010
0100
,
0000
0001
1000
0100
0010
0001
1000
1001
,
0000
1000
0100
1000
0001
0000
0100
0010
,
0000
0001
0000
0010
1000
0001
0010
0100
,
1000
0000
0001
0000
0100
0010
1000
0001
,
0000
0010
0100
0010
0000
0001
1000
0000
,
0001
0010
0000
0100
1000
0000
0001
0100
,
0000
0010
1000
0000
0001
0010
0100
1000
,
1001
0000
0000
0110
0000
1000
0001
0020
,
0000
0000
0030
0000
,
1001
0000
1000
0100
1000
0000
0010
0010
,
0000
0010
0010
0000
0100
0001
0100
0000
,
1001
0000
0001
0010
0001
0000
0100
0100
,
0000
0100
0100
0000
0010
1000
0001
0000
,
0110
0000
1000
0010
0100
0000
0001
0001
,
0000
0001
0001
0000
0010
0100
0010
0000
,
1001
0000
0001
0010
0100
0000
1000
2002
,
0000
0000
3000
0003
,
2000
0000
3200
0000
,
0320
0000
0000
0000
,
0032
0000
0203
0000
,
0020
0000
0330
0000
,
1000
1000
0100
0100
,
0010
0000
0010
0001
0010
0001
0000
0001
,
1000
0001
0100
0000
0010
1000
0010
1000
,
0000
0001
1000
0001
0100
0010
0100
0110
,
0000
1000
0100
1000
0001
0100
0000
0010
,
0001
0000
0010
0000
1000
0001
0010
0100
,
1000
0000
0001
1000
0010
1000
0010
1000
,
0000
0100
1000
0000
0010
0010
0010
0010
,
0100
0001
1000
0100
,
0010
0001
1000
0000
0010
0100
0010
0110
,
0000
0001
1000
0001
0100
0000
0010
0000
,
1000
0100
0000
0010
0001
1000
0001
0010
,
0100
0000
0001
0000
0100
0000
1000
0001
,
0100
0010
1000
0001
0010
0100
1000
0000
,
0001
0010
0000
1000
0010
0000
0001
0100
,
0000
1000
0100
0001
0010
0000
0110
0000
,
1000
0100
1000
0001
0100
0001
0100
0020
,
0000
0000
0030
0000
,
2001
0000
0000
0000
,
3002
0000
0000
0000
,
0203
0000
0000
0000
,
0320
0000
0000
0000
0130
0100
0010
0110
;

//--------------- dance-single - Fred-104 ----------------
#NOTES:
     dance-single:
     Fred-104:
     Hard:
     15:
     :
0000
0000
0000
0000
,
0000
0000
0000
0000
,
0000
0000
0000
0000
,
0000
0000
0000
0000
,
0000
0000
0000
0000
,
0000
0000
0000
0000
,
1000
0100
1000
0100
0010
0001
1000
0001
,
0100
0001
0100
0001
1000
0001
0100
0000
,
0001
0010
1000
0001
0100
1000
0001
1001
,
0000
1010
0000
0101
0101
0000
0000
0000
,
1001
0000
1000
0000
0001
0000
0010
0020
,
0000
0000
0000
0000
0130
1000
0001
0100
,
0000
1000
0100
0010
0100
0000
0001
2000
,
0000
0000
0000
3100
0010
0001
0000
2001
,
0000
0000
0000
0000
0000
0000
3001
2000
,
0000
0000
0000
3010
0001
0010
0100
0010
,
2010
0000
0000
3002
0023
0000
0000
0000
,
0030
0000
0000
0000
0000
0000
0000
0000
0001
1000
0001
1000
0001
0000
1000
0000
,
0001
0000
0100
0000
0010
0000
1000
0001
1000
0001
1000
0000
0100
0000
0010
0000
,
0001
0000
1000
0000
0010
0000
0100
0001
0100
0001
0100
0000
0010
0000
1000
0000
,
0001
0000
0010
0000
1000
0000
0001
0100
0010
0100
0010
0000
0001
0000
1000
0000
,
0010
0000
0100
0000
0001
0000
1000
0100
1000
0100
0010
0000
0001
0000
1000
0001
,
1000
0000
0001
0000
0100
0000
0010
1000
0010
1000
0001
0000
0010
0000
0100
0000
,
1000
0000
0001
0000
1000
0000
0001
0100
0010
0100
0001
0000
1000
0000
0100
0000
,
0002
0000
0103
1000
0010
0100
1000
0100
,
0001
0000
1000
0100
0100
0110
0000
0000
,
1001
0000
0000
0001
0100
0000
0110
0000
,
1010
0000
0000
1000
0000
0000
0000
0000
0000
0001
0000
0000
0010
0000
0000
0100
0000
0000
1000
0000
0001
0000
1000
0000
,
0010
0000
0000
0000
0000
0000
0000
0000
0100
0001
0100
0000
0001
1000
0001
0000
,
0010
0000
0100
0000
0001
0000
1000
0000
0010
0000
0001
0000
1000
0000
0100
0010
,
0001
0000
0001
0011
0000
1000
1010
1000
,
0001
0010
0001
0000
0010
0000
0010
0000
0000
0000
0100
0000
1100
0000
1000
0000
,
0001
0000
1000
0100
1000
0000
0001
0100
0001
0000
1000
0010
1000
0000
0001
0000
,
0100
0000
0001
0000
0000
0000
0001
1000
0001
0000
0001
0000
1000
0000
1001
0000
,
0000
0000
1000
0100
1000
0000
0001
0100
0010
0000
1000
0000
0001
0000
1000
0001
,
1000
0001
0010
1000
0001
0100
0010
0100
,
2000
0000
0000
0000
0010
0000
0000
0000
3001
0000
1000
0100
0010
0000
1000
0000
,
0010
0000
0001
0000
0010
0000
0100
1000
0100
1000
0001
0000
1000
0000
1000
0000
,
0001
0010
0100
0001
1000
0010
0001
1000
,
0010
0001
1000
0100
0010
1000
0001
0010
,
0100
0000
0000
0000
1000
0000
0001
0100
0001
0000
1000
0100
1000
0000
1100
0000
,
0000
0000
0001
1000
0010
0000
1000
0000
0100
0010
0001
0000
1000
0000
1001
0000
,
0000
0000
0001
0100
0001
0000
1000
0000
0100
0000
0001
0000
1000
0000
0010
0000
,
0001
1000
0010
0001
1000
0100
0010
1000
,
0002
0000
0000
0000
0100
0000
0000
0000
1003
0000
0001
0010
0100
0000
1100
0000
,
0000
0000
0001
0000
0001
0000
0101
0000
0000
0000
1000
0000
0100
0000
0010
0001
,
1000
0010
1000
0000
0001
0000
0100
0010
0100
0000
0001
0000
1000
0100
1000
0000
,
0001
0000
0100
0010
0100
0000
0001
0000
1000
0100
0010
0000
0001
1000
0010
0000
,
0110
0000
0000
1001
0000
1000
0100
0220
,
0000
0000
0000
0000
0000
0000
0330
0000
1000
0010
0100
0001
1000
0000
0000
0000
,
1001
0000
1000
0100
0110
0000
0010
0011
,
0000
0000
0001
0000
0011
0000
0000
0000
0001
0000
1000
0000
0010
0100
0010
0000
,
0110
0000
1000
0100
0110
0000
0001
0101
,
0000
0100
0101
0000
0001
1000
0100
0010
,
0011
0000
1000
0001
0101
0000
1000
1001
,
0000
0000
0001
0000
1001
0000
0000
0000
0001
0000
0010
0000
0100
1000
0100
1000
,
0001
0000
0000
0000
0100
0000
0010
0000
1010
0000
1000
0010
1000
0000
2002
0000
,
0000
0000
3000
0003
,
2010
0000
3002
0000
,
0023
0000
0000
0000
,
0230
0000
2300
0000
,
0002
0000
3003
0000
,
1000
0100
0001
0010
,
1000
0000
0100
0010
0001
1000
0000
1000
,
0001
0000
0100
0010
0100
0000
0001
0010
0001
0000
1000
0010
1000
0001
0010
0000
,
0000
0000
0010
0100
0010
0000
0100
0000
0010
0100
0010
0000
0100
0000
0110
0000
,
0000
0000
1000
0001
1000
0000
0001
0000
0010
0000
0100
0000
1000
0000
0010
0000
,
0100
1000
0001
0010
0100
1000
0100
0001
,
1000
0000
0001
0010
1000
0001
0100
0010
,
0001
0000
1000
0000
0001
0000
0010
0100
0010
0100
0010
0000
0010
0000
0010
0000
,
0001
1000
0001
1000
0010
0100
0010
0100
,
0001
0000
1000
0000
0100
0000
0010
0000
0001
1000
0010
0100
0001
0000
0101
0000
,
0000
0000
1000
0001
0010
0000
0100
0000
1000
0000
0001
0000
0100
0000
0010
0000
,
1000
0100
0010
1000
0010
0001
1000
0002
,
0100
0000
0000
0000
1000
0000
0000
0000
0013
0000
0100
1000
0001
0000
0100
0000
,
0010
0000
1000
0000
0001
0000
0010
0100
0010
0100
1000
0000
0001
0000
1000
0000
,
1010
0000
1000
0000
0010
0000
1000
0000
1001
0000
0000
0000
0001
0000
1000
0100
,
0010
0000
0001
0100
0010
0000
1000
0100
0010
0000
0001
1000
0001
0000
0000
0000
,
1000
0100
1000
0100
1000
0000
0001
0100
0001
0100
0001
0000
1000
0001
2000
0000
,
0000
0000
0000
0000
0000
0000
0000
0000
3001
0010
0100
1000
0001
0000
0000
0000
,
1000
0010
0100
1000
0100
0010
0001
0010
,
1000
0001
0010
0100
0001
1000
0010
0001
,
1000
0010
0001
1000
0100
0001
1000
0100
,
0010
0001
1000
0001
0101
0110
1010
1001
;

//--------------- dance-double - Fred-104 ----------------
#NOTES:
     dance-double:
     Fred-104:
     Easy:
     7:
     :
00000000
00000000
00000000
00000000
,
00000000
00000000
00000000
00000000
,
00000000
00000000
00000000
00000000
,
00000000
00000000
00000000
00000000
,
00000000
00000000
00000000
00000000
,
00000000
00000000
00000000
00000000
,
00010000
00001000
00010000
00000000
,
00000010
00010000
00001000
00000000
,
00100000
00000000
00000000
00001000
00000000
00010000
00000000
00011000
,
00000000
00001000
00000000
00001000
00010000
00000000
00000000
00000000
,
00002000
00000000
00023000
00000000
,
00230000
00000000
00000000
00300000
,
20000000
00000000
32000000
00000000
,
03200000
00000000
00000000
00300000
,
00002000
00000000
00023000
00000000
,
00030020
00000000
00000000
00000030
,
00002000
00000000
00000002
00000000
,
00003003
00000000
00000000
00000000
,
00001000
00000001
00000100
00001000
,
00000100
00001000
00010000
00000000
,
00001000
00010000
01000000
00100000
,
01000000
10000000
00010000
00000000
,
10000000
01000000
00100000
00001000
,
00010000
00001000
00010000
00000100
,
00001000
00000001
00000100
00000010
,
00000110
00000000
00001000
00000000
00000000
00001000
00000000
00000000
,
00001001
00000000
00000001
00000010
,
00001000
00000000
00010000
00001000
,
00011000
00000000
00001000
00010000
,
00100000
01000000
00100000
10000000
,
10010000
00000000
00000000
10000000
00000000
00000000
01000000
00000000
,
00100000
00000000
00000000
00100000
00000000
00000000
00001000
00000000
,
00010000
00010000
00001000
00001000
,
00011000
00000000
00000000
00000000
,
00010000
00000010
00001000
00000010
,
00000100
00000000
00000000
00000001
00000000
00000001
00000000
00000010
,
00000200
00000000
00001300
00000100
,
00010000
00001000
01000000
00001000
,
00010000
00000000
00000000
00100000
00000000
00000000
01000000
00000000
,
00000000
00010000
00000000
00000000
10000000
00000000
01000000
00000000
,
00100000
00000000
00001000
00000000
00010000
00000000
00000000
00010000
,
00000000
00000000
00001000
00000000
00010000
00000000
00000000
00011000
,
00000000
00000000
00010000
00000000
00001000
00000000
00000000
00000100
,
00000000
00000010
00001000
00000001
,
00000020
00000000
00000000
00000000
00000130
00000000
00000000
00000100
,
00000000
00000000
00010000
00000000
00001000
00010000
00001000
00000000
,
00010000
00000000
00000000
00001000
00000000
00000000
01000000
00000000
,
00000000
00010000
00000000
00000000
00100000
00000000
00001000
00000000
,
00011000
00000000
00000000
00001000
00000000
00000000
00000000
00022000
,
00000000
00000000
00033000
00000000
,
00001000
00000000
00010000
00000000
00100000
00000000
00000000
01000000
,
00000000
00000000
01000000
00000000
00000000
01000000
00000000
00000000
,
00010000
00000000
10000000
00000000
01000000
00000000
00000000
01000000
,
00000000
00000000
00100000
00000000
00000000
00100000
00000000
00000000
,
00001000
00000000
00010000
00000000
00001000
00000000
00000000
00000100
,
00000000
00000000
00000100
00000000
00000000
00000100
00000000
00000000
,
00000010
00000000
00001000
00000000
00000001
00000000
00000000
00002002
,
00000000
00000000
00000000
00003003
,
00000002
00000000
00000023
00000000
,
00002030
00000000
00000000
00003000
,
00020000
00000000
00230000
00000000
,
20300000
00000000
30000000
00000000
,
01000000
01000000
00100000
00100000
,
00001000
00010000
00001000
00000000
,
00010000
00000000
00001000
00000000
00010000
00000000
00000000
00000100
,
00000000
00010000
00001000
00000000
01000000
00000000
00000000
10010000
,
00000000
10000000
01000000
00100000
,
00001000
00000000
00010000
00000000
00001000
00100000
00001000
00000000
,
00010000
00001000
00010000
00100000
,
10000000
00000000
00010000
00000000
00100000
00100000
00100000
00000000
,
02000000
00000000
03000000
00000000
20000000
00000000
30000000
00100000
,
00000000
00010000
00000000
00001000
00000000
00010000
00000000
00010000
,
00000000
00001000
00010000
00001000
,
00010000
00000000
00000000
00000100
00000000
00001000
00000000
00000001
,
00000200
00000000
00000301
00001000
,
00000100
00001000
00000100
00010000
,
00001000
00000000
00000000
00010000
00000000
00000000
00100000
00000000
,
00000000
01000000
00000000
00000000
00001000
00000000
00010000
00000000
,
00000100
00000000
00000000
00001000
00000000
00000000
00000100
00000200
,
00000000
00000000
00000300
00000000
,
00012000
00000000
00000000
00000000
,
00023000
00000000
00000000
00000000
,
00032000
00000000
00000000
00000000
,
00020000
00000000
00000000
00000000
00000000
00000000
00000000
00033000
;

//--------------- dance-double - Fred-104 ----------------
#NOTES:
     dance-double:
     Fred-104:
     Medium:
     11:
     :
00000000
00000000
00000000
00000000
,
00000000
00000000
00000000
00000000
,
00000000
00000000
00000000
00000000
,
00000000
00000000
00000000
00000000
,
00000000
00000000
00000000
00000000
,
00000000
00000000
00000000
00000000
,
00001000
00010000
00100000
10000000
,
01000000
00100000
00001000
00000000
00010000
00000010
00001000
00000000
,
00000010
00010000
00001000
00010000
00000000
00001000
00010000
00011000
,
00000000
01000000
00000000
01000000
01100000
00000000
00000000
00000000
,
10010000
00000000
10000000
00000000
01000000
00000000
00000000
02000000
,
00000000
00000000
00000000
00000000
03100000
00000000
00001000
00000010
,
00000000
00000100
00001000
00000000
00000001
00000000
00000100
00000020
,
00000000
00000000
00000000
00010030
00001000
00010000
00000000
00012000
,
00000000
00000000
00000000
00000000
00000000
00000000
00013000
00002000
,
00000000
00000000
00000000
00013000
00001000
01000000
00010000
00000000
,
20000000
00000000
00020000
00000000
,
30030000
00000000
00000000
00000000
10000000
01000000
00100000
00001000
,
00000000
00001000
00010000
00000000
00000100
00000000
00001000
00000010
,
00000000
00000100
00000010
00000000
00001000
00000001
00000010
00000000
,
00000100
00001000
00000100
00010000
00001000
00000000
00010000
00001000
,
00000000
01000000
00001000
00000000
00100000
00010000
10000000
00000000
,
00020000
00000000
01000000
00000000
00100000
00000000
01030000
00010000
,
10000000
00000000
01000000
00010000
00001000
00010000
00000000
00010000
,
00000010
00000000
00001000
00000001
00000010
00000000
00000110
00000000
,
00011000
00000000
00010000
00001000
00010000
00001000
00000000
00000000
,
01100000
00000000
00000000
10000000
01000000
00000000
00100000
00000000
,
00001000
00001000
00000000
00010000
00001000
00000000
00011000
00000000
,
00000110
00000000
00000000
00000000
00001000
00000100
00000010
00000000
,
00000001
00000100
00000010
00000100
00001000
00010000
00001000
00000000
,
00010000
00000000
00001000
00001000
00000000
01000000
00010000
10000000
,
00010000
00010000
10000000
01000000
00000000
00100000
00001000
00000000
,
00010000
00000000
00010000
00000000
00001000
00000100
00000010
00001000
,
00000100
00000010
00000000
00000001
00000000
00000100
00001000
00010000
,
00000000
00010000
00001000
00100000
00001000
00000000
00010000
00001000
,
00000100
00000001
00000000
00001000
00000000
00000100
00000010
00000001
,
00001000
00000000
00000010
00000000
00010000
00001000
00010000
00001000
,
00000000
00010000
00000000
00100000
00000000
01000000
00010000
10000000
,
01000000
00100000
00000000
00001000
00010000
00000000
00001000
00010000
,
00000000
00000010
00010000
00001000
00010000
00001000
00000000
00010000
,
00100000
00000000
01000000
00000000
10000000
01000000
00010000
10000000
,
00000000
01000000
00100000
01000000
00010000
00001000
00010000
00011000
,
00000000
00010000
00001000
00000010
00000100
00000000
00010000
00001000
,
00000000
00000100
00000000
00000010
00001000
00000100
00000010
00000001
,
00001000
00000000
00000001
00000100
00001000
00010000
00001000
01000000
,
00000000
00010000
00100000
01000000
00000000
00100000
00001000
00000000
,
00010000
00001000
00000000
00000010
00001000
00000000
00010000
00001000
,
00000000
00000100
00001000
00000000
00010000
00001000
01000000
00010000
,
10010000
00000000
00000000
11000000
00000000
01000000
00100000
00002000
,
00000000
00000000
00003000
00000000
,
00001001
00000000
00000001
00000010
00000100
00000000
00010000
00010000
,
00000000
00001000
00001000
00000000
00010000
00001000
01000000
00000000
,
01100000
00000000
00100000
10000000
01000000
00000000
00100000
00100000
,
00000000
00001000
00001000
00000000
00010000
00001000
00000100
00000001
,
00001001
00000000
00000001
00000100
00000010
00000000
00000100
00000100
,
00000000
00001000
00001000
00000000
00010000
00001000
00010000
00000000
,
00011000
00000000
00001000
00010000
00100000
00000000
10000000
20020000
,
00000000
00000000
30000000
00030000
,
20000000
00000000
32000000
00000000
,
03020000
00000000
00000000
00000000
,
00032000
00000000
00003200
00000000
,
00000002
00000000
00000303
00000000
,
00000001
00000010
00000100
00010000
,
00001000
00000000
00001000
00010000
00001000
01000000
00000000
01000000
,
00001000
00010000
00000100
00000000
00001000
00000100
00000010
00000001
,
00000000
00000100
00000010
00000100
00001000
00010000
00001000
00011000
,
00000000
00001000
00010000
01000000
00100000
10000000
00000000
00100000
,
00010000
00000000
10000000
00100000
00010000
00001000
00010000
00001000
,
00010000
00000000
00001000
00000100
00000001
00001000
00000100
00000010
,
00000001
00000000
00000100
00000001
00000010
00000010
00000010
00000010
,
00000100
00010000
00001000
00010000
,
00100000
01000000
00010000
00000000
00100000
01000000
10000000
11000000
,
00000000
10000000
00010000
01000000
00001000
00000000
00010000
00000000
,
00001000
00010000
00000000
00000010
00001000
00000010
00010000
00001000
,
00010000
00000000
00001000
00000000
00000010
00000100
00001000
00000001
,
00000100
00000010
00000100
00001000
00010000
00001000
00010000
00000000
,
00001000
00010000
00000000
00100000
00010000
00000000
00001000
00010000
,
00000000
01000000
00010000
00001000
00010000
00000000
00011000
00000000
,
00001000
00010000
00100000
10000000
00010000
00100000
01000000
20000000
,
00000000
00000000
30000000
00000000
,
20010000
00000000
00000000
00000000
,
32000000
00000000
00000000
00000000
,
03200000
00000000
00000000
00000000
,
00302000
00000000
00000000
00000000
00013000
00010000
00001000
00011000
;

//--------------- dance-double - Fred-104 ----------------
#NOTES:
     dance-double:
     Fred-104:
     Hard:
     15:
     :
00000000
00000000
00000000
00000000
,
00000000
00000000
00000000
00000000
,
00000000
00000000
00000000
00000000
,
00000000
00000000
00000000
00000000
,
00000000
00000000
00000000
00000000
,
00000000
00000000
00000000
00000000
,
00010000
00001000
00010000
00001000
00000010
00000100
00000010
00000100
,
00001000
00000010
00001000
00000010
00000100
00001000
00010000
00000000
,
00001000
00010000
01000000
00100000
00010000
10000000
00100000
10100000
,
00000000
00110000
00000000
00011000
00011000
00000000
00000000
00000000
,
00001001
00000000
00000001
00000000
00000010
00000000
00000100
00000200
,
00000000
00000000
00000000
00000000
00010300
00001000
00000010
00001000
,
00000000
00010000
00001000
00000100
00001000
00000000
00010000
00002000
,
00000000
00000000
00000000
00013000
01000000
00100000
00000000
00120000
,
00000000
00000000
00000000
00000000
00000000
00000000
10030000
00200000
,
00000000
00000000
00000000
01300000
00001000
00000100
00000010
00001000
,
00001002
00000000
00000000
00001003
00000200
00000000
00000000
00000000
,
00000000
00000000
00000000
00000000
00000300
00000000
00000000
00000000
00010000
00001000
00010000
00001000
00010000
00000000
00001000
00000000
,
01000000
00000000
00010000
00000000
10000000
00000000
01000000
00100000
01000000
00100000
01000000
00000000
00100000
00000000
00001000
00000000
,
00010000
00000000
00001000
00000000
00000100
00000000
00000001
00000010
00000001
00000010
00000001
00000000
00001000
00000000
00000010
00000000
,
00000100
00000000
00001000
00000000
00010000
00000000
00001000
00100000
00001000
00100000
00001000
00000000
00010000
00000000
01000000
00000000
,
00100000
00000000
00001000
00000000
00010000
00000000
00001000
01000000
00001000
01000000
00001000
00000000
00010000
00000000
00000100
00001000
,
00000100
00000000
00010000
00000000
00001000
00000000
01000000
00010000
01000000
00010000
00100000
00000000
01000000
00000000
10000000
00000000
,
00100000
00000000
00010000
00000000
00001000
00000000
00010000
00000100
00001000
00000100
00010000
00000000
00001000
00000000
00000100
00000000
,
00000020
00000000
00000031
00001000
00010000
00100000
01000000
00010000
,
10000000
00000000
01000000
00100000
00001000
00011000
00000000
00000000
,
00011000
00000000
00000000
00000100
00000010
00000000
00000011
00000000
,
00001001
00000000
00000000
00001000
00000000
00000000
00000000
00000000
00000000
00000001
00000000
00000000
00000100
00000000
00000000
00001000
00000000
00000000
00010000
00000000
00001000
00000000
00010000
00000000
,
00001000
00000000
00000000
00000000
01000000
00010000
00100000
01000000
,
10000000
00000000
01000000
00000000
00010000
00000000
10000000
00000000
00100000
00000000
00010000
00000000
01000000
00000000
00001000
00010000
,
00001000
00000000
00010000
00011000
00000000
00010000
00000010
00010000
,
00001000
00010000
00001000
00000000
00000100
00000000
00000001
00000000
00000000
00000000
00000010
00000000
00000110
00000000
00000000
00000000
,
00001000
00000000
00000001
00000100
00000001
00000000
00001000
00000100
00001000
00000000
00000100
00010000
00001000
00000000
00010000
00000000
,
00100000
00000000
01000000
00000000
00000000
00000000
01000000
00010000
01000000
00000000
00100000
00000000
10000000
00000000
10010000
00000000
,
00000000
00000000
10000000
01000000
10000000
00000000
01000000
00100000
00010000
00000000
00100000
00000000
00001000
00000000
00010000
00001000
,
00000100
00000001
00001000
00000100
00000001
00000100
00000010
00000001
,
00002000
00000000
00000000
00000000
00000001
00000000
00000000
00000000
00003001
00000000
00000010
00000100
00001000
00000000
00000010
00000000
,
00000100
00000000
00001000
00000000
00010000
00000000
00001000
00010000
00001000
00010000
01000000
00000000
00100000
00000000
00100000
00000000
,
00010000
00100000
10000000
00010000
01000000
10000000
00100000
00010000
,
00001000
00000100
00000001
00001000
00000100
00000010
00000001
00001000
,
00000010
00000000
00000000
00000000
00000100
00000000
00001000
00010000
00001000
00000000
01000000
00010000
01000000
00000000
01100000
00000000
,
00000000
00000000
10000000
01000000
00100000
00000000
00001000
00000000
00010000
00000100
00001000
00000000
00000100
00000000
00000110
00000000
,
00000000
00000000
00000001
00001000
00000001
00000000
00000100
00000000
00000010
00000000
00000001
00000000
00000010
00000000
00000100
00000000
,
00000010
00001000
00000001
00000010
00000100
00010000
01000000
00100000
,
00020000
00000000
00000000
00000000
01000000
00000000
00000000
00000000
01030000
00000000
00010000
10000000
01000000
00000000
01100000
00000000
,
00000000
00000000
00001000
00000000
00010000
00000000
00011000
00000000
00000000
00000000
00010000
00000000
00001000
00000000
00000100
00000001
,
00001000
00000001
00000010
00000000
00000100
00000000
00010000
00001000
00010000
00000000
01000000
00000000
10000000
00010000
10000000
00000000
,
00100000
00000000
00010000
00001000
00010000
00000000
00001000
00000000
00000010
00000000
00000001
00000000
00000010
00000000
00000100
00000000
,
00001100
00000000
00000000
00010010
00000000
00010000
00001000
00022000
,
00000000
00000000
00000000
00000000
00000000
00000000
00033000
00000000
00010000
00001000
00010000
00001000
00010000
00000000
00000000
00000000
,
00011000
00000000
00001000
01000000
01010000
00000000
10000000
11000000
,
00000000
01000000
11000000
00000000
10000000
00100000
00010000
00001000
,
00011000
00000000
00010000
00000010
00001010
00000000
00000001
00000011
,
00000000
00000010
00000011
00000000
00000001
00000100
00001000
00010000
,
00011000
00000000
00001000
00100000
00110000
00000000
01000000
01100000
,
00000000
00000000
00100000
00000000
01100000
00000000
00000000
00000000
10000000
00000000
00010000
00000000
10000000
00100000
10000000
00100000
,
00010000
00000000
00000000
00000000
00001000
00000000
00010000
00000000
00011000
00000000
00010000
00000100
00010000
00000000
00022000
00000000
,
00000000
00000000
00030000
00003000
,
00021000
00000000
00030020
00000000
,
00002030
00000000
00000000
00000000
,
00003002
00000000
00000023
00000000
,
00002030
00000000
00020000
00033000
,
00001000
00010000
01000000
10000000
,
00100000
00000000
00010000
00001000
00010000
00001000
00000000
00001000
,
00010000
00000000
00000100
00001000
00000100
00000000
00010000
00001000
00010000
00000000
00000010
00001000
00000010
00000100
00000001
00000000
,
00000000
00000000
00001000
00000100
00001000
00000000
00000001
00000000
00001000
00000010
00001000
00000000
00000001
00000000
00001001
00000000
,
00000000
00000000
00000001
00000100
00000001
00000000
00000010
00000000
00000100
00000000
00001000
00000000
00000010
00000000
00000100
00000000
,
00001000
00010000
00100000
01000000
10000000
01000000
00010000
00100000
,
01000000
00000000
00100000
00001000
00000010
00000100
00010000
00001000
,
00010000
00000000
00001000
00000000
00000100
00000000
00000010
00001000
00000010
00001000
00000010
00000000
00001000
00000000
00000001
00000000
,
00001000
00000100
00001000
00000001
00001000
00000001
00000100
00000010
,
00000100
00000000
00001000
00000000
00010000
00000000
00001000
00000000
00010000
00001000
00010000
00001000
00010000
00000000
00011000
00000000
,
00000000
00000000
00001000
01000000
00001000
00000000
00010000
00000000
00001000
00000000
00100000
00000000
01000000
00000000
10000000
00000000
,
00100000
00010000
00100000
01000000
00010000
00100000
01000000
00020000
,
00001000
00000000
00000000
00000000
00100000
00000000
00000000
00000000
00031000
00000000
00010000
00000010
00010000
00000000
00001000
00000000
,
00010000
00000000
00000100
00000000
00000010
00000000
00000001
00001000
00000001
00001000
00000010
00000000
00000100
00000000
00000001
00000000
,
00000101
00000000
00000100
00000000
00000001
00000000
00000100
00000000
00000101
00000000
00000000
00000000
00001000
00000000
00000001
00000010
,
00000100
00000000
00010000
00001000
00100000
00000000
00010000
10000000
00100000
00000000
01000000
00001000
00010000
00000000
00000000
00000000
,
00001000
00010000
00001000
00010000
00001000
00000000
00010000
00000010
00010000
00000010
00010000
00000000
00001000
00010000
00002000
00000000
,
00000000
00000000
00000000
00000000
00000000
00000000
00000000
00000000
00013000
00001000
00000100
00000001
00001000
00000000
00000000
00000000
,
00000100
00000010
00000001
00001000
00000010
00000100
00001000
00010000
,
00100000
01000000
10000000
01000000
00100000
10000000
01000000
00100000
,
00001000
00010000
00000100
00000010
00000001
00000100
00001000
00010000
,
00100000
10000000
01000000
00100000
00101000
00001000
00010000
00011000
;
