#VERSION:0.83;
#TITLE:フリーフォール;
#ARTIST:Zekk;
#TITLETRANSLIT:Freefall;
#BANNER:Freefall.png;
#BACKGROUND:Freefall-bg.png;
#CDTITLE:./CDTitles/WACCA Lily.png;
#MUSIC:Freefall.ogg;
#SAMPLESTART:98.667;
#SAMPLELENGTH:15;
#BPMS:0=90,20=180,84=90,116.25=180,116.75=90,117.25=180,117.75=90,124.25=180,124.75=90,125.25=180,125.75=90,132.25=180,132.75=90,133.5=180,133.75=90,140.25=180,140.75=90,141.25=179.641,141.75=90,144=180,208=90,216=180;
#STOPS:116.25=0.167,117.25=0.167,124.25=0.166,125.25=0.167,132.25=0.166,133.5=0.084,140.25=0.167,141.25=0.166;
#BGSTAGE:16;

//--------------- dance-single - Fred-104 ----------------
#NOTEDATA:;
#STEPSTYPE:dance-single;
#DESCRIPTION:Fred-104;
#DIFFICULTY:Beginner;
#METER:4;
#BPMS:0=90,20=180,84=90,144=180,208=90,216=180;
#CREDIT:Fred-104;
#NOTES:
0000
0000
0000
0000
,
0000
0000
0000
0000
,
0000
0000
0000
0000
,
1000
0000
0001
0000
,
0100
0100
0110
0000
,
0001
0000
1000
0000
,
0100
0000
1000
0000
,
0001
0000
1000
0000
,
1001
0000
0000
0000
,
0001
0000
0010
0000
,
0100
0000
1000
0000
,
2002
0000
0000
3003
,
0000
0000
0000
0000
,
1000
0000
1000
0000
,
0100
0000
0100
0000
,
0001
0000
0001
0000
,
0010
0000
0010
0000
,
1000
0000
0001
0000
,
1000
0000
0001
0000
,
0100
0100
0100
0100
,
0100
0000
0000
0000
,
0001
0000
1000
0000
,
0100
0010
0001
0000
,
1000
0000
0001
0100
,
0010
0000
0100
0000
,
0001
1000
0001
0000
,
0010
0000
0100
0000
,
1000
0001
1000
0000
,
0001
0000
1000
1000
,
0002
0003
1000
0001
,
0100
0000
0010
0000
,
0200
0300
0001
1000
,
0001
0000
1000
0100
,
0020
0030
0001
1000
,
0001
0000
1000
0000
,
0200
0300
1000
0001
,
1000
0000
0001
0000
,
1000
0000
0000
0000
,
0002
0000
0000
0000
,
0000
0000
0000
0000
,
2003
0000
0000
0000
,
0000
0000
0000
0000
,
3002
0000
0000
0000
,
0000
0000
0000
0000
,
2003
0000
0000
0000
,
3000
0000
0000
0000
,
0001
0000
0000
0000
,
1000
0000
0000
0000
,
0001
0000
0100
0000
,
0001
0000
0000
0000
,
1000
0000
0100
0000
,
1000
0000
0001
0000
,
2002
0000
0000
0000
,
3003
0000
0000
0000
,
1000
0000
0100
0000
,
1000
1000
1000
0000
,
0001
0000
1000
0000
,
0001
0001
0001
0000
,
0010
0000
0100
0000
,
1000
0000
0001
0001
,
0001
0000
0100
0000
,
0010
0000
0100
0100
,
0100
0000
0001
0000
,
1000
0000
0100
0100
,
0100
0000
0010
0000
,
0001
0001
0001
0000
,
1000
0000
0001
0000
,
1000
1000
1000
0000
,
1001
0000
0001
0000
,
1000
0000
0100
0100
,
0100
0000
0010
0000
,
0100
0000
1000
1000
,
1000
0000
0001
0000
,
0100
0000
0001
0001
,
1000
0000
0000
0000
0001
0000
0000
2002
,
0000
0000
0000
0000
,
3003
0000
0000
0000
;

//--------------- dance-single - Fred-104 ----------------
#NOTEDATA:;
#STEPSTYPE:dance-single;
#DESCRIPTION:Fred-104;
#DIFFICULTY:Easy;
#METER:9;
#BPMS:0=90,20=180,84=90,144=180,208=90,216=180;
#CREDIT:Fred-104;
#NOTES:
0000
0000
0000
0000
,
0000
0000
0000
0000
,
0000
0000
0000
0000
,
0002
0000
0203
0000
0320
0000
1030
0001
,
0010
0000
0100
0000
1000
0000
0000
2002
0000
0000
0000
0000
0000
0000
3003
0000
,
0001
0101
1000
0100
,
1000
0010
0001
0100
,
1000
0000
0001
0000
0100
0000
0000
0220
,
0000
0000
0330
0001
,
1000
1000
0001
0001
,
0100
0010
0100
0000
0001
1000
0001
0000
,
0010
0100
1000
0000
0001
0000
0000
2002
,
0000
0000
0000
3003
,
1000
1000
0100
0100
,
0010
0010
0001
0001
,
0100
0100
0010
0010
,
1000
0001
2002
3003
,
0001
0010
0100
1000
,
0001
0100
0010
1000
,
0001
0100
0001
0000
1000
0100
1000
0000
,
0002
2003
3001
1001
,
1000
0000
0100
0000
0010
0010
0001
0000
,
1000
0000
0001
0000
0100
0100
0010
0010
,
0100
0000
0001
0000
0010
1000
0010
0001
,
1001
0000
0000
0110
0000
0000
2002
0000
0000
0000
3003
0000
0001
0000
1000
0000
,
1100
0000
0010
0000
0001
1000
0001
0100
,
0110
0000
0010
0000
1000
0001
0010
0100
,
1100
0000
0101
0000
1000
0010
0100
0001
,
0011
0000
0011
0000
0001
0000
1000
0000
0001
0000
0100
0000
0010
0100
0010
0000
,
1000
0001
0000
0000
1000
0001
0000
0000
0010
0000
0100
0000
1000
0000
0001
0000
,
0200
0000
0320
0000
2030
3000
1001
0001
,
0100
0010
0000
0000
0100
0010
0000
0000
0100
0000
0001
0000
1000
0000
0100
0000
,
0010
0000
0000
0000
0011
0000
0001
0000
1000
0000
0001
0000
0010
0100
0010
0000
,
0001
1000
0000
0000
1000
0001
0000
0000
0001
0000
0100
0000
0010
0000
0100
0000
,
0001
1000
0100
0001
0100
1000
1001
0000
,
1000
0100
0000
0000
0100
1000
0000
0000
1000
0000
0001
0000
0100
0010
0100
0000
,
0001
0000
1000
0000
0001
1000
0001
1000
,
0100
0000
0010
0001
0010
0001
1000
0000
,
0002
0000
0000
0000
,
2003
0000
3020
0000
,
0230
0000
0000
0000
,
0302
0000
2003
0000
,
3200
0000
0000
0000
,
0320
0000
0032
0000
,
2003
0000
0000
0000
,
3002
0000
2000
3003
,
1001
0000
0001
0000
,
1000
0100
0001
0100
,
1000
0001
0100
0100
,
0010
0100
0101
0000
,
0001
0010
0001
0000
1000
0100
1000
0000
,
0010
0100
0010
0000
0100
0001
0100
0000
,
2002
0000
0000
0000
0000
0000
0000
3003
,
0220
0000
0000
0000
0000
0000
0330
0000
1000
0001
1000
0001
1000
0000
1001
0000
,
1000
0100
1000
0000
0100
0000
0001
0100
,
1000
0000
0001
0000
0010
0000
0100
0010
,
0001
0010
0001
0000
1000
0000
0001
1000
,
0001
0100
1000
0100
,
0001
0000
0000
1001
0000
0000
1000
0000
,
0010
0000
0100
0100
,
0001
0010
0001
0000
1000
0000
0010
0100
,
0010
0000
1000
0000
0100
0000
1000
0010
,
1000
0010
0100
0000
0010
0000
0100
0001
,
0100
0010
1000
0001
,
1000
0100
1000
0000
0001
0000
0100
1000
,
0100
0001
1000
0001
,
1001
0000
0000
0110
0000
0000
1001
0000
,
0001
0000
0100
0000
0010
1000
0010
0000
,
0110
0000
0000
0000
1001
0000
0000
1100
,
0000
0100
0010
0001
,
1001
0000
0000
0000
0110
0000
0000
1010
,
0000
0001
1000
0010
,
0110
0000
0000
0000
0101
0000
0000
0011
,
0000
0001
1000
0001
,
0110
0000
0000
0000
0110
0000
0000
2002
,
0000
0000
0000
0000
,
3003
0000
0000
0000
;

//--------------- dance-single - Fred-104 ----------------
#NOTEDATA:;
#STEPSTYPE:dance-single;
#DESCRIPTION:Fred-104;
#DIFFICULTY:Medium;
#METER:13;
#CREDIT:Fred-104;
#NOTES:
0000
0000
0000
0000
,
0000
0000
0000
0000
,
0000
0000
0000
0000
,
1001
0000
0000
0001
0010
0000
0000
0010
0100
0000
0000
0100
1000
0000
0001
0200
,
0000
0000
0000
0000
0000
0301
1000
0002
0000
0000
0000
0000
0000
0100
0103
0000
,
0100
0000
1001
0000
0001
0010
0100
0000
,
1100
0101
1010
0011
,
1001
0000
0110
0000
1000
0100
0010
0011
,
0000
0001
1000
0001
0100
0010
0100
0000
,
0001
0010
0100
1000
0001
0100
0010
1000
,
0001
1000
0100
0010
0001
1000
0010
0100
,
0001
0010
0100
1000
0010
0100
0001
1001
,
0000
0000
1000
0100
0001
0100
1000
0000
,
0001
0001
0100
0100
,
1000
1000
0010
0010
,
0001
0100
1000
0010
,
0001
1000
0001
1001
,
1000
0100
1000
0001
0100
0001
1000
0100
,
0010
0001
0010
0100
1000
0001
0100
0001
,
1000
0100
0010
0001
0100
0010
1000
0100
,
0010
0001
0010
0001
0010
0000
1001
0000
,
1100
0000
0000
0000
0001
0000
0000
0000
1000
0000
0000
0010
0000
0000
0110
0000
0000
0000
0100
0000
0001
0000
1000
0000
0001
0000
0010
0000
0100
0000
0000
0000
,
1010
0000
0000
0000
0001
0000
0000
0000
0010
0000
0000
0100
0000
0000
1100
0000
0000
0000
0001
0000
0100
0000
0010
0000
1000
0000
0001
0000
0010
0000
0000
0000
,
0110
0000
0000
0000
1100
0000
0000
0000
0001
0000
0000
1000
0000
0000
1001
0000
0000
0000
1000
0000
0100
0000
0001
0000
0100
0000
1000
0000
0001
0000
0000
0000
,
1100
0000
0001
0010
0000
0010
0200
0000
0000
0000
0000
0000
1300
0100
0010
0001
,
1001
0000
0000
0000
0110
0000
0000
0000
1000
0000
0000
0010
0000
0000
0210
0000
0000
0000
0302
0000
0000
0000
2003
0000
0000
0000
3100
0000
0010
0000
0001
0000
,
0011
0000
0000
0000
0001
0000
1000
0000
0010
0000
0000
0100
0000
0000
0101
0000
0000
0000
0001
0000
0100
0000
1000
0000
0100
0000
0001
0000
1000
0000
0000
0000
,
1100
0000
0000
0000
0011
0000
0000
0000
1000
0000
0000
0010
0000
0000
0101
0000
0000
0000
0001
0000
1000
0000
0001
0000
0000
0000
0100
0000
0010
0000
1000
0000
,
1001
0000
0110
0000
0001
0010
0100
0000
2000
0000
3002
0000
0103
0010
0110
0000
,
1000
1000
0000
0000
0001
0001
0000
0000
1000
0000
0100
0000
0010
0000
0011
0000
,
0001
0000
0000
0001
0000
0000
0001
0000
0100
0000
0000
0100
0000
0000
0100
0000
0010
0000
0000
1000
0000
0000
0001
0000
1001
0000
0000
0000
0110
0000
0000
0000
,
0001
0001
0000
0000
1000
1000
0000
0000
0001
0000
0100
0000
0010
0000
1010
0000
,
1000
0000
0000
0001
0000
0000
0001
0000
0011
0000
0000
0000
0001
0000
1000
0000
0001
0000
0000
0000
1000
0000
0001
0000
0100
0000
0010
0000
1000
0000
0000
0000
,
0100
0100
0000
0000
0010
0010
0010
0000
0001
0000
0010
0000
0100
0000
1100
0000
,
0001
0100
1000
0000
0001
0010
1000
0000
0001
0010
0100
0000
1000
0010
0100
0000
,
0010
0010
0000
0000
0100
0100
0000
0000
0001
0010
0100
0000
1000
0000
1001
0000
,
0001
0010
0100
1000
0001
0100
0010
1000
,
0100
0001
0100
0010
0001
1000
0001
0000
,
1002
0000
0000
0000
0000
0000
1003
0002
,
0000
0000
0000
0000
0000
1003
0100
0010
,
0002
0000
0000
0000
0000
0000
0103
0020
,
0000
0000
0000
0130
0001
1000
0001
0010
,
0200
0000
0000
0000
0000
0000
1300
0200
,
0000
0320
0000
0130
1000
0001
0100
0020
,
0000
0000
0000
0230
0000
0301
1000
0001
,
0010
0100
1000
0001
0100
0010
0110
0000
,
1100
0000
0010
0000
0001
0000
1000
0001
,
0100
0000
0010
0000
0100
0000
0001
1000
,
0100
0000
0000
0000
1000
0000
0100
0000
0010
0000
0000
0010
0000
0000
0010
0000
,
0001
0100
0010
0000
1000
0100
0010
0000
,
0001
0010
0100
1000
0010
0100
0001
1000
,
0100
0010
0001
0100
0010
1000
0010
0100
,
0202
0000
0000
0000
0000
0000
0000
0303
,
2002
0000
0000
0000
0000
0000
3003
0000
1000
0100
0010
0001
1000
0000
1001
0000
,
0001
0100
0020
0000
0100
0000
0130
0001
,
2000
0000
0100
0000
3100
0010
0001
1000
,
0010
0100
0002
0000
0010
0000
0013
0001
,
1000
0100
1100
0101
,
1000
0100
0010
0001
0100
0010
1000
0001
,
0010
0000
0100
0010
0001
1000
0010
0010
,
0100
0001
1000
0000
1100
0000
0100
0010
,
0001
0000
0011
0000
0001
0100
0001
1000
,
0001
0010
0100
0000
1100
0000
0100
0010
,
0001
0000
1001
0000
0110
0000
1000
0100
,
0010
0100
1000
0000
0110
0000
0001
0010
,
0100
1000
0001
0100
0010
1000
0010
0100
,
0001
0010
1000
0001
0100
1000
0001
0010
,
0100
0000
1000
0100
0001
0100
1000
0001
,
0101
0000
1001
0000
0001
0010
0100
1100
,
0000
1000
0010
0100
0010
1000
1010
0000
,
0101
0000
1100
0000
0100
0010
0001
0011
,
0000
0001
0010
1000
0010
0001
1001
0000
,
0110
0000
1001
0000
1000
0100
0010
0110
,
0000
0010
0001
1000
0001
0100
0110
0000
,
1001
0000
1000
0100
0010
0001
1000
2002
,
0000
0000
0000
0000
,
3003
0000
0000
0000
;

//--------------- dance-single - Fred-104 ----------------
#NOTEDATA:;
#STEPSTYPE:dance-single;
#DESCRIPTION:Fred-104;
#DIFFICULTY:Hard;
#METER:16;
#CREDIT:Fred-104;
#NOTES:
0000
0000
0000
0000
,
0000
0000
0000
0000
,
0000
0000
0000
0000
,
0100
0000
0000
0001
1000
0000
0000
0100
0010
0001
1000
0001
0100
0001
1000
0001
,
0000
0100
0000
0010
1000
0100
0010
0002
0000
0000
0000
0000
0000
1000
1003
0000
,
0110
0000
1001
1000
0010
0100
0001
1000
,
0002
0010
2003
0100
3001
1000
1001
0000
,
0002
0100
2003
0010
3001
0010
0100
1000
,
0000
0100
0010
0001
0100
0100
0110
0000
,
0001
0010
0001
0010
0100
1000
0100
1000
,
0001
0100
0010
1000
0100
0010
0001
1000
,
0100
1000
0100
1000
0001
0100
0001
0100
0010
1000
0010
1000
0001
0000
1001
0000
,
0000
0000
0000
0000
1000
0000
0100
0010
0100
1000
0001
0000
1001
0000
0000
0000
,
0001
0001
0100
0100
,
1000
1000
0010
0010
,
0001
0001
0010
0010
,
0100
0000
0100
0000
1000
0001
1001
0000
,
1000
0000
0100
0010
0001
0000
1000
0000
0001
0000
0100
0010
1000
0000
0001
0000
,
1000
0100
0010
0000
0001
0010
0100
0000
1000
0010
0100
0000
0001
0100
0010
0000
,
1000
0100
1000
0100
0010
0001
0010
0001
1000
0010
0100
0001
1000
0001
0010
0100
,
2000
0000
0000
0000
0000
0000
3200
0000
0000
0000
0000
0000
0302
0000
0000
0000
0000
0000
0203
0000
0000
0000
0000
0000
1300
0000
0000
0000
0001
0000
0000
0000
0100
0000
0000
0000
0020
0000
0000
0000
0000
0000
2030
0000
0000
3000
0000
0000
,
1001
0000
0000
0000
1000
0001
0010
0000
0110
0000
0000
1100
0000
0000
1001
0000
0000
0000
1000
0000
0010
0000
0100
0000
0001
0000
1000
0000
1100
0000
0100
0010
,
0100
0000
0000
0000
0010
0001
1000
0000
1010
0000
0000
0101
0000
0000
1100
0000
0000
0000
0001
0010
0100
0000
1000
0000
0001
0000
0100
0010
1000
0000
0001
0000
,
0011
0000
0000
0000
1001
0000
1000
0000
1100
0000
0000
0101
0000
0000
1010
0000
0000
0000
0001
0010
0100
0000
1000
0000
0100
0000
0001
0000
0100
0000
1000
0000
,
1001
0000
0001
0011
0000
1000
2020
0000
0000
0000
0000
3030
0001
0010
0100
1000
,
1001
0000
0000
0000
1100
0000
0000
0000
0110
0000
0000
1100
0000
0000
0102
0000
0000
0000
2003
0000
0000
0000
3200
0000
0000
0000
0310
0000
0001
0000
0100
0010
,
0100
0000
0000
0000
0001
0000
0010
0000
0110
0000
0000
1100
0000
0000
1010
0000
0000
0000
1000
0001
1000
0000
0100
0000
0010
0000
0001
1000
0001
0000
0100
0000
,
0110
0000
0000
0000
1010
0000
0000
0000
0101
0000
0000
1100
0000
0000
0011
0000
0000
0000
0001
1000
0001
1000
0001
0000
0000
0000
0010
0000
0100
0000
1000
0000
,
1001
0000
0000
0000
0000
0000
0000
0000
0000
0000
0000
0000
0001
0000
0000
0000
0000
0000
0100
0000
0000
0000
0000
0000
0110
0000
0000
0000
0000
0000
0010
0000
0000
0000
0000
0000
1000
0000
0000
0000
0000
0000
0001
0000
0000
0010
0000
0000
0001
0000
0000
0000
1000
0000
0000
0000
0001
0000
0000
0000
0100
0000
0000
0000
0010
0000
0000
0000
1000
0000
0000
0000
0001
0000
0000
0000
0000
0000
0010
0000
0000
0000
0000
0000
0200
0000
0000
0000
0000
0000
0000
0000
0000
0000
0000
0000
,
1300
0000
0000
0000
2000
3000
0000
0000
0000
0000
0000
0000
0100
0000
0000
0000
0010
0000
0000
0000
0020
0030
0000
0000
0000
0000
0000
0000
0001
0000
0000
0000
1000
0000
0000
0000
0001
0000
0100
0000
0001
0000
0000
0000
0010
0000
0000
0000
0011
0000
0000
0000
0000
0000
0000
0000
1001
0000
0000
0000
0000
0000
0000
0000
,
2000
0000
0000
0100
0000
0000
3100
0000
0020
0000
0000
0001
0000
0000
0031
0000
0200
0000
0000
0010
0000
0000
0310
0000
1001
0000
0000
0000
0001
1000
0001
1000
,
0001
0000
0000
0000
0002
0003
0000
0000
0000
0000
0000
0000
0100
0000
0000
0000
0010
0000
0000
0000
0020
0030
0000
0000
0000
0000
0000
0000
1000
0000
0000
0000
0001
0000
0000
0000
1000
0000
0100
0000
1000
0000
0000
0000
0001
0000
0100
0000
0001
0000
0000
0000
1000
0000
0100
0000
1000
0000
0100
0000
0010
0000
0000
0000
,
0002
0000
0000
0100
0000
0000
0103
0000
0110
0000
0000
0000
0001
1000
0001
1000
0002
0000
0000
0000
0023
0000
0230
0000
2300
0000
3002
0000
0203
0000
0000
0000
,
0310
0000
0000
0000
0020
0030
0000
0000
0000
0000
0000
0000
0100
0000
0000
0000
0010
0000
1000
0000
0010
0000
1000
0000
0020
0030
0000
0000
1000
0000
0001
0000
1000
0000
0000
0000
0100
0000
0010
0000
0100
0000
0000
0000
0010
0000
0000
0000
0001
0000
0000
0000
0001
0000
0000
0000
1001
0000
0000
0000
0000
0000
0000
0000
,
1000
0000
0001
0100
0001
0000
1000
0100
1000
0000
0100
0000
0010
0000
0000
0000
0001
0100
0001
0000
0101
0000
0000
0000
2000
0000
3200
0000
0302
0000
0203
0000
,
1300
0000
0000
0000
2000
3000
0000
0000
0000
0000
0000
0000
0100
0000
0000
0000
0010
0000
0000
0000
0020
0030
0000
0000
0000
0000
0000
0000
0100
0000
0000
0000
1000
0000
0000
0000
0100
0000
0000
0000
0001
0000
0000
0000
0100
0000
0000
0000
1000
0000
0000
0000
0100
0000
0000
0000
0110
0000
0000
0000
0000
0000
0000
0000
,
0001
0000
0010
0000
0100
0000
1000
0000
0001
0100
0010
1000
0010
0100
0001
1000
,
0100
0000
0010
0000
0001
1000
0001
1000
0010
0000
0100
0001
1000
0000
0000
0000
,
2001
0000
0000
0000
0000
0000
3001
0020
,
0000
0000
0000
2030
0000
3010
0100
0010
,
0002
0000
0000
0000
0000
0000
0103
0002
,
0000
0000
0000
1003
0001
0100
0010
1000
,
0200
0000
0000
0000
0000
0000
0310
0200
,
0000
2300
0000
3001
0100
0010
1000
0002
,
0000
0000
0000
0023
0000
0230
1300
0001
,
1000
0000
0010
0000
0100
0000
0001
0000
1000
0100
0010
0001
0010
0100
1000
0000
,
0001
0000
0000
0001
0010
0000
0100
0000
0010
0000
0000
0010
0001
0000
1000
0000
,
0010
0000
0000
0010
0100
0000
0010
0000
1000
0000
0000
1000
0100
0000
0010
0000
,
0001
0000
0000
0001
0100
0000
0010
0000
1000
0001
0000
0100
0001
0000
1000
0000
,
0100
0000
0010
0100
0010
0000
0001
0000
1000
0001
1000
0001
1000
0000
0000
0000
,
0001
0010
0100
1000
0001
0100
0001
1000
,
0100
0010
0100
0010
0001
1000
0001
1000
0010
0100
0001
1000
0100
0010
0001
2000
,
0002
0000
0000
0000
0000
0000
0000
3003
,
0202
0000
0000
0000
0000
0000
0000
0000
0000
0000
0000
0000
0303
0000
0000
0000
0001
1000
0100
0010
0001
1000
0100
0010
0001
0000
0000
0000
1001
0000
0000
0000
,
0001
0100
0010
1000
0002
0000
0000
0000
0023
0000
0000
0000
0130
0000
1000
0000
,
0002
0000
0000
0000
0203
0000
0000
0000
0310
1000
0010
0100
0001
0000
1000
0000
,
0100
0020
0001
0000
0100
0000
0031
1000
,
0002
0100
1000
0010
,
1003
0100
0010
0001
1000
0000
0010
1000
0010
0100
0001
0000
1000
0100
0010
0001
,
0010
0000
0000
0000
0100
0000
1000
0010
0100
0001
1000
0001
0010
0100
1000
0001
,
1000
0001
0100
0001
2000
0000
0000
0000
3020
0000
0000
0000
0130
0000
0001
0000
,
2000
0000
0000
0000
3200
0000
0000
0000
0310
1000
0010
0000
0001
0000
1000
0000
,
0001
0100
0010
1000
0020
0000
0000
0000
0032
0000
0000
0000
0013
0000
0100
0000
,
0002
0000
0000
0000
0100
0000
0000
0000
1000
0000
0000
0000
0013
0100
0010
0100
,
1000
0100
0010
0001
2000
0000
0010
0000
3002
0000
0100
0000
1003
0000
0100
0000
,
0010
0000
0001
0010
0100
0000
1000
0001
0100
0000
0010
1000
0001
0010
0100
0000
,
1000
0001
0100
0010
1000
0000
0001
0010
0001
0010
0100
0000
0010
0001
1000
0010
,
0100
0000
0000
0000
0001
0000
0010
0000
0100
0010
0100
1000
0100
1000
0001
0100
,
0001
0000
0000
0000
1001
0000
0000
0000
1100
0000
1000
0100
0010
0000
0011
0000
,
0000
0000
0001
0100
1000
0000
0100
0001
1000
0000
0100
0010
0001
0000
1000
0000
,
1010
0000
0000
0000
0001
0010
0100
1000
0001
0000
0100
0010
0100
0000
0101
0000
,
0000
0000
0000
0000
0000
0000
0000
0000
0001
0000
0000
0000
0010
0000
0000
0000
1000
0000
0000
0000
0000
0000
0000
0000
0010
0000
0000
0000
0001
0000
0000
0000
1000
0000
0000
0000
0000
0000
0000
0000
0000
0000
0000
0000
0000
0000
0000
0000
0200
0300
0000
0000
0000
0000
0000
0000
0200
0300
0000
0000
0000
0000
0000
0000
,
0001
0000
0000
0000
1000
0001
0010
0001
1000
0000
0001
0100
0010
0000
1010
0000
,
0000
0000
1000
0100
0010
0000
1000
0010
0001
0000
0010
0100
1000
0001
0100
0000
,
0110
0000
0010
0000
1000
0010
1000
0010
0100
0000
1000
0100
0010
1000
0002
0000
,
0000
0000
0000
0000
,
0003
0000
0000
0000
;

//--------------- dance-single - Fred-104† ----------------
#NOTEDATA:;
#STEPSTYPE:dance-single;
#DESCRIPTION:Fred-104†;
#DIFFICULTY:Challenge;
#METER:17;
#CREDIT:Fred-104†;
#NOTES:
0000
0000
0000
0000
,
0000
0000
0000
0000
,
0000
0000
0000
0000
,
0001
0010
0100
1000
0001
0100
0010
1000
0010
0100
0001
1000
0100
0001
0100
1000
,
0001
0000
0010
0000
0100
0000
0001
0000
1000
0010
1000
0010
0100
2000
0002
0000
0000
0000
0000
0000
0000
0000
0000
0000
0000
0000
3000
0000
0003
0000
0000
0000
,
0110
0000
1001
0001
0010
0100
1000
0001
,
1000
0100
0010
0000
0010
0001
0100
0000
0100
0010
1000
0000
1000
0001
0010
0000
,
0010
0100
1000
0000
1000
0001
0100
0000
0100
0010
1000
0001
0010
0000
0220
0000
,
0000
0000
0000
0000
0000
0030
0300
0000
,
1000
0010
1000
0010
0001
0010
1000
0001
,
1000
0100
1000
0100
0001
0100
1000
0001
,
0100
0001
1000
0001
0010
0100
1000
0001
0100
0010
1000
0001
0010
0000
0220
0000
,
0000
0000
0030
0300
,
1000
1000
0100
0100
,
0001
0001
1000
1000
,
0010
0010
0001
0001
,
1000
0000
0000
0000
0100
0000
0000
0000
0010
0000
0000
0000
0001
0000
0000
0000
0000
0000
1000
0000
0000
0000
0000
0000
0001
0000
0000
1000
0000
0000
0001
0000
0000
1000
0000
0000
0001
0000
0000
0000
0000
0000
0000
0000
0000
0000
0000
0000
,
1000
0000
0001
0010
0100
0000
1000
0001
0100
0000
0010
1000
0001
0000
0010
0000
,
0100
1000
0100
0000
0010
0001
0010
0000
0001
1000
0100
1000
0001
0010
0100
0000
,
1000
0001
0100
0010
1000
0001
0010
0100
1000
0001
0100
0010
0100
0001
1000
0100
,
0020
0000
0000
0000
0000
0000
0032
0000
0000
0000
0000
0000
2003
0000
0000
0000
0000
0000
3020
0000
0000
0000
0000
0000
0130
0000
0000
0000
0001
0000
0000
0000
1000
0000
0000
0000
0200
0000
0000
0300
0000
0000
0020
0000
0000
0030
0000
0000
,
0011
0000
0000
0000
1000
0000
0001
0000
0101
0000
0000
1100
0000
0000
0011
0000
0000
0000
0001
0010
1000
0000
0010
0000
0001
0000
1000
0010
0100
0001
1000
0000
,
1100
0000
0000
0000
0100
0010
0001
0000
0011
0000
0000
1010
0000
0000
0101
0000
0000
0000
1000
0100
0001
0000
0100
0000
1000
0000
0001
0100
0010
1000
0001
0000
,
1001
0000
0000
0000
1100
0000
0100
0000
0101
0000
0000
1010
0000
0000
0011
0000
0000
0000
0001
1000
0010
0000
0001
0000
0010
0000
1000
0001
0010
0000
0100
0000
,
1100
0000
1001
0101
0000
1001
2020
0000
0000
0000
0000
0000
0030
0000
3000
0000
,
1100
0000
0000
0000
0101
0000
0000
0000
0011
0000
0000
1010
0000
0000
2001
0000
0000
0000
3200
0000
0000
0000
0302
0000
0000
0000
0103
0000
0010
0000
0001
1000
,
0001
0000
0000
0000
1010
0000
0010
0000
0110
0000
0000
0101
0000
0000
1100
0000
0000
0000
0001
0010
0100
0000
0001
0000
0100
0000
0010
0001
1000
0010
0100
0000
,
0101
0000
0000
0000
1100
0000
0000
0000
0011
0000
0000
1010
0000
0000
0101
0000
0000
0000
1000
0100
0010
0001
1000
0000
0002
0003
0200
0300
0020
0030
2000
3000
,
0002
0000
0010
0000
0010
0000
0013
0000
0200
0000
1000
0000
1000
0000
1300
0001
1000
0010
0100
0001
1000
0010
0100
0001
0100
0000
0100
0000
0100
0000
0000
0000
,
0101
0000
0000
0000
0202
0303
0000
0000
0000
0000
0000
0000
1100
0000
0000
0000
1100
0000
0000
0000
2200
3300
0000
0000
0000
0000
0000
0000
0101
0000
0000
0000
0001
0000
0000
0000
1000
0000
0100
0000
0010
0000
0000
0000
0001
0000
0000
0000
0011
0000
0000
0000
0000
0000
0000
0000
1001
0000
0000
0000
0000
0000
0000
0000
,
0002
0000
0000
0023
0000
0000
2030
0000
3002
0000
0000
0203
0000
0000
0320
0000
0032
0000
0000
2003
0000
0000
3002
0003
1001
0000
0000
0000
1000
0100
0010
0001
,
0011
0000
0000
0000
0022
0033
0000
0000
0000
0000
0000
0000
1010
0000
0000
0000
1010
0000
0000
0000
2020
3030
0000
0000
0000
0000
0000
0000
0011
0000
0000
0000
0001
0000
0000
0000
1000
0000
0010
0000
0100
0000
0000
0000
0001
0000
1000
0000
0100
0000
0000
0000
0010
0000
0001
0000
1000
0000
0000
0000
0001
0000
0000
0000
,
2000
0000
0000
3002
0000
0000
0203
0300
0110
0000
0000
0000
0001
1000
0001
1000
0200
0000
0000
0000
2300
0000
3020
0000
0032
0000
2003
0000
3200
0000
0302
0003
,
1001
0000
0000
0000
2002
3003
0000
0000
0000
0000
0000
0000
0110
0000
0000
0000
0001
0000
1000
0000
0001
0000
1000
0000
0020
0030
0000
0000
0100
0000
0010
0000
0100
0000
0000
0000
0001
0000
1000
0000
0100
0000
0000
0000
0010
0000
0000
0000
0011
0000
0000
0000
0000
0000
0000
0000
1001
0000
0000
0000
0000
0000
0000
0000
,
0001
0010
0000
0010
0100
1000
0000
1000
0001
0000
0001
0000
0101
0000
0000
0000
1000
0100
1000
0000
1100
0000
0000
0000
0002
0003
0020
0030
0200
0300
2000
3000
,
1010
0000
0000
0000
2020
3030
0000
0000
0000
0000
0000
0000
0011
0000
0000
0000
0011
0000
0000
0000
0022
0033
0000
0000
0000
0000
0000
0000
1010
0000
0000
0000
0001
0000
0000
0000
1000
0000
0010
0000
0200
0000
0000
0000
0001
0000
0310
0000
0200
0000
0000
0000
1000
0000
0310
0000
0200
0000
0000
0000
0301
0000
0000
0000
,
1000
0001
1000
0001
0010
0100
0010
0100
1000
0001
0100
0001
1000
0010
1000
0001
,
0020
0000
0230
0000
0320
0000
0032
0000
1003
0001
0100
0010
0100
0000
0001
0000
,
2001
0000
0000
0000
0000
0000
3002
0203
,
0000
0000
0000
2300
0000
3200
0320
2030
,
3002
0000
0000
0000
0000
0000
0023
0230
,
0000
0000
0000
0000
2300
3002
0203
2300
,
3200
0000
0000
0000
0000
0000
0302
2003
,
0000
3020
0000
0032
2003
3200
0302
0023
,
0230
0000
0000
0000
0000
0000
2300
0000
0000
0000
3020
0000
2030
0000
3002
0003
,
2002
0000
0000
0000
0000
0000
3003
0000
0001
1000
0001
1000
0001
1000
0001
0000
,
2000
0010
0001
3100
,
0020
0000
0001
0000
0100
0000
1030
0010
,
0002
0000
0000
0000
0100
0000
0100
0000
1000
0000
0000
0010
0000
0000
0103
0000
,
0010
0100
0110
0000
0001
1000
1001
0000
,
0001
0010
0100
1000
0001
0100
0010
1000
,
0001
0010
0100
1000
0100
0010
0001
0100
0010
1000
0010
0100
0001
1000
0100
2000
,
0002
0000
0000
0000
0000
0000
3000
0003
,
0220
0000
0000
0000
0000
0000
0000
0000
0000
0000
0000
0000
0330
0000
0000
0000
1000
0100
0010
0001
0100
0010
1000
0100
0010
0000
0000
0000
0011
0000
0000
0000
,
0001
1000
0010
0100
0002
0000
1003
0000
0200
0000
0310
0000
0002
0000
2003
0000
,
3020
0000
0130
0000
0020
0000
1030
0000
0001
0010
0100
0000
2000
0000
3002
0000
,
2003
0000
3100
0010
0002
0000
1003
0000
0020
0000
0130
0001
2000
0000
3002
0003
,
0011
0001
0101
0000
1010
1000
1100
0000
,
1000
0001
0100
0010
1000
0000
0001
0010
0100
1000
0001
0000
0100
0001
1000
0001
,
0010
0000
0000
0000
0100
0000
1000
0001
0100
0010
1000
0100
0010
0001
1000
0001
,
0010
0100
1000
0001
0200
0000
0310
0000
2000
0000
3001
0000
0020
0000
0230
0000
,
0320
0000
0001
0130
0020
0000
1000
0130
0020
0000
0001
0130
0020
0000
2030
0000
,
3001
1000
0100
1000
0002
0000
0103
0000
0020
0000
1030
0000
0002
0000
0023
0000
,
0230
0000
1000
0310
0200
0000
0001
0310
0200
0000
1000
0310
0100
0001
1000
0100
,
0010
0001
1000
0001
0100
0000
0010
1000
0001
0000
0010
0100
1000
0001
0100
0000
,
0002
0000
0013
0100
2000
0000
3001
0010
0200
0000
1300
0001
0020
0000
0130
0000
,
1000
0001
0100
0001
1000
0000
0001
0010
0100
1000
0001
0100
0010
1000
0010
0100
,
0001
0000
0000
0000
1000
0000
0100
0000
0010
0100
1000
0001
0100
0010
1000
0001
,
0010
0000
0000
0000
0001
1000
0001
0100
0010
0000
1000
0100
0010
0000
0011
0000
,
0000
0000
0001
0100
1000
0000
0001
0010
1000
0000
0100
0010
0001
0000
1000
0000
,
1001
0000
0000
0000
0001
1000
0010
1000
0001
0000
1000
0001
0010
0000
0110
0000
,
0000
0000
1000
0100
0001
0000
1000
0010
0100
0000
1000
0100
0010
0000
0001
0000
,
1001
0000
0000
0000
0001
0100
1000
0100
0001
0000
1000
0100
0010
0000
0011
0000
,
0000
0000
1000
0010
0001
0000
1000
0100
0001
0000
0010
0100
1000
0001
1000
0000
,
0001
0000
0100
0000
0010
1000
0001
0010
0001
0000
0100
0010
1000
0001
0020
0000
,
0000
0000
0000
0000
,
0030
0000
0000
0000
;

//--------------- dance-double - Fred-104 ----------------
#NOTEDATA:;
#STEPSTYPE:dance-double;
#DESCRIPTION:Fred-104;
#DIFFICULTY:Easy;
#METER:9;
#BPMS:0=90,20=180,84=90,144=180,208=90,216=180;
#CREDIT:Fred-104;
#NOTES:
00000000
00000000
00000000
00000000
,
00000000
00000000
00000000
00000000
,
00000000
00000000
00000000
00000000
,
00020000
00000000
00032000
00000000
00023000
00000000
00030010
00010000
,
00001000
00000000
00100000
00000000
00001000
00000000
00000000
00022000
00000000
00000000
00000000
00000000
00000000
00000000
00033000
00000000
,
00001000
00011000
00001000
00010000
,
00100000
10000000
01000000
00010000
,
00001000
00000000
00010000
00000000
00001000
00000000
00000000
00022000
,
00000000
00000000
00033000
00010000
,
00001000
00001000
00100000
00100000
,
00010000
01000000
00010000
00000000
00100000
00001000
00100000
00000000
,
00010000
01000000
00100000
00000000
10000000
00000000
00000000
20020000
,
00000000
00000000
00000000
30030000
,
10000000
10000000
00100000
00100000
,
00010000
00010000
00001000
00001000
,
00000100
00000100
00000001
00000001
,
00001000
00000001
00002002
00003003
,
00000001
00000010
00001000
00010000
,
01000000
10000000
01000000
00100000
,
00001000
00010000
00001000
00000000
00010000
00000010
00010000
00000000
,
00002000
00023000
00031000
00011000
,
00010000
00000000
00000100
00000000
00001000
00001000
00000001
00000000
,
00000010
00000000
00000100
00000000
00010000
00010000
00001000
00001000
,
00010000
00000000
00001000
00000000
00100000
00010000
10000000
01000000
,
01100000
00000000
00000000
00101000
00000000
00000000
00022000
00000000
00000000
00000000
00033000
00000000
00010000
00000000
00000100
00000000
,
00000110
00000000
00000010
00000000
00000001
00000100
00001000
00010000
,
00011000
00000000
00001000
00000000
00010000
00100000
10000000
00010000
,
10010000
00000000
11000000
00000000
01000000
00100000
00001000
00010000
,
00011000
00000000
00010010
00000000
00010000
00000000
00001000
00000000
00010000
00000000
00000100
00000000
00001000
00000100
00000010
00000000
,
00000001
00000100
00000000
00000000
00000100
00000001
00000000
00000000
00000001
00000000
00000010
00000000
00001000
00000000
00010000
00000000
,
00002000
00000000
00203000
00000000
00302000
00003000
00011000
00001000
,
00100000
00010000
00000000
00000000
00010000
00100000
00000000
00000000
00100000
00000000
00010000
00000000
10000000
00000000
00100000
00000000
,
01000000
00000000
00000000
00000000
01001000
00000000
00001000
00000000
00010000
00000000
00001000
00000000
00100000
00001000
00100000
00000000
,
00001000
00010000
00000000
00000000
00010000
00001000
00000000
00000000
00001000
00000000
00010000
00000000
00000100
00000000
00010000
00000000
,
00000100
00001000
00000100
00000010
00000001
00000100
00000110
00000000
,
00000010
00001000
00000000
00000000
00001000
00000010
00000000
00000000
00000010
00000000
00000100
00000000
00000001
00001000
00000001
00000000
,
00000100
00000000
00001000
00000000
00010000
00001000
00010000
00001000
,
01000000
00000000
00001000
00010000
00001000
00010000
00000100
00000000
,
00002000
00000000
00000000
00000000
,
00003002
00000000
00000203
00000000
,
00002300
00000000
00000000
00000000
,
00023000
00000000
02030000
00000000
,
23000000
00000000
00000000
00000000
,
30200000
00000000
00320000
00000000
,
00032000
00000000
00000000
00000000
,
00003020
00000000
00000002
00000033
,
00001001
00000000
00000001
00000000
,
00001000
00010000
01000000
10000000
,
01000000
00010000
00001000
00010000
,
00001000
00010000
00010100
00000000
,
00010000
00000010
00010000
00000000
00001000
00100000
00001000
00000000
,
00010000
00000100
00010000
00000000
00001000
01000000
00001000
00000000
,
00022000
00000000
00000000
00000000
00000000
00000000
00000000
00033000
,
00022000
00000000
00000000
00000000
00000000
00000000
00033000
00000000
00001000
00010000
00001000
00010000
00001000
00000000
00011000
00000000
,
00001000
00100000
00010000
00000000
10000000
00000000
00100000
01000000
,
00100000
00000000
10000000
00000000
01000000
00000000
00100000
00001000
,
00010000
00001000
00100000
00000000
00001000
00000000
00010000
00000010
,
00001000
00000100
00000001
00000100
,
00010000
00000000
00000000
00011000
00000000
00000000
00001000
00000000
,
01000000
00000000
00001000
00001000
,
00010000
00000010
00010000
00000000
00000100
00000000
00001000
00000100
,
00000010
00000000
00000001
00000000
00001000
00000000
00000010
00000100
,
00000010
00000100
00001000
00000000
00010000
00000000
00100000
01000000
,
00100000
10000000
01000000
00100000
,
00010000
00100000
00010000
00000000
01000000
00000000
00001000
00010000
,
00001000
00100000
00001000
00010000
,
00011000
00000000
00000000
00010100
00000000
00000000
00011000
00000000
,
00001000
00000000
00010000
00000000
00000100
00001000
00000100
00000000
,
00000110
00000000
00000000
00000000
00000011
00000000
00000000
00001100
,
00000000
00000100
00010000
00001000
,
00011000
00000000
00000000
00000000
01001000
00000000
00000000
01010000
,
00000000
10000000
01000000
00100000
,
00110000
00000000
00000000
00000000
00101000
00000000
00000000
00011000
,
00000000
00010000
00001000
00010000
,
00011000
00000000
00000000
00000000
01100000
00000000
00000000
20020000
,
00000000
00000000
00000000
00000000
,
30030000
00000000
00000000
00000000
;

//--------------- dance-double - Fred-104 ----------------
#NOTEDATA:;
#STEPSTYPE:dance-double;
#DESCRIPTION:Fred-104;
#DIFFICULTY:Medium;
#METER:13;
#CREDIT:Fred-104;
#NOTES:
00000000
00000000
00000000
00000000
,
00000000
00000000
00000000
00000000
,
00000000
00000000
00000000
00000000
,
00011000
00000000
00000000
00010000
00000010
00000000
00000000
00001000
00000001
00000000
00000010
00000000
00000100
00000000
00010000
00002000
,
00000000
00000000
00000000
00000000
00000000
00013000
00100000
20000000
00000000
00000000
00000000
00000000
00000000
00010000
30010000
00000000
,
00010000
00000000
10010000
00000000
10000000
01000000
00100000
00001000
,
00011000
00010010
00001010
00001001
,
00000001
00000100
00001000
00010000
00100000
01000000
00010000
10010000
,
00000000
10000000
01000000
00100000
00001000
00010000
00001000
00000000
,
00010000
00001000
00000010
00000001
00000010
00000100
00001000
00000010
,
00000100
00001000
00010000
00100000
01000000
00010000
00100000
01000000
,
10000000
01000000
00010000
00001000
00000100
00000001
00001000
00001001
,
00000000
00000000
00000001
00000010
00001000
00010000
00001000
00000000
,
00010000
00010000
00001000
00001000
,
00000100
00000100
00000001
00000001
,
00000010
00000010
00001000
00001000
,
00010000
00010000
00001000
00011000
,
00001000
00010000
00100000
01000000
00010000
10000000
01000000
00100000
,
01000000
10000000
00010000
01000000
00100000
10000000
01000000
00100000
,
00001000
00010000
00001000
00000100
00000010
00001000
00000001
00000010
,
00000100
00001000
00000100
00001000
00000100
00000000
00011000
00000000
,
01100000
00000000
00000000
00000000
00010000
00000000
00000000
00000000
10000000
00000000
00000000
01000000
00000000
00000000
01100000
00000000
00000000
00000000
00001000
00000000
00010000
00000000
00000010
00000000
00001000
00000000
00000010
00000000
00010000
00000000
00000000
00000000
,
00011000
00000000
00000000
00000000
00000100
00000000
00000000
00000000
00001000
00000000
00000000
00000001
00000000
00000000
00000101
00000000
00000000
00000000
00000001
00000000
00000010
00000000
00000100
00000000
00001000
00000000
00000100
00000000
00010000
00000000
00000000
00000000
,
00011000
00000000
00000000
00000000
01001000
00000000
00000000
00000000
00001000
00000000
00000000
00100000
00000000
00000000
00110000
00000000
00000000
00000000
10000000
00000000
00100000
00000000
00010000
00000000
00100000
00000000
10000000
00000000
00010000
00000000
00000000
00000000
,
10010000
00000000
01000000
00100000
00000000
00001000
00020000
00000000
00000000
00000000
00000000
00000000
00031000
00010000
00000010
00001000
,
00001001
00000000
00000000
00000000
00000110
00000000
00000000
00000000
00000001
00000000
00000000
00000010
00000000
00000000
00000210
00000000
00000000
00000000
00020300
00000000
00000000
00000000
00032000
00000000
00000000
00000000
00003100
00000000
00000001
00000000
00001000
00000000
,
00000001
00000000
00000000
00000000
00000010
00000000
00000100
00000000
00010000
00000000
00000000
00001000
00000000
00000000
00011000
00000000
00000000
00000000
00001000
00000000
00010000
00000000
00100000
00000000
01000000
00000000
00100000
00000000
10000000
00000000
00000000
00000000
,
00010000
00000000
00000000
00000000
10000000
00000000
01000000
00000000
00010000
00000000
00000000
00001000
00000000
00000000
00011000
00000000
00000000
00000000
00010000
00000000
00001000
00000000
00000100
00000000
00000000
00000000
00000010
00000000
00001000
00000000
00000001
00000000
,
00000010
00000000
00000010
00000100
00001000
00000001
00000100
00000000
00002000
00000000
00023000
00000000
00031000
00010000
00011000
00000000
,
00001000
00001000
00000000
00000000
00010000
00010000
00000000
00000000
00001000
00000000
00010000
00000000
00001000
00000000
00011000
00000000
,
00001000
00000000
00000000
00010000
00000000
00000000
00100000
00000000
01000000
00000000
00000000
00010000
00000000
00000000
00100000
00000000
01000000
00000000
00000000
10000000
00000000
00000000
01000000
00000000
01100000
00000000
00000000
00000000
00011000
00000000
00000000
00000000
,
00010000
00010000
00000000
00000000
00001000
00001000
00000000
00000000
00010000
00000000
00001000
00000000
01000000
00000000
01100000
00000000
,
00010000
00000000
00000000
00010000
00000000
00000000
00010000
00000000
10010000
00000000
00000000
00000000
10000000
00000000
01000000
00000000
00100000
00000000
00000000
00000000
00001000
00000000
00010000
00000000
00100000
00000000
01000000
00000000
00010000
00000000
00000000
00000000
,
10000000
10000000
00000000
00000000
00010000
00010000
00010000
00000000
10000000
01000000
00010000
00000000
00001000
00000000
00011000
00000000
,
00010000
00001000
00000010
00000000
00000100
00001000
00000001
00000000
00000010
00000100
00010000
00001000
00010000
00100000
01000000
00000000
,
00010000
00010000
00000000
00000000
10000000
10000000
00000000
00000000
01000000
00100000
00010000
00000000
00100000
00000000
00101000
00000000
,
00010000
00001000
00000010
00000100
00001000
00000001
00000100
00001000
,
00010000
00100000
01000000
00010000
10000000
01000000
00100000
00000000
,
00012000
00000000
00000000
00000000
00000000
00000000
00013000
00002000
,
00000000
00000000
00000000
00000000
00000000
00013000
00001000
00000100
,
00000002
00000000
00000000
00000000
00000000
00000000
00001003
00000002
,
00000000
00000000
00000000
00000013
00000100
00010000
00001000
00010000
,
00200000
00000000
00000000
00000000
00000000
00000000
01300000
00020000
,
00000000
20030000
00000000
31000000
00100000
00001000
00010000
00000020
,
00000000
00000000
00000000
00002030
00000000
00003001
00000010
00000100
,
00010000
00001000
01000000
00010000
10000000
01000000
01100000
00000000
,
10010000
10000000
01000000
00010000
,
00001000
00000100
00000001
00000010
,
00000100
00000000
00000000
00000000
00001000
00000000
00000000
00000000
00000100
00000000
00000000
00010000
00000000
00000000
00001000
00000000
,
00010000
01000000
10000000
00000000
01000000
00100000
00001000
00000000
,
00010000
00001000
00000010
00000100
00000010
00000001
00001000
00000001
,
00000100
00001000
00010000
00100000
10000000
00010000
00100000
01000000
,
22000000
00000000
00000000
00000000
00000000
00000000
00000000
33000000
,
20020000
00000000
00000000
00000000
00000000
00000000
30030000
00000000
10000000
00100000
00010000
00001000
00010000
00000000
00011000
00000000
,
00010000
00001000
00000010
00000001
00001000
00000100
00000010
00000001
,
00001001
00000000
00000110
00000000
00000001
00000100
00001000
00010000
,
01000000
10000000
00010000
00000000
01100000
00000000
10000000
00100000
,
00010000
00001000
00000010
00000000
00000001
00000010
00000100
00000000
,
00010000
00001000
00000100
00000010
00001000
00000100
00000010
00000001
,
00001000
00000000
00000010
00000100
00001000
00010000
00001000
00000000
,
01000000
00001000
00010000
00001000
00100000
00010000
10000000
00100000
,
01100000
00000000
10010000
00000000
00100000
00001000
00010000
00010000
,
00001000
00010000
00100000
01000000
00010000
10000000
01000000
00100000
,
00001000
00000000
00011000
00000000
00010100
00000000
00001000
00000001
,
00001000
00000100
00000010
00000001
00000100
00000010
00001000
00000001
,
00000010
00000100
00010000
00000000
00001000
00100000
01000000
00000000
,
00100000
00010000
10000000
00100000
00010000
00001000
00000100
00000001
,
00000010
00000000
00000100
00001000
00000100
00010000
00010100
00000000
,
00011000
00000000
01001000
00000000
00001000
00010000
00001000
00101000
,
00000000
00001000
00010000
00000010
00001000
00000001
00000011
00000000
,
00001100
00000000
00000101
00000000
00000001
00000010
00000100
00000110
,
00000000
00001000
00000001
00000100
00001000
00010000
00011000
00000000
,
01100000
00000000
10010000
00000000
00010000
01000000
00100000
10100000
,
00000000
10000000
01000000
00100000
00001000
00010000
00011000
00000000
,
00010010
00000000
01001000
00000000
00010000
00001000
00010000
00022000
,
00000000
00000000
00000000
00000000
,
00033000
00000000
00000000
00000000
;

//--------------- dance-double - Fred-104 ----------------
#NOTEDATA:;
#STEPSTYPE:dance-double;
#DESCRIPTION:Fred-104;
#DIFFICULTY:Hard;
#METER:16;
#CREDIT:Fred-104;
#NOTES:
00000000
00000000
00000000
00000000
,
00000000
00000000
00000000
00000000
,
00000000
00000000
00000000
00000000
,
00010000
00000000
00000000
00001000
01000000
00000000
00000000
00010000
00100000
00000000
01000000
10000000
00010000
01000000
00100000
00010000
,
00000000
00001000
00000000
00010000
00001000
00000010
00000001
00000200
00000000
00000000
00000000
00000000
00000000
00000010
00000310
00000000
,
00000110
00000000
00001001
00001000
00000100
00000001
00000100
00001000
,
00000001
00000100
00001000
00000000
00010000
00100000
10000000
00000000
,
20000000
00100000
30020000
01000000
10030000
01000000
00100000
00001000
,
00000000
00010000
00001000
00000010
00000100
00010000
00011000
00000000
,
00001000
01000000
00100000
00010000
00001000
00010000
00000100
00001000
,
00000100
00000010
00000100
00010000
00001000
01000000
00100000
00010000
,
00001000
00010000
00001000
00010000
00001000
01000000
00001000
01000000
00001000
00010000
00001000
00010000
00001000
00000000
00011000
00000000
,
00000000
00000000
00000000
00000000
00010000
00000000
00000100
00001000
00000001
00000100
00000010
00000000
00001001
00000000
00000000
00000000
,
00000001
00000100
00001000
00010000
,
00100000
10000000
01000000
00010000
,
00001000
00000010
00000001
00000100
,
00001000
00010000
00001000
00011000
,
00001000
00000000
00100000
01000000
00100000
00000000
00001000
00000000
00000010
00000000
00000100
00001000
00000001
00000000
00000100
00000000
,
00001000
00010000
00100000
00000000
01000000
00010000
10000000
00000000
01000000
00100000
00010000
00000000
00100000
00001000
00010000
00000000
,
00000010
00001000
00000001
00000000
00000010
00000100
00001000
00000000
00000100
00010000
00000100
00010000
00001000
01000000
00001000
01000000
,
00020000
00000000
00000000
00000000
00000000
00000000
20030000
00000000
00000000
00000000
00000000
00000000
32000000
00000000
00000000
00000000
00000000
00000000
03020000
00000000
00000000
00000000
00000000
00000000
00031000
00000000
00000000
00000000
00000010
00000000
00000000
00000000
00000100
00000000
00000000
00000000
00002000
00000000
00000000
00000000
00000000
00000000
00003002
00000000
00000000
00000003
00000000
00000000
,
00001001
00000000
00000000
00000000
00000001
00001000
00000001
00000000
00000100
00000000
00000000
00000110
00000000
00000000
00001010
00000000
00000000
00000000
00000001
00000000
00000010
00000000
00001000
00000000
00010000
00000000
00100000
00000000
10000000
00000000
00010000
01000000
,
00010000
00000000
00000000
00000000
10000000
01000000
00100000
00000000
00001000
00000000
00000000
00011000
00000000
00000000
00010010
00000000
00000000
00000000
00010000
00001000
00000100
00000000
00000010
00000000
00010000
00000000
00000010
00000100
00001000
00000000
00010000
00000000
,
00011000
00000000
00000000
00000000
01001000
00000000
00001000
00000000
00011000
00000000
00000000
00101000
00000000
00000000
00010010
00000000
00000000
00000000
00010000
00001000
00000010
00000000
00000001
00000000
00000010
00000000
00000100
00000000
00001000
00000000
00000100
00000000
,
00010000
00000000
00001000
01001000
00000000
00010000
00020020
00000000
00000000
00000000
00000000
00030030
00001000
00010000
00100000
01000000
,
01010000
00000000
00000000
00000000
10010000
00000000
00000000
00000000
11000000
00000000
00000000
01010000
00000000
00000000
21000000
00000000
00000000
00000000
32000000
00000000
00000000
00000000
03020000
00000000
00000000
00000000
00031000
00000000
00000100
00000000
00000001
00001000
,
00000001
00000000
00000000
00000000
00000010
00000000
00000100
00000000
00001100
00000000
00000000
00010100
00000000
00000000
00011000
00000000
00000000
00000000
00001000
00010000
01000000
00000000
00100000
00000000
00001000
00000000
00100000
01000000
00010000
00000000
00001000
00000000
,
00011000
00000000
00000000
00000000
00000110
00000000
00000000
00000000
00001001
00000000
00000000
00001010
00000000
00000000
00000101
00000000
00000000
00000000
00000001
00001000
00000001
00001000
00000001
00000000
00000000
00000000
00000010
00000000
00000100
00000000
00010000
00000000
,
00001000
00000000
00000000
00000000
00000000
00000000
01000000
00000000
00000000
00100000
00000000
00000000
01100000
00000000
00000000
01000000
00000000
00000000
00010000
00000000
00000000
10000000
00000000
00000000
00010000
00000000
10000000
00000000
01000000
00000000
00010000
00000000
00001000
00000000
00000100
00000000
00000010
00000000
00000000
00001000
00000000
00000000
00001001
00000000
00000000
00000000
00000000
00000000
,
00000001
00000000
00000000
00000000
00000020
00000030
00000000
00000000
00000000
00000000
00000000
00000000
00001000
00000000
00000000
00000000
00010000
00000000
00000000
00000000
00200000
00300000
00000000
00000000
00000000
00000000
00000000
00000000
10000000
00000000
00000000
00000000
00010000
00000000
00000000
00000000
00100000
00000000
01000000
00000000
00100000
00000000
00000000
00000000
00010000
00000000
00000000
00000000
00110000
00000000
00000000
00000000
00000000
00000000
00000000
00000000
10010000
00000000
00000000
00000000
00000000
00000000
00000000
00000000
,
20000000
00000000
00000000
32000000
00000000
00000000
03020000
00000000
00032000
00000000
00000000
00003200
00000000
00000000
00000320
00000000
00002030
00000000
00000000
00003002
00000000
00000000
00000013
00000000
00000110
00000000
00000000
00000000
00001001
00000000
00000000
00000000
,
00010000
00000000
00000000
00000000
00002000
00003000
00000000
00000000
00000000
00000000
00000000
00000000
00000010
00000000
00000000
00000000
00000001
00000000
00000000
00000000
00000020
00000030
00000000
00000000
00000000
00000000
00000000
00000000
00000100
00000000
00000000
00000000
00010000
00000000
00000000
00000000
00001000
00000000
01000000
00000000
00001000
00000000
00000000
00000000
00010000
00000000
00001000
00000000
00010000
00000000
00000000
00000000
00000100
00000000
00001000
00000000
00000100
00000000
00000000
00000000
00000010
00000000
00000000
00000000
,
00000002
00000000
00000000
00001000
00000000
00000000
00001003
00000000
00001010
00000000
00000000
00000000
00000001
00001000
00000001
00001000
00000002
00000000
00000000
00000000
00000023
00000000
00002030
00000000
00023000
00000000
00230000
00000000
20300000
00000000
00000000
00000000
,
30010000
00000000
00000000
00000000
20000000
30000000
00000000
00000000
00000000
00000000
00000000
00000000
01000000
00000000
00000000
00000000
00100000
00000000
00010000
00000000
00100000
00000000
00010000
00000000
00200000
00300000
00000000
00000000
00001000
00000000
00010000
00000000
00001000
00000000
00000000
00000000
00010000
00000000
00001000
00000000
00000100
00000000
00000000
00000000
00000010
00000000
00000000
00000000
00010000
00000000
00000000
00000000
00010000
00000000
00000000
00000000
00011000
00000000
00000000
00000000
00000000
00000000
00000000
00000000
,
00010000
00000000
00000010
00001000
00000010
00000000
00010000
00001000
00010000
00000000
00001000
00000000
00100000
00000000
00000000
00000000
00010000
10000000
00010000
00000000
10010000
00000000
00000000
00000000
20000000
00000000
32000000
00000000
03020000
00000000
00032000
00000000
,
00013000
00000000
00000000
00000000
00002000
00003000
00000000
00000000
00000000
00000000
00000000
00000000
00000100
00000000
00000000
00000000
00000010
00000000
00000000
00000000
00002000
00003000
00000000
00000000
00000000
00000000
00000000
00000000
00000001
00000000
00000000
00000000
00000010
00000000
00000000
00000000
00001000
00000000
00000000
00000000
00010000
00000000
00000000
00000000
00100000
00000000
00000000
00000000
10000000
00000000
00000000
00000000
01000000
00000000
00000000
00000000
01100000
00000000
00000000
00000000
00000000
00000000
00000000
00000000
,
10000000
00000000
01000000
00000000
00100000
00000000
00001000
00000000
00010000
00000010
00001000
00000010
00000100
00000001
00001000
00000100
,
00000010
00000000
00000001
00000000
00001000
00000001
00001000
00000010
00010000
00000000
00001000
00000000
00011000
00000000
00000000
00000000
,
02000000
00000000
00000000
00000000
00000000
00000000
03010000
20000000
,
00000000
00000000
00000000
30020000
00000000
10030000
01000000
00010000
,
00002000
00000000
00000000
00000000
00000000
00000000
00003100
00000002
,
00000000
00000000
00000000
00001003
00000001
00000010
00001000
00010000
,
00200000
00000000
00000000
00000000
00000000
00000000
01300000
00020000
,
00000000
20030000
00000000
31000000
00100000
00001000
00010000
00200000
,
00000000
00000000
00000000
02300000
00000000
03001000
00010000
00001000
,
00000010
00000000
00000001
00000000
00000010
00000000
00000100
00000000
00001000
00000001
00000100
00000010
00001000
00000010
00000100
00000000
,
00000001
00001000
00000010
00000001
00000010
00000100
00001000
00010000
,
00100000
01000000
10000000
01000000
00010000
10000000
01000000
00010000
,
00001000
00000000
00000100
00000000
00000001
00000000
00001000
00000000
00000010
00000100
00000000
00001000
00010000
00000000
00100000
00000000
,
01000000
00000000
00010000
00000000
10000000
00000000
01000000
00000000
00100000
00001000
00010000
00001000
00000010
00000000
00000000
00000000
,
00000001
00001000
00000010
00000100
00001000
00010000
00100000
01000000
,
00010000
10000000
00010000
00000000
01000000
00100000
01000000
00000000
00001000
00010000
00001000
00010000
00000100
00001000
00000100
00002000
,
00000002
00000000
00000000
00000000
00000000
00000000
00000000
00003003
,
00000220
00000000
00000000
00000000
00000000
00000000
00000000
00000000
00000000
00000000
00000000
00000000
00000330
00000000
00000000
00000000
00000001
00000100
00000001
00001000
00000100
00001000
00000100
00010000
00001000
00000000
00000000
00000000
00011000
00000000
00000000
00000000
,
00001000
00100000
00010000
00100000
00002000
00000000
00000000
00000000
00010000
00000000
00000000
00000000
01003000
00000000
00001000
00000000
,
00020000
00000000
00000000
00000000
00032000
00000000
00000000
00000000
00013000
00000100
00001000
00000100
00000010
00000000
00000100
00000000
,
00010000
00002000
01000000
00000000
00010000
00000000
01003000
00100000
,
00020000
00001000
01000000
00031000
,
00010000
00001000
00000100
00000010
00001000
00000000
00000001
00000010
00000100
00000010
00000001
00000000
00001000
00000001
00000100
00001000
,
00010000
00000000
00000000
00000000
00001000
00000000
00010000
00100000
01000000
00100000
10000000
00000000
00010000
10000000
01000000
00000000
,
00100000
00001000
00010000
00001000
00020000
00000000
00000000
00000000
00030020
00000000
00000000
00000000
00001030
00000000
00000001
00000000
,
00000200
00000000
00000000
00000000
00002300
00000000
00000000
00000000
00013000
00100000
01000000
00000000
00100000
00000000
10000000
00000000
,
00010000
10000000
01000000
00100000
00002000
00000000
00000000
00000000
00023000
00000000
00000000
00000000
00130000
00000000
01000000
00000000
,
00002000
00000000
00000000
00000000
00010000
00000000
00000000
00000000
00000010
00000000
00000000
00000000
00013000
00001000
00010000
00000010
,
00001000
00000001
00000010
00000100
00002000
00000000
00000100
00000000
00003002
00000000
00000010
00000000
00001003
00000000
00000010
00000000
,
00000100
00000000
00001000
00010000
00100000
00000000
01000000
00010000
10000000
01000000
00100000
00010000
00100000
00001000
00010000
00000000
,
00000010
00001000
00000001
00000010
00000100
00000000
00001000
00000001
00001000
00000001
00000100
00000000
00001000
00010000
00100000
01000000
,
00010000
00000000
00000000
00000000
10000000
00000000
01000000
00000000
00100000
01000000
00100000
00010000
00100000
00010000
10000000
00100000
,
01000000
00000000
00000000
00000000
10100000
00000000
00000000
00000000
01010000
00000000
01000000
00001000
00010000
00000000
00010010
00000000
,
00000000
00000000
00010000
00001000
00000100
00000000
00000010
00010000
00001000
00000000
00000100
00000000
00000001
00000000
00001000
00000000
,
00001100
00000000
00000000
00000000
00001000
00000001
00000010
00000100
00001000
00000000
00000100
00010000
00001000
00000000
00011000
00000000
,
00000000
00000000
00000000
00000000
00000000
00000000
00000000
00000000
00001000
00000000
00000000
00000000
00010000
00000000
00000000
00000000
01000000
00000000
00000000
00000000
00000000
00000000
00000000
00000000
00100000
00000000
00000000
00000000
00010000
00000000
00000000
00000000
10000000
00000000
00000000
00000000
00000000
00000000
00000000
00000000
00000000
00000000
00000000
00000000
00000000
00000000
00000000
00000000
00200000
00300000
00000000
00000000
00000000
00000000
00000000
00000000
00200000
00300000
00000000
00000000
00000000
00000000
00000000
00000000
,
00001000
00000000
00000000
00000000
00010000
00000010
00001000
00000010
00010000
00000000
00001000
00010000
00001000
00000000
00101000
00000000
,
00000000
00000000
00001000
00100000
00010000
00000000
00100000
00001000
00010000
00000000
00001000
00000100
00000010
00000000
00001000
00000000
,
00000001
00000000
00000010
00000000
00000100
00001000
00000010
00000100
00001000
00000000
00010000
00100000
01000000
00010000
20000000
00000000
,
00000000
00000000
00000000
00000000
,
30000000
00000000
00000000
00000000
;

//--------------- dance-double - Fred-104† ----------------
#NOTEDATA:;
#STEPSTYPE:dance-double;
#DESCRIPTION:Fred-104†;
#DIFFICULTY:Challenge;
#METER:17;
#CREDIT:Fred-104†;
#NOTES:
00000000
00000000
00000000
00000000
,
00000000
00000000
00000000
00000000
,
00000000
00000000
00000000
00000000
,
00010000
00001000
00010000
00001000
00000010
00000100
00000010
00000100
00000010
00000001
00001000
00000010
00000100
00001000
00010000
00100000
,
10000000
00000000
00010000
00000000
00100000
00000000
01000000
00000000
00100000
00010000
00100000
00001000
00010000
00000020
00020000
00000000
00000000
00000000
00000000
00000000
00000000
00000000
00000000
00000000
00000000
00000000
00000030
00000000
00030000
00000000
00000000
00000000
,
00011000
00000000
00001000
00010000
00100000
10000000
01000000
00100000
,
00010000
00000000
10000000
00100000
00010000
00000000
00001000
00000100
00000001
00000000
00000010
00000000
00000100
00000000
00001000
00000000
,
00000001
00000000
00000100
00001000
00010000
00000000
00100000
10000000
00010000
00000000
00100000
01000000
10000000
00000000
20020000
00000000
,
00000000
00000000
00000000
00000000
00000000
30000000
00030000
00000000
,
01000000
00100000
00010000
00001000
01000000
00001000
00000010
00001000
,
00010000
00000100
00001000
00010000
01000000
00001000
00010000
00000010
,
00001000
00000100
00001000
00000100
00010000
00001000
00010000
00001000
01000000
00010000
01000000
00001000
00010000
00000000
00022000
00000000
,
00000000
00000000
00030000
00003000
,
00010000
00010000
00010000
00010000
,
00001000
00001000
00001000
00001000
,
00010000
00010000
00010000
00010000
,
00001000
00000000
00000000
00000000
00010000
00000000
00000000
00000000
00100000
00000000
00000000
00000000
01000000
00000000
00000000
00000000
00000000
00000000
00100000
00000000
00000000
00000000
00000000
00000000
10000000
00000000
00000000
00010000
00000000
00000000
10000000
00000000
00000000
00010000
00000000
00000000
10000000
00000000
00000000
00000000
00000000
00000000
00000000
00000000
00000000
00000000
00000000
00000000
,
00010000
00000000
01000000
00001000
00010000
00000000
00000100
00001000
00000001
00000000
00000010
00000100
00001000
00000000
00000001
00000000
,
00000100
00001000
00010000
00000000
00100000
01000000
00010000
00000000
10000000
01000000
00100000
00000000
00001000
00010000
00001000
00000000
,
00010000
00000100
00001000
00000100
00000010
00000001
00001000
00000010
00000100
00000010
00001000
00000001
00000010
00000100
00001000
00000100
,
00020000
00000000
00000000
00000000
00000000
00000000
02030000
00000000
00000000
00000000
00000000
00000000
03200000
00000000
00000000
00000000
00000000
00000000
00320000
00000000
00000000
00000000
00000000
00000000
01030000
00000000
00000000
00000000
00001000
00000000
00000000
00000000
00010000
00000000
00000000
00000000
00002000
00000000
00000000
00003000
00000000
00000000
00000020
00000000
00000000
00000030
00000000
00000000
,
00000110
00000000
00000000
00000000
00000001
00000000
00000010
00000000
00000011
00000000
00000000
00001010
00000000
00000000
00011000
00000000
00000000
00000000
00001000
00100000
00010000
00000000
10000000
00000000
00010000
00000000
00100000
01000000
10000000
01000000
00100000
00000000
,
00101000
00000000
00000000
00000000
00001000
00010000
00001000
00000000
00011000
00000000
00000000
01001000
00000000
00000000
00010100
00000000
00000000
00000000
00010000
00001000
00000100
00000000
00000001
00000000
00001000
00000000
00000100
00000010
00000001
00001000
00000010
00000000
,
00000110
00000000
00000000
00000000
00001010
00000000
00001000
00000000
00001001
00000000
00000000
00000101
00000000
00000000
00001100
00000000
00000000
00000000
00001000
00010000
00100000
00000000
01000000
00000000
00010000
00000000
10000000
01000000
00100000
00000000
00001000
00000000
,
00011000
00000000
01000000
01001000
00000000
00000100
00020200
00000000
00000000
00000000
00000000
00000000
00000300
00000000
00030000
00000000
,
00011000
00000000
00000000
00000000
00001100
00000000
00000000
00000000
00011000
00000000
00000000
01010000
00000000
00000000
00012000
00000000
00000000
00000000
02003000
00000000
00000000
00000000
03002000
00000000
00000000
00000000
00013000
00000000
00001000
00000000
00000100
00000010
,
00001000
00000000
00000000
00000000
00001010
00000000
00000010
00000000
00010010
00000000
00000000
00101000
00000000
00000000
01001000
00000000
00000000
00000000
00001000
00010000
01000000
00000000
00100000
00000000
00010000
00000000
10000000
00100000
01000000
00100000
10000000
00000000
,
11000000
00000000
00000000
00000000
00110000
00000000
00000000
00000000
00001100
00000000
00000000
00000110
00000000
00000000
00000011
00000000
00000000
00000000
00000001
00000100
00000010
00001000
00000001
00000000
00000020
00000030
00000200
00000300
00020000
00030000
00002000
00003000
,
00020000
00000000
00001000
00000000
00001000
00000000
00031000
00000000
02000000
00000000
00001000
00000000
00001000
00000000
03001000
00010000
00001000
00010000
00001000
00010000
01000000
00100000
01000000
00100000
00010000
00000000
00100000
00000000
00001000
00000000
00000000
00000000
,
00011000
00000000
00000000
00000000
00022000
00033000
00000000
00000000
00000000
00000000
00000000
00000000
00001010
00000000
00000000
00000000
00001010
00000000
00000000
00000000
00002020
00003030
00000000
00000000
00000000
00000000
00000000
00000000
00011000
00000000
00000000
00000000
00010000
00000000
00000000
00000000
00001000
00000000
00010000
00000000
00100000
00000000
00000000
00000000
01000000
00000000
00000000
00000000
01010000
00000000
00000000
00000000
00000000
00000000
00000000
00000000
10010000
00000000
00000000
00000000
00000000
00000000
00000000
00000000
,
20000000
00000000
00000000
30200000
00000000
00000000
00302000
00000000
00003020
00000000
00000000
00020030
00000000
00000000
00030200
00000000
00000302
00000000
00000000
00000203
00000000
00000000
00020300
00030000
00011000
00000000
00000000
00000000
00001000
00010000
00001000
00000000
,
00011000
00000000
00000000
00000000
00022000
00033000
00000000
00000000
00000000
00000000
00000000
00000000
01001000
00000000
00000000
00000000
01001000
00000000
00000000
00000000
02002000
03003000
00000000
00000000
00000000
00000000
00000000
00000000
00011000
00000000
00000000
00000000
00001000
00000000
00000000
00000000
01000000
00000000
00010000
00000000
00100000
00000000
00000000
00000000
01000000
00000000
10000000
00000000
00010000
00000000
00000000
00000000
01000000
00000000
00001000
00000000
00010000
00000000
00000000
00000000
00001000
00000000
00000000
00000000
,
00020000
00000000
00000000
00001000
00000000
00000000
00031000
00000000
00011000
00000000
00000000
00000000
00010000
00000010
00010000
00000010
00001000
00000000
00000000
00000000
00000001
00000000
00000010
00000000
00001000
00000000
00010000
00000000
00100000
00000000
10000000
00000000
,
10100000
00000000
00000000
00000000
20200000
30300000
00000000
00000000
00000000
00000000
00000000
00000000
10010000
00000000
00000000
00000000
00010000
00000000
10000000
00000000
00010000
00000000
10000000
00000000
00020000
00030000
00000000
00000000
10000000
00000000
01000000
00000000
00010000
00000000
00000000
00000000
00001000
00000000
00010000
00000000
00001000
00000000
00000000
00000000
00000100
00000000
00000000
00000000
00000101
00000000
00000000
00000000
00000000
00000000
00000000
00000000
00000110
00000000
00000000
00000000
00000000
00000000
00000000
00000000
,
00000001
00000000
00000001
00000010
00000100
00000000
00000010
00001000
00010000
00000000
00010000
00000000
00011000
00000000
00000000
00000000
00001000
00010000
00001000
00000000
01001000
00000000
00000000
00000000
00002000
00003000
00020000
00030000
02000000
03000000
00200000
00300000
,
00101000
00000000
00000000
00000000
00202000
00303000
00000000
00000000
00000000
00000000
00000000
00000000
00010010
00000000
00000000
00000000
00010010
00000000
00000000
00000000
00020020
00030030
00000000
00000000
00000000
00000000
00000000
00000000
00101000
00000000
00000000
00000000
00001000
00000000
00000000
00000000
00010000
00000000
00000100
00000000
00001000
00000000
00000000
00000000
00000100
00000000
00000010
00000000
00000001
00000000
00000000
00000000
00001000
00000000
00000010
00000000
00000100
00000000
00000000
00000000
00000010
00000000
00000000
00000000
,
00001000
00000100
00000010
00000000
00000100
00010000
00001000
00000000
00010000
00100000
01000000
00100000
01000000
00010000
00100000
01000000
,
00200000
00000000
00302000
00000000
00003020
00000000
00000230
00000000
00001300
00000010
00000100
00001000
00010000
00000000
00001000
00000000
,
00021000
00000000
00000000
00000000
00000000
00000000
00032000
02003000
,
00000000
00000000
00000000
03020000
00000000
00230000
02300000
03020000
,
00032000
00000000
00000000
00000000
00000000
00000000
00023000
00032000
,
00000000
00000000
00000000
00000000
00003200
00000320
00002030
00003002
,
00000023
00000000
00000000
00000000
00000000
00000000
00000230
00020300
,
00000000
02030000
00000000
03200000
00320000
20030000
30200000
00320000
,
00032000
00000000
00000000
00000000
00000000
00000000
00023000
00000000
00000000
00000000
00230000
00000000
20300000
00000000
32000000
03000000
,
02200000
00000000
00000000
00000000
00000000
00000000
03300000
00000000
10000000
01000000
10000000
01000000
00100000
00010000
00100000
00000000
,
00001000
00010000
01000000
00100000
00010000
01000000
00100000
00010000
,
00000010
00001000
00000100
00001000
00000010
00000100
00001000
00010000
,
00001000
00000000
00000000
00000000
01000000
00000000
00001000
00000000
00010000
00000000
00001000
00000100
00000000
00000010
00001000
00000000
,
00000100
00000010
00000110
00000000
00001010
00000000
00011000
00000000
,
00010000
00000010
00001000
00010000
01000000
00001000
00010000
00100000
,
01000000
00010000
01000000
00010000
00100000
01000000
00100000
01000000
00100000
00001000
00100000
00001000
00010000
00000010
00001000
00000020
,
00020000
00000000
00000000
00000000
00000000
00000000
00000030
00030000
,
00022000
00000000
00000000
00000000
00000000
00000000
00000000
00000000
00000000
00000000
00000000
00000000
00033000
00000000
00000000
00000000
00001000
00010000
00001000
00010000
01000000
00100000
01000000
00100000
00010000
00000000
00000000
00000000
01100000
00000000
00000000
00000000
,
00010000
01000000
00100000
01000000
00010000
00000000
00100000
00000000
00001000
00000000
00010000
00000000
00100000
00000000
00010000
00000000
,
00001000
00000000
01000000
00000000
00001000
00000000
00000100
00000000
00000010
00001000
00000100
00000000
00010000
00000000
00000100
00000000
,
00001000
00000010
00000100
00001000
01000000
00001000
00010000
01000000
,
00100000
00010000
01000000
00001000
00010000
00001000
00011000
00000000
,
00010000
00001000
01000000
00010000
01000000
00000000
00010000
00100000
01000000
00010000
00001000
00000000
00010000
00000010
00001000
00000010
,
00010000
00000000
00000000
00000000
00001000
00000000
01000000
00010000
01000000
00001000
00010000
00000010
00001000
00000100
00010000
00000000
,
00001000
00010000
00100000
00010000
00001000
00000000
00010000
00000000
01000000
00000000
00100000
00000000
00010000
00000000
00001000
00000000
,
00000010
00000000
00010000
00000000
00100000
00000000
00001000
00000000
00000010
00010000
00001000
00000000
00010000
00000000
00100000
00000000
,
01000000
00001000
00010000
00001000
00010000
00000000
00001000
00000000
00000010
00000000
00000100
00000000
00000010
00000000
00001000
00000000
,
00010000
00000000
01000000
00000000
00001000
00000000
00000100
00000000
00010000
00000000
01000000
00000000
00001000
00000000
00000100
00010000
,
00001000
00010000
00001000
00010000
00100000
00000000
01000000
00010000
00100000
00000000
00010000
00001000
00000100
00000000
00000010
00000000
,
00010000
00100000
00001000
00000010
00010000
00100000
00001000
00010000
,
00001000
00010000
00001000
00010000
00001000
00000000
00000100
00000010
00001000
00000100
00000010
00000000
00000100
00010000
00001000
00010000
,
00001000
00000000
00000000
00000000
00010000
00000000
00100000
00000000
01000000
00010000
00100000
01000000
00100000
00010000
00100000
00001000
,
00010000
00000000
00000000
00000000
00001000
00010000
00100000
01000000
00100000
00000000
10000000
00010000
00100000
00000000
01100000
00000000
,
00000000
00000000
10000000
01000000
00010000
00000000
00001000
00010000
00001000
00000000
00000100
00000001
00000010
00000000
00000100
00000000
,
00001100
00000000
00000000
00000000
00000001
00000100
00000010
00000100
00001000
00000000
00010000
00001000
00010000
00000000
00011000
00000000
,
00000000
00000000
00001000
00010000
00100000
00000000
00010000
00001000
00010000
00000000
00001000
00000000
00010000
00000000
01000000
00000000
,
11000000
00000000
00000000
00000000
00010000
01000000
00100000
10000000
00010000
00000000
10000000
01000000
00100000
00000000
00101000
00000000
,
00000000
00000000
00001000
00010000
00000010
00000000
00001000
00000100
00000010
00000000
00000001
00000100
00000010
00000000
00001000
00000000
,
00000001
00000000
00000010
00000000
00001000
00010000
01000000
00100000
00010000
00000000
10000000
00100000
00010000
00001000
00020000
00000000
,
00000000
00000000
00000000
00000000
,
00030000
00000000
00000000
00000000
;
