#VERSION:0.83;
#TITLE:Forgetting Machine;
#ARTIST:TAKU INOUE;
#GENRE:DRUM'N'BASS;
#BANNER:Forgetting Machine.png;
#BACKGROUND:Forgetting Machine-bg.png;
#CDTITLE:./CDTitles/DANCERUSH STARDOM.png;
#MUSIC:Forgetting Machine.ogg;
#SAMPLESTART:27.59;
#SAMPLELENGTH:15;
#BPMS:0=174;
#BGSTAGE:15;

//--------------- dance-single - Fred-104 ----------------
#NOTEDATA:;
#STEPSTYPE:dance-single;
#DESCRIPTION:Fred-104;
#DIFFICULTY:Beginner;
#METER:2;
#CREDIT:Fred-104;
#NOTES:
0000
0000
0000
0000
,
0000
0000
0000
0000
,
0000
0000
0000
0000
,
0000
0000
0000
0000
,
0000
0000
0000
0000
,
1000
0000
0000
0000
,
0001
0000
0000
0000
,
1000
0000
0000
0000
,
0001
0000
0000
0000
,
1000
0000
0000
0000
,
0001
0000
0000
0000
,
1000
0000
0000
0000
,
0001
0000
0000
0000
,
0010
0000
0000
0000
,
0010
0000
0000
0000
,
0100
0000
0000
0000
,
0100
0000
0000
0000
,
1000
0000
0000
0000
,
0001
0000
0000
0000
,
1000
1000
1000
0000
,
1001
0000
0000
0000
,
1000
0000
0000
0000
,
0001
0000
0000
0000
,
0010
0000
0000
0000
,
0100
0000
0100
0000
,
0100
0000
0000
0000
,
1000
0000
1000
0000
,
0001
0000
0000
0000
,
0001
0000
0000
0000
,
1000
0000
0000
0000
,
0100
0000
0100
0000
,
0010
0000
0000
0000
,
0001
0000
1000
0000
,
0001
0000
0000
0000
,
0100
0000
0100
0000
,
0010
0000
0000
0000
,
1000
0000
0000
0000
,
1001
0000
0000
0000
,
0000
0000
0000
0000
,
0001
0000
0000
0000
,
0000
0000
0000
0000
,
1000
0000
1000
0000
,
0001
0000
0001
0000
,
1000
0000
0001
0000
,
1000
0000
0001
0000
,
1000
0000
0000
0000
,
0000
0000
0000
0000
,
0000
0000
0000
0000
,
0001
0000
0000
0000
,
1000
0000
0100
0000
,
0100
0000
0000
0000
,
0010
0000
0001
0000
,
0001
0000
0000
0000
,
1000
0000
0001
0000
,
1000
0000
0000
0000
,
1001
0000
0000
0000
,
0001
0000
0000
0000
,
1000
0000
0001
0000
,
1000
0000
0000
0000
,
0100
0000
0100
0000
,
0100
0000
0000
0000
,
0010
0000
0010
0000
,
0001
0000
0000
0000
,
1000
0000
0000
0000
,
0001
0000
0000
0000
,
0010
0000
0000
0000
,
0100
0000
0000
0000
,
1000
0000
0000
0000
,
0001
0000
0000
0000
,
1000
0000
0000
0000
,
0001
0000
0000
0000
,
1000
0000
0000
0001
;

//--------------- dance-single - Fred-104 ----------------
#NOTEDATA:;
#STEPSTYPE:dance-single;
#DESCRIPTION:Fred-104;
#DIFFICULTY:Easy;
#METER:7;
#CREDIT:Fred-104;
#NOTES:
0000
0000
0000
0000
,
0000
0000
0000
0000
,
0000
0000
0000
0000
,
0000
0000
0000
0000
,
0000
0000
0000
0000
,
0001
0100
0000
0100
,
0000
0100
0000
0100
,
0001
0010
0000
0010
,
0000
0010
0000
0010
,
0001
1000
0000
1000
,
0000
1000
0000
1000
,
0100
0010
0000
0010
,
0001
0000
0000
1000
0000
0000
0001
0000
,
0100
0100
0010
0010
,
1000
1000
0001
0001
,
0010
0010
0100
0100
,
1000
0001
1001
0000
,
1000
1000
0100
0100
,
0010
0010
0001
0001
,
0100
0010
1000
0001
,
2002
0000
3003
0000
,
1000
0000
1001
0000
,
0001
0010
0100
0100
,
1000
0000
1001
0000
,
0001
0000
0100
0000
0010
0010
0000
0000
,
0100
0000
1001
0000
,
0001
1000
0010
0010
,
0100
0000
1001
0000
,
0001
0000
0000
1000
0000
0000
0100
0000
,
0010
0000
0011
0000
,
0010
0001
1000
0000
,
0001
0000
1001
0000
,
1000
0000
0100
0000
1000
1000
0000
0000
,
0001
0000
0101
0000
,
0001
1000
0100
0010
,
0100
0000
1100
0000
,
1000
0000
0000
0001
0000
0000
0100
0000
,
0120
0000
0230
0000
,
0320
0000
0230
0000
,
0301
0000
1000
0000
,
0100
0000
0010
0000
,
0001
0001
0010
0010
,
1000
1000
0100
0100
,
0001
0001
1000
1000
,
0001
0100
0010
1000
,
2002
0000
0000
0000
,
3003
0000
0000
0000
,
1000
0000
0000
0001
0000
0000
1000
0000
,
0100
0110
0010
0001
,
1000
0001
0100
0010
,
0100
0100
0001
1000
,
0001
0010
0100
0000
,
2000
3000
0001
0100
,
0010
0010
0100
0010
,
1000
1000
0100
0010
,
0001
0000
0000
1000
0000
0000
0010
0000
,
0100
0110
0100
0000
,
0001
1000
0100
0100
,
0010
0010
0100
1000
,
0010
1000
0001
0000
,
0200
0000
0320
0000
,
0130
0001
1000
0100
,
0010
0010
0001
1000
,
1001
0000
0000
0110
0000
0000
1001
0000
,
2000
0000
3200
0000
,
0302
0000
0023
0000
,
1030
0100
1100
0000
,
0001
0100
0101
0000
,
1000
0010
1010
0000
,
0001
0010
0011
0000
,
1000
0001
1001
0000
,
1000
0000
0000
0001
0000
0000
0010
0000
;

//--------------- dance-single - Fred-104 ----------------
#NOTEDATA:;
#STEPSTYPE:dance-single;
#DESCRIPTION:Fred-104;
#DIFFICULTY:Medium;
#METER:10;
#CREDIT:Fred-104;
#NOTES:
0000
0000
0000
0000
,
0000
0000
0000
0000
,
0000
0000
0000
0000
,
0000
0000
0000
0000
,
0000
0000
0000
0000
,
2000
0000
3200
0000
,
0320
0000
0032
0000
,
2003
0000
3002
0000
,
0203
0000
0320
0000
,
1030
1000
0001
0001
,
0010
0010
0100
0100
,
1000
1000
0001
0001
,
1001
0000
1000
0100
0000
0010
0001
0000
,
1000
1000
0010
0010
,
0001
0001
0100
0100
,
1000
1000
0001
0001
,
0100
0100
0010
0010
,
1000
0100
1000
0000
0001
0100
0001
0000
,
0100
0010
0100
0000
0010
1000
0010
0000
,
1000
0001
1000
0001
0010
0100
0010
0100
,
2000
0000
3000
0000
,
1000
0100
0110
0010
,
0001
0000
1000
0000
0001
1000
0010
0000
,
0100
0001
1001
1000
,
0100
0000
0010
0000
0001
0001
0000
1000
,
0010
0100
0101
0001
,
1000
0000
0100
0000
0010
0100
1000
0000
,
0001
0100
0110
0010
,
1001
0000
1000
0100
0000
0010
0001
0000
,
1000
0001
0101
0100
,
0010
0000
1000
0000
0010
1000
0001
0000
,
0010
0100
0110
1000
,
0001
0000
1000
0000
0100
0100
0000
0010
,
0001
1000
1010
0010
,
0100
0000
0001
0000
0010
0100
1000
0000
,
0010
0100
0101
0001
,
1001
0000
0001
0100
0000
0010
1000
0000
,
1002
0000
2003
0000
,
3020
0000
0230
0000
,
0301
0001
1000
1000
,
0100
0010
0001
1000
,
1100
1100
0011
0011
,
1010
1010
0101
0101
,
1000
0100
0001
0000
1000
0010
0001
0000
,
1000
0100
1000
0100
0010
0001
0010
0001
,
2000
0000
0000
0000
,
3000
0000
0000
0000
,
0110
0000
0001
0100
0000
0010
1000
0000
,
0110
0000
1001
0000
1000
0100
0010
0000
,
0001
1000
0010
0000
0100
0001
1000
0000
,
0100
0010
0100
0000
1000
0010
0100
0000
,
0010
1000
0100
1000
0001
1000
0100
0000
,
0020
0000
0031
1000
0001
0000
0100
0001
,
1000
0100
0010
0001
1000
0001
1000
0000
,
0020
0000
0130
0001
1000
0100
0010
0000
,
0011
0000
0001
1000
0000
0010
0100
0000
,
0110
0000
1001
0000
0001
0010
0100
0000
,
1000
0010
0100
0010
1000
0001
0010
0000
,
0100
0010
0001
0000
1000
0001
0100
0000
,
0001
1000
0100
0010
0100
1000
0100
0000
,
2000
0000
0010
0000
0010
0000
3010
0100
,
0020
0000
1030
0000
0001
1000
0010
0000
,
0100
0001
1000
0000
0100
0010
0001
0000
,
1001
0000
1000
0010
0000
0100
0001
0000
,
2001
0000
3002
0000
,
0203
0000
0320
0000
,
1030
0000
0001
0000
0011
0000
0100
1000
,
0001
0100
0110
0000
,
1000
0000
0001
0000
0101
0000
0001
1000
,
0100
0010
0011
0000
,
1000
0000
0001
0000
0101
0000
0100
0010
,
1000
0000
0001
0010
0000
0100
1000
0000
;

//--------------- dance-single - Fred-104 ----------------
#NOTEDATA:;
#STEPSTYPE:dance-single;
#DESCRIPTION:Fred-104;
#DIFFICULTY:Hard;
#METER:14;
#CREDIT:Fred-104;
#NOTES:
0000
0000
0000
0000
,
0000
0000
0000
0000
,
0000
0000
0000
0000
,
0000
0000
0000
0000
,
0000
0000
0000
0000
,
0001
0010
0001
0000
0001
0100
0001
0000
,
1000
0100
1000
0000
1000
0010
1000
0000
,
0100
0010
0100
0000
0010
0001
0010
0000
,
0001
0100
0001
0000
0100
0010
0100
0000
,
0010
1000
0001
0000
0010
0001
1000
0000
,
0100
1000
0001
0000
0100
0001
1000
0000
,
0100
0010
0001
1000
0010
0100
0001
0000
,
1001
0000
1000
0001
0000
0100
0010
0000
,
1000
0100
1000
0000
1000
0001
1000
0000
,
0001
0100
0001
0000
0001
1000
0001
0000
,
0100
0010
0100
0000
0100
0001
0100
0000
,
0010
1000
0010
0000
0010
0100
0010
0000
,
1000
0010
1000
0010
0100
0001
0100
0001
,
1000
0100
1000
0100
0010
0001
0010
0001
,
1000
0100
1000
0000
0001
0100
0001
0000
1000
0001
1000
0001
1000
0001
1000
0001
,
2000
0000
3000
0000
,
1000
0100
0010
0001
1000
0010
1000
0001
,
0100
0010
0001
0010
1000
0001
0010
0100
,
1000
0001
0100
0010
0001
0010
0100
0010
,
1000
0001
0010
0100
0010
0011
0000
1000
,
0001
0100
1000
0100
0001
0010
0100
1000
,
0001
0100
0010
0100
1000
0100
0010
1000
,
0001
0010
0100
1000
0001
0100
0010
1000
,
0100
0000
0000
0000
0110
0000
0010
0001
0010
0001
1000
0000
0010
1000
0010
1000
,
0001
0010
0001
1000
0010
0100
1000
0100
,
0010
0100
0001
1000
0100
0010
0001
1000
,
0001
0100
1000
0100
0010
1000
0001
1000
,
0100
0010
0001
1000
0001
0101
0000
1000
,
0001
0000
0100
0010
0100
0000
0001
0000
1000
0000
0100
0010
0100
0000
1000
0000
,
0001
0000
0010
0100
0010
0000
0001
0000
1000
0000
0010
0100
0010
0000
1000
0000
,
0001
0000
0010
0100
1000
0000
0001
0000
1000
0000
0010
0100
0001
0000
1000
0000
,
1100
0000
1000
0001
0000
0100
0010
0000
,
2001
0000
3002
0000
,
0203
0000
0320
0000
,
1030
0001
0010
0100
,
0010
0001
1000
0000
0010
1000
0001
0000
,
0011
0011
1010
1010
,
1100
1100
0101
0101
,
0001
0010
0100
1000
0001
0100
0010
1000
,
0001
0010
0001
0000
1000
0010
1000
0000
0001
1000
0001
1000
0001
1000
0001
1000
,
0002
0000
0000
0000
,
2000
0000
0000
3003
,
0110
0000
1000
0100
0000
0010
0001
0000
,
0110
0000
0000
0000
1001
0000
0000
0000
0001
0000
1000
0000
0010
1000
0010
0000
,
1000
0001
1000
0000
0001
0010
0001
0000
1000
0000
0100
0000
0010
0100
0010
0100
,
0010
0000
0001
0000
1000
0000
0001
0100
0001
0100
0001
0000
1000
0000
0100
0000
,
0010
0000
0001
0000
1000
0000
0010
0100
0010
0000
1000
0000
0001
0000
0020
0000
,
0100
0000
0000
0000
0130
1000
0100
1000
0100
0000
1000
0000
0001
0000
0100
0000
,
0010
0000
1000
0000
0001
0010
0001
0010
0001
0000
0010
0000
0100
0000
0010
0000
,
0002
0000
0000
0000
1003
0000
0001
0100
0001
0000
1000
0000
0100
0010
0100
0010
,
0100
0000
1000
0001
0000
0100
0010
1000
,
1001
0000
0000
0000
0110
0000
0000
0000
1000
0000
0001
0000
0100
0010
0100
0010
,
0100
0000
0001
0000
1000
0000
0100
0010
0100
0000
0010
0000
0001
1000
0001
1000
,
0001
0000
1000
0000
0010
0100
0010
0100
0001
0000
1000
0000
0100
0000
0010
0000
,
0001
0010
0001
0010
0001
0000
1000
0000
0010
0000
0100
0000
0102
0000
0000
0000
,
2003
0000
0100
0000
0001
0000
3010
0100
,
0002
0000
0000
0000
0103
0000
0001
0000
1000
0100
1000
0000
0001
0100
0001
0000
,
1000
0100
0010
0001
0010
0100
1000
0001
,
0101
0000
1000
0001
0000
0010
0100
0000
,
2001
0000
3002
0000
,
0103
0000
0010
1000
0001
0010
0100
0100
,
1000
0000
0010
0000
0110
0000
0001
1000
,
0100
0010
0001
0000
0101
0000
0001
1000
,
0010
0000
0100
0000
0110
0000
1000
0100
,
0010
0100
1000
0000
1001
0000
0001
1000
,
0010
0000
1000
0000
1100
0000
0100
0010
,
0011
0000
1000
0001
0000
0100
0010
0000
;

//--------------- dance-double - Fred-104 ----------------
#NOTEDATA:;
#STEPSTYPE:dance-double;
#DESCRIPTION:Fred-104;
#DIFFICULTY:Easy;
#METER:7;
#CREDIT:Fred-104;
#NOTES:
00000000
00000000
00000000
00000000
,
00000000
00000000
00000000
00000000
,
00000000
00000000
00000000
00000000
,
00000000
00000000
00000000
00000000
,
00000000
00000000
00000000
00000000
,
10000000
01000000
00000000
01000000
,
00000000
01000000
00000000
01000000
,
00100000
00001000
00000000
00001000
,
00000000
00001000
00000000
00001000
,
00010000
00000010
00000000
00000010
,
00000000
00000010
00000000
00000010
,
00001000
00000001
00000000
00000001
,
00000100
00000000
00000000
00001000
00000000
00000000
00010000
00000000
,
00001000
00001000
00010000
00010000
,
01000000
01000000
10000000
10000000
,
00100000
00100000
00010000
00010000
,
00001000
00010000
00011000
00000000
,
00001000
00001000
00010000
00010000
,
01000000
01000000
10000000
10000000
,
01000000
00100000
00010000
10000000
,
20020000
00000000
30030000
00000000
,
10000000
00000000
01100000
00000000
,
00010000
00100000
00001000
00001000
,
00010000
00000000
00011000
00000000
,
00001000
00000000
00010000
00000000
00000010
00000010
00000000
00000000
,
00001000
00000000
00001001
00000000
,
00000001
00000100
00000010
00000010
,
00001000
00000000
00001001
00000000
,
00000001
00000000
00000000
00000010
00000000
00000000
00001000
00000000
,
00010000
00000000
00011000
00000000
,
00001000
00010000
01000000
00000000
,
00100000
00000000
10010000
00000000
,
10000000
00000000
01000000
00000000
00100000
00100000
00000000
00000000
,
00001000
00000000
00011000
00000000
,
00010000
00001000
00000100
00000010
,
00001000
00000000
00001001
00000000
,
00000001
00000000
00000000
00001000
00000000
00000000
00000100
00000000
,
00000120
00000000
00000230
00000000
,
00000320
00000000
00000230
00000000
,
00000310
00000000
00000001
00000000
,
00000100
00000000
00001000
00000000
,
00010000
00010000
00100000
00100000
,
10000000
10000000
01000000
01000000
,
00010000
00010000
00001000
00001000
,
00010000
00000000
00100000
00000000
10000000
00000000
00010000
10000000
,
00020000
00000000
00000000
00000000
,
00030000
00000000
00000000
00000000
,
10000000
00000000
00000000
00100000
00000000
00000000
00010000
00000000
,
00001000
00011000
00010000
00000010
,
00010000
00001000
00010000
00010000
,
00001000
00000100
00000001
00001000
,
00000100
00000010
00000001
00000000
,
00002000
00003000
00000001
00000100
,
00000010
00000100
00001000
00010000
,
00001000
00010000
00100000
00000000
,
10000000
00000000
00000000
00010000
00000000
00000000
10000000
00000000
,
01000000
01100000
00100000
00000000
,
00001000
00010000
00000100
00000100
,
00001000
00000001
00000010
00000100
,
00010000
00001000
00010000
00000000
,
00002000
00000000
00203000
00000000
,
00301000
00010000
00100000
01000000
,
00010000
10000000
01000000
00100000
,
00001000
00000000
00000000
00010000
00000000
00000000
00001000
00000000
,
00021000
00000000
00032000
00000000
,
00023000
00000000
00032000
00000000
,
00013000
00001000
01001000
00000000
,
00001000
00010000
00010100
00000000
,
00010000
00001000
00101000
00000000
,
00001000
00010000
00010010
00000000
,
00001000
00010000
00011000
00000000
,
00001000
00000000
00000000
00010000
00000000
00000000
00011000
00000000
;

//--------------- dance-double - Fred-104 ----------------
#NOTEDATA:;
#STEPSTYPE:dance-double;
#DESCRIPTION:Fred-104;
#DIFFICULTY:Medium;
#METER:10;
#CREDIT:Fred-104;
#NOTES:
00000000
00000000
00000000
00000000
,
00000000
00000000
00000000
00000000
,
00000000
00000000
00000000
00000000
,
00000000
00000000
00000000
00000000
,
00000000
00000000
00000000
00000000
,
00000002
00000000
00002003
00000000
,
00003020
00000000
00020030
00000000
,
00032000
00000000
00203000
00000000
,
00302000
00000000
00023000
00000000
,
00130000
00100000
10000000
10000000
,
00010000
00010000
10000000
10000000
,
01000000
01000000
00010000
00010000
,
00011000
00000000
00010000
00001000
00000000
00000100
00000001
00000000
,
00001000
00001000
00000001
00000001
,
00000010
00000010
00001000
00001000
,
00010000
00010000
00100000
00100000
,
10000000
10000000
00010000
00010000
,
10000000
00100000
10000000
00000000
00010000
00100000
00010000
00000000
,
00100000
00001000
00100000
00000000
00001000
00010000
00001000
00000000
,
00010000
00001000
00010000
00001000
00000010
00000100
00000010
00000100
,
00002000
00000000
00003000
00000000
,
00000001
00000100
00000110
00001000
,
00000001
00000000
00000100
00000000
00001000
00010000
01000000
00000000
,
00100000
00010000
10010000
10000000
,
00100000
00000000
00010000
00000000
00001000
00001000
00000000
00010000
,
00001000
00010000
00010100
00010000
,
00001000
00000000
00000100
00000000
00000010
00001000
00000001
00000000
,
00000100
00000010
00001010
00000001
,
00001001
00000000
00000001
00000010
00000000
00001000
00010000
00000000
,
00001000
00010000
00011000
00001000
,
01000000
00000000
00010000
00000000
10000000
01000000
00100000
00000000
,
00001000
00010000
00011000
01000000
,
00100000
00000000
10000000
00000000
00100000
00100000
00000000
00010000
,
00001000
00010000
00011000
00001000
,
01000000
00000000
00001000
00000000
00010000
00000100
00001000
00000000
,
00000100
00010000
00011000
00001000
,
00011000
00000000
00001000
00010000
00000000
01000000
10000000
00000000
,
10020000
00000000
20030000
00000000
,
32000000
00000000
03200000
00000000
,
00301000
00001000
00010000
00010000
,
00000010
00001000
00000001
00001000
,
00001100
00001100
00010100
00010100
,
01001000
01001000
01010000
01010000
,
00010000
10000000
01000000
00000000
00100000
00001000
00010000
00000000
,
00001000
00010000
00001000
00010000
00001000
00010000
00001000
00010000
,
00002000
00000000
00000000
00000000
,
00003000
00000000
00000000
00000000
,
00001001
00000000
00000001
00000100
00000000
00000010
00001000
00000000
,
00000110
00000000
00001001
00000000
00000001
00000100
00001000
00000000
,
00010000
01000000
10000000
00000000
00010000
10000000
00100000
00000000
,
01000000
00010000
10000000
00000000
01000000
00100000
00001000
00000000
,
00010000
00001000
00010000
00000010
00010000
00001000
00010000
00000000
,
00002000
00000000
00013000
00000100
00001000
00000000
00000100
00000010
,
00000001
00001000
00000001
00000100
00001000
00010000
00001000
00000000
,
00020000
00000000
01030000
00100000
00010000
00100000
00001000
00000000
,
00011000
00000000
00010000
00000010
00000000
00010000
00001000
00000000
,
00011000
00000000
01001000
00000000
00001000
00010000
00100000
00000000
,
01000000
00010000
01000000
00010000
10000000
01000000
00100000
00000000
,
00001000
00010000
00001000
00000000
00010000
00000010
00010000
00000000
,
00001000
00010000
00000100
00001000
00000100
00000010
00000100
00000000
,
00002000
00000000
00000001
00000000
00000001
00000000
00003001
00001000
,
00000020
00000000
00010030
00000000
00001000
00010000
01000000
00000000
,
00100000
00010000
10000000
00000000
00100000
01000000
00001000
00000000
,
00011000
00000000
00010000
00001000
00000000
00000100
00000001
00000000
,
00002001
00000000
00003002
00000000
,
00000203
00000000
00000320
00000000
,
00001030
00000000
00000100
00000000
00000110
00000000
00000001
00000100
,
00001000
00010000
00011000
00000000
,
00001000
00000000
00010000
00000000
00011000
00000000
00001000
00010000
,
00100000
10000000
10010000
00000000
,
10000000
00000000
01000000
00000000
01100000
00000000
00001000
00010000
,
00001000
00000000
00010000
00100000
00000000
10000000
00010000
00000000
;

//--------------- dance-double - Fred-104 ----------------
#NOTEDATA:;
#STEPSTYPE:dance-double;
#DESCRIPTION:Fred-104;
#DIFFICULTY:Hard;
#METER:14;
#CREDIT:Fred-104;
#NOTES:
00000000
00000000
00000000
00000000
,
00000000
00000000
00000000
00000000
,
00000000
00000000
00000000
00000000
,
00000000
00000000
00000000
00000000
,
00000000
00000000
00000000
00000000
,
00010000
00001000
00010000
00000000
00010000
00000010
00010000
00000000
,
00001000
00010000
00001000
00000000
00001000
00100000
00001000
00000000
,
00010000
00000100
00010000
00000000
00010000
00001000
00010000
00000000
,
00001000
01000000
00001000
00000000
00001000
00010000
00001000
00000000
,
00010000
00001000
00000010
00000000
00001000
00010000
00001000
00000000
,
00010000
00001000
00000100
00000000
00001000
00010000
00001000
00000000
,
00010000
00000100
00001000
00000000
00000100
00010000
00001000
00000000
,
00011000
00000000
00010000
00000010
00000000
00001000
00000010
00000000
,
00001000
00000100
00001000
00000000
00001000
00000001
00001000
00000000
,
00000001
00000100
00000001
00000000
00000001
00000010
00000001
00000000
,
00001000
00000010
00010000
00000000
00001000
00100000
00010000
00000000
,
01000000
00100000
10000000
00000000
01000000
00100000
00001000
00000000
,
00010000
00001000
00000100
00000001
00001000
00000100
00000010
00000001
,
00001000
00000010
00000100
00001000
00010000
00100000
10000000
00010000
,
00100000
01000000
00100000
00000000
00010000
10000000
00010000
00000000
10000000
00100000
10000000
00100000
10000000
00100000
10000000
00100000
,
02000000
00000000
03000000
00000000
,
00010000
10000000
00100000
00010000
00001000
00000100
00000010
00000000
,
00001000
00000001
00000010
00000100
00000010
00001000
00010000
00000000
,
00001000
00010000
01000000
00100000
00010000
10000000
00100000
00000000
,
10000000
01000000
00100000
00001000
00010000
00010100
00000000
00010000
,
00001000
00000010
00000001
00000010
00000100
00001000
00000001
00000000
,
00001000
00000010
00010000
00001000
01000000
00001000
00010000
00000000
,
00001000
00000100
00000001
00000100
00000010
00010000
00001000
00000000
,
00011000
00000000
00001000
00010000
00000000
01000000
10000000
00000000
,
00010000
10000000
01000000
00010000
00001000
00000100
00000001
00001000
,
00000001
00000100
00001000
00010000
01000000
10000000
00010000
00000000
,
10000000
00100000
00010000
00001000
00000010
00000001
00001000
00000001
,
00000010
00001000
00010000
00100000
10000000
10010000
00000000
00010000
,
10000000
01000000
00100000
00001000
00010000
00000100
00000010
00000001
,
00001000
00000010
00000100
00001000
00010000
00100000
01000000
00100000
,
10000000
00010000
10000000
00100000
00010000
00001000
00000010
00000001
,
00001001
00000000
00000001
00000100
00000000
00001000
00010000
00000000
,
00012000
00000000
00023000
00000000
,
00032000
00000000
02003000
00000000
,
03010000
10000000
01000000
00100000
,
00001000
00010000
00100000
00000000
01000000
00010000
10000000
00000000
,
11000000
10100000
01010000
00011000
,
00010100
00001010
00000011
00000110
,
00000001
00000100
00000010
00010000
00001000
00100000
01000000
10000000
,
00010000
00100000
00010000
00000000
10000000
00100000
10000000
00000000
00010000
01000000
00010000
01000000
00010000
01000000
00010000
01000000
,
00020000
00000000
00000000
00000000
,
20000000
00000000
00000000
30030000
,
01100000
00000000
10000000
01000000
00000000
00010000
00001000
00000000
,
00011000
00000000
00000000
00000000
00010010
00000000
00000000
00000000
00010000
00000000
00001000
00000000
00000010
00000001
00000010
00000000
,
00000100
00001000
00000100
00000000
00010000
00001000
00010000
00000000
00001000
00000000
01000000
00000000
00010000
10000000
00010000
10000000
,
01000000
00000000
00100000
00000000
00001000
00000000
00010000
00001000
00010000
00001000
00010000
00000000
00001000
00000000
00000100
00000000
,
00000010
00000000
00001000
00000000
00000001
00000000
00000010
00000100
00000010
00000000
00000100
00000000
00010000
00000000
00002000
00000000
,
00010000
00000000
00000000
00000000
00013000
00001000
00010000
00001000
01000000
00000000
00010000
00000000
10000000
00000000
01000000
00000000
,
00100000
00000000
00001000
00000000
00010000
00000010
00010000
00000010
00001000
00000000
00000001
00000000
00000010
00000000
00000100
00000000
,
00020000
00000000
00000000
00000000
00031000
00000000
00010000
00000010
00010000
00000000
00001000
00000000
00100000
00010000
00100000
00010000
,
00100000
00000000
01000000
10000000
00000000
00100000
00010000
00001000
,
00011000
00000000
00000000
00000000
00010100
00000000
00000000
00000000
00010000
00000000
00001000
00000000
00000100
00000001
00000100
00000001
,
00001000
00000000
00000100
00000000
00000010
00000000
00001000
00010000
00001000
00000000
00010000
00000000
01000000
00100000
01000000
00100000
,
01000000
00000000
10000000
00000000
00010000
01000000
00010000
01000000
00001000
00000000
00010000
00000000
00000100
00000000
00001000
00000000
,
00000001
00000100
00000001
00000100
00000010
00000000
00000100
00000000
00001000
00000000
00010000
00000000
00011000
00000000
00000000
00000000
,
01002000
00000000
00010000
00000000
01000000
00000000
00013000
00001000
,
00200000
00000000
00000000
00000000
00310000
00000000
10000000
00000000
01000000
00100000
01000000
00000000
00100000
00000000
00001000
00000000
,
00010000
00001000
00000100
00000001
00000010
00001000
00010000
00001000
,
00011000
00000000
01000000
00010000
00000000
10000000
01000000
00000000
,
01200000
00000000
00302000
00000000
,
00013000
00000000
00001000
00000010
00000100
00001000
00000010
00000010
,
00010000
00000000
00001000
00000000
01001000
00000000
00001000
00010000
,
00100000
10000000
01000000
00000000
01100000
00000000
00100000
00001000
,
00010000
00000000
00000010
00000000
00000110
00000000
00001000
00000001
,
00000010
00001000
00010000
00000000
00011000
00000000
00001000
00010000
,
00100000
00000000
01000000
00000000
01010000
00000000
10000000
01000000
,
00010000
00000000
00001000
00000100
00000000
00000001
00001000
00000000
;
