#TITLE:For UltraPlayers;
#ARTIST:cosMo@暴走P;
#ARTISTTRANSLIT:cosMo@BousouP;
#BANNER:For UltraPlayers.png;
#BACKGROUND:For UltraPlayers-bg.png;
#CDTITLE:./CDTitles/SDVX II -infinite infection-.png;
#MUSIC:For UltraPlayers.ogg;
#SAMPLESTART:94.045;
#SAMPLELENGTH:15;
#BPMS:0=201;
#BGSTAGE:31;

//--------------- dance-single - Fred-104 ----------------
#NOTES:
     dance-single:
     Fred-104:
     Beginner:
     4:
     :
0000
0000
0000
0000
,
0000
0000
0000
0000
,
0000
0000
0000
0000
,
0000
0000
0000
0000
,
0000
0000
0000
0000
,
0000
0000
0000
0000
,
1000
0000
0000
0000
,
0001
0000
0000
0000
,
1000
0000
0000
0000
,
0001
0001
0001
0000
,
2002
0000
0000
0000
,
3003
0000
0000
0000
,
1000
0000
0000
0000
,
0010
0000
0000
0000
,
1000
0000
0000
0000
,
1000
0000
0000
0000
,
0001
0000
0000
0000
,
0001
0000
0000
0000
,
0001
0000
0000
0000
,
1000
1000
1000
1000
,
1000
0000
0000
0000
,
0001
0000
0000
0000
,
0100
0000
0000
0000
,
0001
0000
0000
0000
,
0100
0000
0000
0000
,
0001
0000
0000
0000
,
1000
0000
1000
0000
,
1000
1000
1000
1000
,
1000
0000
0001
0000
,
1000
0000
1000
0000
,
0100
0000
0100
0000
,
0010
0000
0010
0000
,
0001
0000
0001
0000
,
1000
0000
0001
0000
,
1000
0000
0010
0000
,
1000
0001
1001
0000
,
1000
0000
0001
0000
,
1000
0000
1000
0000
,
0100
0000
0100
0000
,
0020
0000
0030
0000
,
0001
0000
0001
0000
,
1000
0000
1000
0000
,
0001
0000
1000
0000
,
0010
0000
0010
0000
,
0100
0000
0001
0000
,
2002
0000
3003
0000
,
1000
0000
0001
0000
,
0010
0000
0010
0000
,
0001
0000
1000
0000
,
0001
0000
1000
0000
,
1000
0000
0001
0000
,
1000
0000
1000
0000
,
0010
0000
1000
0000
,
2002
0000
3003
0000
,
0000
0001
0000
0001
,
0001
0000
0100
0000
,
0001
0000
0001
0000
,
1000
0000
0100
0000
,
1000
1000
1000
0000
,
0001
0001
0001
0000
,
0100
0100
0100
0100
,
0100
0000
0010
0000
,
1001
0000
0000
0000
,
0000
0000
0000
0000
,
0000
0000
0000
0000
,
0000
0000
0000
0000
,
1001
0000
0000
0000
,
0000
0000
0000
0000
,
1001
0000
0000
0000
,
2000
3000
0002
0003
,
1000
0000
0000
0000
,
1000
0000
0001
0000
,
0100
0000
0000
0000
,
0100
0000
0100
0000
,
0010
0000
0100
0000
,
0100
0000
0001
0000
,
1000
0000
0001
0000
,
1000
0000
0000
0000
,
2002
0000
3003
0000
,
1000
0000
0100
0000
,
0010
0000
0001
0000
,
0001
0000
0100
0000
,
0001
0000
0100
0100
,
0100
0000
0001
0000
,
0010
0000
0001
0001
,
0001
0000
1000
0000
,
0001
0000
1001
0000
,
1000
0000
1000
0000
,
0100
0100
0100
0000
,
1000
0000
0001
0000
,
0010
0010
0010
0000
,
0001
0001
0001
0000
,
1000
1000
1000
0000
,
0010
0010
0010
0010
,
0010
0000
0100
0000
,
1001
0000
0000
0000
,
0000
0000
0000
0000
,
0110
0000
0000
0000
,
0000
0000
0000
0000
,
2002
0000
0000
3003
;

//--------------- dance-single - Fred-104 ----------------
#NOTES:
     dance-single:
     Fred-104:
     Easy:
     9:
     :
0000
0000
0000
0000
,
0000
0000
0000
0000
,
0000
0000
0000
0000
,
0000
0000
0000
0000
,
0000
0000
0000
0000
,
0000
0000
0000
0000
,
1000
0100
0100
1000
,
0001
0010
0100
0010
,
0001
1000
0001
1000
,
0001
0100
0220
0330
,
1000
0100
0010
0001
,
0200
0000
0320
0000
,
1030
0100
2000
0000
3100
0000
0010
0000
,
0001
1000
0010
0100
,
0001
0010
0002
0000
0103
0000
1000
0000
,
0100
0001
1000
0001
,
1000
0100
0010
0000
0001
0000
1000
0000
,
0001
0000
0001
0000
1000
0001
1000
0000
,
0001
1000
0001
0001
,
0100
0010
0220
0330
,
1000
0000
0010
0100
0010
0000
1000
0000
,
0001
0000
0010
0100
0010
0000
0001
0000
,
1000
0100
1000
0000
0001
0100
0001
0000
,
1000
0100
0010
0001
,
1000
0100
0100
1000
,
0001
0020
0000
0031
,
1000
1000
0001
0001
,
0100
0010
0100
0000
0010
0100
0010
0000
,
1001
0100
0010
0010
,
0001
0100
0100
0010
,
1000
0100
0100
1000
,
0001
1000
2002
3003
,
0001
0001
0010
1000
,
1000
0010
0001
0001
,
1000
1000
0100
0001
,
0001
0100
2002
3003
,
1000
0010
1000
0010
,
0100
0001
0100
0001
,
0010
0100
1000
0010
,
0100
0001
2002
3003
,
0001
0001
0100
1000
,
1000
0010
0001
1001
,
0100
0000
0010
0000
,
0100
0100
2000
3002
,
0103
0000
0010
0000
,
2002
0000
3003
0000
,
1000
0000
0000
0100
0000
0000
1000
0000
0000
0000
0000
0000
1000
0000
0000
0000
,
0001
0000
0000
0010
0000
0000
0001
0000
0000
0000
0000
0000
0001
0000
0000
0000
,
1000
0000
0000
1000
0000
0000
0000
0000
0001
0000
0000
0001
0000
0000
0000
0000
,
1000
0001
0001
0100
,
0010
0000
0000
0010
0000
0000
0010
0000
0000
0000
0000
0000
0100
0000
0000
0000
,
0001
0100
0001
1000
,
0001
0000
0000
0001
0000
0000
0000
0000
1000
0000
0000
1000
0000
0000
0000
0000
,
0010
0000
0000
0010
0000
0000
0000
0000
0220
0000
0000
0000
0000
0000
0000
0000
,
0330
1001
0100
0100
,
0010
0000
0000
0010
0000
0000
0010
0000
0000
0000
0000
0000
0001
0000
0000
0000
,
1000
0000
0000
0010
0000
0000
0000
0000
1000
0000
0000
0001
0000
0000
0000
0000
,
1000
0100
0010
0010
,
0001
0100
0202
0303
,
1000
0100
2200
3300
,
0001
0001
1000
0010
,
0100
0100
0010
0010
,
1001
0000
0000
0000
,
0000
0000
0000
0000
,
0000
0000
0000
0000
,
0000
0000
0000
0000
,
1001
0000
0000
0000
,
0100
0000
0000
0000
,
1001
0000
0000
0000
,
0110
0000
1001
0000
,
1000
0100
0100
0010
,
0100
1000
0001
0100
,
0001
0001
0010
0010
,
1000
0010
0001
1000
,
0001
0001
0202
0303
,
1000
1000
2200
3300
,
0001
1000
1000
0010
,
0100
0000
0010
0000
,
2002
0000
3003
0000
,
1000
0000
0000
1000
0000
0000
1000
0000
0000
0000
0000
0000
0001
0000
0000
0000
,
0100
0000
0000
0100
0000
0000
0100
0000
0000
0000
0000
0000
0010
0000
0000
0000
,
1000
0000
0000
0100
0000
0000
0000
0000
0010
0000
0000
0001
0000
0000
0000
0000
,
1000
0001
0100
0100
,
0010
0000
0000
0010
0000
0000
0100
0000
0000
0000
0000
0000
0001
0000
0000
0000
,
1000
0100
1000
0000
0001
0000
0100
0000
,
0001
0000
0000
0010
0000
0000
0000
0000
0100
0000
0000
1000
0000
0000
0000
0000
,
0001
0000
0000
1000
0000
0000
0000
0000
0010
0000
0000
0010
0000
0000
0000
0000
,
0100
0000
0000
0100
0000
0000
0200
0000
0000
0000
0000
0000
0301
0000
0000
0000
,
1000
0000
0000
1000
0000
0000
2000
0000
0000
0000
0000
0000
3010
0000
0000
0000
,
1000
0000
0000
0010
0000
0000
0000
0000
1000
0000
0000
0001
0000
0000
0000
0000
,
0100
0000
0001
1000
0001
0000
1000
0000
,
1000
0010
2020
3030
,
0001
0010
0022
0033
,
0001
0001
0001
0001
,
1000
1000
0001
0001
,
2002
0000
0000
0000
,
0000
0000
3003
0000
,
0200
0000
0000
0000
,
0000
0000
0300
0000
,
0220
0000
0000
0330
;

//--------------- dance-single - Fred-104 ----------------
#NOTES:
     dance-single:
     Fred-104:
     Medium:
     14:
     :
0000
0000
0000
0000
,
0000
0000
0000
0000
,
0000
0000
0000
0000
,
0000
0000
0000
0000
,
0000
0000
0000
0000
,
0000
0000
0000
0000
,
1000
0100
1000
0010
1000
0001
0100
0010
,
0100
0100
0001
1000
0001
0010
0100
1000
,
0001
0010
0001
1000
0010
1000
0001
0100
,
0001
1000
0001
0100
0220
0000
0330
0000
,
2000
0000
3020
0000
0130
0001
1000
0100
,
0010
0100
0010
0100
0010
0100
0110
0000
,
0001
0010
0001
0010
0001
0100
0001
0100
,
0010
1000
0010
1000
0100
1000
0100
1000
,
0001
0010
0100
1000
0100
0010
0001
0100
,
0010
1000
0010
0100
0002
0000
2003
0000
,
3001
0100
0001
0100
0010
1000
0010
0100
,
0101
0000
1100
0000
0100
0001
2000
0000
,
3001
0010
0100
1000
0010
0100
0001
1000
,
0100
0000
0000
0010
0000
0000
0001
0000
0000
1000
0000
0000
0001
0000
1000
0000
0001
0000
1000
0000
0000
0000
0000
0000
,
0001
0010
0001
0010
1000
0010
1000
0010
,
0001
0100
0001
0100
1000
0100
1000
0100
,
0001
1000
0100
0010
0001
1000
0010
0100
,
0110
1100
0101
1001
,
1000
0010
0100
0010
1000
0010
0100
0001
,
1000
0000
2002
0000
3003
0100
0010
0100
,
0001
0001
0010
0100
1000
1000
0010
0100
,
0001
1000
0001
0000
1000
0001
1000
0000
2002
0000
0000
0000
3003
0000
0000
0000
,
1000
0100
0000
1000
0010
0100
0000
0001
,
0010
0100
0000
0010
0001
1000
0000
0010
,
1000
0100
0000
0010
0001
1000
0000
0001
,
0100
0000
0010
0000
0000
0000
1000
0000
0001
0000
0000
0001
0000
0000
0001
0000
,
1000
0100
0000
0010
0001
1000
0000
0100
,
1000
0100
0000
0010
0001
1000
0000
0001
,
0100
1000
0000
0001
0010
1000
0000
0001
,
0100
0000
0000
0100
0000
0000
0010
0000
0220
0000
0000
0000
0330
0000
0000
0000
,
1000
0001
1000
0001
1000
0010
0100
0010
,
0100
0010
1000
0100
0010
0100
1000
0001
,
2000
0000
3001
0100
2000
0000
3001
0010
,
1000
0000
0001
1000
2002
0000
3003
0000
,
1100
0000
0000
0010
0100
0010
0200
0000
0000
0302
0000
0000
,
2003
0000
0000
0000
0000
0000
3001
0000
0000
0000
0001
0000
0100
0000
0000
0000
0000
0000
0010
0000
0000
0100
0000
0000
,
0020
0000
0130
1000
0001
0100
0010
0000
,
2000
0000
3100
0100
0010
0000
1001
0000
,
0001
0010
0001
0100
0010
1000
0001
0000
,
0220
0000
0330
0000
,
1000
0000
0000
0100
0000
0000
1000
0000
0000
0000
0010
0000
0100
0000
0001
0000
,
0010
0000
0000
0001
0000
0000
1000
0000
0000
0000
0010
0000
1000
0000
0100
0000
,
0010
0000
0000
0010
0000
0000
0001
0000
1000
0000
0000
0100
0000
0000
1000
0000
,
0001
0000
0000
0100
0000
0000
0010
0000
0100
0000
0000
0000
1001
0000
0000
0000
,
0001
0000
0000
0100
0000
0000
0010
0000
0000
0000
1000
0000
0100
0000
0010
0000
,
0001
1000
0200
0000
0310
0100
0010
0001
,
1000
0000
0000
0100
0000
0000
0100
0000
0010
0000
0000
0001
0000
0000
0001
0000
,
0100
0000
0000
0010
0000
0000
0100
0000
0010
0000
0000
0010
0000
0000
2002
0000
,
0000
3003
0100
0000
0010
0001
1000
0010
,
0100
0000
0000
0010
0000
0000
0100
0000
0000
0000
0001
0000
1000
0000
0010
0000
,
1000
0000
0000
0100
0000
0000
0001
0000
0001
0000
0000
0100
0000
0000
1000
0000
,
2000
0000
0000
0000
3001
0010
0001
1000
,
0100
0000
1100
0000
0010
0001
1000
0001
,
0100
0000
0110
0000
0010
1000
0001
0100
,
0010
1000
0010
0100
0001
0100
0001
0010
,
0002
0203
2300
3010
,
1001
0000
0000
0000
,
0000
0000
0000
0000
,
0000
0000
0000
0000
,
0000
0000
0000
0000
,
1001
0000
0000
0000
,
0100
0000
0000
0000
,
1001
0000
0000
0000
,
1010
0000
0101
0000
,
1000
0100
1000
0100
0000
0000
0010
0001
0010
0001
0000
0000
,
1000
0010
1000
0010
0000
0000
0100
0001
0100
0001
0000
0000
,
1000
0000
1000
0100
0000
0100
0010
0000
0010
0001
0000
0001
,
0100
0000
0010
0000
0100
0010
1000
0100
,
0010
0000
0001
1000
0100
0000
0110
0000
,
1100
0000
0001
1000
0010
0000
1010
0000
,
0100
0010
0100
0001
0100
0010
1000
0001
,
2002
0000
3003
0000
,
0220
0000
0330
0000
,
0001
0000
0000
0010
0000
0000
0001
0000
0000
0000
1000
0000
0010
0000
0100
0000
,
0010
0000
0000
1000
0000
0000
0100
0000
0000
0000
0010
0000
0001
0000
1000
0000
,
0001
0000
0000
0100
0000
0000
1000
0000
1000
0000
0000
0100
0000
0000
0001
0000
,
0001
0100
0010
1000
0100
0010
0001
1000
,
0010
0000
0000
0100
0000
0000
0010
0000
0000
0000
1000
0000
0010
0000
0100
0000
,
0001
0010
2000
0000
3010
0001
1000
0010
,
1000
0000
0000
0100
0000
0000
0010
0000
0001
0000
0000
0100
0000
0000
0010
0000
,
1000
0000
0000
0100
0000
0000
0001
0000
0001
0000
0000
0010
0000
0000
1000
0000
,
0001
0000
0000
0100
0000
0000
0010
0000
0000
0000
1000
0000
0100
0000
0010
0000
,
0100
0000
0000
1000
0000
0000
0001
0000
0000
0000
0100
0000
0010
0000
0100
0000
,
0001
0000
0000
0010
0000
0000
0100
0000
1000
0000
0000
0100
0000
0000
0010
0000
,
0110
0000
0001
0100
0010
1000
0001
0000
,
1001
0000
1010
0000
1000
0100
0010
0001
,
0100
0000
0110
0000
0001
0100
1000
0100
,
0002
0203
0320
2030
,
3001
0100
0001
0100
0000
0000
0010
1000
0010
1000
0000
0000
,
2002
0000
0000
0000
,
0000
0000
3003
0000
,
0220
0000
0000
0000
,
0000
0000
0330
0000
,
2002
0000
0000
3003
;

//--------------- dance-single - Fred-104 ----------------
#NOTES:
     dance-single:
     Fred-104:
     Hard:
     17:
     :
0000
0000
0000
0000
,
0000
0000
0000
0000
,
0000
0000
0000
0000
,
0000
0000
0000
0000
,
0000
0000
0000
0000
,
0000
0000
0000
0000
,
0001
0000
0100
0000
0100
0000
0010
0000
1000
0100
1000
0100
1000
0000
0001
0000
,
0100
0000
0000
0100
0010
0000
1000
0000
0001
0010
0001
0010
0100
0000
1000
0000
,
0001
0000
1000
0100
1000
0000
0001
0100
0001
0000
1000
0010
1000
0000
0001
0010
,
0001
1000
0001
1000
0001
0000
0000
0000
2000
0000
0000
0000
3002
0000
0000
0000
,
0203
0000
0000
0000
0320
0000
0000
0000
1030
0100
1000
0000
0001
0100
0001
0000
,
1000
0100
0010
0001
0100
0100
0010
0010
,
1000
0100
1000
0010
1000
0100
1000
0010
,
0100
0001
0010
0001
0100
0001
0010
0001
,
1000
0000
0000
0000
0000
0000
0100
0000
0000
0010
0000
0000
0100
0000
0000
0000
0000
0000
1000
0000
0000
0000
0000
0000
0001
0000
0000
0000
0000
0000
0100
0000
0000
0000
0000
0000
0001
0000
0000
0000
0010
0000
0000
0000
0100
0000
0000
0000
,
1000
0010
1000
0001
0100
0001
1000
0100
0010
0001
0100
0010
,
1000
0010
1000
0001
1000
0100
0010
0001
,
1000
0000
0100
0000
0110
0000
0000
0000
0001
0000
0100
0010
0100
0000
0000
0000
,
1000
0100
0001
0100
1000
0100
0001
0100
,
1000
0000
0000
0100
0000
0000
0010
0000
0000
0001
0000
0000
1000
0000
0010
0000
0100
0000
0001
0000
1000
0000
0100
0000
,
0010
0000
0100
0000
0010
0000
0100
0000
0001
0000
0100
0010
0100
0000
0001
0000
,
1000
0000
0100
0000
0010
0000
0100
0000
1000
0000
0001
0100
0002
0000
0000
0000
,
1003
0000
0000
0000
0000
0000
0010
0000
0000
0100
0000
0000
0010
0000
0000
0000
0000
0000
1000
0000
0000
0000
0000
0000
0100
0000
0000
0000
0000
0000
0010
0000
0000
0000
0000
0000
0001
0000
0000
0000
0100
0000
0000
0000
0010
0000
0000
0000
,
0100
0001
0010
0100
1000
0100
0010
0001
1000
0010
0100
0001
,
1000
0100
0010
0100
0001
0100
0010
1000
,
2010
0000
0000
0000
3002
0000
0000
0000
1003
0000
0001
0010
0100
0000
1000
0000
,
0001
0000
1000
0001
0100
0000
0001
0000
1000
0000
0100
0000
0010
0000
0001
0000
,
1000
0100
1000
0100
0010
0001
0010
0001
1000
0010
1000
0010
0100
0001
0100
0001
,
1000
0100
0010
0001
0100
0010
1000
0100
,
0001
0000
0100
0000
1000
0000
0010
0000
0100
0000
0001
0000
0010
0000
0100
1000
,
0100
0000
0010
0001
0010
0001
0010
0000
0001
0000
1000
0000
0010
0000
0100
0010
,
0100
0000
0001
0000
1000
0000
0010
0000
0110
0000
0000
0110
0000
0000
0110
0000
,
0001
0100
0000
0100
0010
0000
1000
0100
0010
0000
0001
1000
0001
0100
0001
0000
,
1000
0100
1000
0000
0100
1000
0001
0000
0100
0010
0100
0010
0200
0000
0000
0000
,
0301
0100
0001
0000
0100
0010
0100
0000
0010
1000
0010
1000
0001
0100
0001
0100
,
0001
0000
0000
1000
0000
0000
0001
0000
1001
0000
0000
0000
0100
0010
0100
0010
,
0200
0301
0200
0310
0200
1300
0200
0310
,
0002
0103
2000
3100
0002
0103
0020
1030
,
1001
0000
0100
0010
0001
0100
0001
0100
,
0020
0000
0000
0000
0000
0000
0000
0000
0000
0000
0000
0000
0000
0000
0000
0000
0000
0000
1030
0000
0000
0001
0000
0000
1000
0000
0000
0000
0000
0000
0000
0000
0000
0000
0000
0000
0001
0000
0000
0000
0100
0000
0000
0000
0010
0000
0000
0000
,
1010
0000
0000
1000
0100
0010
0100
0000
0100
0001
0000
0000
,
0101
0000
0000
0000
0000
0000
1100
0000
0000
0000
0100
0000
0010
0000
0000
0000
0000
0000
1001
0000
0000
1000
0000
0000
,
0200
0000
0000
0000
0310
0001
0010
0001
1000
0000
0010
0000
0100
0000
0010
0000
,
2000
0000
0000
0000
3001
0100
0010
1000
0020
0000
0000
0000
0230
0000
0000
0000
,
0301
1000
0001
1000
0001
1000
0001
1000
0100
0010
0100
0010
0100
0010
0100
0010
,
0002
0000
0003
0000
,
1000
0000
0000
0010
0000
0000
0110
0000
0000
0000
0001
0000
0010
0000
0001
0000
,
1000
0000
0000
0100
0000
0000
0110
0000
0000
0000
0010
0000
0001
0000
1000
0000
,
0001
0000
0000
0101
0000
0000
0010
0000
1000
0000
0000
1100
0000
0000
0010
0000
,
0001
0000
0000
1001
0000
0000
0100
0000
0010
0000
0100
0010
0100
0000
0100
0010
,
0100
0000
0000
1100
0000
0000
0110
0000
0000
0000
1000
0000
0010
0000
0100
0000
,
0001
0000
0100
0010
0100
0000
1000
0000
0100
0010
0100
0000
0001
0000
1000
0000
,
0001
0000
0000
1000
0000
0000
1001
0000
0010
0000
0000
0100
0000
0000
0110
0000
,
1000
0000
0000
1100
0000
0000
0110
0000
0001
0000
0000
0101
0000
0000
0220
0000
,
0000
0000
0000
0330
1001
0000
0000
0000
0001
0000
1000
0100
0010
0001
1000
0000
,
0001
0000
0000
0200
0000
0000
1000
0000
0000
0000
0301
0000
0010
0000
0100
0000
,
1000
0000
0000
1010
0000
0000
0100
0000
0001
0000
0000
0011
0000
0000
0100
0000
,
1000
0000
0001
0100
0010
0000
1000
0100
0010
0000
0001
1000
0001
0000
0100
0010
,
1000
0000
0000
0000
1100
0000
0000
0000
0001
0100
0010
0100
0001
0100
0010
0100
,
0001
0000
0000
0101
0000
0000
0000
0000
0100
0010
1000
0010
0100
0010
1000
0010
,
0100
0010
0100
0000
0001
0010
0001
0000
1000
0010
1000
0000
0001
1000
0001
0000
,
1000
0010
1000
0010
0100
0001
0100
0001
1000
0100
1000
0100
0010
0001
0010
0100
,
2000
0000
0000
0000
,
0000
0000
0000
0000
,
0000
0000
0000
0000
,
3000
0000
0000
0000
,
1001
0000
0000
0000
,
0100
0000
0000
0000
,
0110
0000
0000
0000
,
2200
3300
0022
0033
,
1000
0100
1000
0010
1000
0001
0100
0010
1000
0001
0010
0100
,
0010
0001
1000
0001
0100
0001
1000
0100
0010
0100
1000
0001
,
0010
0001
1000
0010
1000
0100
0010
0100
1000
0001
0100
0010
,
1000
0000
0000
0000
0001
0000
0000
0000
0100
0000
0000
0000
0001
0000
0000
0000
1000
0000
0000
0000
0010
0000
0000
0000
1000
0000
0000
0100
0000
0000
0010
0000
0000
0001
0000
0000
0010
0000
0000
0100
0000
0000
1000
0000
0000
0001
0000
0000
,
0200
0000
0000
0000
0301
0100
0001
0100
0010
1000
0010
1000
0001
0010
0100
1000
,
0200
0000
0000
0000
0310
0001
1000
0001
0100
0000
0010
0000
0100
0000
0001
0100
,
0010
1000
0010
1000
0100
1000
0100
1000
0001
0010
0001
0010
0001
1000
0001
1000
,
0002
0000
0000
0000
0000
0000
0103
0010
0100
0000
1000
0000
0100
0000
0010
0000
,
2002
0000
0000
0000
3003
0000
0000
0000
1000
0001
1000
0001
0100
0010
0100
0010
,
1000
0000
0000
1010
0000
0000
0101
0000
0000
0000
0001
0000
0100
0010
0100
0010
,
1000
0000
0000
1100
0000
0000
0110
0000
0000
0000
0001
0000
1000
0000
0100
0000
,
0010
0000
0000
0011
0000
0000
0100
0000
0010
0000
0000
1010
0000
0000
0100
0000
,
0001
0000
1000
0010
1000
0000
0001
0010
0001
0000
1000
0100
1000
0000
0001
0100
,
0001
0000
0000
0101
0000
0000
1001
0000
0000
0000
0100
0000
0010
0000
0100
0000
,
0001
0000
0001
0100
0020
0000
0000
0000
1030
0000
0010
0000
0001
0000
0010
0000
,
1000
0000
0000
1100
0000
0000
0010
0000
0001
0000
0000
0101
0000
0000
0010
0000
,
1000
0000
0000
1001
0000
0000
0010
0000
0100
0000
0000
0110
0000
0000
0010
0100
,
0010
0000
0100
0000
1000
0000
0010
0000
0100
0000
0001
0000
0100
0010
0100
0010
,
0100
0000
0001
0000
0010
0000
0001
1000
0001
1000
0001
0000
1000
0000
0100
0000
,
1000
0000
0100
0010
0100
0000
1000
0000
0001
0000
0100
0010
0100
0000
0001
0000
,
2001
0000
0000
0000
3001
0000
0100
0000
0001
1000
0100
0010
0001
0000
0000
0000
,
1000
0000
0100
0010
0100
0000
0000
0000
0001
0010
0100
1000
0100
0010
0001
1000
,
0001
0000
1000
0100
1000
0000
0000
0000
0010
1000
0100
1000
0001
0100
0001
1000
,
0001
0010
0100
0010
0001
0100
0010
1000
0010
0100
0001
1000
,
0001
0010
0100
1000
0100
0010
0001
0100
1000
0100
0001
1000
,
0002
0000
0100
0000
,
0100
0000
0100
0003
,
2000
0000
0010
0000
,
0010
0000
0010
3000
,
2002
0000
0000
3003
;

//--------------- dance-single - Fred-104† ----------------
#NOTES:
     dance-single:
     Fred-104†:
     Challenge:
     19:
     :
0000
0000
0000
0000
,
0000
0000
0000
0000
,
0000
0000
0000
0000
,
0000
0000
0000
0000
,
0000
0000
0000
0000
,
0000
0000
0000
0000
,
1000
0000
0010
1000
0100
0000
0010
0001
1000
0010
0100
0001
0100
0000
0001
1000
,
0001
0000
1000
0100
0010
0001
0100
0010
1000
0010
0100
0001
0100
0010
1000
0001
,
1000
0000
1000
0010
0100
0000
0001
0010
0100
0000
1000
0100
0010
0000
0001
0100
,
0010
1000
0001
1000
0100
0000
0010
0000
0011
0000
0001
0010
0100
1000
0100
0010
,
0002
0000
0000
0000
2003
0000
0000
0000
3010
1000
0100
0010
0001
0100
0010
0100
,
0001
1000
0100
0010
0001
1000
0010
0100
0001
1000
0100
1000
0001
0100
0010
0100
,
0001
0010
1000
0010
0001
0010
1000
0010
,
0001
0100
1000
0100
0001
0100
1000
0100
,
0001
0000
0000
0000
0000
0000
0010
0000
0000
1000
0000
0000
0010
0000
0000
0000
0000
0000
0001
0000
0000
0000
0000
0000
1000
0000
0000
0000
0000
0000
1000
0000
0000
0000
0000
0000
0001
0000
0000
0000
0100
0000
0000
0000
0010
0000
0000
0000
,
1000
0100
0001
1000
0010
0001
0100
1000
0001
0010
1000
0001
,
1000
0010
0100
0001
0100
0010
0100
0001
,
1001
0000
0000
0000
0110
0000
0000
0000
0001
0000
1000
0010
0100
0000
0000
0000
,
0001
0100
1000
0100
0001
0010
1000
0010
,
0001
0000
0000
0001
0000
0000
1000
0000
0000
1000
0000
0000
0001
0000
0001
0000
0100
0000
1000
0000
1000
0000
0100
0000
,
0001
0000
0010
0000
0100
0000
1000
0010
0100
0000
0001
0100
0001
0000
1000
0000
,
0100
0000
0010
0001
1000
0000
0001
0000
1000
0100
1000
0010
0100
0010
1000
0001
,
1000
0000
0000
0000
0000
0000
1000
0000
0000
0100
0000
0000
0010
0000
0000
0000
0000
0000
0010
0000
0000
0001
0000
0000
0100
0000
0000
0000
0000
0000
0100
0000
0000
0010
0000
0000
1000
0000
0000
0000
0100
0000
0000
0000
1000
0000
0000
0000
,
0001
0000
0000
0000
0010
0000
0000
0000
0100
0000
0000
0000
1000
0000
0000
0000
0010
0000
0000
0000
0100
0000
0000
0000
1000
0000
0000
0000
0100
0000
0000
0000
0010
0000
0000
0000
0001
0000
0000
0010
0000
0000
0100
0000
0000
0001
0000
0000
,
0010
0000
0100
1000
0001
0000
1000
0000
0001
0000
0100
0010
1000
0000
0001
0000
,
0201
0000
0000
0000
0000
0000
0000
0000
0000
0000
0000
0000
0000
0000
0000
0300
1200
0000
0000
0000
0000
0000
0000
0000
0000
0000
0000
0000
0000
0000
0000
0300
0101
0000
0000
0000
0000
0000
0000
0000
0001
0000
0000
0000
1000
0000
0000
0000
0001
0000
0000
0000
0000
0000
0000
0000
0100
0000
0000
0000
0000
0000
0000
0000
,
0001
0000
0100
0010
1000
0000
0100
0000
0010
0000
0100
1000
0001
0000
0100
0000
,
0001
0010
0100
1000
0010
0100
0001
0100
0010
1000
0001
1000
0100
0010
0001
0100
,
0001
0000
0010
0000
0001
0000
1000
0000
0010
0000
0010
0000
0100
0001
0100
0001
,
0100
0010
1000
0000
0010
0000
0100
0000
0001
0100
0010
0000
1000
0100
0010
0001
,
1000
0100
1000
0000
0010
0000
0100
0000
0001
0010
0001
0000
0100
0010
1000
0001
,
0010
0001
0100
0000
0010
1000
0100
0000
0110
0000
0000
0110
0000
0000
0010
0001
,
1000
0000
0010
1000
0100
0010
0001
0010
0100
0010
0001
0100
0001
1000
0010
0100
,
0001
0000
1000
0100
0010
0001
1000
0000
0001
0100
0010
1000
0001
0100
0010
0100
,
0001
0000
1000
0001
0100
0001
1000
0100
1000
0001
0010
0001
1000
0010
1000
0001
,
0100
0000
0000
0100
0000
0000
0100
0000
1001
0000
0000
0000
0001
0010
0100
1000
,
0002
0203
0320
0230
2300
3200
0320
0230
,
0302
0203
2300
3200
0302
0023
2030
3010
,
0011
0000
1001
1000
1010
0010
0100
0001
,
0201
0000
0000
0000
0000
0000
0000
0000
0000
0000
0000
0000
0310
0000
0000
0000
0000
0000
1000
0000
0000
0001
0000
0000
0100
0000
0000
0000
0000
0000
0000
0000
0000
0000
0000
0000
0100
0000
0000
0000
0100
0000
0000
0000
0100
0000
0000
0000
,
0010
0000
0000
1100
0100
0010
0001
0000
0100
0010
0010
1000
,
0001
0000
0100
0000
1000
0000
0001
0000
0010
0000
1000
0000
0002
0000
0000
0000
0000
0000
0103
0000
0000
0010
0000
0000
,
2010
0000
0000
0000
3001
1000
0100
1000
0010
0000
0100
0000
0001
0000
1000
0000
,
0002
0000
0000
0000
1003
0100
0010
0001
2000
0000
0000
0000
3002
0000
0000
0000
,
1003
0100
0010
0001
0100
0010
1000
0100
0010
0001
0010
0100
1000
0010
0100
0001
,
2000
0000
0000
0000
0000
0000
3010
0100
0010
1000
0100
0010
0001
0100
0010
0100
,
0001
0000
0100
0001
0000
0010
0002
0000
0000
0000
1003
0000
0010
0100
0001
1000
,
0100
0000
1000
0010
0000
0100
0010
0000
1000
0000
0010
0100
0010
0000
1000
0000
,
0001
0000
0010
0100
0000
0100
1000
0010
0100
0000
0001
1000
0000
1000
0100
0010
,
0001
0000
0100
0000
0010
0000
0100
0000
0001
0000
1000
0100
0010
0000
0001
0010
,
0100
0000
1000
0010
0000
0100
0010
0000
1000
0000
0001
0000
0100
0000
0010
0000
,
0100
0000
0001
0010
0100
0000
1000
0000
0100
0010
0001
0000
1000
0000
1000
0000
,
0002
0003
0010
0200
0300
0010
0002
0003
2000
3000
0100
0020
0030
0100
2000
3000
,
1010
0000
0000
0101
0000
0000
1100
0000
0011
0000
0000
1010
0000
0000
0202
0000
,
0000
0000
0000
0303
1001
0000
0001
0100
0010
1000
0100
0010
0001
1000
0010
0100
,
0001
0000
0001
0010
0000
0010
0100
0000
1000
0000
0001
0100
0010
0000
1000
0000
,
0001
0000
0001
0010
0000
0010
0100
1000
0100
0000
0100
1000
0000
1000
0100
0010
,
0001
0000
0100
0010
1000
0000
0001
1000
0100
1000
0010
0100
0001
0000
0100
0010
,
0100
0000
0000
0000
1001
0000
0000
0000
0001
0100
0010
1000
0001
0100
0010
0100
,
0001
0000
0000
2002
0000
0000
3003
0000
1000
0100
0010
0001
1000
0100
0010
0100
,
1000
0010
1000
0001
1000
0100
0010
0001
0100
0001
0010
0100
1000
0001
0100
0010
,
0100
1000
0100
0001
1000
0001
0010
0100
0010
0001
0100
0010
0001
0010
0100
0001
,
2000
0000
0000
0000
,
0000
0000
0000
0000
,
0000
0000
0000
0000
,
3000
0000
0000
0000
,
1001
0000
0000
0000
0000
0000
0000
0000
0000
0000
0000
0000
1000
0100
0001
0100
,
1000
0000
0001
0000
,
0110
0000
0000
0000
0000
0000
0000
0000
0010
0000
0000
0000
1000
0100
0010
0001
,
2000
3000
2002
3003
,
1000
0100
0001
1000
0010
0001
1000
0100
0001
1000
0010
0001
,
1000
0100
0010
1000
0100
0010
1000
0010
0001
1000
0010
0001
,
1000
1000
0010
0100
1000
0010
0100
0100
1000
0001
0100
0010
,
1000
0000
0000
0000
0100
0000
0000
0000
0001
0000
0000
0000
0100
0000
0000
0000
1000
0000
0000
0000
0010
0000
0000
0000
0100
0000
0000
0001
0000
0000
1000
0000
0000
0001
0000
0000
0100
0000
0000
0010
0000
0000
0100
0000
0000
0001
0000
0000
,
1000
0000
0000
0000
0100
1000
0100
0010
0001
0100
0010
0100
0001
1000
0010
1000
,
0100
0000
0000
0000
1000
0010
0100
0001
1000
0000
0100
0010
0001
0000
0100
0010
,
1000
0010
0100
0010
1000
0100
0010
0001
0100
0001
0100
0010
0100
0001
1000
0100
,
0002
0000
0000
0000
0000
0000
0103
1000
0001
0000
0100
0010
1000
0000
0001
0000
,
2002
0000
0000
0000
0000
0000
3003
0000
1000
0100
0010
0001
1000
0010
0100
0001
,
1000
0000
0001
0010
0000
0100
0010
0000
0001
0000
1000
0010
0100
0001
0010
0100
,
1000
0000
0001
0100
0000
1000
0100
0000
0001
0000
1000
0010
0100
0000
0001
0000
,
0011
0000
0001
0010
0000
0010
0100
0000
1010
0000
1000
0010
0000
0010
0100
0000
,
0101
0000
0001
0000
1000
0000
0010
0000
0110
0000
0100
0001
1000
0000
0100
1000
,
0001
0000
0010
0100
0000
0010
0001
0000
1000
0000
0001
1000
0100
0000
1000
0000
,
0010
0000
0010
0100
0020
0000
0000
0000
1030
0000
0010
0000
1000
0001
0100
0000
,
0001
0000
0000
0101
0000
0000
0110
0000
1000
0000
0000
1100
0000
0000
0110
0000
,
0001
0000
0100
0001
0000
0100
0010
0000
1000
0000
0100
1000
0000
0100
0010
0001
,
1000
0000
0010
0000
0100
0010
0100
0001
0100
0010
1000
0100
0010
0001
1000
0001
,
0100
0000
0001
0100
0001
0000
0100
0010
1000
0010
0100
0001
1000
0000
1000
0000
,
0001
0000
0000
0101
0000
0000
0010
0000
1000
0000
0000
1100
0000
0000
0010
0000
,
0012
0000
0000
0000
1003
0000
0010
0000
1000
0001
0100
0001
0100
0010
1000
0100
,
0010
0000
0001
0010
0001
0000
0001
0000
0001
0010
0100
1000
0001
0100
1000
0100
,
0010
0000
1000
0001
0010
0000
0001
0000
0100
0010
0001
0010
0100
0001
1000
0000
,
0001
0100
1000
0001
0010
1000
0001
0100
1000
0001
0010
1000
,
0001
0001
0100
0010
0010
1000
0100
0100
0010
1000
1000
0100
,
0002
0000
0100
0000
,
0100
0000
0100
0003
,
2000
0000
0010
0000
,
0010
0000
0010
3000
,
2002
0000
0000
3003
;

//--------------- dance-double - Fred-104 ----------------
#NOTES:
     dance-double:
     Fred-104:
     Easy:
     9:
     :
00000000
00000000
00000000
00000000
,
00000000
00000000
00000000
00000000
,
00000000
00000000
00000000
00000000
,
00000000
00000000
00000000
00000000
,
00000000
00000000
00000000
00000000
,
00000000
00000000
00000000
00000000
,
00001000
00010000
01000000
00000000
,
00100000
00010000
00001000
00000000
,
00000010
00001000
00010000
00000000
,
01000000
00010000
00022000
00033000
,
00010000
00001000
00000100
00000001
,
00002000
00000000
00003002
00000000
,
00000103
00000010
00000001
00000100
,
00000100
00001000
00010000
01000000
,
10000000
01000000
00100000
00001000
,
00010000
00010000
00001000
00000010
,
00000001
00000100
00000001
00000000
00000100
00000000
00001000
00000000
,
00010000
00000000
00100000
00000000
00001000
00010000
00001000
00000000
,
00100000
00010000
10000000
00100000
,
01000000
00010000
20020000
30030000
,
10000000
00000000
00100000
01000000
00100000
00000000
00010000
00000000
,
00001000
00000000
00010000
00000010
00010000
00000000
00001000
00000000
,
00000100
00000001
00000100
00000000
00000010
00001000
00000001
00000000
,
00001000
00000001
00001000
00000000
,
00010000
00001000
00010000
00100000
,
01000000
02000000
00000000
03100000
,
10000000
01000000
00100000
00001000
,
00010000
00001000
00010000
00000000
00001000
00010000
00001000
00000000
,
00010000
00001000
00000100
00000001
,
00001000
00000100
00000010
00000001
,
00000010
00000100
00010000
00001000
,
00010000
00100000
02200000
03300000
,
10000000
01000000
00100000
00010000
,
00100000
00001000
00010000
00000000
,
00000100
00000010
00000001
00000100
,
00000010
00001000
00002002
00003003
,
00000001
00000100
00000001
00000100
,
00001000
00010000
00001000
00010000
,
01000000
10000000
01000000
10000000
,
00100000
01000000
00100000
00100000
,
10000000
01000000
00100000
00001000
,
00010000
00000100
00000010
00000001
,
00001000
00000000
00000010
00000000
,
00001000
00001000
00000200
00000320
,
00000031
00000000
00001000
00000000
,
00002002
00000000
00003003
00000000
,
00001000
00000000
00000000
00010000
00000000
00000000
00001000
00000000
00000000
00000000
00000000
00000000
00100000
00000000
00000000
00000000
,
01000000
00000000
00000000
00100000
00000000
00000000
01000000
00000000
00000000
00000000
00000000
00000000
10000000
00000000
00000000
00000000
,
01000000
00000000
00000000
00100000
00000000
00000000
00000000
00000000
00001000
00000000
00000000
00010000
00000000
00000000
00000000
00000000
,
00000100
00001000
00000100
00000010
,
00000001
00000000
00000000
00000100
00000000
00000000
00001000
00000000
,
00010000
00100000
01000000
00000000
10000000
00000000
00100000
00000000
,
01000000
00000000
00000000
01000000
00000000
00000000
00000000
00000000
00010000
00000000
00000000
00010000
00000000
00000000
00000000
00000000
,
00001000
00000000
00000000
00001000
00000000
00000000
00000000
00000000
00022000
00000000
00000000
00000000
00000000
00000000
00000000
00000000
,
00033000
00001000
00000100
00000001
,
00000100
00000000
00000000
00000100
00000000
00000000
00000010
00000000
00000000
00000000
00000000
00000000
00001000
00000000
00000000
00000000
,
00000001
00000000
00000000
00000100
00000000
00000000
00000000
00000000
00001000
00000000
00000000
00010000
00000000
00000000
00000000
00000000
,
01000000
10000000
00010000
01000000
,
00100000
10000000
20200000
30300000
,
01000000
00010000
00022000
00033000
,
00010000
00001000
00000100
00000001
,
00001000
00000100
00000010
00000001
,
00001001
00000000
00000000
00000000
,
00000000
00000000
00000000
00000000
,
00000000
00000000
00000000
00000000
,
00000000
00000000
00000000
00000000
,
00011000
00000000
00000000
00000000
,
00000000
00000000
00000000
00000000
,
10010000
00000000
00000000
00000000
,
00020000
00000000
00032000
00000000
,
00003001
00000100
00001000
00000100
,
00010000
01000000
00010000
00001000
,
00100000
01000000
00100000
00001000
,
00000010
00001000
00010000
00001000
,
00100000
01000000
00100000
00100000
,
10000000
01000000
00100000
00100000
,
00001000
00010000
00001000
00000100
,
00000001
00000000
00001000
00000000
,
00002002
00000000
00003003
00000000
,
00000100
00000000
00000000
00000010
00000000
00000000
00001000
00000000
00000000
00000000
00000000
00000000
00001000
00000000
00000000
00000000
,
00010000
00000000
00000000
00100000
00000000
00000000
01000000
00000000
00000000
00000000
00000000
00000000
00100000
00000000
00000000
00000000
,
00010000
00000000
00000000
00100000
00000000
00000000
00000000
00000000
10000000
00000000
00000000
00100000
00000000
00000000
00000000
00000000
,
00010000
01000000
00100000
10000000
,
00100000
00000000
00000000
00010000
00000000
00000000
00001000
00000000
00000000
00000000
00000000
00000000
00000010
00000000
00000000
00000000
,
00000100
00000001
00000100
00000100
,
00000001
00000000
00000000
00000010
00000000
00000000
00000000
00000000
00000100
00000000
00000000
00010000
00000000
00000000
00000000
00000000
,
00001000
00000000
00000000
00100000
00000000
00000000
00000000
00000000
01000000
00000000
00000000
10000000
00000000
00000000
00000000
00000000
,
01000000
00000000
00000000
00100000
00000000
00000000
00002000
00000000
00000000
00000000
00000000
00000000
00013000
00000000
00000000
00000000
,
00000100
00000000
00000000
00000010
00000000
00000000
00000200
00000000
00000000
00000000
00000000
00000000
00000301
00000000
00000000
00000000
,
00000100
00000000
00000000
00000010
00000000
00000000
00000000
00000000
00001000
00000000
00000000
00000100
00000000
00000000
00000000
00000000
,
00010000
00000000
00001000
00100000
00010000
00000000
01000000
00000000
,
00100000
00000000
10000000
00000000
01000000
10000000
01000000
00000000
,
00100000
00000000
00001000
00000000
00010000
00001000
00010000
00000000
,
00001000
00001000
00000100
00000001
,
00000010
00001000
00010000
01000000
,
02200000
00000000
00000000
00000000
,
00000000
00000000
03300000
00000000
,
00022000
00000000
00000000
00000000
,
00000000
00000000
00033000
00000000
,
00000220
00000000
00000000
00000330
;

//--------------- dance-double - Fred-104 ----------------
#NOTES:
     dance-double:
     Fred-104:
     Medium:
     14:
     :
00000000
00000000
00000000
00000000
,
00000000
00000000
00000000
00000000
,
00000000
00000000
00000000
00000000
,
00000000
00000000
00000000
00000000
,
00000000
00000000
00000000
00000000
,
00000000
00000000
00000000
00000000
,
00010000
00100000
01000000
10000000
00100000
00000000
01000000
00010000
,
00100000
00001000
00010000
00000010
00001000
00000000
00000100
00000001
,
00000100
00001000
00010000
00001000
00010000
00000000
01000000
10000000
,
00010000
01000000
00100000
10000000
20020000
00000000
30030000
00000000
,
20000000
00000000
32000000
00000000
03010000
00001000
00000100
00000001
,
00000100
00000010
00000100
00000010
00000100
00000010
00000110
00000000
,
00000001
00001000
00000001
00001000
00000010
00001000
00000010
00001000
,
00000100
00010000
00000100
00010000
00001000
00100000
00001000
00100000
,
00010000
01000000
00100000
10000000
01000000
00100000
00001000
00010000
,
00001000
00000100
00000001
00000010
00000200
00000000
00000320
00000000
,
00000031
00000010
00000100
00010000
00001000
00100000
01000000
10000000
,
10100000
00000000
00110000
00000000
00100000
10000000
00020000
00000000
,
10030000
01000000
00100000
01000000
00010000
00001000
00000100
00000001
,
00000100
00000000
00000000
00000010
00000000
00000000
00001000
00000000
00000000
00000001
00000000
00000000
00001000
00000000
00000001
00000000
00001000
00000000
00000100
00000000
00000000
00000000
00000000
00000000
,
00000010
00000100
00000010
00000100
00001000
00010000
00001000
00010000
,
00100000
01000000
00100000
01000000
10000000
00100000
01000000
00010000
,
10000000
01000000
00100000
00001000
00010000
00000100
00000010
00000100
,
00001000
00001010
00000101
00001001
,
00001000
00000001
00000100
00000010
00001000
00000100
00001000
00010000
,
00100000
00000000
02200000
00000000
03300000
01000000
01000000
00100000
,
10000000
01000000
00010000
01000000
10000000
01000000
00010000
00001000
,
00010000
00001000
00010000
00000000
00000100
00001000
00000100
00000000
00000220
00000000
00000000
00000000
00000330
00000000
00000000
00000000
,
00001000
00000000
00000100
00000010
00000001
00000000
00000100
00001000
,
00010000
00000000
00001000
00000100
00001000
00010000
01000000
00001000
,
00010000
00000000
00001000
00000010
00001000
00000000
00000010
00001000
,
00010000
00000000
00000000
00000000
00100000
00000000
00001000
00000000
00010000
00000000
00000000
00010000
00000000
00000000
00010000
00000000
,
00001000
00000100
00000000
00000010
00000100
00000001
00000000
00001000
,
00000001
00001000
00000000
00000001
00000010
00001000
00000000
00010000
,
01000000
10000000
00000000
00100000
01000000
00010000
00000000
00001000
,
00010000
00000000
00000000
00001000
00000000
00000000
00010000
00000000
00022000
00000000
00000000
00000000
00033000
00000000
00000000
00000000
,
00010000
00001000
00010000
00000010
00010000
00001000
00100000
00001000
,
00010000
00000100
00010000
00001000
00010000
01000000
10000000
01000000
,
00020000
00000000
00130000
00001000
00020000
00000000
00030010
00010000
,
00001000
00000000
00010000
00001000
00002000
00000000
00100000
00000000
,
00013000
00000000
00000000
10000000
01000000
00100000
02000000
00000000
00000000
03020000
00000000
00000000
,
02030000
00000000
00000000
00000000
00000000
00000000
13000000
00000000
00000000
00000000
01000000
00000000
00100000
00000000
00000000
00000000
00000000
00000000
00001000
00000000
00000000
00010000
00000000
00000000
,
00002000
00000000
00003100
00000010
00000001
00001000
00000100
00000000
,
00000020
00000000
00000130
00000100
00000010
00000000
00001001
00000000
,
00000001
00000100
00001000
00010000
01000000
10000000
00010000
00000000
,
20020000
00000000
30030000
00000000
,
00100000
00000000
00000000
01000000
00000000
00000000
10000000
00000000
00000000
00000000
00100000
00000000
01000000
00000000
00010000
00000000
,
00001000
00000000
00000000
00000100
00000000
00000000
00000010
00000000
00000000
00000000
00001000
00000000
00010000
00000000
01000000
00000000
,
00100000
00000000
00000000
01000000
00000000
00000000
00100000
00000000
00010000
00000000
00000000
00001000
00000000
00000000
00010000
00000000
,
00000100
00000000
00000000
00000010
00000000
00000000
00000100
00000000
00001000
00000000
00000000
00000000
00001001
00000000
00000000
00000000
,
00000001
00000000
00000000
00000100
00000000
00000000
00010000
00000000
00000000
00000000
00001000
00000000
00010000
00000000
01000000
00000000
,
10000000
00100000
02000000
00000000
03100000
00001000
00000010
00001000
,
00010000
00000000
00000000
01000000
00000000
00000000
00100000
00000000
00010000
00000000
00000000
00001000
00000000
00000000
00000100
00000000
,
00000010
00000000
00000000
00001000
00000000
00000000
00010000
00000000
01000000
00000000
00000000
00100000
00000000
00000000
02200000
00000000
,
00000000
03300000
01000000
00000000
00100000
01000000
00100000
00001000
,
00010000
00000000
00000000
00000100
00000000
00000000
00010000
00000000
00000000
00000000
00001000
00000000
00000100
00000000
00000010
00000000
,
00000001
00000000
00000000
00000010
00000000
00000000
00001000
00000000
00010000
00000000
00000000
00100000
00000000
00000000
10000000
00000000
,
00020000
00000000
00000000
00000000
01030000
01000000
01000000
00100000
,
10000000
00000000
10100000
00000000
01000000
00100000
00010000
00001000
,
00000100
00000000
00001001
00000000
00000100
00000010
00000001
00001000
,
00000010
00000100
00000001
00000100
00001000
00010000
01000000
10000000
,
00020000
20030000
30200000
00310000
,
00011000
00000000
00000000
00000000
,
00000000
00000000
00000000
00000000
,
00000000
00000000
00000000
00000000
,
00000000
00000000
00000000
00000000
,
10010000
00000000
00000000
00000000
,
00010000
00000000
00000000
00000000
,
00011000
00000000
00000000
00000000
,
00001001
00000000
00000110
00000000
,
00000001
00000100
00000001
00000100
00000000
00000000
00000010
00001000
00000010
00001000
00000000
00000000
,
00000100
00010000
00000100
00010000
00000000
00000000
00001000
00100000
00001000
00100000
00000000
00000000
,
00010000
01000000
00010000
01000000
00000000
00000000
00100000
10000000
00100000
10000000
00000000
00000000
,
00010000
00000000
10000000
00000000
01000000
00100000
00001000
00010000
,
00001000
00000000
00010000
00000100
00000010
00000000
00001001
00000000
,
00000100
00000000
00000001
00000100
00001000
00000000
00011000
00000000
,
00010000
01000000
10000000
01000000
00010000
00100000
10000000
00100000
,
20020000
00000000
30030000
00000000
,
02200000
00000000
03300000
00000000
,
00001000
00000000
00000000
00100000
00000000
00000000
01000000
00000000
00000000
00000000
00100000
00000000
00010000
00000000
00001000
00000000
,
00000010
00000000
00000000
00000100
00000000
00000000
00000010
00000000
00000000
00000000
00001000
00000000
00010000
00000000
00100000
00000000
,
00010000
00000000
00000000
01000000
00000000
00000000
10000000
00000000
00100000
00000000
00000000
01000000
00000000
00000000
00010000
00000000
,
10000000
01000000
00010000
00001000
00000010
00000001
00001000
00000000
,
00000001
00000000
00000000
00000100
00000000
00000000
00000010
00000000
00000000
00000000
00000100
00000000
00000001
00000000
00000010
00000000
,
00000100
00010000
00002000
00000000
01003000
00010000
00100000
01000000
,
10000000
00000000
00000000
01000000
00000000
00000000
00010000
00000000
00001000
00000000
00000000
00000100
00000000
00000000
00000001
00000000
,
00000001
00000000
00000000
00000010
00000000
00000000
00001000
00000000
00010000
00000000
00000000
00100000
00000000
00000000
10000000
00000000
,
00010000
00000000
00000000
10000000
00000000
00000000
01000000
00000000
00000000
00000000
00100000
00000000
01000000
00000000
00100000
00000000
,
00001000
00000000
00000000
00010000
00000000
00000000
00100000
00000000
00000000
00000000
01000000
00000000
00010000
00000000
00001000
00000000
,
00000100
00000000
00000000
00000010
00000000
00000000
00001000
00000000
00010000
00000000
00000000
00100000
00000000
00000000
01000000
00000000
,
00100000
00000000
01000000
00010000
00001000
00000000
00000010
00000000
,
00000100
00000000
00001001
00000000
00000001
00000100
00001000
00010000
,
00001000
00000000
00011000
00000000
00001000
00010000
00100000
10000000
,
00020000
20030000
32000000
03020000
,
00031000
00010000
00001000
00000100
00000000
00000000
00000001
00000100
00000010
00001000
00000000
00000000
,
00002002
00000000
00000000
00000000
,
00000000
00000000
00003003
00000000
,
00022000
00000000
00000000
00000000
,
00000000
00000000
00033000
00000000
,
20020000
00000000
00000000
30030000
;

//--------------- dance-double - Fred-104 ----------------
#NOTES:
     dance-double:
     Fred-104:
     Hard:
     17:
     :
00000000
00000000
00000000
00000000
,
00000000
00000000
00000000
00000000
,
00000000
00000000
00000000
00000000
,
00000000
00000000
00000000
00000000
,
00000000
00000000
00000000
00000000
,
00000000
00000000
00000000
00000000
,
00010000
00000000
00001000
00000000
00000010
00000000
00000001
00001000
00000001
00000000
00000100
00000000
00000010
00000000
00001000
00000100
,
00001000
00000000
00010000
00000000
00001000
00000000
00100000
00010000
01000000
00100000
10000000
00100000
10000000
00000000
01000000
00000000
,
00100000
00000000
01000000
00100000
01000000
00000000
00001000
00010000
00001000
00000000
00000010
00000100
00000010
00000000
00001000
00000001
,
00001000
00000100
00001000
00000100
00001000
00000000
00000000
00000000
00020000
00000000
00000000
00000000
02030000
00000000
00000000
00000000
,
23000000
00000000
00000000
00000000
32000000
00000000
00000000
00000000
03010000
00001000
00010000
00001000
00010000
00000000
00000010
00000000
,
00001000
00000100
00000010
00000001
00000100
00000010
00001000
00000100
,
00010000
00001000
00010000
00100000
00010000
00001000
00010000
00000010
,
00010000
00001000
00010000
01000000
10000000
01000000
00010000
00001000
,
00010000
00000000
00000000
00000000
00000000
00000000
00000100
00000000
00000000
00001000
00000000
00000000
00000100
00000000
00000000
00000000
00000000
00000000
00010000
00000000
00000000
00000000
00000000
00000000
00000010
00000000
00000000
00000000
00000000
00000000
00001000
00000000
00000000
00000000
00000000
00000000
00000001
00000000
00000000
00000000
00000010
00000000
00000000
00000000
00000100
00000000
00000000
00000000
,
00000010
00000001
00000100
00001000
00010000
00001000
00010000
01000000
10000000
00010000
01000000
00100000
,
10000000
01000000
10000000
01000000
00010000
00001000
00100000
00010000
,
00001000
00000000
00010000
00000000
00011000
00000000
00000000
00000000
00100000
00000000
00001000
00010000
00001000
00000000
00000000
00000000
,
00010000
00001000
00000100
00000001
00001000
00000100
00000010
00000001
,
00000100
00000000
00000000
00001000
00000000
00000000
00010000
00000000
00000000
00100000
00000000
00000000
01000000
00000000
00010000
00000000
00100000
00000000
00001000
00000000
00010000
00000000
00000010
00000000
,
00000100
00000000
00000001
00000000
00000100
00000000
00000001
00000000
00000100
00000000
00000010
00000100
00000010
00000000
00001000
00000000
,
00010000
00000000
00100000
00000000
01000000
00000000
10000000
00000000
00010000
00000000
01000000
00100000
02000000
00000000
00000000
00000000
,
13000000
00000000
00000000
00000000
00000000
00000000
01000000
00000000
00000000
00100000
00000000
00000000
01000000
00000000
00000000
00000000
00000000
00000000
00010000
00000000
00000000
00000000
00000000
00000000
10000000
00000000
00000000
00000000
00000000
00000000
01000000
00000000
00000000
00000000
00000000
00000000
00100000
00000000
00000000
00000000
00001000
00000000
00000000
00000000
00010000
00000000
00000000
00000000
,
00001000
00100000
00001000
00010000
00001000
01000000
00001000
00010000
00000010
00001000
00000100
00000010
,
00000100
00000010
00000001
00000010
00000010
00001000
00000010
00000010
,
00001002
00000000
00000000
00000000
00000103
00000000
00000010
00000000
00001000
00000000
00000001
00000010
00000001
00000000
00001000
00000000
,
00000010
00000000
00010000
00001000
00010000
00000000
00000100
00000000
00010000
00000000
00001000
00000000
01000000
00000000
00010000
00000000
,
00100000
00010000
00100000
00000000
01000000
10000000
01000000
00000000
00100000
00010000
00100000
00001000
00010000
00001000
00010000
00001000
,
00010000
00001000
00000100
00000001
00001000
00000100
00000010
00000100
,
00000001
00000000
00000100
00000000
00001000
00000000
00010000
00000000
00100000
00000000
01000000
00000000
00010000
00000000
00001000
00010000
,
00001000
00000000
00010000
00000010
00001000
00000010
00010000
00000000
00001000
00000000
00000100
00000000
00000010
00000000
00000001
00000100
,
00000001
00000000
00000100
00000000
00001000
00000000
00010000
00000000
00001000
00000000
00000000
00010000
00000000
00000000
00011000
00000000
,
00001000
00100000
00000000
00001000
00100000
00000000
00010000
01000000
00100000
00000000
10000000
01000000
10000000
01000000
10000000
00000000
,
00100000
01000000
00100000
00000000
00010000
00001000
00010000
00000000
00001000
00010000
00000010
00010000
00002000
00000000
00000000
00000000
,
00013000
00000100
00010000
00000000
00000100
00001000
00000100
00000000
00001000
00000001
00001000
00000000
00000010
00000100
00000010
00000100
,
00000001
00000000
00000000
00000010
00000000
00000000
00000100
00000000
00001001
00000000
00000000
00000000
00000010
00000100
00000010
00000100
,
00002000
00003100
00000020
00000031
00000200
00000310
00002000
00013000
,
00200000
10300000
00020000
01030000
20000000
31000000
00200000
01300000
,
10010000
00000000
01000000
00100000
00001000
00010000
00000100
00000010
,
00000200
00000000
00000000
00000000
00000000
00000000
00000000
00000000
00000000
00000000
00000000
00000000
00000000
00000000
00000000
00000000
00000000
00000000
00000301
00000000
00000000
00001000
00000000
00000000
00000001
00000000
00000000
00000000
00000000
00000000
00000000
00000000
00000000
00000000
00000000
00000000
00000100
00000000
00000000
00000000
00000010
00000000
00000000
00000000
00000001
00000000
00000000
00000000
,
00001000
00000000
00000000
00000010
00001000
00010000
00001000
00000000
00000010
00001000
00000000
00000000
,
00011000
00000000
00000000
00000000
00000000
00000000
00110000
00000000
00000000
00000000
01000000
00000000
00100000
00000000
00000000
00000000
00000000
00000000
10000000
00000000
00000000
01000000
00000000
00000000
,
02000000
00000000
00000000
00000000
03010000
10000000
00010000
10000000
01000000
00000000
00100000
00000000
00001000
00000000
00010000
00000000
,
00000200
00000000
00000000
00000000
00001300
00000100
00000010
00000001
00000020
00000000
00000000
00000000
00000230
00000000
00000000
00000000
,
00000301
00000100
00000001
00000100
00000010
00001000
00000010
00001000
00000100
00010000
00001000
00100000
00010000
00100000
01000000
00000000
,
20020000
00000000
30030000
00000000
,
00100000
00000000
00000000
10000000
00000000
00000000
11000000
00000000
00000000
00000000
00100000
00000000
00010000
00000000
00001000
00000000
,
00000010
00000000
00000000
00000100
00000000
00000000
00000101
00000000
00000000
00000000
00000010
00000000
00000100
00000000
00001000
00000000
,
00000001
00000000
00000000
00000101
00000000
00000000
00000010
00000000
00001000
00000000
00000000
00010100
00000000
00000000
00001000
00000000
,
00010000
00000000
00000000
00101000
00000000
00000000
00010000
00000000
00001000
00000000
00100000
00010000
00100000
00000000
01000000
10000000
,
01000000
00000000
00000000
00100000
00000000
00000000
00101000
00000000
00000000
00000000
00001000
00000000
00010000
00000000
00000010
00000000
,
00001000
00000000
00000100
00000010
00000100
00000000
00000001
00000000
00000100
00000010
00000100
00000000
00001000
00000000
00000001
00000000
,
00000100
00000000
00000000
00000010
00000000
00000000
00000011
00000000
00000100
00000000
00000000
00001000
00000000
00000000
00011000
00000000
,
00010000
00000000
00000000
01000000
00000000
00000000
11000000
00000000
01000000
00000000
00000000
00100000
00000000
00000000
20020000
00000000
,
00000000
00000000
00000000
30030000
01100000
00000000
00000000
00000000
10000000
00000000
01000000
00100000
01000000
00010000
01000000
00000000
,
00010000
00000000
00000000
00001000
00000000
00000000
00011000
00000000
00000000
00000000
00000100
00000000
00000010
00000000
00000001
00000000
,
00001000
00000000
00000000
00000100
00000000
00000000
00000110
00000000
00000001
00000000
00000000
00000100
00000000
00000000
00001100
00000000
,
00010000
00000000
00001000
00010000
00000010
00000000
00010000
00001000
00100000
00000000
00001000
00010000
00000100
00000000
00010000
00001000
,
01000000
00000000
00000000
00000000
01100000
00000000
00000000
00000000
00010000
01000000
00010000
10000000
00010000
01000000
00010000
10000000
,
00010000
00000000
00000000
00011000
00000000
00000000
00000000
00000000
00010000
00001000
00010000
00000010
00001000
00000010
00010000
00001000
,
00010000
00001000
00000100
00000000
00000010
00000100
00000010
00000000
00000100
00000001
00000100
00000000
00000001
00001000
00000100
00000000
,
00000010
00000001
00000100
00000010
00001000
00000100
00010000
00001000
00100000
00010000
10000000
00100000
01000000
00010000
10000000
00000000
,
10010000
00000000
00000000
00000000
,
00000000
00000000
00000000
00000000
,
00000000
00000000
00000000
00000000
,
00000000
00000000
00000000
00000000
,
00001001
00000000
00000000
00000000
,
00001000
00000000
00000000
00000000
,
00011000
00000000
00000000
00000000
,
10010000
00000000
01100000
00000000
,
10000000
01000000
00100000
00010000
01000000
00100000
00010000
00001000
00100000
00010000
00001000
00000100
,
00010000
00001000
00000100
00000010
00000001
00000010
00000100
00001000
00000001
00000200
00000000
00000000
,
00001300
00000100
00000001
00001000
00000100
00000010
00000100
00010000
00001000
00100000
00010000
00100000
,
01000000
00000000
00000000
00000000
10000000
00000000
00000000
00000000
00010000
00000000
00000000
00000000
01000000
00000000
00000000
00000000
10000000
00000000
00000000
00000000
01000000
00000000
00000000
00000000
00010000
00000000
00000000
10000000
00000000
00000000
00100000
00000000
00000000
10000000
00000000
00000000
00100000
00000000
00000000
01000000
00000000
00000000
00010000
00000000
00000000
01000000
00000000
00000000
,
00020000
00000000
00000000
00000000
10030000
01000000
00100000
00000000
00001000
00010000
00001000
00000000
00010000
00000100
00001000
00000100
,
00000020
00000000
00000000
00000000
00000031
00000100
00000001
00000100
00000010
00000000
00001000
00000000
00000001
00000000
00000100
00000010
,
00000100
00000001
00000100
00000001
00000100
00000010
00001000
00000000
00010000
00001000
00100000
00010000
01000000
00100000
10000000
00000000
,
20010000
00000000
00000000
00000000
00000000
00000000
31000000
00100000
01000000
00000000
10000000
00000000
01000000
00000000
00010000
00000000
,
00022000
00000000
00000000
00000000
00033000
00000000
00000000
00000000
00010000
00001000
00010000
00001000
00010000
00001000
00010000
00001000
,
00010000
00000000
00000000
00011000
00000000
00000000
00001010
00000000
00000000
00000000
00000001
00000000
00000100
00000000
00000010
00000000
,
00001000
00000000
00000000
00001100
00000000
00000000
00000110
00000000
00000000
00000000
00000001
00000000
00000100
00000000
00001000
00000000
,
00010000
00000000
00000000
01010000
00000000
00000000
10000000
00000000
00100000
00000000
00000000
00110000
00000000
00000000
00001000
00000000
,
00010000
00000000
00001000
00010000
00001000
00000000
00010000
00000010
00010000
00000000
00000010
00001000
00000010
00000000
00000100
00000000
,
00000001
00000000
00000000
00000011
00000000
00000000
00001001
00000000
00000000
00000000
00000010
00000000
00000100
00000000
00000010
00000000
,
00001000
00000000
00001000
00000100
00020000
00000000
00000000
00000000
00031000
00000000
00010000
00000000
01000000
00000000
10000000
00000000
,
00010000
00000000
00000000
11000000
00000000
00000000
00100000
00000000
00001000
00000000
00000000
00010010
00000000
00000000
00000100
00000000
,
00000001
00000000
00000000
00001001
00000000
00000000
00000100
00000000
00000010
00000000
00000000
00000110
00000000
00000000
00000100
00000001
,
00001000
00000000
00000010
00000000
00000100
00000000
00000001
00000000
00000010
00000000
00000100
00000000
00010000
00001000
00010000
00001000
,
00010000
00000000
00001000
00000000
00100000
00000000
01000000
00100000
01000000
00100000
01000000
00000000
00100000
00000000
00010000
00000000
,
10000000
00000000
01000000
00100000
01000000
00000000
00010000
00000000
00001000
00000000
00010000
00000100
00010000
00000000
00001000
00000000
,
00000100
00000000
00000010
00000000
00000001
00000000
00001000
00000000
00000001
00000100
00000001
00000100
00000010
00000000
00000000
00000000
,
00000001
00000000
00000100
00000010
00001000
00000000
00000000
00000000
00000010
00001000
00000100
00010000
00001000
00010000
00000100
00010000
,
00001000
00000000
00010000
00001000
01000000
00000000
00000000
00000000
00010000
00100000
01000000
10000000
01000000
00100000
00010000
01000000
,
00001000
00010000
00001000
00100000
00010000
10000000
00100000
10000000
01000000
00010000
00001000
00010000
,
00001000
00000100
00000001
00000100
00000010
00000100
00000001
00000100
00001000
00010000
00100000
00001000
,
00020000
00000000
01000000
00000000
,
00000100
00000000
01000000
00030000
,
00012000
00000000
00000010
00000000
,
00100000
00000000
00000010
00003000
,
00022000
00000000
00000000
00033000
;

//--------------- dance-double - Fred-104† ----------------
#NOTES:
     dance-double:
     Fred-104†:
     Challenge:
     19:
     :
00000000
00000000
00000000
00000000
,
00000000
00000000
00000000
00000000
,
00000000
00000000
00000000
00000000
,
00000000
00000000
00000000
00000000
,
00000000
00000000
00000000
00000000
,
00000000
00000000
00000000
00000000
,
00000010
00000000
00000001
00001000
00000100
00000000
00001000
00000001
00000010
00000000
00000100
00001000
00010000
00000000
00001000
00010000
,
00001000
00000000
00100000
00010000
10000000
00100000
01000000
00010000
10000000
01000000
00100000
00010000
00100000
00001000
00010000
00001000
,
01000000
00000000
00001000
00010000
00001000
00000000
00010000
00000100
00010000
00000000
00000100
00001000
00000100
00000000
00000010
00000001
,
00001000
00000001
00000100
00000001
00001000
00000000
00000100
00000000
00000110
00000000
00000010
00000001
00001000
00000010
00000100
00000001
,
00002000
00000000
00000000
00000000
00003002
00000000
00000000
00000000
00000103
00000001
00000010
00000001
00001000
00000010
00000100
00000001
,
00001000
00000100
00000010
00000001
00000100
00000010
00001000
00010000
01000000
00100000
10000000
00010000
00100000
01000000
10000000
00010000
,
10000000
01000000
00010000
01000000
10000000
01000000
00010000
00001000
,
00000100
00000001
00000100
00001000
00000100
00000001
00000100
00001000
,
00010000
00000000
00000000
00000000
00000000
00000000
00001000
00000000
00000000
00010000
00000000
00000000
00001000
00000000
00000000
00000000
00000000
00000000
00010000
00000000
00000000
00000000
00000000
00000000
00100000
00000000
00000000
00000000
00000000
00000000
01000000
00000000
00000000
00000000
00000000
00000000
10000000
00000000
00000000
00000000
01000000
00000000
00000000
00000000
00100000
00000000
00000000
00000000
,
00010000
10000000
00100000
00010000
00001000
00000010
00000001
00001000
00000001
00000100
00000010
00001000
,
00000001
00001000
00000100
00000001
00000100
00001000
00000010
00000100
,
00000101
00000000
00000000
00000000
00001100
00000000
00000000
00000000
00000100
00000000
00000001
00000010
00000100
00000000
00001000
00000000
,
00010000
01000000
10000000
00010000
00001000
00010000
01000000
10000000
,
00010000
00000000
00000000
00010000
00000000
00000000
10000000
00000000
00000000
10000000
00000000
00000000
00010000
00000000
10000000
00000000
01000000
00000000
00010000
00000000
01000000
00000000
10000000
00000000
,
00100000
00000000
01000000
00000000
00010000
00000000
10000000
01000000
00100000
00000000
00001000
00010000
00001000
00000000
01000000
00000000
,
00001000
00000000
00010000
00000100
00001000
00000000
00000100
00000000
00000010
00000001
00001000
00000001
00000100
00000010
00001000
00000000
,
00000001
00000000
00000000
00000000
00000000
00000000
00001000
00000000
00000000
00000010
00000000
00000000
00000100
00000000
00000000
00000000
00000000
00000000
00000001
00000000
00000000
00000100
00000000
00000000
00000010
00000000
00000000
00000000
00000000
00000000
00001000
00000000
00000000
00000001
00000000
00000000
00000100
00000000
00000000
00000000
00000100
00000000
00000000
00000000
00001000
00000000
00000000
00000000
,
00000001
00000000
00000000
00000000
00000010
00000000
00000000
00000000
00001000
00000000
00000000
00000000
00010000
00000000
00000000
00000000
00100000
00000000
00000000
00000000
10000000
00000000
00000000
00000000
00010000
00000000
00000000
00000000
01000000
00000000
00000000
00000000
01000000
00000000
00000000
00000000
10000000
00000000
00000000
00100000
00000000
00000000
01000000
00000000
00000000
00010000
00000000
00000000
,
10000000
00000000
00100000
01000000
00100000
00000000
10000000
00000000
00010000
00000000
00100000
01000000
00100000
00000000
00010000
00000000
,
10020000
00000000
00000000
00000000
00000000
00000000
00000000
00000000
00000000
00000000
00000000
00000000
00000000
00000000
00000000
00030000
00021000
00000000
00000000
00000000
00000000
00000000
00000000
00000000
00000000
00000000
00000000
00000000
00000000
00000000
00000000
00030000
10010000
00000000
00000000
00000000
00000000
00000000
00000000
00000000
01000000
00000000
00000000
00000000
00100000
00000000
00000000
00000000
01000000
00000000
00000000
00000000
00000000
00000000
00000000
00000000
00010000
00000000
00000000
00000000
00000000
00000000
00000000
00000000
,
10000000
00000000
01000000
00100000
00001000
00000000
00010000
00000000
00100000
00000000
01000000
00001000
01000000
00000000
00001000
00000000
,
00010000
00000100
00010000
00000100
00001000
00000100
00000010
00000001
00001000
00000010
00000100
00000001
00000010
00000100
00001000
00010000
,
00001000
00000000
00010000
00000000
00000100
00000000
00010000
00000000
00001000
00000000
01000000
00010000
00100000
00010000
10000000
00100000
,
01000000
00010000
10000000
00000000
01000000
00000000
00100000
00000000
00001000
00000000
00001000
00000000
00010000
00000100
00010000
00001000
,
00010000
00000010
00001000
00000000
00000100
00000000
00000010
00000000
00000001
00000100
00001000
00000000
00000100
00000001
00000010
00000100
,
00001000
00000010
00000100
00000000
00000001
00000010
00000100
00000000
00001100
00000000
00000000
00000101
00000000
00000000
00001000
00000100
,
00010000
00000000
00001000
00010000
00000100
00010000
00001000
00100000
00010000
00100000
01000000
10000000
00010000
01000000
00100000
01000000
,
00100000
00000000
10000000
00100000
01000000
00010000
01000000
00000000
00010000
01000000
00100000
10000000
00010000
00100000
00001000
00000000
,
00010000
00000000
00000100
00001000
00000100
00000010
00000001
00001000
00000001
00000100
00000010
00001000
00000010
00000100
00000001
00001000
,
00000100
00000000
00000000
00010000
00000000
00000000
01000000
00000000
10010000
00000000
00000000
00000000
00010000
01000000
00100000
10000000
,
00020000
00230000
02300000
23000000
30020000
00230000
02300000
03002000
,
00003200
00000320
00000032
00002003
00003200
00000320
00002030
00013000
,
00011000
00000000
01100000
01000000
11000000
10000000
00100000
01000000
,
01020000
00000000
00000000
00000000
00000000
00000000
00000000
00000000
00000000
00000000
00000000
00000000
10030000
00000000
00000000
00000000
00000000
00000000
01000000
00000000
00000000
00100000
00000000
00000000
01000000
00000000
00000000
00000000
00000000
00000000
00000000
00000000
00000000
00000000
00000000
00000000
00010000
00000000
00000000
00000000
00010000
00000000
00000000
00000000
00010000
00000000
00000000
00000000
,
01000000
00000000
00000000
11000000
00100000
00010000
00001000
00000000
00010000
00001000
00001000
00010000
,
00001000
00000000
00000010
00000000
00000001
00000000
00000010
00000000
00001000
00000000
00010000
00000000
00200000
00000000
00000000
00000000
00000000
00000000
10300000
00000000
00000000
01000000
00000000
00000000
,
02100000
00000000
00000000
00000000
03010000
01000000
00001000
00010000
00001000
00000000
00000100
00000000
00000010
00000000
00010000
00000000
,
00002000
00000000
00000000
00000000
00013000
00000010
00001000
00000100
00020000
00000000
00000000
00000000
00032000
00000000
00000000
00000000
,
00013000
00000010
00001000
00000100
00010000
00001000
00100000
00010000
01000000
00001000
00010000
00000100
00001000
00000010
00010000
00001000
,
00200000
00000000
00000000
00000000
00000000
00000000
00310000
10000000
01000000
00100000
00001000
00010000
00000100
00000010
00000001
00000000
,
00000100
00000000
00000010
00000100
00000000
00000010
00002000
00000000
00000000
00000000
00003001
00000000
00000100
00000010
00001000
00000010
,
00000100
00000000
00000001
00000010
00000000
00000100
00010000
00000000
00000010
00000000
00001000
00000100
00001000
00000000
00000100
00000000
,
00010000
00000000
00001000
00100000
00000000
00100000
01000000
10000000
00010000
00000000
10000000
01000000
00000000
00100000
01000000
00100000
,
00010000
00000000
01000000
00000000
00100000
00000000
10000000
00000000
00010000
00000000
10000000
01000000
00010000
00000000
00001000
00000100
,
00000010
00000000
00000001
00000100
00000000
00000010
00000100
00000000
00000001
00000000
00000100
00000000
00001000
00000000
00010000
00000000
,
00001000
00000000
00000010
00000100
00000010
00000000
00000001
00000000
00001000
00000100
00000010
00000000
00000100
00000000
00001000
00000000
,
00002000
00003000
00000100
00000002
00000003
00000100
00002000
00003000
00020000
00030000
01000000
20000000
30000000
01000000
00020000
00030000
,
00011000
00000000
00000000
01010000
00000000
00000000
00011000
00000000
00001010
00000000
00000000
00011000
00000000
00000000
02200000
00000000
,
00000000
00000000
00000000
03300000
10010000
00000000
00010000
00100000
00010000
00000000
10000000
01000000
00100000
00010000
00100000
01000000
,
10000000
00000000
00010000
01000000
00000000
00010000
00100000
00000000
00001000
00000000
00010000
00001000
00010000
00000000
00001000
00000000
,
00010000
00000000
00100000
10000000
00000000
00100000
00010000
00000000
00001000
00000000
00000010
00000001
00000000
00000010
00001000
00000000
,
00010000
00000000
00100000
01000000
10000000
00000000
00010000
10000000
01000000
00000000
00100000
00001000
00010000
00000000
00000100
00001000
,
00000010
00000000
00000000
00000000
00000110
00000000
00000000
00000000
00000001
00000010
00000100
00010000
00001000
00100000
01000000
10000000
,
00010000
00000000
00000000
10010000
00000000
00000000
00000000
00000000
10000000
00100000
01000000
00010000
00001000
00000010
00000100
00000001
,
00001000
00000100
00000010
00000100
00001000
00000010
00000100
00000001
00001000
00000001
00000100
00000001
00001000
00000100
00010000
00001000
,
00100000
00010000
00100000
01000000
10000000
00010000
01000000
00100000
01000000
00010000
10000000
01000000
00010000
00001000
00000010
00000001
,
00002000
00000000
00000000
00000000
,
00000000
00000000
00000000
00000000
,
00000000
00000000
00000000
00000000
,
00003000
00000000
00000000
00000000
,
00001001
00000000
00000000
00000000
00000000
00000000
00000000
00000000
00000000
00000000
00000000
00000000
00000001
00000010
00001000
00010000
,
00100000
00000000
10000000
00000000
,
10010000
00000000
00000000
00000000
00000000
00000000
00000000
00000000
01000000
00000000
00000000
00000000
00010000
01000000
00001000
00010000
,
00000200
00000300
00022000
00033000
,
00001000
00010000
00100000
10000000
00100000
00001000
00010000
00000100
00001000
00000100
00000001
00000100
,
00001000
00000010
00000100
00000001
00000010
00001000
00000010
00000001
00000100
00000010
00001000
00000100
,
00010000
00001000
00100000
01000000
10000000
00010000
00100000
01000000
00100000
10000000
00100000
01000000
,
00010000
00000000
00000000
00000000
01000000
00000000
00000000
00000000
10000000
00000000
00000000
00000000
01000000
00000000
00000000
00000000
00010000
00000000
00000000
00000000
00001000
00000000
00000000
00000000
00010000
00000000
00000000
00001000
00000000
00000000
00010000
00000000
00000000
00001000
00000000
00000000
00100000
00000000
00000000
00001000
00000000
00000000
00010000
00000000
00000000
00000010
00000000
00000000
,
00001000
00000000
00000000
00000000
00000001
00000010
00000100
00000010
00000001
00001000
00000001
00001000
00000100
00000010
00000100
00010000
,
00001000
00000000
00000000
00000000
00010000
00000100
00001000
00000100
00010000
00000000
00001000
00010000
00001000
00000000
00100000
00010000
,
10000000
00100000
01000000
00010000
00100000
01000000
10000000
00010000
01000000
00001000
00010000
00000100
00001000
00000100
00000010
00000100
,
00000002
00000000
00000000
00000000
00000000
00000000
00000103
00000010
00001000
00000000
00000001
00000000
00000100
00000000
00001000
00000000
,
00022000
00000000
00000000
00000000
00000000
00000000
00033000
00000000
00001000
00100000
00010000
10000000
00100000
01000000
00010000
10000000
,
01000000
00000000
00100000
01000000
00000000
01000000
10000000
00000000
00010000
00000000
10000000
01000000
00100000
00000000
00001000
00000000
,
00010000
00000000
00100000
01000000
00000000
00010000
00100000
00000000
00001000
00000000
00010000
00000010
00001000
00000000
00000100
00000000
,
00000110
00000000
00000010
00000001
00000000
00001000
00000010
00000000
00001010
00000000
00000010
00010000
00000000
00001000
00100000
00000000
,
00110000
00000000
00010000
00000000
10000000
00000000
00100000
00000000
01100000
00000000
01000000
00010000
10000000
00000000
00010000
10000000
,
01000000
00000000
00100000
01000000
00000000
10000000
00100000
00000000
01000000
00000000
00001000
00010000
00100000
00000000
00001000
00000000
,
00010000
00000000
00010000
00000010
00020000
00000000
00000000
00000000
00030100
00000000
00001000
00000000
00000100
00000010
00000001
00000000
,
00001000
00000000
00000000
00001010
00000000
00000000
00000011
00000000
00000001
00000000
00000000
00000011
00000000
00000000
00001010
00000000
,
00001000
00000000
00010000
00001000
00000000
00100000
00010000
00000000
10000000
00010000
01000000
00010000
01000000
00100000
01000000
00010000
,
10000000
00000000
00100000
00000000
01000000
00010000
10000000
01000000
00100000
00001000
00010000
00001000
01000000
00001000
00010000
00000100
,
00001000
00000000
00000010
00001000
00000001
00000000
00001000
00000100
00000010
00000001
00000010
00000100
00001000
00000000
00000001
00000000
,
00000100
00000000
00000000
00000011
00000000
00000000
00000100
00000000
00001000
00000000
00000000
00011000
00000000
00000000
00100000
00000000
,
01200000
00000000
00000000
00000000
10300000
00000000
00010000
00000000
01000000
00010000
01000000
00010000
00100000
00001000
00010000
00001000
,
00100000
00000000
00001000
00010000
00001000
00000000
00001000
00000000
00010000
00001000
00000100
00000010
00001000
00000001
00000100
00000010
,
00000100
00000000
00000100
00000010
00000100
00000000
00000001
00000000
00001000
00000001
00000010
00000100
00000010
00000001
00001000
00000010
,
00000100
00000001
00000010
00001000
00010000
00100000
01000000
00100000
10000000
00100000
01000000
00100000
,
00010000
10000000
01000000
00010000
00001000
00000100
00000001
00001000
00000001
00000100
00000010
00001000
,
00020000
00000000
00000010
00000000
,
00100000
00000000
00000010
00000000
,
01000000
00000000
00000100
00000000
,
01000000
00000000
00030100
00000000
,
00022000
00000000
00000000
00033000
;
