#TITLE:Follow the path;
#ARTIST:Sota F.;
#BANNER:Follow the path.png;
#BACKGROUND:Follow the path-bg.png;
#CDTITLE:./CDTitles/RB VOLZZA.png;
#MUSIC:Follow the path.ogg;
#SAMPLESTART:54.4;
#SAMPLELENGTH:15;
#BPMS:0=150;
#BGSTAGE:15;

//--------------- dance-single - Fred-104 ----------------
#NOTES:
     dance-single:
     Fred-104:
     Beginner:
     2:
     :
0000
0000
0000
0000
,
0000
0000
0000
0000
,
0000
0000
0000
0000
,
0000
0000
0000
0000
,
0000
0000
0000
0000
,
1000
0000
0000
0000
,
0001
0000
0000
0000
,
2000
0000
0000
0000
,
3000
0000
0000
0000
,
0001
0000
1000
0000
,
0001
0000
0000
0000
,
1000
0000
0010
0000
,
0100
0000
0000
0000
,
0010
0000
1000
0000
,
0001
0000
0000
0000
,
1000
0000
0000
1001
,
0000
0000
0000
0000
,
0001
0000
0010
0000
,
0002
0000
0003
0000
,
1000
0000
0010
0000
,
2000
0000
3000
0000
,
0000
0000
0001
0000
,
1000
0000
0100
0000
,
1000
0000
1000
0000
,
0001
0000
0000
0000
,
2000
0000
0000
0000
,
3000
0000
0000
0000
,
0002
0000
0000
0000
,
0003
0000
0000
0000
,
1000
0000
1000
0000
,
0001
0000
0001
0000
,
0100
0000
0100
0000
,
0010
0000
0010
0000
,
0000
0000
0000
0000
,
1000
0000
0001
0000
,
1000
0000
0000
0000
,
0100
0000
0010
0000
,
0001
0000
0000
0000
,
1000
0000
0001
0000
,
0100
0000
0000
0000
,
0010
0000
0100
0000
,
0001
0000
0000
0000
,
1000
0000
0001
0000
,
1000
0000
0000
0000
,
0001
0000
1000
0000
,
0010
0000
0000
0000
,
1000
0000
0000
0000
,
0001
0000
1000
0000
,
0001
0000
0000
0000
,
1000
0000
0000
0000
,
0001
0000
0000
0000
,
1000
0000
0000
0000
,
0001
0000
0000
0000
,
0100
0000
0000
0000
,
0002
0003
0000
0000
,
1000
0000
0000
0000
,
0001
0000
0000
0000
,
0010
0000
0000
0000
,
0000
0000
0000
0000
,
0002
0000
0000
0003
,
1000
0000
1000
0000
,
0002
0000
0003
0000
,
0100
0000
0100
0000
,
0020
0000
0000
0030
,
0100
0000
0100
0000
,
0001
0000
0000
0000
,
1000
0000
0000
0000
,
0001
0000
0000
0000
,
1000
0000
0001
0000
,
1000
0000
0001
0000
,
0000
0000
0000
0000
,
1000
0000
0000
0000
,
0001
0000
1000
0000
,
0001
0000
2002
0000
,
0000
0000
0000
3003
;

//--------------- dance-single - Fred-104 ----------------
#NOTES:
     dance-single:
     Fred-104:
     Easy:
     5:
     :
0000
0000
0000
0000
,
0000
0000
0000
0000
,
0000
0000
0000
0000
,
0000
0000
0000
0000
,
0000
0000
0000
0000
,
1000
0000
0001
0000
,
0100
0010
0100
0000
,
0001
0000
1000
0001
,
0200
0000
0000
0300
,
1001
0000
0001
0000
,
0010
0010
0100
1000
,
0001
0000
0100
0000
,
0010
0010
0100
0001
,
1000
0000
0001
0000
,
0100
0100
0001
0010
,
0100
0000
1000
0000
,
0001
1000
1001
0000
,
0001
0001
0000
0010
,
0000
0010
0000
1000
,
1000
0100
0000
0100
,
0000
0001
0000
0001
,
1000
1000
0000
0010
,
0000
0010
0000
0100
,
0100
0001
1000
0001
,
1001
0000
0000
0000
,
0002
0000
2003
0000
,
3200
0000
0000
0000
,
0320
0000
0032
0000
,
2003
0000
0000
3000
,
2000
0000
3000
0000
,
0002
0000
0003
0000
,
2000
0000
3000
0000
,
0002
0000
0003
0000
,
0000
0000
0000
0000
,
0001
0000
1000
0000
,
0010
1000
0001
0010
,
0100
0000
1000
0000
,
0001
0100
0010
0100
,
0001
0000
1000
0000
,
0100
0010
0001
1000
,
0001
0000
0100
0000
,
0001
1000
1001
0000
,
1000
0100
1000
0000
,
0001
0100
0010
0000
,
0100
0001
1000
0001
,
0010
0010
0110
0000
,
2000
3000
0001
1000
,
0010
0100
0010
1000
,
0001
0000
1000
0000
,
0001
1000
1001
0000
,
2000
0000
3020
0000
,
0130
0001
0100
0001
,
2000
0000
3002
0000
,
0013
0100
0010
0100
,
0020
0000
0032
0000
,
1003
0001
0100
0010
,
0200
0000
0302
0000
,
1003
0001
1001
0000
,
0000
0000
0000
0000
,
2000
0000
3002
0000
,
0103
0100
0110
0000
,
0002
0000
2003
0000
,
3002
0000
0103
0010
,
0200
0000
0302
0000
,
1003
1000
1001
0000
,
0001
0000
0010
0000
,
1000
0000
0100
0000
,
0002
0000
2003
0000
,
3002
0000
0000
0003
,
1000
0001
1001
0000
,
0000
0000
0000
0000
,
2000
0000
3200
0000
,
0310
0010
0001
1000
,
0001
0000
0000
0000
1000
0000
0000
2002
,
0000
0000
0000
3003
;

//--------------- dance-single - Fred-104 ----------------
#NOTES:
     dance-single:
     Fred-104:
     Medium:
     9:
     :
0000
0000
0000
0000
,
0000
0000
0000
0000
,
0000
0000
0000
0000
,
0000
0000
0000
0000
,
0000
0000
0000
0000
,
2000
0000
0000
3002
0000
1003
0010
2000
,
0000
3001
1000
0000
0100
0000
0010
0000
,
0002
0000
0000
2003
0000
3001
1000
0020
,
0000
0000
0000
0030
,
0110
0000
0100
0000
0001
0000
0000
1000
,
0000
0010
0000
1000
0000
0001
1000
0000
,
0100
0000
0010
0000
0001
0000
0000
1000
,
0000
0001
0000
0100
0000
0010
0100
0000
,
0001
0000
1000
0000
0001
0000
0000
0010
,
0000
0100
0000
1000
0000
0001
1000
0000
,
0010
0000
0100
0000
0001
0000
0000
1001
,
0000
0110
0000
1001
0000
1000
0001
0000
,
1000
0000
0000
0000
0100
0000
0000
0010
0000
0000
0001
0000
1000
0000
0000
0001
,
0000
0000
0100
0000
0010
0000
0000
0100
0000
0000
0001
0000
1000
0000
0000
0000
,
0001
0000
0000
0000
0010
0000
0000
0100
0000
0000
1000
0000
0001
0000
0000
0100
,
0000
0000
0010
0000
0100
0000
0000
0001
0000
0000
1000
0000
0100
0000
0000
0000
,
0110
0000
0000
0000
0001
0000
0000
1000
0000
0000
0001
0000
0100
0000
0000
0010
,
0000
0000
0100
0000
0001
0000
0000
0010
0000
0000
0100
0000
1000
0000
0000
0000
,
0001
0000
0000
0000
1000
0000
0000
0010
0000
0000
0100
0000
0001
0000
1000
0000
,
0001
0000
0010
0000
0100
0000
0000
1000
0000
0000
0001
0000
1000
0000
0000
0000
,
0002
2003
3020
0000
,
0230
0000
0000
0302
0000
0000
2003
0000
,
3200
0320
0032
0000
,
1003
0000
0000
0001
0000
0000
0100
0000
,
0001
0000
0000
0001
0000
0000
0011
0000
0000
0000
0000
0000
0000
0000
0000
0000
,
1000
0000
0000
1000
0000
0000
1010
0000
0000
0000
0000
0000
0000
0000
0000
0000
,
0001
0000
0000
0001
0000
0000
0101
0000
0000
0000
0000
0000
0000
0000
0000
0000
,
1000
0000
0000
1000
0000
0000
2200
0000
0000
0000
0000
0000
3300
0000
0000
0000
,
0000
0000
0000
0000
,
1000
0000
0000
0001
0000
1000
0001
0010
,
0000
0000
0100
0010
0000
0001
1000
0001
,
0100
0000
0010
1000
0000
0001
1000
0100
,
0000
1000
1000
0000
0110
0000
1001
0000
,
0001
0000
1000
0001
0000
0010
0100
0010
,
0000
0001
1000
0000
0010
1000
0001
0000
,
1001
0000
0000
0110
0000
0000
0001
0001
,
0000
1000
0010
0100
0001
0000
1001
0000
,
1000
0000
0100
1000
0000
0001
1000
0010
,
0000
0100
0001
0010
0000
0100
0010
0000
,
0001
0000
1000
0001
0000
0100
0010
0100
,
0000
0001
1000
0000
1100
0000
0011
0000
,
1001
0000
1000
0100
0000
1000
0001
0010
,
0000
0100
0010
0001
1000
0010
0100
0000
,
0101
0000
0000
1001
0000
1000
0100
0001
,
0000
0100
1000
0001
0100
0000
0110
0000
,
1001
0000
0001
0000
0010
0100
1000
0000
,
0001
0100
0010
0000
1000
0001
0010
0000
,
0100
0000
1000
0000
0001
1000
0010
0000
,
0100
0001
1000
0100
0010
0001
1000
0000
,
1001
0000
0001
0000
0100
0010
0100
0000
,
0001
1000
0010
0000
0100
0001
1000
0000
,
0001
0010
0100
1000
0100
0010
0001
0000
,
1001
0000
0000
0000
0001
0000
0100
0000
0010
0000
0000
1010
0000
0000
1001
0000
,
0000
0000
0000
0000
,
2000
0000
0000
3020
0000
0000
2030
0000
0000
3002
0000
0000
0103
0000
0000
0000
,
0011
0100
1010
0100
,
0002
0000
0000
0023
0000
0000
0032
0000
0000
0000
1003
0000
0001
0000
0000
0000
,
0100
0000
0000
0010
0000
0000
0100
0000
0001
0000
0000
0001
0000
0000
0001
0000
,
2000
0000
0000
3002
0000
0000
0023
0000
0000
0230
0000
0000
1300
0000
0000
0000
,
1100
0010
0101
0010
,
1000
0000
0000
0100
0000
0000
0110
0000
0000
0000
0010
0000
0001
0000
0000
0000
,
1000
0000
0000
0001
0000
0000
0100
0000
0010
0000
0000
0100
0000
0000
0000
0000
,
0001
0000
0000
0001
0000
0000
0010
0000
0100
0000
0000
0100
0000
0000
1000
0000
,
0002
0000
2003
0000
,
3001
0000
0000
0000
0100
0000
0000
0000
0001
0000
0000
1000
0000
0000
1001
0000
,
0000
0000
0000
0000
,
2001
0000
0000
3002
0000
0103
0001
2000
,
0000
3001
1000
0100
0010
0001
1000
0000
,
0110
0000
0001
1000
0000
0001
1000
0020
,
0000
0000
0000
0000
0000
0030
0110
0000
;

//--------------- dance-single - Fred-104 ----------------
#NOTES:
     dance-single:
     Fred-104:
     Hard:
     14:
     :
0000
0000
0000
0000
,
0000
0000
0000
0000
,
0000
0000
0000
0000
,
0000
0000
0000
0000
,
0000
0000
0000
0000
,
0002
0000
1003
0002
0000
0103
0001
0020
,
0000
0130
1000
0001
0100
0010
1000
0010
,
0200
0000
0301
0020
0000
0130
1000
0020
,
0000
0000
0000
0000
0000
0030
0110
0000
,
1002
0000
1003
0100
0010
0001
1000
0020
,
0000
0230
0000
0302
0000
1003
0001
0010
,
0200
0000
0000
0000
1300
0000
0001
1000
0010
0000
0100
0000
0001
0000
2000
0000
,
0000
0000
3200
0000
0000
0000
0320
0000
0000
0000
0130
0000
1000
0000
0001
1000
,
0010
0000
0100
0000
0001
0000
1000
0100
0010
0000
0001
0000
1000
0000
0020
0000
,
0000
0000
0230
0000
0000
0000
2300
0000
0000
0000
3100
0000
0001
0000
1000
0100
,
0010
0000
0001
0000
1000
0000
0001
1000
0010
0000
0100
0000
0010
0000
1010
0000
,
0000
0000
0011
0000
0000
0000
0110
0000
0000
0000
1000
0001
1000
0000
0000
0000
,
0011
0000
0010
0000
0100
1000
0000
0001
0000
0100
0010
0000
0100
0001
0000
1000
,
0000
0001
0010
0000
0100
1000
0000
0001
0000
0100
0000
0010
1000
0000
0002
0000
,
0000
0000
1003
0000
0001
0010
0000
0100
0000
0010
0001
0000
1000
0001
0000
0100
,
0000
0010
0100
0000
0001
0010
0000
0100
0000
1000
0000
0001
1000
0000
0010
0000
,
0110
0000
0000
0000
0001
0010
0000
0100
0000
1000
0001
0000
0100
0010
0000
1000
,
0000
0010
0100
0000
0001
1000
0000
0100
0000
0010
0000
0001
0100
0001
1000
0000
,
0010
0000
0100
0000
0101
0000
0000
1001
0000
1000
0100
0010
0001
0000
1000
0001
,
0100
0000
0010
1000
0100
0000
1000
0010
0000
0100
0000
0001
1000
0100
0010
0000
,
0012
0000
0000
2003
0000
0000
3200
0000
2300
0000
0000
0000
0000
0000
3002
0000
,
2003
3020
0230
2300
3002
0023
2030
0000
,
3002
0000
0000
0203
0000
0000
0320
0000
0230
0000
0000
0000
0000
0000
0302
0000
,
2003
0000
0000
3200
0000
0000
0320
0000
0000
0000
0032
0000
2003
0000
3200
0300
,
1100
0000
0000
0101
0000
0000
1010
0000
0000
0000
0000
0000
0000
0000
0011
0000
,
1010
0000
0000
0101
0000
0000
1001
0000
0000
0000
0000
0000
0110
0000
1000
0100
,
0010
0000
0000
0000
0000
0000
0000
0000
0000
0011
0000
0000
0000
0000
0000
0000
0000
0000
1001
0000
0000
0000
0000
0000
0000
0000
0000
0000
0000
0000
0000
0000
0000
0000
0000
0000
0000
0000
0000
0000
0000
0000
1000
0000
0010
0000
1000
0000
,
0010
0000
0000
0000
0000
0000
0000
0000
0000
1010
0000
0000
0000
0000
0000
0000
0000
0000
0101
0000
0000
0000
0000
0000
0000
0000
0000
0000
0000
0000
1000
0000
0001
0000
1000
0000
0001
0000
0000
0000
0000
0000
0000
0000
0000
0000
0000
0000
,
2000
3000
0000
0000
0200
0000
0300
0000
0020
0000
0000
0030
2002
0000
0000
3003
,
1000
0000
0001
1000
0001
0000
0010
0000
0100
1000
0100
0000
0010
0000
0001
0000
,
1000
0000
0010
0100
0010
0000
1000
0000
0001
0000
0010
0100
0010
0000
0001
0000
,
1000
0010
1000
0000
0001
0000
0100
0000
0010
1000
0010
0000
0100
0000
0101
0000
,
0000
1001
1100
0000
0101
0000
0110
1000
,
0001
0000
1000
0010
1000
0000
0001
0000
0010
0000
0100
1000
0100
0000
0010
0000
,
0001
0000
0100
0010
0100
0000
0001
0000
1000
0000
0100
0000
0010
0000
0001
0000
,
0011
0000
0001
1001
0000
1010
1000
1100
,
0000
0000
0000
0100
0000
0000
0010
0000
0000
0001
0000
0000
1000
0000
0000
0001
1000
0001
1000
0000
0000
0000
0000
0000
,
0001
1000
0010
0000
0100
0000
0001
0000
1000
0100
0010
0000
0001
0000
1000
0000
,
0001
1000
0010
0000
1000
0001
0010
0000
0100
0000
1000
0001
0100
0000
0010
0000
,
0100
0001
1000
0000
0001
0000
0010
0000
0100
0010
0001
0000
0100
0000
0110
0000
,
0000
1010
0101
0000
1100
0000
0011
0000
,
2002
0000
0000
3003
0001
1000
0010
0000
0100
0000
0001
0000
0010
0100
1000
0000
,
0001
0000
0100
0001
1000
0000
0010
0000
0100
0001
1000
0000
0100
0000
0010
0000
,
0110
0000
0000
0000
0000
0000
0010
0000
0000
0011
0000
0000
0000
0000
0000
0001
0000
0000
0100
0010
0100
0010
0000
0000
,
0000
0000
0000
1000
0000
0000
0010
0000
0000
0001
0000
0000
0010
0000
0000
1000
0001
1000
0001
0000
0000
0000
0000
0000
,
0110
0000
0000
0000
0001
1000
0000
0001
0010
0000
0200
0000
1300
0000
0001
0100
,
0010
0000
1000
0000
0001
0010
0000
0010
0100
0000
0020
0000
0031
0000
1000
0001
,
1000
0001
1000
0000
0001
1000
0000
1000
0010
0000
0200
0000
0301
0000
0100
0010
,
0100
0000
0001
0000
1000
0000
0100
0010
0000
0010
0002
0000
1003
0000
0010
0000
,
0210
0000
0000
0000
0301
1000
0000
0010
1000
0000
0002
0000
0013
0000
0100
0010
,
0001
0000
1000
0000
0001
0100
0000
0010
0100
0000
0002
0000
1003
0000
0100
0010
,
0001
0010
0001
0000
1000
0001
0000
1000
0010
0000
2000
0000
3100
0010
0001
0000
,
1001
0000
0000
0000
0001
1000
0010
0100
0001
0000
0000
1100
0000
0000
0101
0000
,
0000
0000
0000
0000
,
2000
0000
0000
3200
0000
0000
0320
0000
0000
0032
0000
0000
1003
0000
0001
0000
,
0101
0000
0000
0100
0010
0000
1000
0000
1100
0000
0000
0000
0011
0000
0000
0000
,
1002
0000
0000
0023
0000
0000
0230
0000
0000
0000
1300
0000
0001
0000
0100
0000
,
0020
0000
0000
2030
0000
0000
3002
0003
0011
0000
0000
1010
0000
0000
0101
0000
,
1001
0000
0001
0100
0000
0001
1000
0000
0001
0010
0000
0100
1000
0000
0001
0000
,
1001
0000
0000
1000
0001
0000
0100
0000
0110
0000
0000
0000
1010
0000
0000
0000
,
1100
0000
0000
0011
0000
0000
0101
0000
0000
0000
0110
0000
0010
0000
1000
0000
,
1001
0000
0000
1000
0100
0000
0010
0000
0011
0000
0001
1000
0000
0000
0001
0000
,
0101
0000
0000
0100
0010
0000
1000
0000
0001
0000
0010
0200
0000
0000
1300
0000
,
0001
0000
0000
0010
0000
0000
0010
0000
1000
0000
0000
0100
0000
0000
0100
0000
,
0001
0000
1000
0000
0001
1000
0010
0100
0001
0000
1000
0100
0000
0000
0010
0000
,
0000
0000
0000
0000
,
1002
0000
0103
0002
0000
0013
0001
2000
,
0000
0000
3001
0000
0100
0000
0010
1000
0001
0000
0010
0000
0100
0000
0010
0000
,
0011
0000
0001
1000
0120
1030
0001
0101
,
0000
0000
0001
1000
0000
0010
0000
1000
0001
0010
0000
0000
0110
0000
0000
0000
;

//--------------- dance-double - Fred-104 ----------------
#NOTES:
     dance-double:
     Fred-104:
     Easy:
     5:
     :
00000000
00000000
00000000
00000000
,
00000000
00000000
00000000
00000000
,
00000000
00000000
00000000
00000000
,
00000000
00000000
00000000
00000000
,
00000000
00000000
00000000
00000000
,
00010000
00000000
10000000
00000000
,
00010000
10000000
00100000
00000000
,
01000000
00000000
00001000
00010000
,
00002000
00000000
00000000
00003000
,
00011000
00000000
00010000
00000000
,
00001000
00010000
00000100
00000000
,
00001000
00000000
00000001
00000000
,
00000010
00001000
00010000
00000000
,
01000000
00000000
00100000
00000000
,
00010000
10000000
01000000
00100000
,
00001000
00000000
00010000
00000000
,
00001000
00010000
00011000
00000000
,
00010000
00001000
00000000
00001000
,
00000000
00000010
00000000
00000010
,
00000001
00000100
00000000
00000100
,
00000000
00001000
00000000
00001000
,
00010000
00100000
00000000
00100000
,
00000000
10000000
00000000
01000000
,
01000000
00010000
00010000
00001000
,
00011000
00000000
00000000
00000000
,
00020000
00000000
00030020
00000000
,
00002030
00000000
00000000
00000000
,
00003002
00000000
00002003
00000000
,
00003200
00000000
00000000
00000300
,
00000020
00000000
00000030
00000000
,
00000002
00000000
00000003
00000000
,
00002000
00000000
00003000
00000000
,
00000200
00000000
00000300
00000000
,
00000000
00000000
00000000
00000000
,
00001000
00000000
00000001
00000000
,
00000100
00000010
00000100
00001000
,
00010000
00000000
00100000
00000000
,
01000000
00010000
10000000
01000000
,
00100000
00000000
00001000
00000000
,
00010000
00001000
00100000
00001000
,
00010000
00000000
00001000
00000000
,
00010000
00001000
00011000
00000000
,
00010000
00001000
00000100
00000000
,
00000010
00001000
00000010
00000000
,
00001000
00000001
00000010
00000100
,
00010000
00001000
00011000
00000000
,
00002000
00003000
00001000
00010000
,
00100000
01000000
00100000
10000000
,
00010000
00000000
01000000
00000000
,
00001000
00010000
00011000
00000000
,
00002000
00000000
00023000
00000000
,
00030100
00010000
00000100
00010000
,
00002000
00000000
02003000
00000000
,
03010000
01000000
00010000
01000000
,
00200000
00000000
20300000
00000000
,
31000000
00100000
00001000
00010000
,
00000200
00000000
00020300
00000000
,
00031000
01000000
01100000
00000000
,
00000000
00000000
00000000
00000000
,
00002000
00000000
00023000
00000000
,
00031000
00010000
00011000
00000000
,
00002000
00000000
00023000
00000000
,
00230000
00000000
01300000
00001000
,
00020000
00000000
00032000
00000000
,
00013000
00001000
00011000
00000000
,
00010000
00000000
00001000
00000000
,
00000010
00000000
00000100
00000000
,
00020000
00000000
00032000
00000000
,
00003200
00000000
00000000
00000000
,
00000310
00010000
00011000
00000000
,
00000000
00000000
00000000
00000000
,
00020000
00000000
00032000
00000000
,
00003200
00000301
00000010
00001000
,
00010000
00000000
00000000
00000000
00001000
00000000
00000000
00022000
,
00000000
00000000
00000000
00033000
;

//--------------- dance-double - Fred-104 ----------------
#NOTES:
     dance-double:
     Fred-104:
     Medium:
     9:
     :
00000000
00000000
00000000
00000000
,
00000000
00000000
00000000
00000000
,
00000000
00000000
00000000
00000000
,
00000000
00000000
00000000
00000000
,
00000000
00000000
00000000
00000000
,
00000002
00000000
00000000
00002003
00000000
00003001
00000010
00000200
,
00000000
00010300
00001000
00000000
00010000
00000000
00000010
00000000
,
00020000
00000000
00000000
00032000
00000000
01003000
00010000
02000000
,
00000000
00000000
00000000
03000000
,
10010000
00000000
00010000
00000000
10000000
00000000
00000000
01000000
,
00000000
00100000
00000000
01000000
00000000
00100000
00001000
00000000
,
00010000
00000000
00001000
00000000
00010000
00000000
00000000
00001000
,
00000000
01000000
00000000
00001000
00000000
01000000
00001000
00000000
,
00010000
00000000
00000100
00000000
00010000
00000000
00000000
00001000
,
00000000
00010000
00000000
00000010
00000000
00010000
00000010
00000000
,
00001000
00000000
00000001
00000000
00001000
00000000
00000000
00001001
,
00000000
00000110
00000000
00001001
00000000
00000001
00001000
00000000
,
00000001
00000000
00000000
00000000
00000010
00000000
00000000
00000100
00000000
00000000
00000010
00000000
00001000
00000000
00000000
00010000
,
00000000
00000000
01000000
00000000
00100000
00000000
00000000
01000000
00000000
00000000
10000000
00000000
00010000
00000000
00000000
00000000
,
10000000
00000000
00000000
00000000
00100000
00000000
00000000
01000000
00000000
00000000
00100000
00000000
00010000
00000000
00000000
00001000
,
00000000
00000000
00000100
00000000
00000010
00000000
00000000
00000100
00000000
00000000
00000001
00000000
00001000
00000000
00000000
00000000
,
00001001
00000000
00000000
00000000
00000001
00000000
00000000
00000100
00000000
00000000
00000010
00000000
00010000
00000000
00000000
00001000
,
00000000
00000000
00100000
00000000
00001000
00000000
00000000
00010000
00000000
00000000
00100000
00000000
01000000
00000000
00000000
00000000
,
00010000
00000000
00000000
00000000
10000000
00000000
00000000
01000000
00000000
00000000
00100000
00000000
00001000
00000000
00010000
00000000
,
00001000
00000000
00000010
00000000
00000100
00000000
00000000
00001000
00000000
00000000
00000001
00000000
00001000
00000000
00000000
00000000
,
00000002
00000203
00002300
00000000
,
00023000
00000000
00000000
00032000
00000000
00000000
00003200
00000000
,
00000302
00000023
00002030
00000000
,
00013000
00000000
00000000
00001000
00000000
00000000
00000010
00000000
,
00000001
00000000
00000000
00001000
00000000
00000000
00001100
00000000
00000000
00000000
00000000
00000000
00000000
00000000
00000000
00000000
,
00010000
00000000
00000000
00001000
00000000
00000000
00011000
00000000
00000000
00000000
00000000
00000000
00000000
00000000
00000000
00000000
,
00010000
00000000
00000000
00001000
00000000
00000000
00101000
00000000
00000000
00000000
00000000
00000000
00000000
00000000
00000000
00000000
,
00010000
00000000
00000000
01000000
00000000
00000000
02200000
00000000
00000000
00000000
00000000
00000000
03300000
00000000
00000000
00000000
,
00000000
00000000
00000000
00000000
,
10000000
00000000
00000000
01000000
00000000
00100000
00010000
00100000
,
00000000
00000000
00001000
00010000
00000000
00000010
00001000
00000010
,
00010000
00000000
00001000
00010000
00000000
00001000
00100000
00010000
,
00000000
01000000
01000000
00000000
01100000
00000000
10010000
00000000
,
10000000
00000000
01000000
00010000
00000000
00001000
00010000
00001000
,
00000000
00000010
00000100
00000000
00001000
00000001
00001000
00000000
,
00001001
00000000
00000000
00000110
00000000
00000000
00001000
00001000
,
00000000
00000001
00000100
00001000
00010000
00000000
00011000
00000000
,
00001000
00000000
00010000
00100000
00000000
01000000
00010000
01000000
,
00000000
00100000
10000000
00010000
00000000
10000000
01000000
00000000
,
00100000
00000000
00001000
00010000
00000000
00000100
00010000
00000100
,
00000000
00001000
00000001
00000000
00000101
00000000
00001010
00000000
,
00001001
00000000
00000001
00000100
00000000
00000010
00001000
00000010
,
00000000
00010000
00001000
00100000
00001000
00100000
00010000
00000000
,
10010000
00000000
00000000
11000000
00000000
01000000
00100000
00001000
,
00000000
00010000
00000010
00010000
00001000
00000000
00011000
00000000
,
00010100
00010000
00001000
00000100
,
00000001
00001000
00000100
00000000
00000010
00000001
00001000
00000000
,
00000001
00000010
00001000
00010000
,
01000000
00100000
00010000
00000000
10000000
00100000
01000000
00000000
,
01100000
00000000
00010000
00000000
10000000
01000000
00100000
00000000
,
00001000
00010000
00001000
00000000
01000000
00010000
01000000
00000000
,
00001000
00010000
00001000
00100000
00001000
00010000
00001000
00000000
,
00011000
00000000
00000000
00000000
00010000
00000000
00000100
00000000
00001000
00000000
00000000
00001100
00000000
00000000
00001001
00000000
,
00000000
00000000
00000000
00000000
,
00000002
00000000
00000000
00000203
00000000
00000000
00000302
00000000
00000000
00002003
00000000
00000000
00003100
00000000
00000000
00000000
,
00010000
00001000
01000000
01100000
,
10000000
00000000
00000000
01000000
00000000
00000000
00200000
00000000
00000000
00000000
00301000
00000000
00010000
00000000
00000000
00000000
,
00001000
00000000
00000000
00100000
00000000
00000000
00001000
00000000
00010000
00000000
00000000
00010000
00000000
00000000
00010000
00000000
,
00002000
00000000
00000000
00023000
00000000
00000000
00030020
00000000
00000000
00020030
00000000
00000000
00031000
00000000
00000000
00000000
,
00010000
00000000
00000000
00001000
00000000
00000000
00000100
00000000
00000010
00000000
00000000
00000000
00000110
00000000
00000000
00000000
,
00001000
00000000
00000000
00000100
00000000
00000000
00000110
00000000
00000000
00000000
00000001
00000000
00001000
00000000
00000000
00000000
,
00000001
00000000
00000000
00000100
00000000
00000000
00001000
00000000
00010000
00000000
00000000
00001000
00000000
00000000
00000000
00000000
,
00010000
00000000
00000000
00100000
00000000
00000000
01000000
00000000
00010000
00000000
00000000
10000000
00000000
00000000
01000000
00000000
,
00100000
00001000
00010000
00100000
,
10000000
00000000
00000000
00000000
01000000
00000000
00000000
00000000
00010000
00000000
00000000
00001000
00000000
00000000
00011000
00000000
,
00000000
00000000
00000000
00000000
,
00012000
00000000
00000000
00023000
00000000
00030100
00010000
00000200
,
00000000
00010300
00001000
00010000
00000100
00001000
00000001
00000000
,
00000110
00000000
00001000
00000001
00000000
00000100
00000010
00002000
,
00000000
00000000
00000000
00000000
00000000
00003000
00001001
00000000
;

//--------------- dance-double - Fred-104 ----------------
#NOTES:
     dance-double:
     Fred-104:
     Hard:
     14:
     :
00000000
00000000
00000000
00000000
,
00000000
00000000
00000000
00000000
,
00000000
00000000
00000000
00000000
,
00000000
00000000
00000000
00000000
,
00000000
00000000
00000000
00000000
,
00002000
00000000
00013000
00002000
00000000
00013000
00000010
00002000
,
00000000
00003001
00000100
00000010
00000100
00001000
00010000
00100000
,
02000000
00000000
03100000
20000000
00000000
31000000
00100000
00002000
,
00000000
00000000
00000000
00000000
00000000
00003000
00011000
00000000
,
00020010
00000000
00031000
00010000
00000010
00010000
00001000
00020000
,
00000000
00030200
00000000
00020300
00000000
00031000
00000100
00000010
,
00002000
00000000
00000000
00000000
00003001
00000000
00000100
00000010
00000100
00000000
00000001
00000000
00001000
00000000
00000200
00000000
,
00000000
00000000
00020300
00000000
00000000
00000000
00032000
00000000
00000000
00000000
00013000
00000000
00100000
00000000
01000000
00010000
,
10000000
00000000
01000000
00000000
00100000
00000000
00001000
00010000
00001000
00000000
01000000
00000000
00001000
00000000
00020000
00000000
,
00000000
00000000
00230000
00000000
00000000
00000000
02300000
00000000
00000000
00000000
03001000
00000000
00010000
00000000
00100000
01000000
,
00100000
00000000
10000000
00000000
00010000
00000000
00100000
00010000
00100000
00000000
00001000
00000000
00010000
00000000
00011000
00000000
,
00000000
00000000
00010010
00000000
00000000
00000000
00001010
00000000
00000000
00000000
00001000
00000001
00001000
00000000
00000000
00000000
,
00000110
00000000
00001000
00000000
00000001
00000010
00000000
00000100
00000000
00010000
00001000
00000000
00010000
00000010
00000000
00001000
,
00000000
00000010
00010000
00000000
00001000
00100000
00000000
00010000
00000000
10000000
00000000
00010000
00100000
00000000
02000000
00000000
,
00000000
00000000
13000000
00000000
00100000
10000000
00000000
00010000
00000000
10000000
01000000
00000000
00100000
00010000
00000000
00100000
,
00000000
00001000
00010000
00000000
00001000
00000100
00000000
00000010
00000000
00000100
00000000
00000001
00001000
00000000
00000100
00000000
,
00001001
00000000
00000000
00000000
00000001
00001000
00000000
00000010
00000000
00000100
00000001
00000000
00000010
00000100
00000000
00000010
,
00000000
00001000
00010000
00000000
01000000
00100000
00000000
01000000
00000000
10000000
00000000
00010000
10000000
00010000
01000000
00000000
,
00001000
00000000
00010000
00000000
00011000
00000000
00000000
00010100
00000000
00010000
00001000
00010000
00000010
00000000
00001000
00000001
,
00000010
00000000
00000100
00001000
00000100
00000000
00010000
00001000
00000000
00010000
00000000
00000010
00010000
00000000
00001000
00000000
,
00012000
00000000
00023000
00000000
02030000
00000000
00000000
03200000
,
00320000
00230000
02300000
03020000
20030000
30200000
02300000
00000000
,
23000000
00000000
30020000
00000000
00230000
00000000
00000000
00302000
,
00023000
00000000
00000000
00030020
00000000
00000000
00002030
00000000
00000000
00000000
00003002
00000000
00002003
00000000
00003200
00000300
,
00000110
00000000
00000000
00001001
00000000
00000000
00001100
00000000
00000000
00000000
00000000
00000000
00000000
00000000
00010010
00000000
,
00011000
00000000
00000000
00101000
00000000
00000000
01001000
00000000
00000000
00000000
00000000
00000000
00011000
00000000
00001000
00100000
,
00010000
00000000
00000000
00000000
00000000
00000000
00000000
00000000
00000000
01010000
00000000
00000000
00000000
00000000
00000000
00000000
00000000
00000000
01100000
00000000
00000000
00000000
00000000
00000000
00000000
00000000
00000000
00000000
00000000
00000000
00000000
00000000
00000000
00000000
00000000
00000000
00000000
00000000
00000000
00000000
00000000
00000000
10000000
00000000
01000000
00000000
10000000
00000000
,
01000000
00000000
00000000
00000000
00000000
00000000
00000000
00000000
00000000
01100000
00000000
00000000
00000000
00000000
00000000
00000000
00000000
00000000
00110000
00000000
00000000
00000000
00000000
00000000
00000000
00000000
00000000
00000000
00000000
00000000
00001000
00000000
00010000
00000000
00001000
00000000
00010000
00000000
00000000
00000000
00000000
00000000
00000000
00000000
00000000
00000000
00000000
00000000
,
00020000
00030000
00000000
00000000
00020000
00000000
00030000
00000000
00020000
00000000
00000000
00030000
00022000
00000000
00000000
00033000
,
00010000
00001000
00000100
00000001
00000010
00000100
00000010
00001000
,
00010000
00001000
00100000
01000000
00100000
00010000
10000000
00100000
,
01000000
00010000
00100000
01000000
00010000
00001000
00000010
00000100
,
00000000
00000000
00001000
00000000
00001001
00000000
00000000
00000000
00000110
00000000
00000000
00000000
00001001
00000000
00000001
00001000
,
00000001
00000010
00001000
00010000
00001000
01000000
00100000
01000000
,
00001000
00010000
00100000
01000000
00001000
00010000
01000000
10000000
,
10010000
00000000
10000000
11000000
00000000
00100000
00001000
00011000
,
00000000
00000000
00000000
00010000
00000000
00000000
00000010
00000000
00000000
00001000
00000000
00000000
00000001
00000000
00000000
00001000
00000001
00001000
00000001
00000000
00000000
00000000
00000000
00000000
,
00001000
00000001
00000100
00000000
00000010
00000000
00001000
00000000
00000100
00010000
00000100
00000000
00001000
00000000
00000100
00000000
,
00010000
00000010
00010000
00000000
00001000
00000000
00100000
00000000
00010000
10000000
00010000
00000000
01000000
00000000
00100000
00000000
,
01000000
00001000
00010000
00000000
00100000
00000000
01000000
00000000
00010000
10000000
01000000
00000000
10000000
00000000
00010000
00000000
,
00000000
01100000
10010000
00000000
00110000
00000000
00101000
00000000
,
00022000
00000000
00000000
00033000
00010000
00001000
00000100
00000000
00000010
00000000
00001000
00000000
00000010
00000100
00000001
00000000
,
00001000
00000000
00000001
00000000
00000010
00000100
00001000
00000000
00000100
00000000
00010000
00001000
00100000
00000000
00010000
00000000
,
10010000
00000000
00000000
00000000
00000000
00000000
10000000
00000000
00000000
10100000
00000000
00000000
00000000
00000000
00000000
00010000
00000000
00000000
10000000
01000000
10000000
01000000
00000000
00000000
,
00000000
00000000
00000000
00100000
00000000
00000000
00001000
00000000
00000000
00010000
00000000
00000000
00000010
00000000
00000000
00010000
00001000
00010000
00001000
00000000
00000000
00000000
00000000
00000000
,
00011000
00000000
00000000
00000000
00010000
00001000
00000000
00001000
00010000
00000000
00000200
00000000
00001300
00000000
00000001
00000010
,
00000100
00000000
00001000
00000000
00000100
00010000
00000000
00010000
00001000
00000000
02000000
00000000
03010000
00000000
10000000
00010000
,
00100000
00010000
10000000
00000000
00010000
00100000
00000000
00100000
01000000
00000000
20000000
00000000
30010000
00000000
01000000
00100000
,
01000000
00000000
00010000
00000000
10000000
00000000
01000000
00100000
00000000
00001000
00020000
00000000
00030100
00000000
00010000
00000000
,
00012000
00000000
00000000
00000000
00013000
00000100
00000000
00001000
00000001
00000000
00000020
00000000
00000130
00000000
00001000
00000100
,
00000010
00000001
00001000
00000000
00000010
00010000
00000000
00001000
00010000
00000000
00002000
00000000
00103000
00000000
00010000
10000000
,
00100000
01000000
00010000
00000000
00100000
00001000
00000000
00010000
00000010
00000000
00002000
00000000
00003001
00000010
00000100
00000000
,
00001100
00000000
00000000
00000000
00000100
00010000
00000100
00010000
00001000
00000000
00000000
00011000
00000000
00000000
01100000
00000000
,
00000000
00000000
00000000
00000000
,
10000000
00000000
00010000
01000000
00000000
00100000
10000000
00000000
00100000
01000000
00000000
00010000
10000000
00000000
01000000
00000000
,
01100000
00011000
00000110
00001001
,
00000001
00000000
00001000
00000001
00000000
00000100
00000020
00000000
00000000
00000000
00001030
00000000
00000100
00000000
00000010
00000000
,
00001000
00000000
00000000
00010000
00000000
00000000
00001000
00000000
00011000
00000000
00000000
01001000
00000000
00000000
00011000
00000000
,
00010000
00000000
00000010
00001000
00000000
00000100
00010000
00000000
00000100
00001000
00000000
00000010
00010000
00000000
00001000
00000000
,
00101000
00000000
00000000
00100000
00010000
00000000
10000000
00000000
10100000
00000000
00000000
00000000
01100000
00000000
00000000
00000000
,
01001000
00000000
00000000
00010100
00000000
00000000
00011000
00000000
00000000
00000000
00011000
00000000
00010000
00000000
00000010
00000000
,
00001010
00000000
00000000
00001000
00000001
00000000
00000010
00000000
00000011
00000000
00000001
00001000
00000000
00000000
00000010
00000000
,
00001010
00000000
00000000
00000100
00010000
00000000
00001000
00000000
00010000
00000000
00100000
02000000
00000000
00000000
03010000
00000000
,
10000000
00000000
00000000
01000000
00000000
00000000
00010000
00000000
00001000
00000000
00000000
00000010
00000000
00000000
00000001
00000000
,
00001000
00000000
00000001
00000000
00000100
00000000
00000010
00001000
00000010
00000000
00010000
00001000
00000000
00000000
00011000
00000000
,
00000000
00000000
00000000
00000000
,
20010000
00000000
31000000
20000000
00000000
30010000
10000000
02000000
,
00000000
00000000
03100000
00000000
00001000
00000000
00010000
00001000
00010000
00000000
00001000
00000000
00000100
00000000
00000010
00000000
,
00001010
00000000
00000001
00000100
00000120
00001030
00000001
00000011
,
00000000
00000000
00000001
00000100
00000000
00001000
00000000
00010000
00001000
00010000
00000000
00000000
00011000
00000000
00000000
00000000
;
