#TITLE:Flying soda;
#ARTIST:猫叉Master feat.林ももこ;
#ARTISTTRANSLIT:Nekomata Master feat.Momoko Hayashi;
#BANNER:Flying soda.png;
#BACKGROUND:Flying soda-bg.png;
#CDTITLE:./CDTitles/RB colette -Summer-.png;
#MUSIC:Flying soda.ogg;
#SAMPLESTART:60.849;
#SAMPLELENGTH:15;
#BPMS:0=106;
#BGSTAGE:16;

//--------------- dance-single - Fred-104 ----------------
#NOTES:
     dance-single:
     Fred-104:
     Beginner:
     1:
     :
0000
0000
0000
0000
,
0000
0000
0000
0000
,
0000
0000
0000
0000
,
0000
0000
0000
0000
,
0000
0000
0000
0000
,
1000
0000
0000
0000
,
0000
0000
0000
0000
,
0001
0000
0000
0000
,
0000
0000
0000
0000
,
1000
0000
0000
0000
,
0000
0000
0000
0000
,
0010
0000
0000
0000
,
0000
0000
0000
0000
,
0100
0000
0000
0000
,
0000
0000
0000
0000
,
0001
0000
0000
0000
,
0000
0000
0000
0000
,
1000
0000
0000
0000
,
0000
0000
0000
0000
,
0001
0000
0000
0000
,
0000
0000
0000
0000
,
0010
0000
0000
0000
,
0000
0000
0000
0000
,
0100
0000
0000
0000
,
0000
0000
0000
0000
,
1000
0000
0000
0000
,
0000
0000
0000
0000
,
0001
0000
0000
0000
,
1000
0000
0000
0000
,
0001
0000
0000
0000
,
0000
0000
0000
0000
,
0100
0000
0000
0000
,
0010
0000
0000
0000
,
0100
0000
0000
0000
,
0000
0000
0000
0000
,
0001
0000
0000
0000
,
1000
0000
0000
0000
,
0100
0000
0000
0000
,
0000
0000
0000
0000
,
0010
0000
0000
0000
,
0100
0000
0000
0000
,
0010
0000
0000
0000
,
0000
0000
0000
0000
,
0001
0000
0000
0000
,
0000
0000
0000
0000
,
0000
0000
0000
0000
,
0000
0000
0000
0000
,
1000
0000
0000
0000
,
0001
0000
0000
0000
,
1000
0000
0000
0000
,
0000
0000
0000
0001
;

//--------------- dance-single - Fred-104 ----------------
#NOTES:
     dance-single:
     Fred-104:
     Easy:
     3:
     :
0000
0000
0000
0000
,
0000
0000
0000
0000
,
0000
0000
0000
0000
,
0000
0000
0000
0000
,
0000
0000
0000
0000
,
0001
0000
1000
1000
,
0100
0000
0010
0001
,
0010
0000
0001
1000
,
0010
1000
1001
0000
,
0002
0000
2003
0000
,
3001
0010
0200
0000
,
2300
0000
3002
0000
,
0103
0010
0200
0300
,
0002
0000
2003
0000
,
3001
1000
0200
0300
,
0020
0000
0032
0000
,
1003
0001
1001
0000
,
0002
0000
0000
1003
,
2000
0000
3010
0010
,
0200
0000
0000
0301
,
2000
3002
0023
0230
,
1300
0000
0001
0100
,
0100
0000
0010
0010
,
0010
0000
0100
0100
,
0100
0000
0001
0001
,
2000
0000
0000
0000
,
0000
0000
3000
0000
,
0002
0000
1003
0001
,
0200
0000
0310
0010
,
0020
0000
0130
0001
,
2000
0000
3001
0001
,
0002
0000
1003
0100
,
0020
0000
0031
0001
,
0002
0003
0200
0300
,
2000
3000
0010
0001
,
2000
0000
3002
0000
,
0103
0100
0010
1000
,
0002
0000
0023
0130
,
2000
0000
3001
1000
,
0002
0000
2003
0000
,
3020
0000
1030
0001
,
0020
0000
0032
0000
,
2003
0000
0000
3000
,
1001
0000
0000
0000
,
0001
0000
0000
0000
,
1000
0000
0000
0000
,
0010
0000
1000
0001
,
1000
0000
0100
0000
,
1000
0000
0001
0010
,
0100
0000
1000
0000
,
0001
0000
0000
1001
;

//--------------- dance-single - Fred-104 ----------------
#NOTES:
     dance-single:
     Fred-104:
     Medium:
     6:
     :
0000
0000
0000
0000
,
0000
0000
0000
0000
,
0000
0000
0000
0000
,
0000
0000
0000
0000
,
0000
0000
0000
0000
,
1000
0000
0001
0000
0010
0100
1000
0000
,
0001
0000
1000
0000
0010
0100
0001
0000
,
1000
0000
0100
0000
0010
0001
1000
0000
,
0001
0000
0000
0000
0100
0000
0000
2002
0000
0000
0000
0000
3003
0000
0001
0000
,
2000
0000
0000
3100
0200
0000
0000
0310
,
0010
0000
0001
0000
1000
0000
0001
0100
,
0002
0000
0000
1003
1000
0000
0000
0001
,
0002
0000
0100
0000
0103
0010
0100
0000
,
0020
0000
0000
1030
2000
0000
0000
3001
,
0001
0010
0100
0010
,
0200
0000
0000
1300
2000
0000
0000
3001
,
0001
0000
0000
1000
0000
0000
1001
0000
0000
0000
0000
0000
0000
0000
1000
0000
,
0200
0000
0310
0001
,
0020
0000
0031
1000
,
0020
0000
0130
0001
,
2000
0000
3200
0000
0320
0000
0032
0003
,
1001
0000
0000
0000
0001
0000
0000
0001
0000
0000
0000
0000
0100
0000
0010
0000
,
0200
0000
0301
1000
0001
0000
0010
0000
,
0200
0000
1300
0100
1000
0000
0001
0000
,
1001
0001
1000
0010
,
0200
0000
0310
2000
,
3002
0000
0013
0010
,
2001
0000
3000
1000
0200
0000
0310
0001
,
1000
0000
0001
0000
0100
0010
0100
0001
,
0100
0000
0001
0000
1000
0000
0001
0010
,
0100
1000
1100
1001
,
2000
0000
3000
0100
0200
0000
1300
0001
,
1000
0000
0001
0000
0100
0010
0100
0010
,
0200
0000
0000
0000
0301
0000
0000
0000
1000
0000
0000
1000
0000
0000
1000
0000
,
0100
0000
0010
0000
0001
0000
1000
0001
,
2000
0000
3000
0001
0002
0000
0103
0010
,
0100
0000
0001
0000
1000
0001
0010
0000
,
0200
0000
1300
0001
1000
0000
0001
0000
,
0100
0010
0110
1001
,
2000
0000
3000
0001
0020
0000
0031
1000
,
0100
0000
1000
0000
0001
0001
0100
0000
,
0020
0000
0130
0000
0001
0000
1000
0001
,
1000
0000
0010
1000
0001
0000
0010
0000
,
0002
0003
0200
0300
,
2000
3000
0020
0030
,
0001
0010
0100
1000
,
0001
0100
0110
1001
,
2000
0100
3100
0010
,
0002
0100
0103
0010
,
0200
0001
0301
1000
,
0100
0000
0000
0000
1000
0000
0000
0001
0000
0000
0000
0000
1001
0000
0000
0000
;

//--------------- dance-single - Fred-104 ----------------
#NOTES:
     dance-single:
     Fred-104:
     Hard:
     10:
     :
0000
0000
0000
0000
,
0000
0000
0000
0000
,
0000
0000
0000
0000
,
0000
0000
0000
0000
,
0000
0000
0000
0000
,
0001
0010
0000
0001
0010
0000
0100
0000
1000
0000
0001
0000
0100
0000
0000
0000
,
0001
1000
0000
0001
1000
0000
0010
0000
0100
0000
0001
0000
1000
0000
0000
0000
,
0100
0010
0000
0100
0010
0000
0001
0000
1000
0000
0010
0000
0100
0000
0001
0000
,
1000
0000
0100
0010
0100
0000
1000
0002
0000
0000
0000
0000
0003
0000
1000
0000
,
0002
0000
0013
0100
2000
0000
3001
1000
,
0010
0000
1000
0001
0000
0010
0000
0100
0000
0000
1000
0000
0001
0000
0100
0000
,
0002
0000
0103
1000
0200
0000
0301
0010
,
0100
0000
0000
0000
0000
0000
1000
0000
0000
0100
0000
0000
0000
0000
0000
1000
0000
0000
0001
0000
0000
0000
0000
0000
1000
0000
0000
0000
0010
0000
0000
0000
0100
0000
0000
0000
0001
0000
0000
0000
0000
0000
1000
0000
0000
0000
0000
0000
,
0002
0000
1003
0010
0002
0000
1003
0100
,
0001
0000
0100
0010
0000
1000
0000
0001
0000
0000
0010
0000
0100
0000
1000
0000
,
0002
0000
0103
0001
2000
0000
3100
1000
,
0001
1000
0001
1000
0000
0010
0200
0000
0000
0000
0000
0000
0301
0000
1000
0000
,
0200
0000
0000
1000
0000
0000
0010
0000
0000
1300
0001
1000
,
0020
0000
0000
0000
0100
0000
0000
0000
1000
0000
0000
0000
0130
0000
0001
1000
,
0002
0000
0000
0000
0010
0000
0000
0000
1000
0000
0000
0000
0013
0000
0001
1000
,
0002
0000
0203
0000
0320
0000
1030
0100
,
0110
0000
0000
0000
0010
0001
0000
1000
0000
0000
0000
0000
0001
0000
0100
0000
,
0020
0000
0000
0000
1030
0001
1000
0001
0010
0000
0100
0000
1000
0000
0001
0000
,
0200
0000
0000
0000
0300
0001
1000
0001
0010
0000
0000
0000
0110
0000
0000
0000
,
1001
0000
0000
0000
0000
1000
0010
1000
0001
0000
0000
0000
0010
0000
0000
0000
,
0200
1000
0010
2300
,
3002
0000
0000
0100
0000
0000
0103
0001
1000
0001
1000
0001
,
0020
0000
0130
1000
0002
0000
0103
0001
,
1000
0000
0100
0010
0000
0000
0001
1000
0001
0000
0100
0000
0010
0000
0010
0000
,
0200
0000
0301
1000
0200
0000
0310
0001
,
1000
0100
1000
0000
0001
0000
0100
0000
0110
0000
0000
0000
1001
0000
0000
0000
,
2000
0000
3100
1000
0002
0000
1003
0001
,
0100
0000
0010
0100
0000
0000
0001
0000
1000
0000
0100
0000
0001
0000
0100
0000
,
2000
0000
0000
0000
3001
0000
1000
0000
0100
0000
0010
0001
0000
0010
0001
0000
,
1000
0000
0001
0100
0000
0000
0001
1000
0000
0000
0100
0000
0010
0000
0001
0000
,
0200
0000
0310
0100
0002
0000
0013
0001
,
1000
0000
0001
0010
0000
0000
0100
0000
0010
0000
0001
0000
1000
0000
0010
0000
,
0200
0000
0000
0000
0301
0000
1000
0001
0010
0000
0000
0000
0100
0000
1000
0000
,
0001
0100
0001
0000
1000
0000
0001
0000
0011
0000
0000
0000
1100
0000
0000
0000
,
1002
0000
1003
0100
0020
0000
0031
0100
,
0010
0000
1000
0001
0000
0000
0010
0000
0100
0000
0100
0000
1000
0000
1000
0000
,
0002
0000
0000
0000
0103
0000
0001
0010
0000
0000
0100
0000
1000
0000
1000
0001
,
1000
0000
0001
0100
0001
0000
1000
0010
1000
0000
0001
0000
0010
0100
0010
0000
,
0002
0103
2000
3010
,
0002
0103
2000
3010
,
0001
0000
0000
0001
0100
0000
0000
0000
0010
0000
0000
0010
1000
0000
0000
0000
,
0001
0000
0000
0001
1000
0000
0100
0000
0110
0000
0000
0000
1001
0000
0000
0000
,
2000
0000
0100
0000
3100
0010
0001
0010
,
0002
0000
1000
0000
1003
0010
1000
0010
,
0200
0000
0001
0000
0301
1000
0100
0010
,
0001
0000
0000
0000
1000
0000
0000
0000
0010
0000
0000
0000
0100
0000
0000
0000
0000
0000
0000
0000
0000
0101
0000
0000
0000
0000
0000
0000
0000
0000
0000
0000
0000
0000
0000
0000
1001
0000
0000
0000
0000
0000
0000
0000
0000
0000
0000
0000
;

//--------------- dance-double - Fred-104 ----------------
#NOTES:
     dance-double:
     Fred-104:
     Easy:
     2:
     :
00000000
00000000
00000000
00000000
,
00000000
00000000
00000000
00000000
,
00000000
00000000
00000000
00000000
,
00000000
00000000
00000000
00000000
,
00000000
00000000
00000000
00000000
,
00010000
00000000
00000000
00000000
,
00001000
00000000
00000000
00000000
,
00000100
00000000
00000010
00000000
,
00001000
00000000
00001001
00000000
,
00000002
00000000
00000023
00000000
,
00000130
00000000
00002000
00000000
,
00003100
00000000
00002000
00000000
,
00003100
00000000
00020000
00030000
,
00000200
00000000
00020300
00000000
,
00031000
00010000
00002000
00003000
,
00020000
00000000
00032000
00003000
,
00011000
00000000
00000000
00000000
,
00002000
00000000
00000000
00003000
,
02000000
00000000
00000000
03000000
,
00020000
00000000
00000000
00030000
,
20000000
30000000
00020000
00030000
,
10000000
00000000
00010000
00000000
,
00100000
00000000
00001000
00000000
,
00010000
00000000
00000000
00000000
,
00001000
00000000
00000000
00000000
,
00020000
00000000
00000000
00000000
,
00000000
00000000
00030000
00000000
,
00002000
00000000
00003000
00000000
,
00020000
00000000
00030010
00000000
,
00000200
00000000
00000310
00000000
,
00000200
00000000
00000300
00000000
,
00000002
00000000
00000013
00000000
,
00000002
00000000
00000013
00000000
,
00000200
00000300
00002000
00003000
,
00000200
00000300
00010000
00001000
,
00020000
00000000
00032000
00000000
,
00013000
00000000
00001000
00000000
,
00020000
00000000
00032000
00003000
,
02000000
03000000
00010000
00000000
,
02000000
00000000
03020000
00000000
,
20030000
00000000
30010000
10000000
,
00020000
00000000
20030000
00000000
,
30020000
00000000
00000000
00030000
,
10010000
00000000
00000000
00000000
,
10000000
00000000
00000000
00000000
,
00010000
00000000
00000000
00000000
,
01000000
00000000
00001000
00000000
,
00010000
00000000
00000000
00000000
,
00001000
00000000
00010000
00000000
,
00001000
00000000
00000100
00000000
,
00000001
00000000
00000000
00001001
;

//--------------- dance-double - Fred-104 ----------------
#NOTES:
     dance-double:
     Fred-104:
     Medium:
     5:
     :
00000000
00000000
00000000
00000000
,
00000000
00000000
00000000
00000000
,
00000000
00000000
00000000
00000000
,
00000000
00000000
00000000
00000000
,
00000000
00000000
00000000
00000000
,
00001000
00010000
00001000
01000000
,
00010000
10000000
01000000
00100000
,
00010000
00100000
00001000
00010000
,
00001000
00000000
00000000
00000000
00010000
00000000
00000000
00022000
00000000
00000000
00000000
00000000
00033000
00000000
00000000
00000000
,
00002000
00000000
00023000
00000000
,
00031000
00010000
00000010
00001000
,
00000002
00000000
00000203
00000000
,
00002300
00000000
00010000
00000000
00013000
00001000
00010000
00000000
,
00002000
00000000
00023000
00000000
,
00130000
01000000
00010000
10000000
,
02000000
00000000
03200000
00000000
,
00301000
00000000
00000000
00010000
00000000
00000000
00011000
00000000
00000000
00000000
00000000
00000000
00000000
00000000
00010000
00000000
,
00002000
00000000
00013000
00000100
,
00002000
00000000
00003001
00001000
,
00000200
00000000
00010300
00001000
,
00200000
00000000
00302000
00000000
00023000
00000000
00032000
00003000
,
00011000
00000000
00000000
00000000
00001000
00000000
00000000
00001000
00000000
00000000
00000000
00000000
00100000
00000000
00010000
00000000
,
20000000
00000000
31000000
00100000
00100000
00000000
00001000
00000000
,
00020000
00000000
00031000
00010000
00001000
00000000
00010000
00000000
,
00011000
00010000
00001000
00000100
,
00000020
00000000
00001030
00000002
,
00000203
00000000
00000310
00000010
,
00001002
00000000
00000003
00000001
00002000
00000000
00003010
00001000
,
00000010
00000000
00010000
00000000
00001000
00000000
00010000
00001000
,
00010000
00000000
00001000
00000000
00100000
00000000
00010000
10000000
,
00010000
10000000
01100000
10010000
,
20000000
00000000
30000000
01000000
01000000
00000000
00100000
00001000
,
00010000
00000000
00001000
00000000
00010000
00000000
00001000
00010000
,
00002000
00000000
00000000
00000000
00013000
00000000
00000000
00000000
00000010
00000000
00000000
00000010
00000000
00000000
00000010
00000000
,
00001000
00000000
00000100
00000000
00000010
00000000
00000001
00001000
,
00000002
00000000
00000003
00000100
00000200
00000000
00000310
00001000
,
00000010
00010000
00001000
00010000
,
00002000
00013000
01000000
10000000
,
01000000
00100000
00001000
00010000
,
00002000
00000000
00003000
00010000
00020000
00000000
00031000
00000000
,
01000000
00010000
10000000
01000000
,
00200000
00000000
00301000
00000000
00010000
00000000
00001000
00010000
,
00001000
00000000
00010000
00000010
00010000
00000000
00000010
00000000
,
00002000
00003000
00000020
00000030
,
00000002
00000003
00000200
00000300
,
00001000
00010000
00100000
10000000
,
01000000
00010000
00001000
00011000
,
00020000
00001000
00031000
00000000
,
00020000
00000010
00030010
00000000
,
00020000
00001000
00031000
00000000
,
01000000
00000000
00000000
00000000
00001000
00000000
00000000
00010000
00000000
00000000
00000000
00000000
00011000
00000000
00000000
00000000
;

//--------------- dance-double - Fred-104 ----------------
#NOTES:
     dance-double:
     Fred-104:
     Hard:
     10:
     :
00000000
00000000
00000000
00000000
,
00000000
00000000
00000000
00000000
,
00000000
00000000
00000000
00000000
,
00000000
00000000
00000000
00000000
,
00000000
00000000
00000000
00000000
,
00010000
00001000
00000000
00010000
00001000
00000000
00010000
00000000
00000010
00000000
00001000
00000000
00000001
00000000
00000000
00000000
,
00000100
00000010
00000000
00000100
00000010
00000000
00001000
00000000
00000001
00000000
00000010
00000000
00000100
00000000
00000000
00000000
,
00010000
00001000
00000000
00010000
00001000
00000000
01000000
00000000
00001000
00000000
00010000
00000000
00001000
00000000
00000000
00000000
,
00100000
00000000
00010000
10000000
00010000
00000000
00100000
02000000
00000000
00000000
00000000
00000000
03000000
00000000
10000000
00000000
,
20000000
00000000
31000000
00100000
00002000
00000000
00013000
00001000
,
00010000
00000000
00001000
00000100
00000000
00000001
00000000
00000100
00000000
00000000
00000001
00000000
00001000
00000000
00000100
00000000
,
00000020
00000000
00000031
00000100
00002000
00000000
00013000
01000000
,
10000000
00000000
00000000
00000000
00000000
00000000
00010000
00000000
00000000
10000000
00000000
00000000
00000000
00000000
00000000
00010000
00000000
00000000
01000000
00000000
00000000
00000000
00000000
00000000
00010000
00000000
00000000
00000000
10000000
00000000
00000000
00000000
01000000
00000000
00000000
00000000
00100000
00000000
00000000
00000000
00000000
00000000
00001000
00000000
00000000
00000000
00000000
00000000
,
00020000
00000000
00031000
00000010
00000200
00000000
00001300
00000010
,
00010000
00000000
00001000
00100000
00000000
00001000
00000000
00010000
00000000
00000000
00000100
00000000
00001000
00000000
00000001
00000000
,
00000020
00000000
00000031
00000100
00000020
00000000
00001030
00000001
,
00000010
00000100
00000010
00000100
00000000
00000010
00000002
00000000
00000000
00000000
00000000
00000000
00000103
00000000
00001000
00000000
,
00020000
00000000
00000000
00001000
00000000
00000000
00000010
00000000
00000000
00031000
00010000
00001000
,
00020000
00000000
00001000
00000000
00100000
00000000
00031000
01000000
,
00002000
00000000
00000000
00000000
00010000
00000000
00000000
00000000
00000100
00000000
00000000
00000000
00013000
00000000
00000100
00001000
,
00000200
00000000
00000320
00000000
00000032
00000000
00000103
00001000
,
00011000
00000000
00000000
00000000
00010000
00001000
00000000
01000000
00000000
00000000
00000000
00000000
00100000
00000000
10000000
00000000
,
00020000
00000000
00000000
00000000
10030000
00000000
01000000
10000000
01000000
00000000
00100000
00000000
00010000
00000000
00100000
00000000
,
00002000
00000000
00000000
00000000
00003000
00010000
00001000
00010000
00001000
00000000
00000000
00000000
00011000
00000000
00000000
00000000
,
00000110
00000000
00000000
00000000
00000000
00001000
00000001
00001000
00000001
00000000
00000000
00000000
00000100
00000000
00000000
00000000
,
00000002
00000010
00000100
00000023
,
00000031
00000000
00000000
00000000
00000000
00000000
00000100
00000000
00000000
00001000
00000000
00000000
00010000
00000000
00001000
00000000
00010000
00000000
00001000
00000000
00010000
00000000
00001000
00000000
,
02000000
00000000
03010000
10000000
02000000
00000000
13000000
00010000
,
01000000
00000000
00100000
10000000
00000000
00000000
00010000
10000000
01000000
00000000
00100000
00000000
00001000
00000000
00010000
00000000
,
00002000
00000000
00003010
00000001
00000020
00000000
00000130
00001000
,
00000001
00000100
00000001
00000000
00001000
00000000
00000100
00000000
00010100
00000000
00000000
00000000
00011000
00000000
00000000
00000000
,
00002000
00000000
00013000
00100000
02000000
00000000
03010000
10000000
,
01000000
00000000
00100000
00010000
00000000
00000000
00100000
00000000
00001000
00000000
00010000
00000000
00000010
00000000
00010000
00000000
,
00002000
00000000
00000000
00000000
00013000
00000000
00001000
00000000
01000000
00000000
00001000
00010000
00000000
00001000
00010000
00000000
,
00000100
00000000
00001000
00000001
00000000
00000000
00000010
00000100
00000000
00000000
00010000
00000000
00001000
00000000
00010000
00000000
,
00002000
00000000
00013000
00100000
02000000
00000000
03001000
00010000
,
00100000
00000000
01000000
00010000
00000000
00000000
00100000
00000000
01000000
00000000
00000000
00000000
10000000
00000000
00010000
00000000
,
00200000
00000000
00000000
00000000
00301000
00000000
00010000
00001000
00010000
00000000
00000000
00000000
00001000
00000000
00010000
00000000
,
00000100
00001000
00000100
00000000
00000010
00000000
00000001
00000000
00001001
00000000
00000000
00000000
00000110
00000000
00000000
00000000
,
00001002
00000000
00001003
00000001
00000020
00000000
00000130
00001000
,
00000100
00000000
00010000
00001000
00000000
00000000
00100000
00000000
00001000
00000000
00001000
00000000
00010000
00000000
00010000
00000000
,
00000020
00000000
00000000
00000000
00001030
00000000
00000001
00000010
00000000
00000000
00000100
00000000
00010000
00000000
00001000
00010000
,
00001000
00000000
00100000
00010000
00100000
00000000
00001000
00010000
00001000
00000000
01000000
00000000
00010000
10000000
00010000
00000000
,
20000000
31000000
00020000
00031000
,
00000020
00000031
00000200
00001300
,
00020000
00130000
20000000
30010000
,
20000000
00000000
31000000
00100000
00001000
00010000
00011000
00000000
,
00020000
00000000
00001000
00000000
00031000
00010000
00000010
00001000
,
00000002
00000000
00000100
00000000
00000103
00000001
00001000
00000100
,
00020000
00000000
00001000
00000000
00031000
00010000
01000000
00100000
,
00010000
00000000
00000000
00000000
10000000
00000000
00000000
00000000
00010000
00000000
00000000
00000000
10000000
00000000
00000000
00000000
00000000
00000000
00000000
00000000
00000000
00100000
00000000
00000000
00000000
00000000
00000000
00000000
00000000
00000000
00000000
00000000
00000000
00000000
00000000
00000000
01100000
00000000
00000000
00000000
00000000
00000000
00000000
00000000
00000000
00000000
00000000
00000000
;
