#VERSION:0.83;
#TITLE:Fly to Next World;
#ARTIST:Qrispy Joybox;
#BANNER:Fly to Next World.png;
#BACKGROUND:Fly to Next World-bg.png;
#CDTITLE:./CDTitles/RB limelight.png;
#MUSIC:Fly to Next World.ogg;
#SAMPLESTART:57.392;
#SAMPLELENGTH:15;
#BPMS:0=184;
#STAGE:16;

//--------------- dance-single - Fred-104 ----------------
#NOTEDATA:;
#STEPSTYPE:dance-single;
#DESCRIPTION:Fred-104;
#DIFFICULTY:Beginner;
#METER:1;
#CREDIT:Fred-104;
#NOTES:
0000
0000
0000
0000
,
0000
0000
0000
0000
,
0000
0000
0000
0000
,
0000
0000
0000
0000
,
0000
0000
0000
0000
,
0000
0000
0000
0000
,
1000
0000
0000
0000
,
0000
0000
0000
0000
,
0001
0000
2002
0000
,
3003
0000
0000
0000
,
1000
0000
0000
0000
,
0001
0000
0000
0000
,
0100
0000
0000
0000
,
0001
0000
1000
0000
,
0001
0000
0000
0000
,
1000
0000
0000
0000
,
0001
0000
0000
0000
,
1000
0000
0000
0000
,
0001
0000
0000
0000
,
1000
0000
0000
0000
,
0010
0000
0000
0000
,
0100
0000
0000
0000
,
0001
0000
0000
0000
,
1000
0000
0000
0000
,
0001
0000
0001
0000
,
1000
0000
1000
0000
,
0001
0000
0000
0000
,
1000
0000
0000
0000
,
0001
0000
0000
0000
,
0100
0000
0000
0000
,
0001
0000
0000
0000
,
1000
0000
0000
0000
,
0001
0000
0000
0000
,
0010
0000
0000
0000
,
0001
0000
0000
0000
,
1000
0000
1000
0000
,
0001
0000
0000
0000
,
0001
0000
1000
0000
,
0001
0000
0000
0000
,
1000
0000
1000
0000
,
0001
0000
0000
0000
,
1000
0000
0000
0000
,
0000
0000
0000
0000
,
0000
0000
0000
0000
,
1000
0000
0000
0000
,
0001
0000
0000
0000
,
1000
0000
0000
0000
,
0001
0000
0010
0000
,
0001
0000
0000
0000
,
0100
0000
0000
0000
,
0001
0000
0000
0000
,
1000
0000
0000
0000
,
0001
0000
0000
0000
,
1000
0000
0010
0000
,
1000
0000
0000
0000
,
0001
0000
0000
0000
,
1000
0000
0000
0000
,
0001
0000
0001
0000
,
0001
0000
0000
0000
,
1000
0000
0000
0000
,
0001
0000
0000
0000
,
1000
0000
0000
0000
,
0001
0000
0000
0000
,
0100
0000
0000
0000
,
0010
0000
0000
0000
,
0100
0000
0000
0000
,
0001
0000
0000
0000
,
1000
0000
0000
0000
,
0001
0000
0000
0000
,
1000
0000
0000
0000
,
0001
0000
0000
0000
,
1000
0000
0000
0000
,
0010
0000
0000
0000
,
0100
0000
0000
0000
,
0001
0000
0001
0000
,
1000
0000
1000
0000
,
1001
0000
0000
0000
,
0000
0000
0000
0000
,
0001
0000
0000
0000
,
0000
0000
0000
0000
,
1000
0000
0000
0000
,
0000
0000
0000
0000
,
2002
0000
0000
0000
,
0000
0000
0000
0000
,
0000
0000
0000
0000
,
0000
0000
0000
0000
,
3003
0000
0000
0000
;

//--------------- dance-single - Fred-104 ----------------
#NOTEDATA:;
#STEPSTYPE:dance-single;
#DESCRIPTION:Fred-104;
#DIFFICULTY:Easy;
#METER:4;
#CREDIT:Fred-104;
#NOTES:
0000
0000
0000
0000
,
0000
0000
0000
0000
,
0000
0000
0000
0000
,
0000
0000
0000
0000
,
0000
0000
0000
0000
,
0000
0000
0000
0000
,
1000
0000
0000
0000
,
0001
0000
1000
0001
,
2000
0000
0002
0000
,
3003
0000
0000
0000
,
1000
0000
0010
0000
,
1000
1000
0001
0000
,
0100
0000
0010
0000
,
0100
0100
0100
0100
,
0100
0000
0001
0000
,
1000
0001
1000
0000
,
0001
0000
1000
0000
,
0010
0000
0100
0000
,
0001
0000
0010
0000
,
0001
0000
1000
0000
,
0010
0000
0100
0000
,
0001
0000
1000
1000
,
1000
0000
0010
0000
,
0100
0000
0001
0000
,
1000
0000
0001
0000
,
1000
0000
0010
0000
,
1001
0000
0001
0000
,
0100
0100
0010
0000
,
0100
0000
0001
0000
,
1000
0001
1000
0000
,
0001
0000
0100
0000
,
0010
0010
0100
0000
,
0010
0000
1000
0000
,
2002
0000
0000
3003
,
1000
0000
0010
0000
,
0100
0100
0001
0000
,
1000
0000
0001
0000
,
0100
0010
0100
0000
,
0001
0000
0010
0000
,
0100
0100
1000
0000
,
0002
0000
0203
0000
,
0320
0000
2030
0000
,
3000
0000
0000
0000
,
1001
0000
0000
0000
,
0001
0000
1000
0000
,
0001
0000
0100
0100
,
0100
0000
0001
0000
,
1000
1000
1000
1000
,
1000
0000
0001
0000
,
0100
0000
0010
0010
,
0010
0000
0100
0000
,
0001
0000
1000
0000
,
1001
0000
0001
0000
,
0100
0000
0010
0100
,
0010
0000
1000
0000
,
0001
0001
1000
1000
,
0010
0000
0100
0000
,
0001
0000
1000
0100
,
1000
0000
0010
0000
,
0001
0000
0100
0000
,
1000
0000
0001
0000
,
1000
1000
0010
0000
,
0100
0000
0001
0000
,
1000
0000
0001
0000
,
1000
0000
0010
0000
,
0100
0010
0100
0000
,
0002
0000
2003
0000
,
3020
0000
0230
0000
,
0301
0000
1000
0000
,
0001
0000
0100
0010
,
0100
0000
0001
0000
,
1000
0000
0100
1000
,
0100
0000
0010
0000
,
0001
0000
1000
0001
,
1000
0000
0001
0000
,
0100
0000
0010
0010
,
2002
0000
0000
0000
,
0000
0000
3003
0000
,
0220
0000
0000
0000
,
0000
0000
0330
0000
,
0220
0000
0000
0000
,
0000
0000
0330
0000
,
2002
0000
0000
0000
,
0000
0000
0000
0000
,
0000
0000
0000
0000
,
0000
0000
0000
0000
,
3003
0000
0000
0000
;

//--------------- dance-single - Fred-104 ----------------
#NOTEDATA:;
#STEPSTYPE:dance-single;
#DESCRIPTION:Fred-104;
#DIFFICULTY:Medium;
#METER:8;
#CREDIT:Fred-104;
#NOTES:
0000
0000
0000
0000
,
0000
0000
0000
0000
,
0000
0000
0000
0000
,
0000
0000
0000
0000
,
0000
0000
0000
0000
,
0000
0000
0000
0000
,
1000
0000
0000
0010
0000
0000
0000
0100
,
0000
0000
0000
0001
0000
0000
1000
0000
1000
0000
1000
0000
,
0002
0000
2000
0000
,
3003
0000
0000
0000
,
1000
0100
0000
1000
0100
0000
0010
0001
,
0000
0010
0001
0000
1000
0000
0001
0000
,
0100
0010
0000
0100
0010
0000
1000
0000
,
0002
0103
2000
3100
,
0001
0010
0000
0001
0010
0000
0100
1000
,
0000
0100
1000
0000
0001
0000
0010
0000
,
0011
0000
1010
0000
,
0101
0000
1100
0000
,
0001
0010
0000
0000
0010
0100
0000
0000
,
0100
1000
0000
0000
1000
0010
0000
0000
,
0010
0100
0000
0000
0100
0001
0000
0000
,
0001
1000
0000
0000
1000
0001
0000
0000
,
1000
0100
0000
0000
0100
0010
0000
0000
,
0010
0001
0000
0000
0001
1000
0000
0000
,
1001
0000
0110
0000
,
1001
0000
0110
0000
,
1000
1000
0010
0100
,
0001
0001
0100
0010
,
0100
0100
0010
1000
,
0001
1000
0001
2000
0000
0000
0000
0000
,
3001
0001
0100
0010
,
0100
0100
0001
1000
,
0001
0000
1000
0010
0000
0100
0000
0220
,
0000
0000
0000
0330
,
0001
0100
0000
0001
0100
0001
0000
0100
,
0010
0000
0000
2020
0000
0000
3030
0000
,
1000
0100
0000
1000
0100
0010
0000
0001
,
0010
0000
0000
0022
0000
0000
0033
0000
,
0001
0010
0000
0001
0100
0010
0000
1000
,
0100
0000
0000
2002
0000
0000
3003
0000
,
1000
1000
0010
0010
,
0001
0001
0100
0100
,
0000
0000
0000
0000
,
1001
0000
0000
0000
,
1000
0010
0000
1000
0010
0000
0100
0001
,
0000
0100
0001
0000
1000
0000
0100
0000
,
0010
0001
0000
0010
0001
0000
1000
0000
,
0002
0013
2000
3010
,
0001
0010
0000
0001
0010
0000
0100
0010
,
0000
0100
0010
0000
0100
0000
1000
0000
,
1001
0000
0110
0000
,
1001
0000
0110
0000
,
1000
0010
0000
1000
0100
0000
0010
0001
,
0000
0100
0001
0000
0100
0000
0010
0000
,
0100
0001
0000
0100
0010
0000
1000
0000
,
0002
0013
2000
3010
,
0001
0100
0000
0010
0100
0000
0001
0010
,
0000
0100
1000
0000
0001
0000
1000
0000
,
1001
0000
0110
0000
,
1001
0000
0110
0000
,
1000
0010
0000
0000
0010
0100
0000
0000
,
0100
0000
0000
0002
0000
0000
0000
0000
,
0103
0010
0000
0000
0010
1000
0000
0000
,
2000
3020
0230
0302
,
1003
0100
0000
0000
0010
0001
0000
0000
,
0100
0000
0000
0020
0000
0000
0030
0000
,
2020
3030
0202
0303
,
2200
3300
0022
0033
,
1000
0010
0010
1000
,
0001
0000
0100
0000
0010
0100
0010
0000
,
0100
0001
1000
0001
,
0010
0000
0100
0000
1000
0100
1000
0000
,
0001
0100
0001
0001
,
0100
0000
0010
0000
0100
0010
0100
0000
,
1001
0000
0110
0000
,
0001
1000
0010
0100
,
2002
0000
0000
0000
0000
3003
0000
0020
,
0000
0000
0000
0030
,
0200
0000
0000
0000
0000
0300
0000
0002
,
0000
0000
0000
0003
,
2000
0000
0000
0000
0000
3000
0000
0020
,
0000
0000
0000
0030
,
2002
0000
0000
0000
,
0000
0000
0000
0000
,
0000
0000
0000
0000
,
0000
0000
0000
0000
,
3003
0000
0000
0000
;

//--------------- dance-single - Fred-104 ----------------
#NOTEDATA:;
#STEPSTYPE:dance-single;
#DESCRIPTION:Fred-104;
#DIFFICULTY:Hard;
#METER:15;
#CREDIT:Fred-104;
#NOTES:
0000
0000
0000
0000
,
0000
0000
0000
0000
,
0000
0000
0000
0000
,
0000
0000
0000
0000
,
0000
0000
0000
0000
,
0000
0000
0000
0000
,
0001
0010
0001
1001
0000
1000
0010
0100
,
0000
0000
0000
0001
0000
0000
1000
0000
0000
0100
0000
0000
1000
0000
0000
0000
0010
0000
0000
0000
0100
0000
0000
0000
,
0002
0000
2003
0000
,
3010
0000
0000
0000
0000
0000
0000
0000
0000
0000
0000
0000
1000
0001
1000
0001
,
1000
1100
0000
0001
0101
0000
0100
0110
,
0000
0000
0010
0000
1010
0000
1000
0000
0001
0000
0100
0010
0100
0000
0100
0000
,
0001
0011
0000
1000
1010
0000
0001
0101
,
0001
1000
1100
0100
0110
0000
1001
0000
,
0001
0101
0000
0100
0110
0000
0010
1010
,
0000
0000
1000
0000
1100
0000
0100
0000
0010
0000
0001
1000
0010
0000
0010
0000
,
1200
0310
0201
0310
,
2100
3010
0102
0013
,
1000
1100
0000
0001
0101
0001
0000
1000
,
1010
1000
0000
0001
0011
0001
0000
0100
,
0110
0100
0000
0010
0110
0010
0000
1000
,
1001
1000
0000
0001
1001
0001
0100
0010
,
1000
0000
0010
1000
0100
0000
0010
0000
0001
0000
0010
0001
0100
0000
0010
0000
,
0100
0000
0001
0100
0010
0000
0100
0000
0010
0000
1000
0010
0100
0000
0010
0000
,
1010
1000
0000
0000
0011
0001
0000
0000
,
1100
1000
0000
0000
0101
0001
0000
0000
,
0200
0010
0010
1000
0000
0301
0100
0020
,
0000
0000
1000
0000
0100
0000
0130
0000
0010
0000
0001
0100
0010
0000
1000
0000
,
0020
1000
0100
0130
0000
1100
0000
0101
,
0000
0000
1010
0000
0100
0000
0001
0000
0100
0000
0010
0000
1000
0100
0010
0001
,
2000
0010
0010
3010
0200
0001
0001
0301
,
0200
0010
0010
0310
2000
0001
0001
3001
,
1000
0010
0100
0101
0000
1100
0000
0202
,
0000
0000
0000
0303
,
1100
0000
0100
0000
0010
0000
0010
0000
0001
0000
0100
0010
1000
0000
0010
0000
,
2000
0100
0001
0200
0000
0000
3300
0000
,
0011
0000
0001
0000
1000
0000
0010
0000
0100
0000
0001
1000
0100
0000
0010
0000
,
0002
0010
1000
0020
0000
0000
0033
0000
,
0110
0000
0100
0000
0001
0000
1000
0000
0001
0000
0100
0010
1000
0000
0100
0000
,
2000
0010
0001
0020
0000
0000
3030
0000
,
1000
0100
0001
0010
,
1000
0100
0001
0010
,
0000
0000
0000
0000
,
1001
0000
0000
0000
0000
0000
0000
0000
0000
0000
1000
0001
1000
0001
1000
0000
,
0001
0100
0001
0000
0010
0000
0100
0010
0100
0000
1000
0000
0010
0100
0010
0000
,
1000
0000
0001
0010
0001
0000
1000
0000
0001
0000
0100
0010
1000
0000
0100
0000
,
0010
0001
0010
0000
0100
0000
1000
0010
1000
0000
0001
0000
0100
0010
0100
0000
,
0101
0001
1001
0000
1100
1000
1001
0000
,
1000
0100
1000
0000
0001
0000
1000
0010
1000
0000
0001
0000
0100
0010
0100
0000
,
0001
0000
0010
0100
0010
0000
0001
0000
1000
0000
0001
0100
0010
0000
1000
0000
,
2100
3010
0102
0013
,
2010
3100
0012
0103
,
0001
0100
0010
0000
1000
0000
0100
0010
0001
0000
1000
0000
0001
0100
0010
0000
,
0100
0000
0001
1000
0100
0000
0010
0000
0001
0000
0001
0100
0001
0000
0001
0000
,
1000
0100
0010
0000
0001
0000
1000
0010
0100
0000
0001
0000
1000
0100
0010
0000
,
0011
0010
1010
0000
1100
0100
0101
0000
,
0001
0100
0010
0000
1000
0000
0001
0010
0100
0000
1000
0000
0001
1000
0010
0000
,
0100
0000
0001
1000
0010
0000
0100
0000
0010
0000
0010
0100
0010
0000
0100
0000
,
2100
0100
3010
0000
0102
0100
0013
0000
,
2010
0010
3100
0000
0012
0010
0103
0000
,
1000
1100
0000
0001
0101
0100
0000
0010
,
1010
1000
0001
0200
0000
0301
1000
0010
,
0110
0100
0000
0001
1001
1000
0000
0010
,
1020
0000
0000
0030
0012
0000
0000
0003
0201
0000
0000
0300
2100
0000
0000
3000
,
1000
1010
0000
0010
0110
0100
0000
0001
,
1001
1000
0100
0210
0000
0310
0001
0100
,
0102
0000
0000
0003
1200
0000
0000
0300
2010
0000
0000
3000
0021
0000
0000
0030
,
0102
0000
0000
0003
1200
0000
0000
0300
2010
0000
0000
3000
0021
0000
0000
0000
,
0031
0001
0100
0010
1000
0100
0010
0001
,
0100
0001
0010
0001
1000
0001
0100
0001
,
1001
0000
0001
0100
1000
0100
0001
1000
,
1100
0100
0010
0000
0101
0100
0010
0000
,
1000
0010
0100
0010
0001
0010
1000
0001
,
0100
0010
1000
0100
0001
0100
1000
0100
,
0110
0010
0001
0000
0110
0010
1000
0000
,
1010
0010
0100
0001
0011
0010
0100
1000
,
2002
0000
0000
0000
0000
0000
0003
3020
,
0000
0000
0000
0230
0000
0000
0302
0000
,
2003
0000
0000
0000
0000
0000
0000
0002
,
0000
0000
0000
3003
,
2200
0000
0000
0000
0000
3300
0000
0202
,
0000
0000
0000
0303
,
2002
0000
0000
0000
,
0000
0000
0000
0000
,
0000
0000
0000
0000
,
0000
0000
0000
0000
,
3003
0000
0000
0000
;

//--------------- dance-double - Fred-104 ----------------
#NOTEDATA:;
#STEPSTYPE:dance-double;
#DESCRIPTION:Fred-104;
#DIFFICULTY:Easy;
#METER:6;
#CREDIT:Fred-104;
#NOTES:
00000000
00000000
00000000
00000000
,
00000000
00000000
00000000
00000000
,
00000000
00000000
00000000
00000000
,
00000000
00000000
00000000
00000000
,
00000000
00000000
00000000
00000000
,
00000000
00000000
00000000
00000000
,
10000000
00000000
00000000
00000000
,
00010000
00000000
01000000
00100000
,
02000000
00000000
00200000
00000000
,
03300000
00000000
00000000
00000000
,
10000000
00000000
00000000
01000000
00000000
00000000
00100000
00000000
,
00000000
00001000
00000000
00000000
00010000
00000000
00000000
00000000
,
00001000
00000000
00000000
00000010
00000000
00000000
00000100
00000000
,
00000001
00000001
00001000
00000001
,
00000001
00000000
00000000
00000100
00000000
00000000
00000001
00000000
,
00000000
00000100
00000000
00000000
00000010
00000000
00000000
00000000
,
00001001
00000000
00000100
00000000
,
00011000
00000000
01000000
00000000
,
00010000
00000000
10000000
00000000
,
00100000
01000000
00100000
00000000
,
00100000
00000000
10000000
00000000
,
00100000
00010000
00001000
00010000
,
00001000
00000000
00000010
00000000
,
00000001
00000100
00000001
00000000
,
00000100
00000000
00000010
00000000
,
00000001
00000001
00000100
00000010
,
00010000
00000000
00001000
00000000
,
00100000
00010000
01000000
00100000
,
01000000
00000000
00010000
00000000
,
01000000
00100000
10000000
10000000
,
00010000
00000000
01000000
00000000
,
00100000
10000000
01000000
00000000
,
00010000
00000000
00001000
00000000
,
00022000
00000000
00000000
00033000
,
00010000
00000000
00001000
00000000
,
00000100
00000010
00000001
00000000
,
00000100
00000000
00000001
00000000
,
00000100
00000010
00001000
00000000
,
00000100
00000000
00010000
00000000
,
00000100
00010000
00001000
00000000
,
00002000
00000000
02003000
00000000
,
03002000
00000000
00023000
00000000
,
00030000
00000000
00000000
00000000
,
00011000
00000000
00000000
00000000
,
00000001
00000000
00000000
00000100
00000000
00000000
00000010
00000000
,
00000000
00000100
00000000
00000000
00000001
00000000
00000100
00000000
,
00001000
00000000
00000000
00010000
00000000
00000000
00010000
00000000
,
00001000
00001000
00010000
00010000
,
00001000
00000000
00000000
00100000
00000000
00000000
00010000
00000000
,
00000000
01000000
00000000
00000000
00100000
00000000
10000000
00000000
,
10010000
00000000
01000000
00000000
,
00011000
00000000
00000100
00000000
,
00001001
00000000
00000000
00000001
00000000
00000000
00000100
00000000
,
00000000
00000010
00000000
00000000
00001000
00000000
00001000
00000000
,
00000100
00000000
00000000
00000010
00000000
00000000
00000001
00000000
,
00000001
00000100
00000100
00001000
,
00010000
00000000
00000000
01000000
00000000
00000000
00100000
00000000
,
00000000
10000000
00000000
00000000
01000000
00000000
00100000
00000000
,
10010000
00000000
00100000
00000000
,
00011000
00000000
00000010
00000000
,
00000100
00000000
00000001
00000000
,
00000100
00000001
00000100
00000100
,
00000010
00000000
00010000
00000000
,
00001000
00010000
00001000
00010000
,
00001000
00000000
00100000
00000000
,
00010000
10000000
00100000
01000000
,
00020000
00000000
20030000
00000000
,
32000000
00000000
03200000
00000000
,
00301000
00000000
00010000
00000000
,
00001000
00000000
00000100
00000010
,
00000100
00000000
00000001
00000000
,
00000100
00000000
00001000
00010000
,
01000000
00000000
00100000
00000000
,
10000000
00000000
01000000
00100000
,
00001000
00000000
00010000
00000000
,
00001000
00000001
00000100
00000010
,
00000220
00000000
00000000
00000000
,
00000000
00000000
00000000
00000330
,
00022000
00000000
00000000
00000000
,
00000000
00000000
00000000
00033000
,
02200000
00000000
00000000
00000000
,
00000000
00000000
00000000
03300000
,
20020000
00000000
00000000
00000000
,
00000000
00000000
00000000
00000000
,
00000000
00000000
00000000
00000000
,
00000000
00000000
00000000
00000000
,
30030000
00000000
00000000
00000000
;

//--------------- dance-double - Fred-104 ----------------
#NOTEDATA:;
#STEPSTYPE:dance-double;
#DESCRIPTION:Fred-104;
#DIFFICULTY:Medium;
#METER:10;
#CREDIT:Fred-104;
#NOTES:
00000000
00000000
00000000
00000000
,
00000000
00000000
00000000
00000000
,
00000000
00000000
00000000
00000000
,
00000000
00000000
00000000
00000000
,
00000000
00000000
00000000
00000000
,
00000000
00000000
00000000
00000000
,
00000001
00000100
00000001
00000100
00000000
00000010
00001000
00000100
,
00000000
00000000
00000000
00010000
00000000
00000000
00001000
00000000
00000000
01000000
00000000
00000000
00010000
00000000
00000000
00000000
00010000
00000000
00000000
00000000
01000000
00000000
00000000
00000000
,
00200000
00000000
02000000
00000000
,
03300000
00000000
00000000
00000000
,
10000000
01000000
00000000
01000000
00100000
00000000
00100000
00001000
,
00000000
00001000
00010000
00000000
00001000
00000000
00000010
00000000
,
00000001
00000010
00000000
00000010
00000100
00000000
00001000
00000000
,
00000002
00000103
00002000
00003100
,
00000001
00000100
00000000
00000100
00001000
00000000
00001000
00010000
,
00000000
00010000
01000000
00000000
10000000
00000000
00010000
00000000
,
10010000
10000000
01100000
00100000
,
00011000
00001000
00000110
00000001
,
00000001
00000100
00000000
00000000
00000100
00000010
00000000
00000000
,
00000010
00010000
00000000
00000000
00010000
00001000
00000000
00000000
,
00001000
01000000
00000000
00000000
01000000
00010000
00000000
00000000
,
00010000
10000000
00000000
00000000
10000000
00010000
00000000
00000000
,
01000000
00100000
00000000
00000000
00010000
00001000
00000000
00000000
,
00000100
00000010
00000000
00000000
00000001
00000100
00000000
00000000
,
00000011
00000000
00001010
00000000
,
00011000
00000000
10010000
00000000
,
01000000
00100000
01000000
00010000
,
10000000
01000000
00010000
00001000
,
00010000
00001000
00000100
00000001
,
00000100
00000010
00001000
00000020
00000000
00000000
00000000
00000000
,
00000130
00000001
00000100
00000100
,
00000001
00000010
00001000
00010000
,
00001000
00000000
00010000
00100000
00000000
10000000
00000000
20020000
,
00000000
00000000
00000000
30030000
,
10000000
01000000
10000000
00100000
01000000
00010000
00000000
01000000
,
00010000
00000000
00000000
00022000
00000000
00000000
00033000
00000000
,
00010000
00000100
00001000
00000100
00001000
00000010
00000000
00000100
,
00000001
00000000
00000000
00002002
00000000
00000000
00003003
00000000
,
00000001
00000100
00000001
00000100
00000010
00000100
00000000
00000010
,
00001000
00000000
00000000
00002200
00000000
00000000
00003300
00000000
,
00000001
00000100
00000010
00001000
,
00010000
01000000
00100000
10000000
,
00000000
00000000
00000000
00000000
,
10010000
00000000
00000000
00000000
,
10000000
01000000
00000000
00100000
01000000
00000000
00100000
00010000
,
00000000
00001000
00010000
00000000
00000010
00000000
00001000
00000000
,
00000010
00000100
00000000
00000010
00001000
00000000
00000001
00000000
,
00000200
00001300
00000200
00000301
,
00000100
00000010
00000000
00000010
00001000
00000000
00000001
00000100
,
00000000
00000100
00001000
00000000
00010000
00000000
00001000
00000000
,
00101000
00001000
00011000
00010000
,
00010010
00000010
00001010
00001000
,
00000001
00000010
00000000
00000100
00000010
00000000
00000001
00000100
,
00000000
00000100
00001000
00000000
00010000
00000000
01000000
00000000
,
00100000
01000000
00000000
00100000
10000000
00000000
00100000
00000000
,
02000000
03010000
02000000
13000000
,
00100000
10000000
00000000
00100000
01000000
00000000
00100000
00001000
,
00000000
00010000
00000010
00000000
00001000
00000000
00000001
00000000
,
00001001
00000100
00000110
00000010
,
00010010
00001000
00101000
00010000
,
01000000
00100000
00000000
01000000
00100000
01000000
00000000
00100000
,
10000000
01000000
10000000
02000000
00000000
00000000
00000000
00000000
,
03100000
00001000
00000000
00010000
00001000
00010000
00000000
00000100
,
00002000
00003200
00000320
00000032
,
00000103
00000010
00000000
00000100
00000001
00000100
00000000
00000010
,
00001000
00010000
00001000
00000200
00000000
00000000
00000300
00000000
,
00000001
00000010
00000100
00001000
,
00010000
00100000
01000000
10000000
,
00010000
01000000
00100000
10000000
,
00100000
00000000
10000000
00000000
00010000
01000000
00010000
00000000
,
10000000
01000000
01000000
00100000
,
00001000
00000000
00010000
00000000
00001000
01000000
00001000
00000000
,
00010000
00001000
00001000
00000010
,
00000100
00000000
00000001
00000000
00000100
00000010
00000100
00000000
,
00001001
00000100
00000110
00001000
,
00011000
00000000
00001000
00000000
00100000
00010000
10000000
00000000
,
20020000
00000000
00000000
00000000
00000000
30030000
00000000
02000000
,
00000000
00000000
00000000
03000000
,
00200000
00000000
00000000
00000000
00000000
00300000
00000000
00020000
,
00000000
00000000
00000000
00030000
,
00002000
00000000
00000000
00000000
00000000
00003000
00000000
00000020
,
00000000
00000000
00000000
00000030
,
00002002
00000000
00000000
00000000
,
00000000
00000000
00000000
00000000
,
00000000
00000000
00000000
00000000
,
00000000
00000000
00000000
00000000
,
00003003
00000000
00000000
00000000
;

//--------------- dance-double - Fred-104 ----------------
#NOTEDATA:;
#STEPSTYPE:dance-double;
#DESCRIPTION:Fred-104;
#DIFFICULTY:Hard;
#METER:15;
#CREDIT:Fred-104;
#NOTES:
00000000
00000000
00000000
00000000
,
00000000
00000000
00000000
00000000
,
00000000
00000000
00000000
00000000
,
00000000
00000000
00000000
00000000
,
00000000
00000000
00000000
00000000
,
00000000
00000000
00000000
00000000
,
00010000
00001000
00100000
00001000
00000000
00010000
00000010
00001000
,
00000000
00000000
00000000
00000100
00000000
00000000
00010000
00000000
00000000
00001000
00000000
00000000
00000010
00000000
00000000
00000000
00000001
00000000
00000000
00000000
00001000
00000000
00000000
00000000
,
00000020
00000000
00020030
00000000
,
00031000
00000000
00000000
00000000
00000000
00000000
00000000
00000000
00000000
00000000
00000000
00000000
00100000
00010000
00100000
00010000
,
00100000
00110000
00000000
00010000
10010000
00000000
10000000
11000000
,
00000000
00000000
01000000
00000000
00100000
00000000
00001000
00000000
00010000
00000000
00001000
00010000
00001000
00000000
00010000
00000000
,
00000100
00001100
00000000
00000100
00000110
00000000
00000010
00000001
,
00000101
00001100
00011000
01010000
,
10000000
11000000
00000000
00010000
01010000
00000000
01000000
01100000
,
00000000
00000000
00100000
00000000
10000000
00000000
00100000
00000000
00010000
00000000
00001000
00010000
00001000
00000000
00010000
00000000
,
00011000
00100000
00011000
00000010
,
00011000
01000000
00011000
00000100
,
00000001
00000011
00000000
00001000
00001010
00001000
00000000
00000001
,
00000101
00000001
00000000
00000100
00000110
00000100
00000000
00000100
,
00001100
00000100
00000000
00010000
00011000
00010000
00000000
00001000
,
00101000
00001000
00000000
01000000
01100000
01000000
00100000
10000000
,
01000000
00000000
00100000
00010000
00100000
00000000
01000000
00000000
10000000
00000000
00010000
01000000
00010000
00000000
00100000
00000000
,
00001000
00000000
00010000
00001000
00010000
00000000
00000010
00000000
00001000
00000000
00000001
00000100
00000001
00000000
00000100
00000000
,
00000101
00000001
00000000
00000000
00001100
00001000
00000000
00000000
,
00110000
00010000
00000000
00000000
10100000
10000000
00000000
00000000
,
00020000
00100000
01000000
00230000
00000000
00310000
10000000
02000000
,
00000000
00100000
03100000
00001000
00010000
00001000
00000010
00001000
,
00020000
00001000
00001000
00031000
00000000
00010100
00000000
00001100
,
00000000
00000000
00000101
00000000
00000100
00000000
00000010
00000000
00001000
00000000
00000001
00000000
00000010
00000100
00000010
00000100
,
00000020
00000001
00000001
00000031
00002000
00000100
00000100
00003100
,
00020000
00001000
00001000
00031000
02000000
00010000
00010000
03010000
,
10000000
00100000
01000000
01100000
00000000
00011000
00000000
00000220
,
00000000
00000000
00000000
00000330
,
00000001
00000000
00000100
00000000
00000010
00000000
00001000
00000000
00000100
00000000
00000010
00000001
00000010
00000000
00001000
00000000
,
00000100
00010000
00020000
00002000
00000000
00000000
00033000
00000000
,
00100000
00000000
00010000
00000000
00100000
00000000
01000000
00000000
00100000
00000000
00010000
10000000
00010000
00000000
01000000
00000000
,
00200000
10000000
01000000
02000000
00000000
00000000
03300000
00000000
,
00010000
00000000
00001000
00000000
00010000
00000000
00001000
00000000
00000100
00000000
00000001
00000100
00000001
00000000
00000010
00000000
,
00000200
00001000
00000010
00000020
00000000
00000000
00000330
00000000
,
00000001
00000010
00000100
00001000
,
00010000
00100000
01000000
10000000
,
00000000
00000000
00000000
00000000
,
00011000
00000000
00000000
00000000
00000000
00001000
00000010
00000100
,
00000001
00000100
00000001
00000000
00000100
00000000
00000010
00001000
00000010
00000000
00000100
00000000
00000001
00000010
00000001
00000000
,
00001000
00000000
00000010
00000100
00000010
00000000
00001000
00000000
00000100
00000000
00010000
00001000
00010000
00000000
00001000
00000000
,
01000000
00100000
01000000
00000000
00010000
00000000
10000000
01000000
10000000
00000000
01000000
00000000
00100000
00010000
00100000
00000000
,
00110000
00010000
00011000
00000000
00001010
00001000
00011000
00000000
,
00010000
00001000
00010000
00000000
00001000
00000000
00000100
00000010
00000100
00000000
00000001
00000000
00000100
00000010
00000100
00000000
,
00001000
00000000
00000001
00000100
00000001
00000000
00001000
00000000
00000010
00000000
00000100
00000010
00000100
00000000
00000001
00000000
,
00001001
00000010
00011000
00100000
,
10010000
01000000
00011000
00000100
,
00000001
00000010
00000100
00000000
00001000
00000000
00000010
00000100
00000001
00000000
00001000
00000000
00000010
00000100
00000010
00000000
,
00001000
00000000
00000100
00010000
00001000
00000000
00100000
00000000
00010000
00000000
01000000
00100000
01000000
00000000
00010000
00000000
,
10000000
01000000
00100000
00000000
00001000
00000000
00010000
00100000
00010000
00000000
00001000
00000000
00010000
00000100
00001000
00000000
,
00001100
00000100
00000101
00000000
00000011
00000010
00001010
00000000
,
00001000
00000001
00001000
00000000
00000010
00000000
00000100
00000001
00000010
00000000
00000100
00000000
00010000
00001000
00010000
00000000
,
00001000
00000000
00100000
00010000
10000000
00000000
00010000
00000000
01000000
00000000
01000000
00100000
01000000
00000000
00100000
00000000
,
10010000
01000000
00011000
00000100
,
00001001
00000010
00011000
00100000
,
11000000
01000000
00000000
00100000
00101000
00001000
00000000
00001000
,
00011000
00010000
00000100
00002000
00000000
00003010
00000100
00000001
,
00000101
00000100
00000000
00000010
00001010
00001000
00000000
00000001
,
00000011
00001010
00011000
00110000
,
10000000
11000000
00000000
00100000
01100000
01000000
00000000
00100000
,
00110000
00010000
00001000
00001200
00000000
00000310
00000001
00001000
,
00001100
00000101
00000011
00001010
,
00011000
01010000
11000000
10010000
,
00010000
00100000
00010000
00100000
01000000
00100000
10000000
00100000
,
01000000
00010000
10000000
01000000
00010000
00001000
00010000
00001000
,
00000100
00000001
00001000
00000100
00000010
00000001
00000100
00000010
,
00001010
00001000
00000100
00000000
00000011
00000001
00000100
00000000
,
00000010
00001000
00000100
00001000
00000001
00000100
00001000
00010000
,
01000000
10000000
00010000
00100000
10000000
00100000
00010000
00001000
,
00011000
00010000
00000100
00000000
00011000
00001000
01000000
00000000
,
00011000
00010000
00000010
00001000
00001001
00000001
00000100
00000010
,
00000220
00000000
00000000
00000000
00000000
00000030
00000000
00000302
,
00000000
00000000
00000000
00002003
00000000
00000000
00003020
00000000
,
00020030
00000000
00000000
00000000
00000000
00000000
00000000
00002000
,
00000000
00000000
00000000
00033000
,
00020020
00000000
00000000
00000000
00000000
00030030
00000000
00202000
,
00000000
00000000
00000000
00303000
,
00022000
00000000
00000000
00000000
,
00000000
00000000
00000000
00000000
,
00000000
00000000
00000000
00000000
,
00000000
00000000
00000000
00000000
,
00033000
00000000
00000000
00000000
;
