#TITLE:Flow;
#ARTIST:NUU$HI;
#ARTISTTRANSLIT:NUUSHI;
#BANNER:Flow.png;
#BACKGROUND:Flow-bg.png;
#CDTITLE:./CDTitles/DANCERUSH STARDOM.png;
#MUSIC:Flow.ogg;
#SAMPLESTART:70.286;
#SAMPLELENGTH:15;
#BPMS:0=140;
#BGSTAGE:15;

//--------------- dance-single - Fred-104 ----------------
#NOTES:
     dance-single:
     Fred-104:
     Beginner:
     2:
     :
0000
0000
0000
0000
,
0000
0000
0000
0000
,
0000
0000
0000
0000
,
0000
0000
0000
0000
,
0000
0000
0000
0000
,
1000
0000
0000
2000
,
0000
0000
3000
0001
,
0000
0000
0002
0000
,
0000
0000
0003
0000
,
1000
0000
0000
0000
,
1000
0000
0000
0000
,
0100
0000
0000
0000
,
0001
0000
0000
0000
,
0100
0000
0000
0000
,
0010
0000
0000
0000
,
0100
0000
0000
0000
,
2000
0000
0000
3000
,
2002
0000
0000
3003
,
0001
0000
1000
0000
,
0001
0000
1000
0000
,
0001
0000
1000
0000
,
0001
0000
0001
0000
,
0100
0000
0010
0000
,
0010
0000
0100
0000
,
1000
0000
0100
0000
,
0002
0003
0001
0000
,
1000
0000
1000
0000
,
0001
0000
0001
0000
,
1000
0000
1000
0000
,
0001
0000
0010
0000
,
0010
0000
1000
0000
,
0100
0000
0100
0000
,
0001
0000
0001
0000
,
2000
0000
0000
3000
,
0002
0000
0000
0003
,
2000
0000
0000
3000
,
0002
0000
0000
0003
,
1000
0000
1000
0000
,
0001
0000
0001
0000
,
1000
0000
1000
0000
,
0001
0000
1001
0000
,
1000
0000
1000
0000
,
0100
0000
0100
0000
,
0001
0000
0100
0000
,
0100
0000
1000
0000
,
0001
0000
0001
0000
,
0100
0000
0100
0000
,
0001
0000
0001
0000
,
1000
0000
0001
0000
,
1000
0000
1000
0000
,
0010
0000
0010
0000
,
0001
0000
0001
0000
,
0010
0000
0200
0000
,
0000
0300
0010
0000
,
1000
0000
1000
0000
,
0001
0000
0001
0000
,
1000
0000
1000
0000
,
0002
0000
0000
0003
,
2000
0000
0000
3000
,
0002
0000
0000
0003
,
2000
0000
0000
3000
,
2002
0000
0000
0000
,
0000
0000
0000
0000
0000
0000
0000
3003
;

//--------------- dance-single - Fred-104 ----------------
#NOTES:
     dance-single:
     Fred-104:
     Easy:
     5:
     :
0000
0000
0000
0000
,
0000
0000
0000
0000
,
0000
0000
0000
0000
,
0000
0000
0000
0000
,
0000
0000
0000
0000
,
1000
0000
0000
0001
0000
0000
1001
0000
,
0000
0000
1000
0010
,
0100
0000
0000
0001
0000
0000
2002
0000
,
0000
0000
0000
3003
,
0001
0000
0001
0000
,
0010
0000
0010
0000
,
1000
0000
1000
0000
,
0100
0000
0100
0000
,
0001
0000
1000
0000
,
0100
0000
0010
0000
,
0001
0001
1000
1000
,
0010
0010
0100
0100
,
2002
0000
0000
3003
,
1000
1000
0100
0001
,
0100
0010
0100
1000
,
0001
0100
0001
0000
,
0001
0001
1000
0001
,
0100
0100
0010
0100
,
1000
1000
0100
0001
,
1000
0001
1000
0001
,
0000
1000
1001
0000
,
0001
0010
0001
0010
,
0100
1000
0010
1000
,
0001
0010
0001
0000
,
1000
1000
0100
0010
,
0100
0001
0100
0100
,
1000
0001
0100
0010
,
0100
0001
1000
0000
,
2000
0000
0000
0000
,
3200
0000
0000
0000
,
0320
0000
0000
0000
,
0032
0000
0000
1003
,
0001
0010
0100
0000
,
1000
0010
0100
0000
,
0001
0001
1000
1000
,
0001
1000
1001
0000
,
1000
0100
0010
0000
,
0001
0100
0010
0000
,
1000
0010
0100
0000
,
0001
0010
0100
0000
,
1000
0010
0001
0001
,
0010
1000
1001
0000
,
0001
0010
1000
0010
,
0001
1000
1001
0000
,
1000
0100
0010
0010
,
0001
1000
1001
0000
,
1000
1000
0001
0010
,
0001
1000
0001
2000
,
0000
3000
1001
0000
,
0001
0100
0001
0000
,
0100
1000
1000
0000
,
1000
0010
0001
0000
,
2000
0000
0000
0000
,
3002
0000
0000
0000
,
2003
0000
0000
0000
,
0002
0000
3000
0003
,
2002
0000
0000
0000
,
0000
0000
0000
0000
0000
0000
0000
3003
;

//--------------- dance-single - Fred-104 ----------------
#NOTES:
     dance-single:
     Fred-104:
     Medium:
     11:
     :
0000
0000
0000
0000
,
0000
0000
0000
0000
,
0000
0000
0000
0000
,
0000
0000
0000
0000
,
0000
0000
0000
0000
,
0001
0000
0000
1000
0000
0000
0010
0000
0000
1000
0000
0000
1001
0000
0000
0000
,
0001
1000
0010
0000
1000
0001
0010
0000
,
0100
0000
0000
1000
0000
0000
0001
0000
0000
1000
0000
0000
2020
0000
0000
0000
,
0000
0000
0000
3030
0001
1000
0001
0000
,
1000
1000
0100
0100
,
0001
0001
0010
0010
,
1000
1000
0001
0001
,
0010
0000
0010
0000
0100
1000
0100
0000
,
1000
0010
1000
0000
0001
0010
0001
0000
,
1000
0100
1000
0000
0001
0100
0001
0000
,
0010
0100
0010
0100
1000
0001
1000
0001
,
0100
0000
0010
0000
1000
0000
0100
0000
1000
0001
1000
0001
2000
0000
3000
0000
,
1001
0000
0000
0110
0000
0000
1001
0000
0000
0001
1000
0001
,
1000
0000
0000
1000
0100
0000
0000
0100
0010
0000
0000
0010
0001
0000
1000
0000
,
0010
0000
0000
0010
0100
0000
0000
0100
0001
0000
0000
0001
1000
0000
0001
0000
,
0010
0000
0000
0000
0000
0000
0100
0000
0000
0000
0100
0000
1000
0000
0001
0000
1000
0000
0010
0000
0000
0100
0000
0000
,
0001
0000
0001
0000
0001
0000
0010
0000
0100
0000
0000
0100
0001
0000
0100
0000
,
1000
0000
0000
1000
0001
0000
0000
0001
1000
0000
0000
1000
0100
0000
0010
0000
,
0001
0000
0000
0000
1001
0000
0000
1000
0010
0000
0000
1000
0001
0000
0010
0000
,
0100
0000
0000
0100
0010
0000
0001
0000
0010
0000
0100
0000
1000
0000
1000
0000
,
0000
0001
0001
0000
1001
0000
1000
0010
,
1000
0000
0000
1000
0001
0000
0000
0001
0010
0000
0000
0010
0100
0000
0010
0000
,
0001
0000
0000
0001
1000
0000
0000
0010
1000
0000
0000
0001
1000
0000
0100
0000
,
0010
0000
0000
0000
0000
0000
0001
0000
0000
0000
0001
0000
1000
0000
0010
0000
1000
0000
0001
0000
0000
0001
0000
0000
,
0010
0000
0000
0010
0100
0000
0000
0100
0010
0000
0000
0010
0001
0000
1000
0000
,
0010
0000
0000
0010
0100
0000
0000
0100
0010
0000
0000
0010
1000
0000
1000
0000
,
0001
0000
0000
0001
0010
0000
0100
0000
1000
0000
0001
0000
0100
0000
0010
0000
,
1000
0000
0000
1000
0100
0000
0010
0000
0100
0000
1000
0000
1001
0000
0000
0000
,
1000
1000
0100
0100
,
0001
0001
0010
0010
,
1000
1000
0100
0100
,
0010
0000
0010
0000
0001
2000
3002
0003
,
0010
0000
0000
0100
0000
0000
1000
0000
0000
0001
0000
0000
0100
0000
0010
0000
,
1000
0000
0000
0001
0000
0000
0010
0000
0000
0100
0000
0000
0010
0000
0001
0000
,
1000
0010
0001
0010
1000
0100
0001
0100
,
1000
0001
1000
0001
1000
0001
1000
0001
1000
0000
0000
0000
0000
0000
0000
0000
,
0001
0010
0100
1000
1100
0000
0001
1000
,
0010
1000
0001
0010
0011
0000
0001
1000
,
0100
0010
0100
1000
1100
0000
0001
1000
,
0100
0010
1000
0010
0001
1000
1001
0000
,
0001
0100
1000
0100
0001
1000
1001
0000
,
1000
0010
0100
0001
0010
0100
0110
0000
,
0100
1000
0010
1000
0001
0000
1000
0100
,
0001
0100
0010
0100
1100
0000
0001
1000
,
0001
0100
0010
1000
1010
0000
0001
1000
,
0100
1000
0001
0100
0110
0000
1000
0010
,
1000
0001
0100
0010
1010
0000
0001
0010
,
0001
0000
0000
1000
0000
0000
0010
0000
0000
0100
0000
0000
1000
0000
0000
0100
0000
0000
0001
0000
0000
0000
0001
0000
,
0000
0000
0001
0000
0000
0000
1000
0000
0000
0000
0000
0000
1001
0000
0000
0000
0000
0000
0001
0000
0000
1000
0000
0000
,
0010
1000
0100
1000
0010
0010
0100
0001
,
1000
0100
0010
0001
1001
0000
0001
1000
,
0010
0100
0010
1000
0100
0010
0002
0003
,
2001
0000
0000
0000
,
3002
0000
0000
0000
,
2003
0000
0000
0000
,
3020
0000
0230
0301
,
2002
0000
0000
0000
,
0000
0000
0000
0000
0000
0000
0000
3003
;

//--------------- dance-single - Fred-104 ----------------
#NOTES:
     dance-single:
     Fred-104:
     Hard:
     14:
     :
0000
0000
0000
0000
,
0000
0000
0000
0000
,
0000
0000
0000
0000
,
0000
0000
0000
0000
,
0000
0000
0000
0000
,
1100
0000
0000
0001
0000
0000
1000
0000
0000
0010
0000
0000
0110
0000
0000
0000
,
0001
0000
1000
0100
0000
1000
0100
0000
0010
0001
0000
0010
0001
0000
1000
0000
,
1010
0000
0000
0001
0000
0000
1000
0000
0000
0100
0000
0000
0220
0000
0000
0000
,
0000
0000
0000
0330
0001
0010
1000
0010
,
0100
0100
0100
0100
,
1000
1000
1000
1000
,
0001
0001
0001
0001
,
0100
0000
0100
0000
0100
0010
0100
0000
,
0001
0000
1000
0100
0000
1000
0100
0000
0010
0001
0000
0010
0001
0000
1000
0000
,
0001
0000
0100
0010
0000
0100
0010
0000
1000
0001
0000
1000
0001
0000
0100
0000
,
0001
0000
1000
0010
0000
1000
0010
0000
0100
0001
0000
0100
0001
0000
1000
0000
,
0001
1000
0001
0000
1000
0001
1000
0000
0100
0010
0100
0010
0002
0000
2003
3000
,
1010
0000
0000
0000
0000
0000
0000
0000
0000
0000
0000
0000
0001
0000
0000
0010
0000
0000
0000
0000
0000
0010
0000
0000
0100
0000
0000
0000
0000
0000
0000
0000
0000
0000
0000
0000
0100
0000
0000
0000
1000
0000
0000
0000
0001
0000
0000
0000
,
0100
0000
1000
0000
1100
0000
0000
0100
0010
0000
0000
1000
0100
0000
0010
0000
,
0011
0000
0000
1000
0010
0000
0000
0100
0001
0000
0000
1000
0001
0000
0010
0100
,
0010
0000
0000
0000
0000
0000
0000
0000
0000
0001
0000
0000
1000
0000
0000
0000
0010
0000
0000
0000
1000
0000
0000
0000
0001
0000
0000
0000
0010
0000
0000
0000
0100
0000
0000
0000
1000
0000
0000
0000
0010
0000
0000
0000
0100
0000
0000
0000
,
0001
0100
0001
0100
0001
0000
1000
0100
1000
0100
0000
0100
0010
0000
0001
0000
,
1000
0000
0010
0000
0110
0000
0000
0001
0100
0000
0000
0001
0010
0100
0010
0100
,
1000
0000
0000
0000
1001
0000
0000
1000
0010
0000
0000
1000
0001
0010
0001
0010
,
0100
0000
0000
0100
1000
0001
1000
0001
1000
0000
0001
0100
0010
0100
0010
0000
,
0000
0000
1001
0000
1001
0000
0000
1000
0100
0000
0000
0010
0002
0000
2003
0000
,
3010
0000
1000
0001
0010
0000
0000
0100
0010
0000
0000
0001
2000
0000
3020
0000
,
0130
0000
0000
0001
1000
0000
0000
0100
0001
0000
0000
0100
1000
0000
0001
0100
,
0001
0000
0000
0000
0000
0000
0000
0000
0000
1000
0000
0000
0100
0000
0000
0000
0010
0000
0000
0000
0001
0000
0000
0000
1000
0000
0000
0000
0010
0000
0000
0000
0100
0000
0000
0000
0010
0000
0000
0000
1000
0000
0000
0000
0100
0000
0000
0000
,
0010
0001
0000
0001
1000
0000
0000
0010
1000
0000
0000
0100
0020
0000
0032
0000
,
1003
0000
0100
0010
0100
0000
0000
0001
0100
0000
0000
1000
0001
1000
0010
1000
,
0010
0000
0000
1000
0001
0010
0000
0000
0100
0010
0100
0000
0010
0001
0010
0001
,
1000
0000
0000
0001
1000
0100
1000
0000
0001
1000
0010
0000
0100
0001
1000
0000
,
0001
0000
0010
0100
0000
0100
1000
0000
1000
0001
0000
0001
1000
0000
0010
0000
,
1000
0000
0001
0100
0000
0100
0010
0000
0010
1000
0000
1000
0001
0000
0010
0000
,
0001
0000
1000
0100
0000
0100
1000
0000
0001
1000
0000
1000
0010
0000
1000
0000
,
0001
0000
0100
0010
0000
0010
0100
0000
0001
1000
0000
1000
0100
1000
0100
1000
,
0100
0000
0010
0001
0000
1000
0010
0000
0100
0001
0000
1000
0001
0000
1000
0000
,
0001
0000
0010
0100
0000
1000
0001
0000
0100
0001
0000
1000
0010
0000
1000
0000
,
0001
0100
0010
1000
0100
0010
0100
1000
,
0001
1000
0001
1000
0001
1000
0001
1000
0002
0000
0203
0000
0320
0000
2030
0000
,
3001
0000
0010
0000
0100
0000
1000
0001
1000
0010
1000
0000
0002
0000
2003
0000
,
3100
0000
0010
0000
0001
0000
1000
0010
1000
0001
1000
0000
0020
0000
0230
0000
,
0301
1000
0001
0000
0010
0000
0100
1000
0100
1000
0100
0000
2000
0000
3002
0000
,
0203
0000
2300
0000
3100
0000
0010
1000
0010
1000
0010
0000
1000
0001
2000
0000
,
3001
0000
0010
0000
0100
0000
1000
0001
0100
0001
1000
0000
0200
0000
0320
0000
,
0130
0000
1000
0000
0001
0000
1000
0010
1000
0001
1000
0010
2000
0000
3002
0000
,
0013
0000
0100
0000
0001
0000
0100
1000
0100
1000
0100
0000
2000
0000
3002
0000
,
0203
0000
2300
0000
3001
0000
0010
0100
0010
0100
0010
0000
2000
0000
3002
0000
,
1003
0100
1000
0000
0001
0000
0010
0100
1000
0100
1000
0000
0001
0100
0002
0000
,
1003
0010
1000
0000
0001
0000
0100
0010
0100
0010
1000
0000
0001
0010
0002
0000
,
1003
0010
1000
0000
0001
0000
0010
0100
1000
0100
1000
0000
0001
1000
0002
0000
,
0013
0000
0000
0100
0000
0000
0010
0000
0000
0000
0000
0000
0001
0000
0000
0000
0000
0000
1000
0000
0000
0010
0000
0000
1000
0000
0000
0010
0000
0000
0200
0000
0000
0000
0000
0000
0010
0000
0000
0000
0000
0000
0000
0000
0010
0000
0000
0000
,
0000
0000
0000
0000
0310
0000
0000
0000
0000
0000
0000
0000
1000
0000
0000
0000
0001
0000
0000
0000
1000
0000
0000
0000
0001
0000
0000
0000
0000
0000
0001
0000
0000
0000
0000
0000
0010
0000
0000
0100
0000
0000
2000
0000
0000
0000
0000
0000
,
3001
0100
0001
0000
1000
0000
0010
1000
0001
1000
0001
1000
0100
0010
0100
0010
,
0001
1000
0001
0000
0100
0000
0001
1000
0100
0010
0100
0000
0010
0100
2000
0000
,
3001
0100
0020
0000
1030
0000
0001
0010
0001
1000
0010
0000
0002
0000
2003
3000
,
1200
0000
0000
0000
,
0302
0000
0000
0000
,
2003
0000
0000
0000
,
3200
0000
0320
0031
,
2002
0000
0000
0000
,
0000
0000
0000
0000
0000
0000
0000
3003
;

//--------------- dance-double - Fred-104 ----------------
#NOTES:
     dance-double:
     Fred-104:
     Easy:
     5:
     :
00000000
00000000
00000000
00000000
,
00000000
00000000
00000000
00000000
,
00000000
00000000
00000000
00000000
,
00000000
00000000
00000000
00000000
,
00000000
00000000
00000000
00000000
,
10000000
00000000
00000000
00010000
00000000
00000000
10010000
00000000
,
00000000
00000000
10000000
01000000
,
00100000
00000000
00000000
00010000
00000000
00000000
20020000
00000000
,
00000000
00000000
00000000
30030000
,
10000000
00000000
10000000
00000000
,
00100000
00000000
00100000
00000000
,
00010000
00000000
00010000
00000000
,
00001000
00000000
00001000
00000000
,
00000100
00000000
00000100
00000000
,
00000001
00000000
00000001
00000000
,
00000010
00000010
00000100
00000100
,
00010000
00010000
00001000
00001000
,
00022000
00000000
00000000
00033000
,
00001000
00010000
00100000
01000000
,
00010000
01000000
00100000
10000000
,
01000000
00100000
00001000
00000000
,
00010000
00001000
00000100
00001000
,
00010000
00001000
00010000
00000100
,
00000010
00000001
00001000
00000010
,
00001000
00000010
00010000
00001000
,
00000000
00001000
00011000
00000000
,
00001000
01000000
00010000
01000000
,
00100000
10000000
00010000
00100000
,
01000000
00100000
00001000
00000000
,
00010000
00001000
00000010
00000100
,
00001000
00000001
00000100
00000001
,
00000100
00001000
00010000
00001000
,
01000000
00001000
00010000
00000000
,
00002000
00000000
00000000
00000000
,
00023000
00000000
00000000
00000000
,
00032000
00000000
00000000
00000000
,
00023000
00000000
00000000
00031000
,
00010000
00001000
01000000
00000000
,
00010000
10000000
00010000
00000000
,
10000000
10000000
01000000
01000000
,
00010000
00001000
00011000
00000000
,
00010000
00001000
00000010
00000000
,
00000001
00001000
00000001
00000000
,
00000010
00000100
00001000
00000000
,
00000001
00000100
00001000
00000000
,
00010000
00001000
00010000
00010000
,
00001000
01000000
01100000
00000000
,
00010000
10000000
10000000
01000000
,
00100000
00001000
00011000
00000000
,
00010000
00001000
00000010
00000100
,
00000010
00000001
00001001
00000000
,
00000001
00001000
00000100
00010000
,
00000100
00010000
00001000
00020000
,
00000000
00030000
00011000
00000000
,
00001000
00010000
00100000
00000000
,
01000000
00010000
10000000
00000000
,
10000000
00100000
00010000
00000000
,
00002000
00000000
00000000
00000000
,
00023000
00000000
00000000
00000000
,
00030020
00000000
00000000
00000000
,
00002030
00000000
00000000
00003000
,
00002002
00000000
00000000
00000000
,
00000000
00000000
00000000
00000000
00000000
00000000
00000000
00003003
;

//--------------- dance-double - Fred-104 ----------------
#NOTES:
     dance-double:
     Fred-104:
     Medium:
     11:
     :
00000000
00000000
00000000
00000000
,
00000000
00000000
00000000
00000000
,
00000000
00000000
00000000
00000000
,
00000000
00000000
00000000
00000000
,
00000000
00000000
00000000
00000000
,
00000001
00000000
00000000
00000100
00000000
00000000
00001000
00000000
00000000
00010000
00000000
00000000
00011000
00000000
00000000
00000000
,
00010000
00001000
00000100
00000000
00000010
00001000
00000010
00000100
,
00000001
00000000
00000000
00001000
00000000
00000000
00000010
00000000
00000000
00010000
00000000
00000000
00022000
00000000
00000000
00000000
,
00000000
00000000
00000000
00033000
00001000
00010000
00100000
00000000
,
10000000
10000000
01000000
01000000
,
00010000
00010000
00000100
00000100
,
00000010
00000010
00000001
00000001
,
00000100
00000000
00000100
00000000
00001000
00010000
00001000
00000000
,
00010000
00100000
01000000
00000000
00010000
00100000
01000000
00000000
,
10000000
00100000
01000000
00000000
10000000
01000000
00010000
00000000
,
10000000
01000000
00010000
00001000
00010000
00001000
00000100
00000001
,
00000010
00000000
00000100
00000000
00001000
00000000
00000100
00000000
00010000
00001000
00010000
00001000
00020000
00000000
00030000
00000000
,
00011000
00000000
00010010
00000000
00011000
00000000
00001000
00010000
,
00100000
10000000
01000000
00000000
00110000
00000000
10000000
01000000
,
00010000
00001000
00010000
00000100
00000010
00000000
00000001
00001000
,
00000010
00000000
00000000
00000100
00000000
00000100
00001000
00010000
00001000
00010000
00000000
00000000
,
00001000
00001000
00001000
00010000
00100000
00000000
01000000
00010000
,
10000000
01000000
00100000
00000000
00011000
00000000
00010000
00001000
,
00000010
00000100
00010000
00000000
00011000
00000000
00010000
00000100
,
00000010
00000001
00001000
00000010
00000100
00000001
00001000
00000100
,
00000000
00010000
00010000
00000000
00011000
00000000
00001000
00010000
,
00100000
01000000
00100000
00000000
10100000
00000000
10000000
00010000
,
10000000
01000000
00010000
00000000
00011000
00000000
00001000
00010000
,
00000100
00000000
00000000
00000000
00000000
00000000
00000010
00000000
00000000
00000000
00000010
00000000
00000001
00000000
00001000
00000000
00000001
00000000
00001000
00000000
00000000
00001000
00000000
00000000
,
00000010
00010000
00001000
00010000
00100000
00000000
01000000
00010000
,
10000000
00010000
00100000
01000000
00100000
00000000
00001000
00010000
,
00000100
00000010
00000100
00001000
00000001
00000000
00001000
00000010
,
00000100
00001000
00010000
00100000
00010000
00001000
00011000
00000000
,
00002000
00010000
00000010
00013000
,
00002000
01000000
00000100
01003000
,
00020000
00100000
00001000
00130000
,
00002000
00000000
01000000
00000000
00000010
00000000
00023000
00030000
,
00001000
00000000
00000000
00010000
00000000
00000000
00100000
00000000
00000000
10000000
00000000
00000000
01000000
00000000
00100000
00000000
,
00001000
00000000
00000000
00010000
00000000
00000000
00001000
00000000
00000000
00000010
00000000
00000000
00000100
00000000
00001000
00000000
,
00000001
00000100
00001000
00010000
00100000
10000000
01000000
00100000
,
00001000
00010000
00001000
00010000
00001000
00010000
00001000
00010000
00001000
00000000
00000000
00000000
00000000
00000000
00000000
00000000
,
00010000
00001000
00000100
00000001
00000011
00000000
00000001
00001000
,
00000010
00000100
00001000
00010000
00011000
00000000
00001000
01000000
,
00010000
10000000
01000000
00100000
00110000
00000000
10000000
00100000
,
10000000
01000000
00010000
00001000
00010000
00000100
00000110
00000000
,
00000001
00001000
00000010
00001000
00001001
00000000
00000001
00001000
,
00000100
00000010
00001000
00010000
00001000
00100000
01000000
10000000
,
00010000
01000000
00100000
10000000
10010000
00000000
10000000
01000000
,
00010000
01000000
10000000
00010000
01010000
00000000
00001000
00010000
,
00000100
00000010
00000100
00010000
00011000
00000000
00010000
00001000
,
00000100
00000010
00000001
00000010
00001010
00000000
00000001
00000010
,
00001000
00010000
00001000
00100000
00110000
00000000
10000000
00100000
,
10000000
00000000
00000000
01000000
00000000
00000000
00010000
00000000
00000000
00001000
00000000
00000000
00010000
00000000
00000000
00000100
00000000
00000000
00010000
00000000
00000000
00000000
00010000
00000000
,
00000000
00010000
00000000
00001000
00000000
00000000
00011000
00000000
00000000
00000110
00000000
00000000
,
00000001
00000010
00001000
00010000
00011000
00000000
00001000
01000000
,
00010000
10000000
01000000
00100000
00110000
00000000
00001000
00010000
,
00000100
00000000
00000001
00000000
00000100
00000000
00000010
00000000
00000001
00000000
00000100
00000000
00002000
00000000
00023000
00030000
,
00002000
00000000
00000000
00000000
,
00023000
00000000
00000000
00000000
,
00032000
00000000
00000000
00000000
,
00023000
00000000
00032000
00013000
,
00022000
00000000
00000000
00000000
,
00000000
00000000
00000000
00000000
00000000
00000000
00000000
00033000
;

//--------------- dance-double - Fred-104 ----------------
#NOTES:
     dance-double:
     Fred-104:
     Hard:
     14:
     :
00000000
00000000
00000000
00000000
,
00000000
00000000
00000000
00000000
,
00000000
00000000
00000000
00000000
,
00000000
00000000
00000000
00000000
,
00000000
00000000
00000000
00000000
,
00011000
00000000
00000000
00001000
00000000
00000000
00000010
00000000
00000000
00001000
00000000
00000000
00011000
00000000
00000000
00000000
,
00001000
00000000
00010000
00001000
00000000
00010000
00100000
00000000
01000000
00100000
00000000
10000000
00010000
00000000
00100000
00000000
,
00101000
00000000
00000000
00001000
00000000
00000000
00010000
00000000
00000000
00000100
00000000
00000000
00000220
00000000
00000000
00000000
,
00000000
00000000
00000000
00000330
00000001
00000100
00001000
00010000
,
00001000
00001000
00010000
00010000
,
00100000
00100000
10000000
10000000
,
01000000
01000000
00010000
00010000
,
00001000
00000000
00001000
00000000
00010000
00001000
00010000
00000000
,
00001000
00000000
00010000
00000100
00000000
00001000
00000100
00000000
00000010
00000001
00000000
00000010
00000100
00000000
00001000
00000000
,
00000100
00000000
00010000
00001000
00000000
01000000
00010000
00000000
10000000
01000000
00000000
00100000
00001000
00000000
00010000
00000000
,
00000100
00000000
00000010
00000001
00000000
00001000
00000001
00000000
00001000
00000010
00000000
00000100
00001000
00000000
00010000
00000000
,
00001000
01000000
00010000
00000000
10000000
00010000
10000000
00000000
01000000
00100000
00010000
00000000
00200000
00000000
00302000
00003000
,
00011000
00000000
00000000
00000000
00000000
00000000
00000000
00000000
00000000
00000000
00000000
00000000
00010000
00000000
00000000
00001000
00000000
00000000
00000000
00000000
00000000
00001000
00000000
00000000
00000100
00000000
00000000
00000000
00000000
00000000
00000000
00000000
00000000
00000000
00000000
00000000
00000001
00000000
00000000
00000000
00001000
00000000
00000000
00000000
00000100
00000000
00000000
00000000
,
00000010
00000000
00001000
00000000
00001010
00000000
00000000
00000010
00000001
00000000
00000000
00001000
00000010
00000000
00010000
00000000
,
00011000
00000000
00000000
00001000
00010000
00000000
00000000
00010000
01000000
00000000
00000000
01000000
00100000
00000000
00010000
10000000
,
00010000
00000000
00000000
00000000
00000000
00000000
00000000
00000000
00000000
00010000
00000000
00000000
10000000
00000000
00000000
00000000
01000000
00000000
00000000
00000000
00100000
00000000
00000000
00000000
01000000
00000000
00000000
00000000
00010000
00000000
00000000
00000000
00001000
00000000
00000000
00000000
00010000
00000000
00000000
00000000
00000010
00000000
00000000
00000000
00001000
00000000
00000000
00000000
,
00000001
00000010
00000001
00000010
00000001
00000000
00001000
00000010
00001000
00000010
00000000
00000010
00010000
00000000
00001000
00000000
,
00000100
00000000
00000001
00000000
00000011
00000000
00000000
00000010
00000100
00000000
00000000
00010000
00001000
00010000
00001000
00010000
,
00001000
00000000
00000000
00000000
01100000
00000000
00000000
10000000
01000000
00000000
00000000
00010000
01000000
10000000
01000000
10000000
,
01000000
00000000
00000000
01000000
00010000
00001000
00010000
00001000
00010000
00000000
00001000
00000000
00000100
00000010
00000100
00000000
,
00000000
00000000
00000101
00000000
00001001
00000000
00000000
00001000
00000100
00000000
00000000
00000010
00000002
00000000
00002003
00000000
,
00003010
00000000
00000000
00000100
00001000
00000000
00000000
00010000
00001000
00000000
00000000
00010000
00200000
00000000
20300000
00000000
,
31000000
00000000
00000000
00010000
01000000
00000000
00000000
10000000
00100000
00000000
00000000
00010000
00001000
00000000
00010000
00000010
,
00010000
00000000
00000000
00000000
00000000
00000000
00000000
00000000
00000000
00001000
00000000
00000000
00010000
00000000
00000000
00000000
00000010
00000000
00000000
00000000
00001000
00000000
00000000
00000000
00000010
00000000
00000000
00000000
00000100
00000000
00000000
00000000
00000001
00000000
00000000
00000000
00001000
00000000
00000000
00000000
00000100
00000000
00000000
00000000
00010000
00000000
00000000
00000000
,
00001000
00010000
00000000
00010000
00001000
00000000
00000000
00010000
00100000
00000000
00000000
10000000
00020000
00000000
00230000
00000000
,
01300000
00000000
10000000
00100000
10000000
00000000
00000000
10000000
01000000
00000000
00000000
00100000
00001000
00100000
00001000
00010000
,
00001000
00000000
00000000
00010000
00000100
00001000
00000100
00000000
00000010
00000001
00001000
00000000
00000010
00010000
00001000
00010000
,
00001000
00000000
00000000
00010000
00001000
01000000
00010000
00000000
00100000
01000000
10000000
00000000
00100000
01000000
00010000
00000000
,
10000000
00000000
01000000
00100000
00000000
01000000
00100000
00000000
00001000
00010000
00000000
00001000
00010000
00000000
00000100
00000000
,
00000010
00000000
00000001
00001000
00000000
00000010
00010000
00000000
00001000
01000000
00000000
00010000
01000000
00000000
00100000
00000000
,
10000000
00000000
00010000
00100000
00000000
01000000
00100000
00000000
00001000
00010000
00000000
00000010
00001000
00000000
00000001
00000000
,
00000010
00000000
00000100
00001000
00000000
00000010
00010000
00000000
00001000
00100000
00000000
00010000
10000000
00010000
10000000
00010000
,
00100000
00000000
01000000
10000000
01000000
00000000
00100000
00001000
00100000
00000000
00001000
00010000
00001000
00000000
00000010
00000000
,
00000001
00000000
00001000
00000010
00001000
00000000
00000010
00000001
00000010
00000000
00001000
00000010
00001000
00000000
00000001
00000000
,
00000010
00000100
00001000
00000001
00000100
00001000
00010000
00100000
,
01000000
00010000
01000000
00010000
01000000
00010000
01000000
00010000
20000000
00000000
32000000
00000000
03020000
00000000
00032000
00000000
,
00013000
00000000
00001000
00000000
00000100
00000000
00000001
00001000
00000001
00000000
00000010
00000000
00000200
00000000
00020300
00000000
,
00031000
00000000
00010000
00000000
01000000
00000000
00100000
00010000
00100000
00000000
00001000
00000000
00020000
00000000
00230000
00000000
,
10300000
00010000
10000000
00000000
01000000
00000000
00100000
00001000
00100000
00000000
00001000
00000000
00020000
00000000
00030200
00000000
,
00000320
00000000
00002030
00000000
00013000
00000000
00001000
00000100
00001000
00000000
00010000
00000000
00001000
00100000
00002000
00000000
,
00013000
00000000
00100000
00000000
01000000
00000000
00001000
00010000
00001000
00000000
00010000
00000000
00000020
00000000
00002030
00000000
,
00103000
00000000
00010000
00000000
00001000
00000000
00010000
00000100
00001000
00000000
00000001
00001000
00000200
00000000
00020300
00000000
,
00031000
00000000
01000000
00000000
00100000
00000000
01000000
00010000
10000000
00000000
01000000
00000000
00020000
00000000
00032000
00000000
,
00003020
00000000
00000032
00000000
00000103
00000000
00000010
00001000
00000001
00000000
00000010
00000000
00002000
00000000
00023000
00000000
,
00031000
00100000
00001000
00000000
00010000
00000000
00001000
00100000
00010000
00100000
01000000
00000000
10000000
00010000
20000000
00000000
,
31000000
00100000
01000000
00000000
00100000
00000000
00001000
00010000
00000100
00010000
00001000
00000000
00000100
00000010
00000200
00000000
,
00000301
00001000
00000010
00000000
00000100
00000000
00001000
00010000
00001000
00010000
00001000
00000000
00100000
00010000
20000000
00000000
,
30100000
00000000
00000000
01000000
00000000
00000000
00100000
00000000
00000000
00000000
00000000
00000000
00010000
00000000
00000000
00000000
00000000
00000000
00001000
00000000
00000000
00010000
00000000
00000000
00000100
00000000
00000000
00001000
00000000
00000000
00000002
00000000
00000000
00000000
00000000
00000000
00000100
00000000
00000000
00000000
00000000
00000000
00000000
00000000
00000100
00000000
00000000
00000000
,
00000000
00000000
00000000
00000000
00000103
00000000
00000000
00000000
00000000
00000000
00000000
00000000
00001000
00000000
00000000
00000000
00010000
00000000
00000000
00000000
00001000
00000000
00000000
00000000
00010000
00000000
00000000
00000000
00000000
00000000
00001000
00000000
00000000
00000000
00000000
00000000
01000000
00000000
00000000
00010000
00000000
00000000
00200000
00000000
00000000
00000000
00000000
00000000
,
01300000
10000000
00010000
00000000
01000000
00000000
00100000
10000000
00100000
00000000
10000000
01000000
00100000
00010000
00200000
00000000
,
00301000
00010000
00000100
00000000
00010000
00000000
00000010
00010000
00001000
00010000
00001000
00000000
00010000
00100000
02000000
00000000
,
03010000
10000000
02000000
00000000
03100000
00000000
00001000
00010000
00001000
00000000
00000100
00000000
00000002
00000000
00000023
00000030
,
00000210
00000000
00000000
00000000
,
00020300
00000000
00000000
00000000
,
00032000
00000000
00000000
00000000
,
00023000
00000000
00230000
10300000
,
20020000
00000000
00000000
00000000
,
00000000
00000000
00000000
00000000
00000000
00000000
00000000
30030000
;
