#TITLE:Flashes;
#ARTIST:Dollscythe;
#GENRE:DRUM'N'BASS;
#BANNER:Flashes.png;
#BACKGROUND:Flashes-bg.png;
#CDTITLE:./CDTitles/bm IIDX 22 PENDUAL.png;
#MUSIC:Flashes.ogg;
#SAMPLESTART:70.667;
#SAMPLELENGTH:15;
#BPMS:0=180,36=90,52=180,124=90,144=180,224=90,228=180;
#BGSTAGE:29;

//--------------- dance-single - Fred-104 ----------------
#NOTES:
     dance-single:
     Fred-104:
     Beginner:
     5:
     :
0000
0000
0000
0000
,
0000
0000
0000
0000
,
0000
0000
0000
0000
,
0000
0000
0000
0000
,
0000
0000
0000
0000
,
0000
0000
0000
0000
,
0000
0000
0000
0000
,
0000
0000
0000
0000
,
0000
0000
0000
0000
,
1000
0000
0010
0000
,
1000
0000
0001
0000
,
0100
0000
0010
0000
,
1000
0100
0010
0001
,
1000
0000
1000
0000
,
0001
0000
0001
0000
,
1000
1000
0001
0001
,
2002
0000
0000
3003
,
0001
0000
0000
0000
,
0010
0000
0000
0000
,
0010
0000
0010
0000
,
1000
0000
1000
0000
,
0100
0000
0000
0000
,
0100
0000
0000
0000
,
0001
0000
0001
0000
,
0010
0000
0010
0000
,
0001
0000
0000
0000
,
1000
0000
0000
0000
,
0010
0000
0010
0000
,
0100
0000
0100
0000
,
0001
0000
0000
0000
,
1000
0000
0000
0000
,
1001
0000
0110
0000
,
1001
0000
0010
0000
,
0001
0000
1000
0000
,
0100
0000
1000
0000
,
0001
0010
0100
1000
,
0001
0000
0001
0000
,
0010
0000
0010
0000
,
1000
0000
1000
0000
,
0100
0000
0100
0000
,
0001
0001
0001
0000
,
0010
0010
0010
0000
,
0100
1000
0001
0100
,
0220
0000
0000
0330
,
0001
0000
1000
0000
,
0001
0000
0100
0010
,
0100
0000
0001
0000
,
1000
0000
0010
0100
,
0010
0000
1000
0000
,
0001
0000
1000
0010
,
1000
0000
0100
0000
,
2000
0000
0000
3000
,
0001
0000
1000
0000
,
0010
0100
0010
1000
,
0010
0000
0100
0000
,
0001
1000
0100
0010
,
2002
3003
2002
3003
,
0100
0100
0100
0100
,
0100
0100
0100
0100
,
0100
0000
0010
0000
,
0001
0001
0001
0000
,
0100
0000
0010
0000
,
1000
1000
1000
1000
,
0001
0000
0100
0000
,
1000
1000
0100
0001
,
1000
0000
0010
0000
,
0001
0001
0010
1000
,
2000
0000
0000
0000
,
0000
0000
0000
3000
,
0002
0000
0000
0000
,
0000
0000
0000
0003
,
0200
0000
0000
0000
,
0000
0000
0000
0300
,
0020
0000
0000
0000
,
0000
0000
0000
0000
,
0030
0000
0000
0000
;

//--------------- dance-single - Fred-104 ----------------
#NOTES:
     dance-single:
     Fred-104:
     Easy:
     9:
     :
0000
0000
0000
0000
,
0000
0000
0000
0000
,
0000
0000
0000
0000
,
0000
0000
0000
0000
,
0000
0000
0000
0000
,
0000
0000
0000
0000
,
0000
0000
0000
0000
,
0000
0000
0000
0000
,
0000
0000
0000
0000
,
1001
0000
0001
0000
0100
0100
0010
1000
,
0001
0000
1000
0000
0100
0100
1000
0010
,
1000
0000
0001
0000
0010
0010
0100
1000
,
0002
0000
0000
2003
0000
0000
3020
0000
,
0130
0100
0001
0001
,
1000
1000
0010
0010
,
0100
0000
0001
0000
0010
0100
1000
0100
,
2000
0000
0000
3000
,
1001
0001
0100
0100
,
0010
1000
0100
1000
,
0001
0000
1000
0000
0100
0010
0100
0000
,
1000
0100
0001
0100
,
1001
0001
0010
0100
,
0010
0010
0001
1000
,
0010
0000
0010
0000
1000
0001
0010
0000
,
0001
0001
1000
1000
,
1001
0000
0001
0000
1000
0100
1000
0000
,
0001
0000
0010
0000
0100
0010
0100
0000
,
0010
0000
0001
0000
1000
0001
1000
0000
,
0001
0010
1000
0100
,
1001
0000
0001
0000
1000
0010
1000
0000
,
0100
0000
0010
0000
0001
1000
0001
0000
,
0100
0000
0010
0000
1000
1000
0001
0001
,
1001
0000
0010
0000
0001
0010
0100
1000
,
0010
0000
0100
0000
0001
0100
0010
1000
,
0001
0000
1000
0000
0100
0010
0011
0000
,
0010
0100
1000
0010
1000
0001
1000
0100
,
1000
1000
0010
0010
,
0001
0001
0100
0100
,
1000
0010
0001
0100
,
1000
0010
0001
0100
,
1000
0100
1000
0100
,
0010
0001
0010
0001
,
1000
0100
1000
0000
0001
0100
0001
0000
,
2002
0000
0000
3003
,
0001
1000
0000
0010
1000
0000
0001
0000
,
1000
0000
0100
0000
0010
0100
0010
0000
,
0001
1000
0000
0001
0010
0000
0001
0000
,
1000
0000
0010
0100
0000
0010
1000
0000
,
0001
0010
0000
0100
1000
0000
0001
0000
,
0100
0000
0001
0010
0000
0001
1000
0000
,
0100
0010
0000
0001
0100
0000
0010
0000
,
1000
0000
0000
1001
0000
0000
0001
1000
,
0001
0010
0000
0001
0100
0000
0001
0001
,
0010
0000
0001
0000
1000
0010
0100
0000
,
0001
1000
0000
0100
1000
0000
0100
0010
,
0001
0000
1000
0000
0001
1000
0001
0000
,
0200
0320
0230
0302
1003
0100
0001
0100
,
2000
3200
0320
0032
,
0103
0010
0100
0000
0001
1000
0001
0000
,
1000
0000
0100
0000
1000
0000
0001
1000
,
0100
0000
1000
0000
0001
0010
0001
0000
,
0100
0000
0001
0000
0100
0000
0001
0010
,
0001
0000
1000
1000
0000
0001
0001
0000
,
1000
0000
0010
0000
1000
0000
0001
0010
,
0001
0000
1000
0000
0010
0100
0010
0000
,
1000
0000
0001
0000
1000
0100
1000
0000
,
0001
0000
0100
0010
0000
1000
0001
0000
,
2000
0000
0000
0000
3020
0000
0000
0230
,
0000
0000
0000
0302
,
0023
0000
0000
0000
0032
0000
0000
0203
,
0000
0000
0000
0000
,
2300
0000
0000
0000
3200
0000
0000
0302
,
0000
0000
0000
0023
,
0230
0000
0000
0000
2300
0000
3000
2002
,
0000
0000
0000
0000
,
3003
0000
0000
0000
;

//--------------- dance-single - Fred-104 ----------------
#NOTES:
     dance-single:
     Fred-104:
     Medium:
     13:
     :
0000
0000
0000
0000
,
0000
0000
0000
0000
,
0000
0000
0000
0000
,
0000
0000
0000
0000
,
0000
0000
0000
0000
,
0000
0000
0000
0000
,
0000
0000
0000
0000
,
0000
0000
0000
0000
,
0000
0000
0000
0000
,
1100
0000
0000
0000
0001
1000
0000
0010
1000
0000
0001
0000
0100
0010
1000
0000
,
1001
0000
0000
0000
0001
0010
0000
0100
0010
0000
0001
0010
0000
0100
0010
0000
,
0101
0000
0000
0000
0100
0010
0000
1000
0100
0000
0010
0000
0100
0000
1000
0000
,
2000
0000
0000
3002
0000
0000
2003
0000
,
3001
0001
0100
0100
,
1000
1000
0010
0010
,
0001
0001
0100
0100
0010
0010
1000
1000
,
0002
0000
0000
0003
,
1002
0000
1003
0100
0001
0100
1000
0010
,
0200
0000
0301
0100
1000
0100
0001
1000
,
0002
0000
0013
0100
0001
1000
0010
0001
,
2000
0000
0000
0001
0000
0000
0001
0000
0000
3001
0000
0000
0011
0000
0000
0000
,
2001
0000
3001
0010
0100
0001
0100
0010
,
0002
0000
1003
0010
0100
1000
0100
0010
,
2000
0000
3001
0010
0100
0001
1000
0010
,
0002
0000
0000
1000
0000
0000
1000
0000
0000
1003
0000
0000
1001
0000
0000
0000
,
0102
0000
1003
0010
0001
1000
0100
0001
,
2000
0000
3001
0100
1000
0001
0010
1000
,
0002
0000
0000
0000
0103
0000
0010
0000
1000
0010
1000
0000
0010
0000
0100
0000
,
0001
0000
0000
0011
0000
0000
1000
0000
0000
1010
0000
0000
1001
0000
0000
0000
,
0210
0000
0301
0100
0100
1000
0010
0010
,
0002
0000
1003
0010
0010
0001
0100
0100
,
1100
0000
1000
0010
0100
0100
0010
0010
1000
0100
0010
0001
1000
0100
0010
0001
,
1001
0000
0000
0000
1000
0001
0000
0010
0001
0000
1000
0000
0100
0010
0001
0000
,
1001
0000
0000
0000
1000
0010
0000
0100
0010
0000
1000
0010
0000
0100
0001
0000
,
1100
0000
0000
0000
0100
0010
0000
0001
0100
0000
0010
0000
0100
0000
0001
0000
,
0020
0000
0000
0230
0000
0000
2300
0000
,
3001
0001
0100
0100
,
0010
0010
1000
1000
,
1100
1100
0101
0101
,
1010
1010
0011
0011
,
1000
0100
0010
0001
0100
0010
1000
0010
,
0100
0001
0010
0100
1000
0001
0010
0001
,
1000
0100
0010
1000
0001
0100
0010
0001
,
2002
0000
0000
3003
,
0001
0000
0010
0000
0100
0000
1000
0000
0002
0000
0000
0203
0000
0000
2300
0000
,
3200
0001
0301
0000
0100
0010
1000
0010
,
0100
0000
0001
0000
0010
0000
0001
0000
2000
0000
0000
3020
0000
0000
0032
0000
,
0023
0000
1000
0000
1030
0000
0000
0000
0100
0010
0001
0000
0001
0000
0000
0000
,
1000
0000
0100
0000
0010
0000
0001
0000
0200
0000
0000
0320
0000
0000
0032
0000
,
0023
1000
1030
0000
0001
0010
0100
1000
,
0010
0000
0100
0000
0001
0000
1000
0000
0200
0000
0000
0320
0000
0000
0031
0000
,
0011
0000
0000
0110
0000
0000
1100
0000
0000
1010
0000
0000
1001
0000
0000
0000
,
1000
0100
0001
1000
0010
0100
0010
0001
,
1000
0000
0001
0000
0100
0000
0010
0000
1000
0000
0001
0000
0010
0100
0010
0000
,
0001
1000
0010
0001
1000
0100
0010
1000
,
0001
0000
1000
0100
0000
0010
0001
0000
,
1001
0000
1000
0010
0100
0010
0100
0010
0100
0000
0001
0000
1000
0001
1001
0000
,
0001
0100
0010
1000
0001
0010
0100
0010
,
0001
0000
0100
0000
0001
0000
1000
0000
0001
0100
0001
0100
0001
0000
0000
0000
,
1000
0000
0100
0000
0000
1000
0000
0000
0010
0000
0000
0100
0000
0000
0001
0000
,
0010
0000
0100
0000
0000
0010
0000
0000
0001
0000
0000
0100
0000
0000
0010
0000
,
1000
0000
0100
0000
0000
0010
0000
0000
0100
0000
0000
1000
0000
0000
0001
0000
,
0100
0000
0001
0010
0000
0100
1100
0000
,
0001
0000
1000
0000
0100
0000
0010
0000
1000
0000
0000
0010
0000
0000
0001
0000
,
1000
0000
0010
0000
0100
0000
1000
0000
0100
0000
0000
0001
0000
0000
1000
0000
,
0001
0000
1000
0000
0100
0000
0001
0000
0100
0000
0000
0010
0000
0000
0001
0000
,
1000
0000
0010
0100
0000
0001
1001
0000
,
0201
0000
0000
0000
0320
0000
0000
2030
,
0000
0000
0000
3200
,
0320
0000
0000
0000
0032
0000
0000
0200
,
0000
0000
0000
0303
,
0220
0000
0000
0330
2200
0000
3300
0202
,
0000
0000
0000
0000
0000
0303
0022
0033
,
2020
0000
0000
3030
0220
0000
0330
2002
,
0000
0000
0000
0000
,
3003
0000
0000
0000
;

//--------------- dance-single - Fred-104 ----------------
#NOTES:
     dance-single:
     Fred-104:
     Hard:
     17:
     :
0000
0000
0000
0000
,
0000
0000
0000
0000
,
0000
0000
0000
0000
,
0000
0000
0000
0000
,
0000
0000
0000
0000
,
0000
0000
0000
0000
,
0000
0000
0000
0000
,
0000
0000
0000
0000
,
0000
0000
0000
0000
,
1100
0000
0000
0000
0000
0000
0000
0000
0100
0000
0200
0000
0000
0000
0310
0000
0100
0000
1000
0100
0010
0000
0100
1000
0010
0000
0100
0000
0001
0000
0000
0000
,
0011
0000
0000
0000
0100
0200
0000
0301
0100
0000
0001
0010
0000
1000
0010
0000
,
1001
1000
0000
0000
0100
0010
0000
0010
0001
0000
0000
0000
1000
0000
0100
0000
,
0120
0000
0000
0032
0000
0000
2003
0000
,
3001
0001
0010
0010
,
1000
1000
0100
0100
,
0001
0010
0001
0010
0100
1000
0100
1000
0001
0100
0001
0100
0010
1000
0010
2000
,
0002
0000
0000
3003
,
1002
0000
1003
0010
0100
1000
0001
0010
,
2000
0000
3001
0010
0100
0001
1000
0100
,
0002
0000
0000
0000
1003
0000
0001
0000
0100
0010
1000
0010
0100
0001
1000
0000
,
1100
0000
0000
0101
0000
0000
1010
0000
0000
0011
0000
0000
0110
0000
0000
0000
,
1002
0000
1003
0100
0010
1000
0001
0100
,
2000
0000
3001
0100
1000
0001
0010
0100
,
0002
0000
0000
0000
1003
0000
0100
0000
1000
0001
0100
0010
0100
0001
1000
0000
,
1010
0000
0000
0011
0000
0000
1100
0000
0000
0101
0000
0000
1001
0000
0000
1000
,
0200
0000
0000
0300
0110
0000
0010
0000
0001
0000
1000
0000
0010
0000
0100
0000
,
0102
0000
0000
0003
1001
0000
1000
0000
0100
0000
0001
0000
0100
0000
1000
0000
,
1020
0000
0000
0000
0130
0000
0001
0000
1000
0100
0010
0001
0010
0100
1000
0001
,
2000
0000
0000
3200
0000
0000
0302
0000
0000
0203
0000
0000
1300
0000
0000
0000
,
1002
0000
1003
0100
0001
1000
0010
0001
,
2001
0000
3001
0100
1000
0001
0010
1000
,
1001
0000
0000
0000
0001
0000
1000
0000
0001
0010
0100
1000
0100
0000
0010
0000
0001
1000
0001
1000
0001
1000
0001
1000
0010
0100
0010
0100
0010
0100
0010
0100
,
0001
0000
0000
0000
0000
0000
0000
0000
1010
0000
2000
0000
0000
0000
3001
0000
0001
0000
1000
0010
0100
0000
0001
0010
0100
0000
1000
0000
0010
0000
0000
0000
,
0110
0000
0000
0000
0101
0001
0000
0001
2000
0000
3200
0302
0000
0203
0320
0030
,
0011
0001
0000
0000
1010
0010
0000
0100
0001
0000
0000
0000
0001
0000
1000
0000
,
0002
0000
0023
0000
2030
0000
3200
0000
0302
0000
2003
0000
3001
1000
0001
1000
,
0001
0001
0010
0010
,
1000
1000
0100
0100
,
0011
0011
1010
1010
,
1100
1100
0101
0101
,
0001
0100
0010
0001
1000
0100
0010
0100
,
0010
1000
0100
0001
1000
0010
0100
0010
,
0001
0100
0001
0100
0010
1000
0010
1000
0100
0010
0001
0100
0010
1000
0001
2000
,
0002
0000
0000
3003
,
1000
0001
0200
0000
0000
0000
0301
1000
0100
0000
1000
0010
0000
0100
0010
1000
,
0001
0000
0010
0100
0010
0000
0001
0000
1000
0010
0100
0000
0001
0010
0100
0000
,
1000
0001
0020
0000
0000
0000
0031
1000
0010
0000
0100
0001
0000
1000
0100
0010
,
0001
0000
1000
0010
0100
0000
0001
0000
1000
0100
0010
0000
0010
0100
1000
0000
,
0001
0100
0020
0000
0000
0000
1030
0001
0010
0000
0001
0100
0000
0010
1000
0100
,
0010
0000
0001
1000
0010
0000
0001
0000
1000
0100
0001
0000
1000
0001
0010
0000
,
0001
1000
0200
0000
0000
0000
1300
0010
0100
0000
0001
0010
0000
0100
1000
0001
,
1000
0000
0000
1010
0000
0000
1001
0000
0000
0011
0000
0000
0001
1000
0001
0000
,
1000
0010
0200
0000
1300
0000
0100
0001
1000
0000
0001
0010
0000
0100
1000
0001
,
0100
0000
0001
0100
0010
0000
0001
0000
0010
1000
0001
0010
0100
1000
0001
0000
,
1000
0001
0200
0000
1300
0000
0100
0010
1000
0000
0001
0010
0000
0100
1000
0001
,
1000
0000
0001
0100
0001
0000
1000
0100
1000
0100
0010
0001
0100
0010
1000
0000
,
1001
0000
0000
0000
0100
0010
0100
0010
0100
0010
0100
0010
0100
0010
0100
0010
0100
0000
0001
1000
0001
0000
0010
0100
1000
0100
0010
0000
0001
0100
0001
0000
,
1000
0001
1000
0001
1000
0001
1000
0001
0100
0010
0100
0010
0100
0010
0100
0010
,
1000
0100
1000
0100
0010
0001
0010
0001
1000
0010
0100
0001
0010
0100
1000
0001
,
1000
0000
0100
0000
1000
0001
0000
1000
0100
0000
1000
0001
0000
1000
0100
0000
,
1000
0000
0010
0000
0100
0010
0000
1000
0010
0000
0100
0010
0000
1000
0010
0000
,
0100
0000
0001
0000
0010
0001
0000
0100
0001
0000
0010
0001
0000
0100
0001
0000
,
1000
0000
1100
0101
0000
0101
1001
0000
,
0001
0000
0010
0000
0100
0010
0000
1000
0010
0000
0100
0010
0000
0001
1000
0000
,
0001
0000
0100
0000
0010
1000
0000
0010
0100
0000
0010
1000
0000
0010
0001
0000
,
1000
0000
0100
0000
0001
0100
0000
1000
0100
0000
0001
0100
0000
1000
0100
0000
,
0010
0001
0100
0110
0000
1010
0110
0000
,
1002
0000
0000
0000
2003
0000
0000
3200
,
0000
0000
0000
0320
,
0230
0000
0000
0000
2300
0000
0000
0002
,
0000
0000
0000
3003
,
0022
0000
0000
0033
2020
0000
3030
2200
,
0000
0000
0000
0000
0000
3300
0202
0303
,
0022
0000
0000
0033
0220
0000
0330
2002
,
0000
0000
0000
0000
,
3003
0000
0000
0000
;

//--------------- dance-single - Fred-104† ----------------
#NOTES:
     dance-single:
     Fred-104†:
     Challenge:
     18:
     :
0000
0000
0000
0000
,
0000
0000
0000
0000
,
0000
0000
0000
0000
,
0000
0000
0000
0000
,
0000
0000
0000
0000
,
0000
0000
0000
0000
,
0000
0000
0000
0000
,
0000
0000
0000
0000
,
0000
0000
0000
0000
,
1100
0000
0000
0000
0000
0000
0001
0000
0000
0000
0000
0000
1000
0000
0000
0200
0000
0000
0000
0000
0000
1300
0000
0000
0010
0000
0000
1000
0100
1000
0010
0000
0000
1000
0010
0100
0010
0000
0000
1000
0000
0000
0001
0000
0000
0100
0000
0000
,
0101
0000
0000
0000
1000
0000
0000
0000
0001
0000
0100
0010
1000
0010
0100
0000
0001
0000
0000
0000
1000
0000
0020
0000
0000
0000
0130
0000
0002
0000
0003
0000
,
1001
2000
0000
3001
0100
0010
0000
0010
1000
0000
0001
0010
0200
0000
0320
0000
,
0031
0100
1000
0100
0001
0100
0010
1000
0001
0010
1000
0010
0001
0100
0010
1000
,
0001
0000
0010
0001
0100
0000
0010
1000
0100
0000
0010
0001
1000
0000
0010
0000
,
0100
0000
0001
0010
0100
0000
1000
0010
0100
0000
0001
0100
1000
0000
0100
0000
,
0001
0010
0100
1000
0010
0100
0001
1000
0100
0010
0001
0100
0010
1000
0100
0010
,
0002
0000
2000
3003
,
1002
0000
2003
3020
0032
2003
3200
0301
,
2001
0000
3002
0023
2030
3002
0203
1300
,
2001
0000
0000
0000
3001
0000
0100
0000
0001
0010
0100
1000
0010
1000
0100
0000
,
1100
0000
1000
0100
0000
0010
0001
0000
1000
0010
0000
0100
0001
0000
0010
0001
,
2000
0000
3002
0203
2300
3002
0023
1030
,
1002
0000
2003
3200
0302
2003
3020
0031
,
2001
0000
0000
0000
3001
0000
1000
0000
0100
1000
0100
0010
0001
1000
0001
0100
,
0010
0000
1000
0100
0000
0001
0100
0000
1000
0010
0000
0001
0010
0000
1000
0001
,
2000
0000
0000
0000
3001
0000
0100
0010
0001
0000
0010
1000
0001
0000
0100
0000
,
0020
0000
0000
0000
1030
0000
0100
0010
1000
0000
0010
0001
1000
0000
0001
0000
,
0201
0000
0000
0000
0310
0000
1000
0000
0001
0010
0100
1000
0100
0010
0001
1000
,
0001
0000
0100
1000
0000
0100
0001
0000
0010
1000
0000
0010
0001
0000
1000
0001
,
0020
0000
0000
0000
0031
0000
1000
0010
0100
0000
1000
0100
0001
0000
1000
0000
,
0002
0000
0000
0000
0103
0000
0001
0010
1000
0000
0010
0001
0100
0000
0010
0000
,
2010
0000
0000
0000
3001
0000
1000
0000
0001
0010
0100
1000
0001
0000
0100
0000
0001
0010
0001
0100
0010
1000
0100
1000
0001
0100
0001
1000
0100
0010
0001
1000
,
0001
0000
0000
0000
0000
0000
0000
0000
0000
0000
0000
0000
1100
0000
0000
2000
0000
0000
0000
0000
0000
3002
0000
0000
0103
0000
0000
0001
0010
0001
0100
0000
0000
0001
0100
0010
0100
0000
0000
0001
0000
0000
1000
0000
0000
0100
0000
0000
,
0110
0000
0000
0000
0000
0000
0000
0000
2001
0000
3100
0010
0001
0010
0100
0000
2000
0000
0000
0000
3001
0000
0200
0000
0000
0000
0310
0000
2000
0000
3001
0000
,
1001
1000
0000
0000
0110
0010
0000
1000
0001
0000
0100
0010
1000
0100
0020
0000
,
0031
0000
0100
0001
0000
0100
0001
0010
0100
0000
1000
0010
0000
1000
0100
1000
0001
0000
0100
0010
0000
1000
0010
0100
0001
0000
1000
0100
0000
0010
0001
1000
,
0001
0000
0100
0001
0010
0000
0100
1000
0010
0000
0100
0001
0010
0000
0100
0000
,
1000
0000
0010
1000
0100
0000
0010
0001
0100
0000
0010
1000
0100
0000
0010
0000
,
0001
0010
0100
0000
1000
0010
0100
0000
0001
1000
0100
0000
0010
0001
1000
0000
,
0010
1000
0100
0000
1000
0010
0100
0000
0001
0010
0001
0100
0001
0010
0001
0000
,
1001
1000
0100
0010
0001
0100
0010
0100
,
0101
0001
0010
0100
1000
0001
0100
0010
,
1000
0100
0010
0001
0100
0010
0001
0010
1000
0001
0100
1000
0100
0010
1000
0001
,
0020
0000
0200
0330
,
1000
0001
0200
0000
1300
0000
0100
0010
1000
0000
0100
0010
0000
0001
1000
0001
,
0020
0000
0130
0001
0100
0000
1000
0000
0001
1000
0010
0000
1000
0001
0010
0000
,
0001
1000
0200
0000
0301
0000
0100
0010
0001
0000
1000
0010
0000
0100
0001
1000
,
0002
0000
1003
0010
0100
0000
1000
0000
0001
0010
0100
0000
0001
0010
0100
0000
,
1000
0100
0020
0000
0031
0000
0100
0010
0001
0000
0010
1000
0000
0001
1000
0010
,
0200
0000
0301
1000
0100
0000
0010
0000
0001
1000
0010
0000
0100
0010
1000
0000
,
0001
0010
0200
0000
0301
0000
0100
1000
0001
0000
1000
0010
0000
0100
0001
1000
,
1001
0000
0000
0110
0000
0000
1100
0000
0000
0101
0000
0000
0001
1000
0001
0000
,
1000
0010
0100
0001
1000
0000
0001
0010
0100
0000
1000
0010
0000
1000
0001
0010
,
0100
0000
1000
0010
0100
0000
1000
0001
0010
0100
0001
1000
0001
0010
0100
0000
,
1000
0001
0100
0010
0001
0000
0010
1000
0001
0000
1000
0100
0000
0010
0100
1000
,
0001
0000
0100
0010
0001
0000
0010
0100
1000
0001
0010
0100
0010
1000
0001
0000
,
1002
0000
0000
0000
1003
0100
1000
0100
0010
0001
0010
0001
1000
0001
1000
0001
2000
0000
3001
0010
0100
0000
1000
0001
0010
0001
1000
0010
0100
0001
1000
0000
,
0001
0010
0100
1000
0001
0010
0100
1000
0001
1000
0010
0100
0001
1000
0010
0100
,
0001
1000
0100
0010
0001
0100
0010
1000
0001
0100
0010
0001
1000
0100
0010
1000
,
0001
0000
0010
0000
0001
1000
0000
0100
0010
0000
0100
1000
0000
0010
0100
0000
,
0001
0000
1000
0000
0001
0100
0000
1000
0100
0000
0001
0010
0000
1000
0010
0000
,
0001
0000
0100
0000
0010
1000
0000
0100
1000
0000
0010
0100
0000
0001
1000
0000
,
0001
0100
0011
1010
0001
0101
1100
0000
,
1001
0000
0001
0000
1000
0010
0000
0010
0100
0000
0100
1000
0000
0100
0001
0000
,
1000
0000
0001
0000
1000
0001
0000
0001
0100
0000
1000
0100
0000
0010
1000
0000
,
0001
0000
1000
0000
0100
0001
0000
0001
0100
0000
0010
0001
0000
1000
0001
0000
,
1000
0100
1100
0101
1000
1010
0011
0000
,
2002
0000
0000
3003
2020
0000
3030
0202
,
0000
0000
0000
0000
0000
0303
2002
3003
,
0220
0000
0000
0330
0202
0000
0303
2020
,
0000
0000
0000
3030
,
0022
0000
0000
0033
0220
0000
0330
2200
,
0000
0000
0000
0000
0000
3300
2002
3003
,
0022
0000
0000
0033
2020
0000
3030
2002
,
0000
0000
0000
0000
,
3003
0000
0000
0000
;

//--------------- dance-double - Fred-104 ----------------
#NOTES:
     dance-double:
     Fred-104:
     Easy:
     9:
     :
00000000
00000000
00000000
00000000
,
00000000
00000000
00000000
00000000
,
00000000
00000000
00000000
00000000
,
00000000
00000000
00000000
00000000
,
00000000
00000000
00000000
00000000
,
00000000
00000000
00000000
00000000
,
00000000
00000000
00000000
00000000
,
00000000
00000000
00000000
00000000
,
00000000
00000000
00000000
00000000
,
00011000
00000000
00010000
00000000
00001000
00000010
00000001
00001000
,
00000100
00000000
00000110
00000000
00000010
00000001
00001000
00000001
,
00000100
00000000
00000110
00000000
00000001
00000100
00001000
00010000
,
02000000
00000000
00000000
03200000
00000000
00000000
00320000
00000000
,
10030000
10000000
01000000
01000000
,
00001000
00001000
00000100
00000100
,
00000010
00000001
00000100
00000000
00000010
00001000
00000100
00000000
,
00022000
00000000
00000000
00033000
,
00021000
00031000
00010000
00000010
,
00001000
00000000
00000100
00000000
00000010
00000001
00000010
00000000
,
00000001
00000100
00001000
00010000
,
01000000
00100000
00220000
00330000
,
10020000
00130000
10000000
01000000
,
00010000
00000000
00001000
00000000
00100000
00001000
00100000
00000000
,
00001000
00010000
00000010
00001000
,
00000001
00000010
00000220
00000330
,
00002001
00003001
00000010
00000100
,
00000010
00000000
00001000
00000000
00010000
01000000
00100000
00000000
,
01000000
00000000
10000000
00000000
00010000
00100000
01000000
00000000
,
10000000
00010000
01000000
00100000
,
21000000
00000000
30010000
00000000
10000000
01000000
00010000
00000000
,
00001000
00000000
00000010
00000000
00000001
00000100
00000010
00000000
,
00001001
00000000
00001000
00000000
00000001
00000010
00000100
00001000
,
00001001
00000000
00000001
00000000
00000100
00001000
00010000
00100000
,
01000000
00000000
00010000
00000000
10000000
00100000
00010000
00100000
,
10000000
00000000
01000000
00000000
00100000
00100000
00002000
00000000
,
00013000
00001000
00000010
00000001
00001000
00000010
00000100
00000100
,
00000001
00000001
00000100
00000100
,
00001000
00001000
00010000
00010000
,
00100000
00100000
10000000
10000000
,
00010000
00010000
10000000
10000000
,
00010000
10000000
01000000
00100000
,
00001000
00010000
00000100
00000010
,
00000001
00001000
00000100
00000000
00000010
00000001
00000100
00000000
,
00002002
00000000
00000000
00003003
,
00000001
00000100
00000000
00000100
00000010
00000000
00001000
00000000
,
00000100
00000000
00010000
00001000
00010000
00000000
00001000
00000000
,
01000000
00010000
00000000
00010000
00100000
00000000
01000000
00000000
,
10000000
00000000
00010000
01000000
00000000
00100000
10000000
00000000
,
01000000
00100000
00000000
00100000
00010000
00000000
01000000
00000000
,
00001000
00000000
00010000
00001000
00010000
00000000
00001000
00000000
,
00000100
00000010
00000000
00000010
00001000
00000000
00000001
00000000
,
00002002
00000000
00000000
00003003
,
00000001
00000010
00000000
00000001
00001000
00000000
00000001
00001000
,
00000100
00010000
00001000
00100000
,
00001000
00100000
00000000
00010000
10000000
00000000
01000000
00100000
,
00010000
10000000
00100000
00010000
,
00001000
00010000
00001000
00010000
00000100
00000010
00000001
00001000
,
00000001
00000001
00000100
00000100
,
00001000
00010000
00001000
00010000
00001000
00010000
00001000
00000000
,
00100000
00000000
00010000
00000000
10000000
00000000
01000000
00100000
,
01000000
10000000
00100000
00010000
,
00001000
00000000
00010000
00000000
00001000
00000000
00000010
00000100
,
00000010
00000000
00000000
00000011
00000000
00000000
00000001
00000000
,
00001000
00000000
00000001
00000000
00000100
00000000
00000001
00000010
,
00000001
00000000
00000100
00000000
00001000
00000000
00010000
00001000
,
00010000
00000000
00001000
00000000
01000000
00000000
00010000
10000000
,
01000000
00000000
00000000
01100000
00000000
00000000
00001000
00000000
,
00012000
00000000
00000000
00000000
00023000
00000000
00000000
00030020
,
00000000
00000000
00000000
00002030
,
00003002
00000000
00000000
00000000
00000023
00000000
00000000
00000230
,
00000000
00000000
00000000
00000000
,
00020300
00000000
00000000
00000000
00032000
00000000
00000000
00203000
,
00000000
00000000
00000000
00320000
,
20030000
00000000
00000000
00000000
30200000
00000000
00000000
02000000
,
00000000
00000000
00000000
00000000
,
03300000
00000000
00000000
00000000
;

//--------------- dance-double - Fred-104 ----------------
#NOTES:
     dance-double:
     Fred-104:
     Medium:
     13:
     :
00000000
00000000
00000000
00000000
,
00000000
00000000
00000000
00000000
,
00000000
00000000
00000000
00000000
,
00000000
00000000
00000000
00000000
,
00000000
00000000
00000000
00000000
,
00000000
00000000
00000000
00000000
,
00000000
00000000
00000000
00000000
,
00000000
00000000
00000000
00000000
,
00000000
00000000
00000000
00000000
,
11000000
00000000
00000000
00000000
10000000
01000000
00000000
00100000
01000000
00000000
00010000
00000000
00001000
00010000
00001000
00000000
,
00010010
00000000
00000000
00000000
00010000
00001000
00000000
00000010
00000001
00000000
00000010
00000100
00000000
00010000
00001000
00000000
,
00011000
00000000
00000000
00000000
00001000
00010000
00000000
00100000
01000000
00000000
00000000
00000000
00010000
00000000
10000000
00000000
,
02000000
00000000
00000000
03020000
00000000
00000000
00032000
00000000
,
00003010
00000010
00000001
00000001
,
00001000
00001000
00000001
00000001
,
00000010
00000100
00001000
00000010
00000100
00001000
00010000
00001000
,
00022000
00000000
00000000
00033000
,
02010000
00000000
03010000
10000000
01000000
00010000
01000000
00100000
,
00002000
00000000
00013000
00001000
00000010
00001000
00010000
00000010
,
00002000
00000000
00003100
00000010
00000001
00000001
00001000
00000010
,
00001000
00000000
00000000
00000100
00000000
00000000
00000001
00000000
00000000
00000010
00000000
00000000
00001010
00000000
00000000
00000000
,
00002001
00000000
00003001
00000100
00001000
00010000
00100000
01000000
,
00020000
00000000
10030000
01000000
00010000
00001000
00010000
01000000
,
20000000
00000000
30100000
01000000
00100000
00010000
00001000
00000010
,
00000001
00000000
00000000
00000100
00000000
00000000
00001000
00000000
00000000
00010000
00000000
00000000
00011000
00000000
00000000
00000000
,
00010020
00000000
00010030
00001000
00000010
00000001
00000010
00000100
,
00002000
00000000
00003001
00001000
00000010
00000100
00001000
00010000
,
00002000
00000000
00000000
00000000
00013000
00000000
00100000
00000000
01000000
00100000
01000000
00000000
00010000
00000000
10000000
00000000
,
01000000
00000000
00000000
00110000
00000000
00000000
10000000
00000000
00000000
01010000
00000000
00000000
10010000
00000000
00000000
00000000
,
10200000
00000000
10300000
01000000
00010000
00001000
00000100
00000001
,
00002000
00000000
00003100
00000010
00001000
00010000
01000000
00100000
,
01100000
00000000
00010000
10000000
00100000
00100000
01000000
01000000
00001000
00001000
00010000
00010000
00000100
00000100
00000010
00000010
,
00001001
00000000
00000000
00000000
00000001
00000100
00000000
00000010
00000100
00000000
00001000
00000000
00010000
00001000
00010000
00000000
,
00011000
00000000
00000000
00000000
00001000
00010000
00000000
00100000
10000000
00000000
01000000
00100000
00000000
00010000
01000000
00000000
,
01100000
00000000
00000000
00000000
00001000
00010000
00000000
00000010
00001000
00000000
00000000
00000000
00000100
00000000
00000010
00000000
,
00000002
00000000
00000000
00002003
00000000
00000000
00003020
00000000
,
00010030
00010000
00001000
00001000
,
00100000
00100000
00010000
00010000
,
10000000
01100000
00001000
00011000
,
00000010
00000110
00000001
00001001
,
00001000
00000010
00000001
00000010
00001000
00000001
00000010
00001000
,
00010000
00100000
10000000
00010000
00100000
10000000
00100000
00010000
,
01000000
00001000
00010000
00100000
01000000
00010000
10000000
01000000
,
00200000
00000000
00000000
00300000
,
00001000
00010000
00100000
01000000
00100000
00010000
00100000
20000000
,
00000000
00000000
31000000
00000000
00100000
00000000
00000000
00000000
00001000
00010000
00001000
00000000
00010000
00000000
00000000
00000000
,
00001000
00000100
00000001
00001000
00000100
00000010
00000001
00002000
,
00000000
00000000
00003010
00000000
00010000
00000000
00000000
00000000
00000100
00010000
00000100
00000000
00001000
00000000
00000000
00000000
,
00000010
00000100
00000001
00000010
00000100
00000010
00001000
00020000
,
00000000
00000000
00130000
00000000
01000000
00000000
00000000
00000000
00010000
10000000
00010000
00000000
01000000
00000000
00000000
00000000
,
00100000
10000000
01000000
00100000
00001000
00010000
00000010
00010000
,
00001000
00000000
00000000
00010010
00000000
00000000
00001000
00000000
00000000
00010100
00000000
00000000
00011000
00000000
00000000
00000000
,
00010000
00000000
00001000
00000000
00000100
00000000
00000010
00000000
00001000
00000000
00000001
00001000
00000000
00000100
00000010
00000000
,
00000001
00000100
00001000
00000000
00010000
01000000
10000000
00000000
,
00010000
00000000
00100000
00000000
01000000
00000000
00100000
00000000
00010000
00000000
10000000
00100000
00000000
00010000
00001000
00000000
,
00010000
00000000
00100000
00000000
01000000
00000000
00000000
00000000
00010000
10000000
00010000
10000000
00010000
00000000
00000000
00000000
,
10010000
00000000
00010000
10000000
00100000
01000000
00010000
10000000
01000000
00000000
00010000
00000000
00001000
00000100
00000001
00000000
,
00000010
00000001
00001000
00000010
00000100
00000010
00001000
00000001
,
00000010
00000000
00001000
00000000
00010000
00000000
01000000
00000000
00100000
00010000
00100000
00000000
01000000
10000000
01000000
00000000
,
10000000
00100000
00010000
00001000
00010000
00000100
00000010
00000001
,
00000000
00000100
00000010
00000000
00000110
00000000
00001001
00000000
,
00001000
00000010
00000100
00001000
00010000
00100000
01000000
00010000
,
10000000
00000000
01000000
00100000
00000000
00100000
01100000
00000000
,
10000000
00100000
01000000
00100000
00010000
00001000
00000100
00000001
,
00000000
00001000
00000100
00000000
00000110
00000000
00001001
00000000
,
00001000
00000001
00000100
00000010
00000100
00001000
00000100
00000010
,
00001000
00000001
00001000
00000100
00000000
00010000
00010010
00000000
,
00021000
00000000
00000000
00000000
00032000
00000000
00000000
02003000
,
00000000
00000000
00000000
03020000
,
00230000
00000000
00000000
00000000
00302000
00000000
00000000
00023000
,
00000000
00000000
00000000
00030000
,
00000022
00000000
00000000
00000033
00002002
00000000
00003003
00002020
,
00000000
00000000
00000000
00000000
00000000
00003030
00020020
00030030
,
00022000
00000000
00000000
00033000
00202000
00000000
00303000
02200000
,
00000000
00000000
00000000
00000000
,
03300000
00000000
00000000
00000000
;

//--------------- dance-double - Fred-104 ----------------
#NOTES:
     dance-double:
     Fred-104:
     Hard:
     17:
     :
00000000
00000000
00000000
00000000
,
00000000
00000000
00000000
00000000
,
00000000
00000000
00000000
00000000
,
00000000
00000000
00000000
00000000
,
00000000
00000000
00000000
00000000
,
00000000
00000000
00000000
00000000
,
00000000
00000000
00000000
00000000
,
00000000
00000000
00000000
00000000
,
00000000
00000000
00000000
00000000
,
00011000
00000000
00000000
00000000
00000000
00000000
00000000
00000000
00001000
00000000
00010000
00000000
00000000
00000000
00100000
00000000
01000000
00000000
00010000
01000000
00100000
00000000
10000000
01000000
00100000
00000000
00010000
00000000
01000000
00000000
00000000
00000000
,
00011000
00000000
00000000
00000000
00010000
00001000
00000000
00000100
00000010
00000000
00001000
00000100
00000000
00000001
00000100
00000000
,
00001100
00001000
00000000
00000000
00000001
00000010
00000000
00001000
00010000
00000000
00000000
00000000
00001000
00000000
00010000
00000000
,
00200000
00000000
00000000
02300000
00000000
00000000
03020000
00000000
,
10030000
01000000
00010000
00001000
,
00000010
00000001
00001000
00000100
,
00000010
00000001
00000010
00000001
00000010
00000001
00000010
00000001
00001000
00000001
00001000
00000001
00001000
00000001
00001000
00000010
,
00020000
00000000
00000000
00030000
,
00012000
00000000
00013000
00001000
00000100
00000001
00000010
00000100
,
00001200
00000000
00000301
00000100
00010000
01000000
00001000
00010000
,
00200000
00000000
00000000
00000000
10300000
00000000
00010000
00000000
00100000
01000000
00100000
01000000
10000000
01000000
00100000
00000000
,
00001000
00000000
00000000
00010000
00000000
00000000
00100000
00000000
00000000
10000000
00000000
00000000
01100000
00000000
00000000
00000000
,
12000000
00000000
13000000
00100000
00001000
00000010
00010000
00001000
,
00021000
00000000
00031000
00010000
00001000
00000100
00000010
00000100
,
00000102
00000000
00000000
00000000
00001003
00000000
00000010
00000000
00010000
00001000
00100000
00010000
10000000
00100000
01000000
00000000
,
00001000
00000000
00000000
00010000
00000000
00000000
01000000
00000000
00000000
00100000
00000000
00000000
00110000
00000000
00000000
00000000
,
20010000
00000000
31000000
00010000
00001000
00000100
00000001
00001000
,
00002001
00000000
00003001
00000010
00001000
00010000
00100000
10000000
,
10020000
00000000
00000000
00000000
10030000
00000000
01000000
00000000
00100000
00010000
10000000
00100000
01000000
00010000
10000000
01000000
,
00100000
00000000
00000000
00001000
00000000
00000000
00000010
00000000
00000000
00000100
00000000
00000000
00001100
00000000
00000000
00000001
,
00002000
00000000
00003010
00000100
00001000
00000001
00000010
00000100
,
00000201
00000000
00000301
00000010
00001000
00010000
00001000
01000000
,
01100000
00000000
00000000
00000000
00010000
00000000
00010000
00000000
01000000
00001000
01000000
00001000
01000000
00000000
00010000
00000000
10000000
01000000
10000000
01000000
10000000
01000000
10000000
01000000
10000000
01000000
10000000
01000000
10000000
01000000
10000000
00010000
,
01000000
00000000
00000000
00000000
00000000
00000000
00000000
00000000
11000000
00000000
10000000
00000000
00000000
00000000
00100000
00000000
00010000
00000000
00001000
00010000
00000010
00000000
00001000
00000001
00000010
00000000
00000100
00000000
00001100
00000000
00000000
00000000
,
00000101
00000000
00000000
00000000
00011000
00001000
00000000
00001000
01000000
00000000
00010000
01000000
00000000
00100000
01000000
00000000
,
11000000
10000000
00000000
00000000
00011000
00010000
00000000
00000010
00001000
00000000
00000000
00000000
00000001
00000000
00001000
00000000
,
00000200
00000000
00000320
00000000
00002030
00000000
00023000
00000000
00230000
00000000
20300000
00000000
30010000
01000000
00010000
01000000
,
00100000
00100000
10000000
10000000
,
01000000
01000000
00010000
00010000
,
00011000
00001010
00000011
00000101
,
00001100
00011000
01010000
11000000
,
00010000
10000000
00100000
00010000
00001000
00010000
01000000
00010000
,
00001000
00000010
00000001
00001000
00000100
00000010
00000001
00000100
,
00001000
00010000
00001000
00010000
00100000
01000000
00100000
01000000
00010000
10000000
00010000
10000000
01000000
00100000
01000000
00100000
,
00020000
00000000
00000000
00030000
,
00010000
10000000
00200000
00000000
10300000
00000000
01000000
00000000
00100000
00000000
00001000
00010000
00000000
00000010
00010000
00000100
,
00001000
00000000
00000100
00000010
00000001
00000000
00001000
00000000
00000001
00000010
00000100
00000000
00001000
00000010
00000100
00000000
,
00000001
00000100
00001000
00000000
00010000
00000000
00001000
00000000
01000000
00000000
00001000
00010000
00000000
00001000
00100000
00010000
,
10000000
00000000
00100000
01000000
00001000
00000000
00100000
00000000
00001000
00010000
00100000
00000000
00010000
00001000
00010000
00000000
,
00001000
01000000
00010000
00000000
00100000
00000000
01000000
00000000
00100000
00000000
10000000
01000000
00000000
00100000
00001000
00010000
,
00000010
00000000
00010000
00001000
00000010
00000000
00000100
00000000
00000010
00000001
00001000
00000000
00000010
00001000
00000001
00000000
,
00000010
00000100
00001000
00000000
00000010
00000000
00000100
00000000
00001000
00000000
00010000
00100000
00000000
01000000
00010000
00100000
,
01000000
00000000
00000000
11000000
00000000
00000000
01010000
00000000
00000000
20010000
30000000
00000000
10000000
01000000
00100000
00000000
,
00010000
00100000
02000000
00000000
03100000
00000000
00001000
00010000
00000010
00000000
00001000
00000100
00000000
00000010
00000001
00001000
,
00000001
00000000
00000100
00000010
00000100
00000000
00001000
00010000
00001000
01000000
00001000
00000000
00010000
00000010
00001000
00000000
,
00000010
00010000
00002000
00000000
00013000
00000000
00100000
01000000
00100000
00000000
00010000
00001000
00000000
00010000
00001000
00010000
,
01000000
00000000
00100000
00010000
00100000
00000000
01000000
10000000
00010000
10000000
01000000
00000000
00100000
00010000
00100000
00000000
,
00011000
00000000
00000000
00000000
00100000
00001000
00100000
00001000
00100000
00001000
00100000
00001000
00100000
00001000
00100000
00001000
00100000
00000000
00001000
00010000
00001000
00000000
00000100
00000000
00000010
00001000
00000001
00000000
00000010
00000100
00001000
00000000
,
00000001
00000100
00000001
00000100
00000001
00000100
00000001
00000100
00000010
00001000
00000010
00001000
00000010
00001000
00000010
00010000
,
00001000
00100000
00001000
00010000
00001000
00100000
00001000
00010000
00001000
00100000
00010000
10000000
00010000
01000000
00100000
10000000
,
00010000
00000000
00010000
00000000
00100000
01000000
00000000
10000000
01000000
00000000
00100000
01000000
00000000
10000000
00010000
00000000
,
00100000
00000000
00001000
00000000
00010000
00001000
00000000
00000100
00000010
00000000
00000100
00000001
00000000
00001000
00000100
00000000
,
00000010
00000000
00000001
00000000
00000010
00000001
00000000
00001000
00000010
00000000
00000100
00000010
00000000
00001000
00000100
00000000
,
00000010
00000001
00000100
00001000
00000000
00010000
00011000
00000000
,
00010000
00000000
00001000
00000000
00100000
00010000
00000000
10000000
00010000
00000000
00100000
00001000
00000000
00010000
00000010
00000000
,
00001000
00000000
00000100
00000000
00000001
00000100
00000000
00000010
00001000
00000000
00000010
00000001
00000000
00001000
00000001
00000000
,
00000100
00000000
00000010
00000000
00000100
00001000
00000000
00010000
00100000
00000000
01000000
00010000
00000000
10000000
01000000
00000000
,
00100000
00001000
00010000
01000000
00100000
00010000
10010000
00000000
,
21000000
00000000
00000000
00000000
32000000
00000000
00000000
03200000
,
00000000
00000000
00000000
00302000
,
00023000
00000000
00000000
00000000
00030020
00000000
00000000
00002030
,
00000000
00000000
00000000
00000000
,
00003002
00000000
00000000
00000000
00000203
00000000
00000000
00002300
,
00000000
00000000
00000000
00023000
,
00032000
00000000
00000000
00000000
00023000
00000000
00030000
00022000
,
00000000
00000000
00000000
00000000
,
00033000
00000000
00000000
00000000
;

//--------------- dance-double - Fred-104† ----------------
#NOTES:
     dance-double:
     Fred-104†:
     Challenge:
     18:
     :
00000000
00000000
00000000
00000000
,
00000000
00000000
00000000
00000000
,
00000000
00000000
00000000
00000000
,
00000000
00000000
00000000
00000000
,
00000000
00000000
00000000
00000000
,
00000000
00000000
00000000
00000000
,
00000000
00000000
00000000
00000000
,
00000000
00000000
00000000
00000000
,
00000000
00000000
00000000
00000000
,
00001001
00000000
00000000
00000000
00000000
00000000
00000001
00000000
00000000
00000000
00000000
00000000
00000100
00000000
00000000
00000200
00000000
00000000
00000000
00000000
00000000
00001300
00000000
00000000
00010000
00000000
00000000
00001000
00010000
00001000
00100000
00000000
00000000
00010000
10000000
00100000
01000000
00000000
00000000
00010000
00000000
00000000
10000000
00000000
00000000
10000000
00000000
00000000
,
11000000
00000000
00100000
00000000
00001000
00020000
00000000
00030010
00002000
00000000
00003001
00000200
00000000
00010300
00000200
00000300
,
00000102
00000100
00000000
00000000
00000103
00000001
00000000
00000010
00000100
00000000
00001000
00000000
00000020
00000000
00002030
00000000
,
00003001
00000010
00010000
00100000
00001000
00010000
01000000
00100000
00010000
10000000
00100000
00001000
00000010
00010000
00001000
00000100
,
00000001
00000000
00001000
00000001
00000010
00000000
00000100
00001000
00000010
00000000
00000100
00000001
00000010
00000000
00000100
00000000
,
00010000
00000000
00001000
00100000
00010000
00000000
10000000
00100000
01000000
00000000
00010000
10000000
01000000
00000000
00100000
00000000
,
00010000
10000000
00100000
01000000
00100000
00010000
00001000
00000100
00000001
00001000
00000100
00000010
00000001
00000100
00000010
00001000
,
00000002
00000000
00002000
00003003
,
00002001
00000000
00003001
00000010
00001000
00010000
00100000
10000000
,
10020000
00000000
10030000
01000000
00010000
00001000
00000100
00000001
,
00002001
00000000
00000000
00000000
00003001
00000000
00000100
00000000
00000001
00000010
00000100
00000010
00000001
00001000
00000001
00000000
,
00001000
00000000
00000001
00000010
00000000
00001000
00010000
00000000
00001000
00000100
00000000
00000010
00001000
00000000
00000001
00000010
,
00000200
00000000
00001300
00000001
00000100
00001000
00010000
01000000
,
21000000
00000000
30010000
10000000
00100000
00010000
00001000
00000010
,
00000012
00000000
00000000
00000000
00001003
00000000
00000010
00000000
00000100
00000001
00000010
00000001
00000100
00000010
00001000
00000010
,
00000100
00000000
00000001
00000010
00000000
00001000
00000010
00000000
00000001
00000100
00000000
00001000
00010000
00000000
00001000
00010000
,
00002000
00000000
00000000
00000000
00013000
00000000
00100000
01000000
00100000
00000000
10000000
01000000
00100000
00000000
00001000
00000000
,
00102000
00000000
00000000
00000000
00013000
00000000
00001000
00000100
00000001
00000000
00001000
00000100
00000001
00000000
00000100
00000000
,
00000120
00000000
00000000
00000000
00000031
00000000
00001000
00000000
00000001
00000010
00000100
00001000
00000100
00000010
00000001
00001000
,
00000010
00000000
00010000
00000010
00000000
00100000
00001000
00000000
01000000
00001000
00000000
00010000
00000100
00000000
00010000
00001000
,
00200000
00000000
00000000
00000000
00301000
00000000
00010000
00100000
01000000
00000000
00100000
10000000
01000000
00000000
00010000
00000000
,
00021000
00000000
00000000
00000000
00030010
00000000
00001000
00000001
00000100
00000000
00000001
00000010
00000100
00000000
00010000
00000000
,
00012000
00000000
00000000
00000000
00013000
00000000
00001000
00000000
00100000
00001000
00010000
00001000
00100000
00000000
00010000
00000000
10000000
00010000
00100000
00010000
01000000
00001000
00010000
00001000
00100000
00001000
00010000
00000010
00001000
00000001
00000100
00000010
,
00001000
00000000
00000000
00000000
00000000
00000000
00000001
00000000
00000000
00000000
00000000
00000000
00011000
00000000
00000000
00020000
00000000
00000000
00000000
00000000
00000000
00031000
00000000
00000000
00100000
00000000
00000000
00010000
00100000
01000000
00100000
00000000
00000000
00010000
01000000
00100000
10000000
00000000
00000000
00010000
00000000
00000000
10000000
00000000
00000000
01000000
00000000
00000000
,
01100000
00000000
00001000
00000000
00010000
00000200
00000000
00000301
00000200
00000000
00010300
00000020
00000000
00000031
00000020
00000030
,
00011000
00020000
00000000
00000000
00031000
00100000
00000000
10000000
00100000
00000000
00001000
00010000
00002000
00000000
00023000
00000000
,
00030010
00000000
00001000
00000100
00000000
00000010
00000001
00001000
00000001
00000000
00000100
00000010
00000000
00001000
00000001
00000010
00000100
00000000
00010000
00001000
00000000
00100000
00010000
10000000
00010000
00000000
01000000
00100000
00000000
10000000
01000000
00100000
,
00010000
00000000
01000000
10000000
01000000
00000000
00010000
00100000
01000000
00000000
10000000
00100000
01000000
00000000
00100000
00000000
,
00010000
00000000
00001000
00000100
00000001
00000000
00001000
00000001
00000010
00000000
00000100
00001000
00000001
00000000
00000100
00000000
,
00000010
00001000
00000001
00000000
00000100
00000010
00001000
00000000
00000001
00000010
00000100
00000000
00010000
00001000
00000100
00000000
,
00000001
00000010
00001000
00000000
00010000
00100000
10000000
00000000
00010000
01000000
10000000
00000000
10000000
01000000
00010000
00000000
,
10010000
10000000
01000000
00001000
00000100
00010000
00001000
00000010
,
00000011
00000001
00000100
00001000
00010000
00100000
10000000
00010000
,
00100000
01000000
00010000
00001000
00000010
00000100
00001000
00000001
00000100
00001000
00010000
00100000
10000000
00010000
00100000
01000000
,
20000000
00000000
00020000
30030000
,
10000000
01000000
00200000
00000000
00301000
00000000
00010000
00100000
01000000
00000000
00010000
10000000
00000000
01000000
10000000
01000000
,
00200000
00000000
00301000
00010000
00001000
00000000
00000010
00000000
00000001
00000010
00000100
00000010
00001000
00000010
00000001
00000000
,
00001000
00000010
00000200
00000000
00001300
00000000
00000100
00000001
00001000
00000000
00000001
00000010
00000000
00000100
00000010
00001000
,
00010000
00100000
01000000
00100000
00010000
00000000
00001000
00000100
00000010
00000100
00001000
00000000
00010000
00001000
00020000
00000000
,
00031000
00000100
00000002
00000000
00000013
00000000
00000100
00001000
00000001
00000000
00000100
00001000
00000000
00010000
00100000
01000000
,
00020000
00000000
10030000
01000000
00010000
00000000
10000000
00100000
01000000
10000000
01000000
00100000
00001000
00010000
00000010
00000000
,
00010000
00001000
00000020
00000000
00000130
00000000
00001000
00000001
00000010
00000000
00000100
00000010
00000000
00000010
00000001
00001000
,
00000001
00000000
00000000
00010010
00000000
00000000
00011000
00000000
00000000
01001000
00000000
00000000
00001000
01000000
00010000
00000000
,
10000000
01000000
00020000
00000000
00031000
00000000
00010000
00000010
00000100
00000000
00000001
00001000
00000000
00000010
00000100
00001000
,
00010000
00100000
01000000
00100000
00010000
00000000
00001000
00000010
00000100
00000010
00001000
00000000
00010000
00001000
00010000
00000000
,
00001000
00000100
00000002
00000000
00001003
00000000
00000100
00000010
00000001
00000000
00000100
00000010
00000000
00000100
00001000
00010000
,
00100000
10000000
01000000
00010000
00001000
00000000
00010000
00001000
00100000
01000000
10000000
00010000
01000000
00001000
00010000
00000000
,
00011000
00000000
00000000
00000000
00001000
00010000
00000010
00001000
00000010
00000100
00000010
00000100
00000001
00001000
00000100
00000010
00000001
00000000
00000100
00000010
00001000
00000000
00000001
00000010
00000100
00001000
00010000
00100000
01000000
10000000
00010000
00000000
,
10000000
01000000
00100000
00010000
01000000
00100000
00010000
00001000
00100000
00010000
00001000
00000100
00010000
00001000
00000100
00000010
,
00001000
00000001
00000010
00000100
00001000
00000001
00000100
00000010
00000100
00001000
00010000
00100000
10000000
00010000
00100000
01000000
,
10000000
00000000
10000000
00000000
00010000
01000000
00000000
00100000
10000000
00000000
00010000
00100000
00000000
01000000
10000000
00000000
,
00010000
00000000
01000000
00000000
00001000
00010000
00000000
00000010
00010000
00000000
00001000
00100000
00000000
00001000
00010000
00000000
,
00000100
00000000
00001000
00000000
00000001
00000010
00000000
00000100
00000010
00000000
00000001
00001000
00000000
00000001
00000100
00000000
,
00000001
00000010
00001000
00010000
00100000
10000000
10010000
00000000
,
10000000
00000000
00100000
00000000
01000000
00001000
00000000
00010000
00001000
00000000
00010000
00000100
00000000
00000100
00000010
00000000
,
00000001
00000000
00001000
00000000
00000001
00000100
00000000
00000100
00001000
00000000
00001000
00010000
00000000
00010000
00100000
00000000
,
01000000
00000000
00010000
00000000
10000000
01000000
00000000
00010000
00001000
00000000
00000010
00000001
00000000
00000100
00000010
00000000
,
00000100
00001000
00010000
01000000
00010000
00001000
00011000
00000000
,
00020020
00000000
00000000
00030030
00000202
00000000
00000303
00002002
,
00000000
00000000
00000000
00000000
00000000
00003003
00020200
00030300
,
00022000
00000000
00000000
00033000
02002000
00000000
03003000
02200000
,
00000000
00000000
00000000
03300000
,
20020000
00000000
00000000
30030000
00022000
00000000
00033000
00002002
,
00000000
00000000
00000000
00000000
00000000
00003003
00022000
00033000
,
20020000
00000000
00000000
30030000
00022000
00000000
00033000
00002002
,
00000000
00000000
00000000
00000000
,
00003003
00000000
00000000
00000000
;
