#TITLE:Fegrix;
#ARTIST:Xceon vs DJ Command (Eurobeat Union);
#GENRE:EURO BEAT;
#BANNER:Fegrix.png;
#BACKGROUND:Fegrix-bg.png;
#CDTITLE:./CDTitles/bm IIDX 29 CastHour.png;
#MUSIC:Fegrix.ogg;
#SAMPLESTART:74.057;
#SAMPLELENGTH:15;
#BPMS:0=175;
#BGSTAGE:2;

//--------------- dance-single - Fred-104 ----------------
#NOTES:
     dance-single:
     Fred-104:
     Beginner:
     3:
     :
0000
0000
0000
0000
,
0000
0000
0000
0000
,
0000
0000
0000
0000
,
0000
0000
0000
0000
,
0000
0000
0000
0000
,
0000
0000
0000
0000
,
1000
0000
0000
0000
,
1000
0000
0000
0000
,
0001
0000
0000
0000
,
0001
0000
0001
0000
,
0001
0000
0000
0000
,
1000
0000
1000
0000
,
0010
0000
0010
0000
,
0001
0000
0001
0000
,
0100
0000
0100
0000
,
1000
0000
1000
0000
,
0001
0000
0001
0000
,
1000
0000
0010
0000
,
1000
0000
0001
0000
,
1001
0000
0000
0000
,
0000
0000
0000
0000
,
1001
0000
0000
0000
,
0001
0000
0010
0000
,
0010
0000
0000
0000
,
1000
0000
1000
0000
,
0100
0000
0100
0000
,
0001
0000
0001
0000
,
1000
0000
0000
0000
,
0100
0000
0100
0000
,
0010
0000
0010
0000
,
0001
0000
0001
0000
,
1000
0000
0000
0000
,
0100
0000
0100
0000
,
0001
0000
0001
0000
,
0100
0000
0100
0000
,
0010
0000
0000
0000
,
0100
0000
0100
0000
,
1000
0000
0001
0000
,
1001
0000
0000
0000
,
0000
0000
0000
0000
,
0000
0000
0000
0000
,
0000
0000
0000
0000
,
1000
0000
0000
0000
,
1000
0000
0000
0000
,
0001
0000
0000
0000
,
0001
0000
0000
0000
,
1000
0000
1000
0000
,
0100
0000
0000
0000
,
1000
0000
1000
0000
,
0001
0000
0000
0000
,
0100
0000
0100
0000
,
0010
0000
0000
0000
,
0100
0000
0001
0000
,
1001
0000
0000
0000
,
1000
0000
1000
0000
,
0010
0000
0000
0000
,
0001
0000
0001
0000
,
0010
0000
0000
0000
,
0100
0000
0100
0000
,
0010
0000
0000
0000
,
1000
0000
1000
0000
,
0001
0000
0000
0000
,
1000
0000
0001
0000
,
0001
0000
0000
0000
,
0010
0000
0010
0000
,
1000
0000
0000
0000
,
1000
0000
1000
0000
,
0100
0000
0000
0000
,
0100
0000
0100
0000
,
0001
0000
0001
0000
,
1000
0000
0000
0000
,
0001
0000
0000
0000
,
1000
0000
0001
0000
,
1001
0000
0000
0000
,
1000
0000
1000
0000
,
0100
0000
0000
0000
,
0001
0000
0100
0000
,
1000
0000
1000
0000
,
1001
0000
0000
0000
,
1000
0000
1000
0000
,
0100
0000
0100
0000
,
0010
0000
0010
0000
,
0001
0000
0001
0000
,
1000
0000
1000
0000
,
0010
0000
0010
0000
,
0100
0000
0100
0000
,
0001
0000
0001
0000
,
2002
0000
0000
3003
0000
0000
0000
0000
;

//--------------- dance-single - Fred-104 ----------------
#NOTES:
     dance-single:
     Fred-104:
     Easy:
     7:
     :
0000
0000
0000
0000
,
0000
0000
0000
0000
,
0000
0000
0000
0000
,
0000
0000
0000
0000
,
0000
0000
0000
0000
,
0000
0000
0000
0000
,
0001
0001
0010
0100
,
1000
1000
0001
0100
,
0010
0010
0100
0001
,
1000
1000
0001
0001
,
0000
0000
0000
0000
,
1000
0000
0010
0000
,
0001
0001
0100
0010
,
0100
0000
1000
0000
,
0001
1000
0001
0000
,
1000
0100
0001
0000
,
0001
0100
1000
0000
,
0001
0010
1000
0000
,
1000
0010
0001
0000
,
1000
0000
0000
1000
0000
0000
0001
0000
,
0000
0001
0000
0000
1000
0001
1000
0000
,
1001
0000
0000
0000
,
1000
1000
0100
0010
,
0001
1000
0001
0000
,
0100
0100
0010
0010
,
0100
0100
0001
0000
,
1000
1000
0001
0001
,
0100
0010
0100
0000
,
0010
0010
1000
1000
,
0001
1000
1001
0000
,
0001
0001
0010
0010
,
1000
0010
0001
0000
,
1000
0010
0001
0000
,
0001
0010
1000
0000
,
0001
0001
1000
0010
,
0100
0100
0001
0000
,
1000
1000
0001
0001
,
0010
0100
1000
0001
,
2000
0000
0000
3000
,
0002
0000
0000
0003
,
2000
0000
0000
3000
,
0002
0000
0000
0003
,
1000
0000
1000
0000
,
0010
0010
0001
0000
,
0001
0000
0100
0000
,
1000
0001
1000
0000
,
0001
0001
0100
0100
,
0010
0010
0100
0001
,
1000
0100
1000
1000
,
0010
0100
0001
0000
,
1000
1000
0100
0010
,
0100
1000
1000
0001
,
0100
0010
0100
0001
,
1001
0000
0000
0000
,
0001
0001
0010
1000
,
1000
0010
0001
0000
,
1000
1000
0001
0100
,
0020
0000
2030
3000
,
1000
1000
0100
0100
,
0001
0100
1000
1000
,
0002
0000
1003
1000
,
0020
0000
0130
0100
,
0001
0001
1000
1000
,
0100
0001
0100
0000
,
0010
0010
0001
0001
,
2000
0000
3002
0000
,
0103
0100
0010
0100
,
0001
1000
0001
0000
,
1000
0000
1000
0000
,
0001
0000
0001
0000
,
1000
0000
0001
0000
,
0200
0300
0020
0030
,
1000
0000
1000
0000
0001
1000
0001
0000
,
1000
0000
0000
0000
,
0001
0000
0010
0000
,
1000
1000
0100
0010
,
0100
0000
0001
0000
,
1000
0001
1000
0001
,
1001
0000
0000
0000
,
1000
0000
0100
0000
,
0010
0000
0001
0000
,
1000
0000
0001
0000
,
0100
0000
0010
0000
,
0100
0100
0001
0001
,
1000
1000
0001
0001
,
0010
0010
0100
0100
,
1000
1000
0001
0001
,
1000
0000
0000
1001
0000
0000
0000
0000
;

//--------------- dance-single - Fred-104 ----------------
#NOTES:
     dance-single:
     Fred-104:
     Medium:
     11:
     :
0000
0000
0000
0000
,
0000
0000
0000
0000
,
0000
0000
0000
0000
,
0000
0000
0000
0000
,
0000
0000
0000
0000
,
0000
0000
0000
0000
,
1000
0010
0000
0100
0000
0010
0000
1000
,
0000
0100
0000
0010
0001
1000
0010
0100
,
0001
1000
0000
0001
0000
0010
0000
0100
,
0010
0001
0100
0010
1000
0100
0010
0001
,
0000
0000
0000
0000
,
0001
0100
0010
0000
1000
0001
0010
0000
,
0100
0000
0000
0100
0000
0000
1000
0000
0001
0000
1000
0000
0010
0000
0000
0000
,
1000
0001
0010
0000
0100
0010
0001
0000
,
1000
0000
0010
0000
0100
0000
0000
0000
0001
0000
0000
0001
0000
0000
0001
0000
,
1000
0000
0000
1000
0000
0000
0010
0000
0100
0000
0001
0000
0100
0000
0000
0000
,
0001
0000
0000
0001
0000
0000
0010
0000
0100
0000
1000
0000
0100
0000
0000
0000
,
1000
0000
0000
1000
0000
0000
0001
0000
0100
0000
0010
0000
0100
0000
0000
0000
,
0001
0000
0000
0001
0000
0000
1000
0000
0100
0000
0010
0000
0001
0000
1000
0000
,
0001
0000
0000
0001
0000
0000
1000
0000
0000
1000
0000
0000
0001
0000
0000
0001
,
0000
0000
1000
0000
0000
1000
0000
0000
0010
0000
0100
0000
0010
0000
0000
0000
,
1001
0000
0000
0000
,
1000
0000
0010
0000
0100
0000
0000
0000
0010
0000
0000
0010
0000
0000
1000
0000
,
0001
0000
0000
0001
0000
0000
0010
0000
0100
0000
1000
0000
0001
0000
0000
0000
,
0000
1100
0000
0101
0000
1100
0000
0001
,
0100
0010
0000
0010
0100
0001
1000
0000
,
1001
0000
0001
0010
0100
1000
0001
0000
,
0100
0010
1000
0010
0100
0010
1000
0000
,
0001
0010
0100
0000
1000
0010
0100
0000
,
0001
1000
0001
1000
0100
0010
0001
1000
,
0010
0000
1000
0000
0001
0000
0000
0001
0000
0000
0010
0000
0010
0000
0000
0000
,
0100
0000
0000
0010
0000
0010
0000
0000
0001
0000
1000
0000
0001
0000
0000
0000
,
0000
0100
0000
0100
0010
1000
0010
0000
,
1000
0000
0000
0001
0000
0001
0000
0000
1000
0000
0100
0000
0010
0000
0000
0000
,
0001
0000
1000
0000
0010
0000
0000
0010
0000
0000
0100
0000
0100
0000
0000
0000
,
0010
0000
0000
1000
0000
1000
0000
0000
0100
0000
0010
0000
0100
0000
0000
0000
,
0000
0001
0000
0001
0100
0010
0100
0000
,
1000
0001
0100
0000
0010
0000
0010
0000
,
2000
0000
0000
0000
,
3002
0000
0000
0000
,
0023
0000
0000
0000
,
0230
0000
1300
1000
,
0001
0100
0001
0000
1000
0000
1000
0000
,
0100
0010
0100
0000
0010
0000
0010
0000
,
0001
1000
0001
0000
0100
0010
0100
0000
,
0010
1000
0010
1000
0001
0000
0000
0000
,
0000
1000
0000
1000
0000
0010
0000
0010
,
0000
1000
0000
1000
0000
0001
0000
0001
,
0000
0010
0000
0010
0000
0100
0000
0100
,
0000
1000
0000
1000
0000
0001
0100
0000
,
0000
0010
0000
0010
0000
0100
0000
0100
,
0000
0001
0000
0001
0000
1000
0100
1000
,
0000
0010
0000
0010
0000
0100
0001
1000
,
0002
0000
0000
0003
,
0001
0000
0000
0001
0000
0000
0001
0000
0010
0000
0100
0000
0010
0000
0100
0000
,
0000
1000
0001
1000
0010
0000
1001
0000
,
1000
0000
0000
1000
0000
0000
0010
0000
1000
0000
0001
0000
0010
0000
0000
0000
,
0100
0000
0000
0100
0000
0000
0010
0000
0001
0000
1000
0000
0010
0000
0000
0000
,
0100
0000
0000
0100
0000
0000
1000
0000
0100
0000
0010
0000
1000
0000
0001
0000
,
0000
0001
0010
0100
0010
0000
1001
0000
,
0001
0000
0000
0010
0000
0000
0100
0000
1000
0000
0001
0000
1000
0000
0000
0000
,
0010
0000
0000
0100
0000
0000
0001
0000
1000
0000
0100
0000
0010
0000
0000
0000
,
0001
0000
0000
0001
0000
0000
0100
0000
0001
0000
0100
0000
1000
0000
0100
0000
,
0000
0100
0010
0100
0001
0000
1001
0000
,
1000
0000
0000
1000
0000
0000
0010
0000
0001
0000
0010
0000
0100
0000
0000
0000
,
0010
0000
0000
0010
0000
0000
1000
0000
0100
0000
0010
0000
0001
0000
0000
0000
,
1000
0000
0000
1000
0000
0000
1000
0000
0001
0000
0100
0000
0010
0000
0100
0000
,
0000
0100
1000
0100
0010
0000
1010
0000
,
1000
0000
0000
0001
0000
0000
0010
0000
0000
0100
0000
0000
1000
0000
0000
0000
,
0001
0000
0000
0100
0000
0000
0010
0000
0000
1000
0000
0000
0001
0000
0000
0000
,
1000
0100
0010
0000
0001
1000
0010
0000
,
0100
0010
1000
0000
0010
0100
0001
0000
,
0011
1100
0101
1010
,
0001
0010
0100
0010
0000
1001
0000
0000
,
0001
1000
0010
0000
1000
0001
0010
0000
,
0100
0000
0000
0100
0000
0000
0100
0000
0010
0000
0001
0000
0010
0000
0000
0000
,
0001
1000
0010
0000
0100
0001
1000
0000
,
0100
0000
0000
0100
0000
0000
0100
0000
0010
0000
0001
0000
1000
0000
0002
0000
,
0000
0000
0000
0003
,
1000
0100
1000
0000
0100
0010
0100
0000
,
0010
0001
0010
0000
0001
0100
0001
0000
,
1000
0010
1000
0000
0010
0100
0010
0000
,
0100
0001
0100
0000
0001
1000
0001
0000
,
0010
0100
1000
0000
0001
0100
0010
0000
,
1000
0010
0100
0000
0001
1000
0100
0000
,
0010
0001
0010
0100
1000
0001
0100
0000
,
0010
1000
0010
1000
0010
0100
0001
1000
,
0100
0000
0000
0010
0000
0000
1001
0000
0000
0000
0000
0000
0000
0000
0000
0000
;

//--------------- dance-single - Fred-104 ----------------
#NOTES:
     dance-single:
     Fred-104:
     Hard:
     15:
     :
0000
0000
0000
0000
,
0000
0000
0000
0000
,
0000
0000
0000
0000
,
0000
0000
0000
0000
,
0000
0000
0000
0000
,
0000
0000
0000
0000
,
0001
0010
0001
0010
0100
1000
0001
1000
,
0010
0100
0010
0100
0001
1000
0100
0010
,
0001
1000
0001
1000
0001
0100
0010
1000
,
0001
0000
0010
0000
0100
0000
1000
0000
0001
0100
0001
0000
1000
0010
0100
0001
,
0000
0000
0000
0000
,
1000
0001
0100
0010
1000
0001
0010
0100
,
1000
0000
0001
0100
0000
0100
0001
0000
1000
0000
0100
0000
0010
0000
0001
0000
,
0100
0010
0100
0000
0001
0000
1000
0000
0001
0010
0001
0000
1000
0100
1000
0000
,
0001
0000
1000
0010
0000
0100
0001
0000
1001
0000
0000
0110
0000
0000
1001
0000
,
0001
0000
0100
0010
0000
0100
0010
0000
1000
0000
0100
0000
0110
0000
0000
0000
,
1000
0000
0100
0010
0000
0100
0010
0000
0001
0000
0100
0000
0110
0000
0010
0000
,
1000
0000
0010
0100
0000
0010
0100
0000
0001
0000
0010
0000
0110
0000
0000
0000
,
0001
0000
1000
0001
0000
0001
1000
0000
0001
0000
0010
0000
0100
1000
0001
0000
,
0200
0000
0000
0010
0000
0000
0010
0000
0000
0010
0000
0000
0010
0000
0000
0010
,
0000
0000
0010
0000
0000
0010
0000
0000
0310
0000
0010
0000
0100
0000
0000
0000
,
0110
0000
0000
0000
,
1001
0000
0001
0000
1000
0000
0010
0000
1000
0000
0001
1000
0001
0000
0010
0000
,
0100
0000
1000
0001
0000
0001
1000
0000
0010
0000
1000
0001
0000
0001
0010
0000
,
0001
0000
1000
0010
1000
0000
0001
0100
0001
0000
1000
0100
0010
0000
0001
0000
,
1000
0000
0001
0010
0001
0000
1000
0100
1000
0000
0001
0100
0010
1000
0001
0000
,
0010
0000
0100
0000
1000
0001
1000
0000
0001
0000
0100
0010
0100
0000
0001
0000
,
1000
0000
0001
0010
0000
0010
0001
0000
1000
0000
0001
0000
1000
0000
0001
0000
,
0010
0000
0100
1000
0100
0000
0010
0001
0010
0000
0001
0000
1000
0000
0010
0000
,
0100
0000
0001
1000
0001
1000
0001
0000
1000
0000
0100
0000
0001
0000
0100
0000
,
1000
0000
0001
0100
0001
0000
1000
0010
0000
1000
0001
0000
0011
0000
0000
0000
,
0100
1000
0000
0001
0000
1000
0000
0010
0100
0000
0001
0000
1001
0000
0000
0000
,
1000
0000
0001
0100
0001
0000
1000
0010
1000
0000
0001
0100
0001
0000
0010
0000
,
0100
0000
0010
0001
0000
0001
0000
0001
1000
0000
0001
1000
0001
0000
0000
0000
,
0100
0000
0010
1000
0001
0000
0010
0100
0000
1000
0001
0000
1001
0000
0000
0000
,
1000
0010
0000
0100
0000
0001
0000
1000
0100
0000
0010
0001
0010
0000
0001
0000
,
1000
0000
0001
0010
0100
0000
1000
0001
0010
0000
0100
0000
1000
0000
0001
0000
,
0100
0000
0000
0010
0000
0000
1000
0000
0000
0000
0000
0000
0010
0000
0000
0100
0000
0000
0001
0000
0000
0000
0000
0000
1000
0000
0000
0000
0100
0000
0000
0000
0010
0000
0000
0000
0001
0000
0000
0000
0010
0000
0000
0000
0100
0000
0000
0000
,
2000
0000
0000
0000
,
3002
0000
0000
0000
,
2003
0000
0000
3002
,
0000
0000
0000
0000
0000
0000
0003
0100
,
0110
0010
1000
0001
,
0010
1000
0010
0001
,
0100
0010
1000
0000
0010
0100
0001
0000
,
1000
0100
0010
0001
2000
0000
3000
0000
,
1000
0100
0010
0001
0100
0010
0001
0010
,
1000
0000
0001
0000
0010
0000
0100
0000
1000
0001
1000
0001
0100
0000
0010
0000
,
0100
0001
0010
0100
1000
0010
0100
1000
,
0001
0000
0010
0000
1000
0000
0001
0000
1000
0001
1000
0000
0010
0100
0010
0000
,
1000
0000
0001
0010
0001
0000
1000
0100
1000
0000
0001
0100
0010
0000
1000
0000
,
0001
0010
0001
0000
1000
0010
0100
0000
0010
0000
0000
0010
0000
0000
0010
0000
,
1000
0000
0001
0100
0001
0000
1000
0010
1000
0000
0001
0010
0001
0000
1000
0000
,
0100
0010
0100
0000
0010
0001
1000
0001
0000
0000
0100
0001
0000
1000
0001
0000
,
1000
0000
0000
0010
0000
0000
0010
0000
0001
0000
1000
0000
0100
0000
0020
0000
,
0000
0000
1030
0000
0100
0000
0010
0000
0001
1000
0000
0001
1000
0000
0001
0000
,
0100
0000
0000
0100
0000
0000
0010
0000
0001
0000
1000
0000
0100
0000
0001
1000
,
0001
0000
0000
0010
0000
0000
0100
0000
1000
0001
1000
0000
0010
0100
0010
0000
,
1000
0000
0000
1000
0000
0000
0001
0000
0100
0000
1000
0000
0001
0000
0020
0000
,
0000
0000
0130
0000
1000
0000
0001
0000
0010
1000
0000
0010
1000
0000
0001
0000
,
0010
0000
0000
0100
0000
0000
1000
0000
0010
0100
0001
0000
0100
0010
1000
0000
,
0100
0000
0000
0010
0000
0000
0001
0000
1000
0010
1000
0000
0001
0100
0001
0000
,
1000
0000
0001
0010
0000
0010
0001
0000
0100
0000
0010
0000
1000
0000
0002
0000
,
0000
0000
0013
0000
0100
0000
1000
0000
0001
0100
0000
0100
0010
0000
1000
0000
,
0001
0000
1000
0100
0000
0100
0010
0000
0001
0000
1000
0000
0001
0000
0100
0010
,
0100
0000
0000
1000
0000
0000
0100
0000
0010
1000
0010
0000
0100
0001
0100
0000
,
0001
0000
1000
0001
0000
0001
0010
0000
0100
0000
0010
0000
0001
0000
2000
0000
,
0000
0000
3001
0000
0100
0000
0010
0000
0100
0001
0000
0001
0010
0000
0100
0000
,
1000
0000
0001
0100
0000
0010
1000
0000
0001
0100
0000
0010
1000
0000
0001
1000
,
0001
0000
1000
0100
0000
0010
0001
0000
1000
0100
0010
0000
0001
0010
0100
0000
,
1000
0001
0100
1000
0001
0010
1000
0100
,
0010
0000
0001
1000
0001
0000
0100
0010
0100
0000
0010
1000
0010
0000
1000
0000
,
0002
0013
0200
0301
0200
0310
2000
3010
,
0001
0100
0010
1000
0000
1001
0000
0000
,
0001
0010
0100
1000
0010
0100
0010
1000
,
0001
0000
0010
0100
0000
0100
1000
0000
0001
0000
0100
0000
0010
0000
1000
0000
,
0001
1000
0001
0000
0010
0000
0100
0000
1000
0100
1000
0000
0001
0010
0001
0000
,
0100
0000
0010
0100
0000
0010
0100
0000
0001
0000
0010
0000
0100
0000
2000
0000
,
0000
0000
0000
0000
0000
3000
1001
0000
,
0001
0010
0100
1000
0001
1000
0010
0100
,
0001
0010
1000
0010
0100
0001
0100
1000
,
0001
0100
1000
0001
0010
0100
1000
0100
,
0001
0000
1000
0000
0100
0000
0010
0000
0001
1000
0001
0000
0100
0010
0100
0000
,
0001
0010
1000
0001
0100
0010
1000
0010
,
0100
1000
0010
0001
1000
0100
0010
1000
,
0001
0010
0001
0000
0010
0000
0100
0000
1000
0010
1000
0000
0010
0000
0100
0000
,
0001
0000
1000
0000
0100
0000
0010
0000
0001
1000
0001
1000
0001
1000
0001
1000
,
0001
0000
0000
1000
0000
0000
1001
0000
0000
0000
0000
0000
0000
0000
0000
0000
;

//--------------- dance-single - Fred-104† ----------------
#NOTES:
     dance-single:
     Fred-104†:
     Challenge:
     18:
     :
0000
0000
0000
0000
,
0000
0000
0000
0000
,
0000
0000
0000
0000
,
0000
0000
0000
0000
,
0000
0000
0000
0000
,
0000
0000
0000
0000
,
1000
0000
0001
0010
0100
0000
1000
0010
0100
0000
0001
0010
0100
0000
1000
0010
,
0100
0000
0001
0100
0010
0000
1000
0100
0010
0001
1000
0000
0010
0100
0001
0000
,
1000
0000
0001
0100
0010
0000
1000
0100
0010
0000
0001
0100
0010
0000
1000
0100
,
0010
0000
0000
0001
0000
0000
0010
0000
0000
0001
0000
0000
1000
0000
0000
0010
0000
0000
1000
0000
0000
0010
0000
0000
1000
0000
0000
0001
0000
0000
1000
0000
0000
0001
0000
0000
0100
0000
0010
0000
0100
0000
0001
0000
0000
1000
0000
0000
,
0000
0000
0000
0000
,
0001
0000
1000
0001
0000
0010
0100
0010
0001
0010
0001
1000
0010
0100
0001
0100
,
0001
0000
1000
0100
0000
0010
0100
0010
0001
1000
0001
1000
0010
0000
1000
0000
,
0001
0010
0001
0010
0100
1000
0001
0000
0100
0010
0100
0010
1000
0001
0010
0001
,
0010
0000
0000
0000
0000
0000
0100
0000
0000
1000
0000
0000
0000
0000
0000
0001
0000
0000
1000
0000
0010
0000
0100
0000
0001
0000
0000
0000
0000
0000
0000
0000
0000
1100
0000
0000
0000
0000
0000
0000
0000
0000
0101
0000
0000
0000
0000
0000
,
1000
0000
0001
0010
0000
0100
1000
0001
0010
0000
0100
0000
0110
0000
0000
0000
,
0001
0000
1000
0010
0000
0100
0001
1000
0010
0000
0100
0000
0012
0000
1003
0000
,
0001
0000
0100
0010
0000
1000
0010
0100
0001
0000
1000
0000
0102
1003
0001
0010
,
0100
0000
0000
0000
0000
0000
1000
0000
0000
0001
0000
0000
0000
0000
0000
1000
0000
0000
0001
0000
0000
0000
0000
0000
0100
0000
0000
0010
0000
0000
1000
0000
0000
0001
0000
0000
0010
0000
0100
0000
1000
0000
0001
0000
0000
0000
0000
0000
,
2000
0000
0000
0010
0000
0000
0010
0000
0000
0001
0000
0000
0100
0000
0000
0001
,
0000
0000
0001
0000
0000
0100
0000
0000
3100
0000
0100
0000
0010
0100
0010
0100
,
0110
0000
0000
0000
,
1001
0000
1000
0001
0010
0000
0100
1000
0001
1000
0010
1000
0001
0000
0010
0000
,
0100
0010
0001
0010
0001
0000
0100
0000
0010
1000
0001
0010
0100
1000
0001
0100
,
0020
0000
0000
0000
0000
0000
0000
0000
1000
0000
0000
0000
0100
0000
0000
0030
0020
0000
0000
0000
0000
0000
0000
0000
0001
0000
0000
0000
0100
0000
0000
0030
0020
0000
0000
0000
0000
0000
0000
0000
1000
0000
0000
0000
0100
0000
0000
0030
0010
0000
0000
0000
0001
0000
0000
0000
1000
0000
0000
0000
0001
0000
0000
0000
,
0200
0000
0000
0000
0000
0000
0000
0000
0010
0000
0000
0000
1000
0000
0000
0300
0200
0000
0000
0000
0000
0000
0000
0000
0010
0000
0000
0000
0001
0000
0000
0300
0100
0000
0000
0000
0000
0000
0000
0000
0010
0000
0000
0000
0100
0000
0000
0000
0001
0000
0000
0000
1000
0000
0000
0000
0001
0000
0000
0000
0010
0000
0000
0000
,
0100
0000
1000
0001
0010
0100
0000
0100
0010
0000
0001
1000
0010
0000
1000
0000
,
0001
0000
1000
0100
0000
1000
0010
1000
0002
0000
0023
0000
0230
0000
2300
0000
,
3002
0000
0000
0000
0000
0000
0000
0000
0010
0000
0000
0000
0100
0000
0000
0003
0002
0000
0000
0000
0000
0000
0000
0000
0100
0000
0000
0000
0010
0000
0000
0003
0002
0000
0000
0000
0000
0000
0000
0000
2003
0000
0000
0000
0000
0000
0000
0000
3020
0000
0000
0000
0000
0000
0000
0000
0230
0000
0000
0000
0000
0000
0000
0000
,
0301
0000
0000
1000
0000
0000
0100
0000
0000
1000
0000
0000
0100
0000
0000
0010
0000
0000
0001
0000
1000
0000
0001
0000
0200
0000
0000
0000
0000
0000
0320
0000
0000
0000
0000
0000
2030
0000
0000
0000
0000
0000
3002
0000
0000
0000
0000
0000
,
0013
0000
0100
1000
0001
0000
1000
0010
0000
1000
0001
1000
0100
0000
0010
0000
,
0001
1000
0010
1000
0100
1000
0010
1000
0001
0000
1100
0000
0110
0000
0010
0001
,
2000
0000
0000
0000
0000
0000
0000
0000
0010
0000
0000
0000
0100
0000
0000
3000
2000
0000
0000
0000
0000
0000
0000
0000
0100
0000
0000
0000
0010
0000
0000
3000
1000
0000
0000
0000
0001
0000
0000
0000
0010
0000
0000
0000
0100
0000
0000
0000
0010
0000
0000
0000
0000
0000
0000
0000
0010
0000
0000
0000
0001
0000
0000
0000
,
1000
0000
0010
0100
0000
0100
0000
0100
0010
1000
0001
1000
0001
0000
0000
0000
,
1000
0000
0100
0010
0100
0000
1000
0001
0000
1000
0010
0100
0001
0000
0000
0000
,
1000
0001
0000
0010
0000
0100
0010
0001
0100
0000
0010
1000
0001
0010
0100
0000
,
2000
0000
0000
0000
0000
0000
0000
0000
0001
0000
0000
0000
0100
0000
0000
3000
2000
0000
0000
0000
0000
0000
0000
0000
0001
0000
0000
0000
0010
0000
0000
3000
2000
0000
0000
0000
0000
0000
0000
0000
3200
0000
0000
0000
0000
0000
0000
0000
0320
0000
0000
0000
0000
0000
0000
0000
0032
0000
0000
0000
0000
0000
0000
0000
,
1003
0000
0000
0010
0000
0000
1000
0000
0000
0001
0000
0000
0010
0000
0000
0100
0000
0000
0010
0000
0100
0000
1000
0000
0001
0000
0000
0000
0100
0000
0000
0000
0010
0000
0000
0000
1000
0000
0000
0000
0100
0000
0000
0000
0010
0000
0000
0000
,
0011
0000
0000
0000
,
0000
0000
0000
0000
,
0000
0000
0000
0000
,
0000
0000
0000
0000
0000
0000
0000
0001
,
1001
1000
0010
0000
0100
0001
1000
0000
,
0100
0010
0001
0000
0100
0010
1000
0000
,
0001
0010
0100
0000
1000
0001
0100
0000
,
0100
0001
0100
0000
0010
1000
0010
0000
1000
0000
0001
0010
0001
1000
0001
1000
,
0002
0000
0000
0000
0000
0000
0000
0000
1000
0000
0000
0000
0010
0000
0000
0003
0002
0000
0000
0000
0000
0000
0000
0000
1000
0000
0000
0000
0100
0000
0000
0003
0001
0000
0000
0000
1000
0000
0000
0000
0100
0000
0000
0000
1000
0000
0000
0000
0010
0000
0000
0000
0100
0000
0000
0000
0001
0000
0000
0000
0000
0000
0000
0000
,
1000
0100
1000
0000
1000
0100
1000
0000
0001
0010
0100
1000
0001
1000
0001
1000
,
0010
1000
0001
0100
0001
1000
0010
1000
0001
0010
0100
1000
0001
0100
0010
0000
,
1000
0001
0010
0001
0010
0100
1000
0000
0001
1000
0010
0100
0002
0003
0002
0003
,
1000
0010
1000
0000
1000
0010
1000
0000
0001
0010
0100
1000
0100
0010
0001
1000
,
0001
0000
0000
0000
0100
0000
0010
0000
0000
0000
0000
0000
1000
0000
0000
0001
0000
0000
1000
0000
0000
0001
0000
0000
0020
0000
0000
0030
0000
0000
0000
0000
0000
0020
0000
0000
0030
0000
0000
0000
0000
0000
0020
0000
0000
0030
0000
0000
,
0001
0000
1000
0100
1000
0001
0100
0010
1000
0001
0010
0100
0010
0001
1000
0001
,
0100
0010
1000
0001
0100
0010
1000
0001
0000
0000
0001
0010
0000
0010
0001
1000
,
0001
0000
0100
0010
0000
0010
1000
0000
0002
0000
2003
0000
3200
0000
0010
0000
,
0000
0000
2300
0000
3002
0000
2003
0000
3010
0100
0000
0100
0002
0000
2003
0000
,
3001
0000
0100
0010
0000
0010
0001
0000
2000
0000
3200
0000
0320
0000
1030
0001
,
0020
0000
0000
0100
0000
0000
0130
0000
1000
0001
1000
0010
0100
0001
0100
0001
,
1000
0000
0001
0100
0000
0100
1000
0000
0200
0000
0320
0000
2030
0000
0001
0000
,
0000
0000
3200
0000
0320
0000
0032
0000
1003
0010
0000
0010
0100
0001
1000
0001
,
1000
0100
0010
0001
0010
0100
1000
0000
0001
0010
0001
0100
0010
1000
0100
1000
,
0001
0000
0100
0010
0000
0010
0100
0000
0001
1000
0100
0010
0001
0100
0010
1000
,
0002
0000
0000
0000
0000
0000
0000
0000
0100
0000
0000
0000
0010
0000
0000
0003
0002
0000
0000
0000
0000
0000
0000
0000
0010
0000
0000
0000
0100
0000
0000
0003
0002
0000
0000
0000
0000
0000
0000
0000
2003
0000
0000
0000
0000
0000
0000
0000
3200
0000
0000
0000
0000
0000
0000
0000
0320
0000
0000
0000
0000
0000
0000
0000
,
0031
1000
0020
0000
2030
0000
3002
0000
0013
0100
0000
0100
1000
0001
1000
0010
,
0100
0000
1000
0100
0000
0100
0010
0000
0002
0000
0023
0000
2030
0000
3001
0010
,
0100
0000
1000
0001
0000
0001
0100
0000
0010
1000
0100
1000
0010
0100
0001
0010
,
0001
0000
1000
0010
0000
0010
0200
0000
2300
0000
3002
0000
0023
0000
2030
0000
,
3100
0010
0002
0000
2003
0000
3002
0000
0103
0010
0000
0010
0100
0001
0100
0001
,
1000
0010
0100
0001
0100
0010
1000
0000
0001
0100
0010
1000
0100
1000
0010
0100
,
0001
0000
1000
0100
0000
1000
0100
0000
0010
0001
0100
0010
1000
0001
0010
0100
,
0010
0000
0001
1000
0001
0000
0100
0010
0100
0000
0010
1000
0010
0100
0010
0100
,
0001
1000
0001
0010
0000
0100
1000
0001
0000
1000
0010
0100
0000
0001
1000
0001
,
2000
0000
3100
0010
0002
0000
1003
0100
0020
0000
0031
1000
0200
0000
0310
0001
,
1000
0001
0100
0010
1000
0100
0010
0000
0000
0000
1001
0000
0000
0000
1000
0001
,
1000
0000
0001
0100
0001
0000
1000
0010
1000
0001
1000
0100
0010
0000
0001
0000
,
1000
0000
0001
0100
0000
0010
0100
0010
1000
0001
0010
0100
0010
0000
0001
0000
,
0200
0000
0000
0000
0000
0000
0000
0000
0001
0000
0000
0000
1000
0000
0000
0300
0200
0000
0000
0000
0000
0000
0000
0000
1000
0000
0000
0000
0001
0000
0000
0300
0100
0000
0000
0000
0000
0000
0000
0000
0010
0000
0000
0000
0000
0000
0000
0000
0110
0000
0000
0000
0000
0000
0000
0000
0000
0000
0000
0000
0000
0000
0000
0000
,
1000
0000
0000
0000
0000
0000
0001
0000
0000
0010
0000
0000
0000
0000
0000
0100
0000
0000
1000
0000
0000
0000
0000
0000
0001
0000
0000
0000
0000
0000
1000
0000
0010
0000
1000
0000
0010
0000
0000
0000
0000
0000
0100
0000
0001
0000
0100
0000
,
0001
0000
0000
0000
0000
1000
0001
0000
,
1000
0100
1000
0100
0010
0100
0010
0100
1000
0001
1000
0001
0100
0010
0100
0010
,
1000
0001
1000
0001
0010
0100
0010
0100
0010
0001
0010
0001
1000
0010
1000
0010
,
0100
0001
0100
0001
1000
0001
1000
0001
0010
0001
0010
0001
1000
0100
1000
0100
,
0010
0100
0010
0100
0010
0001
0010
0001
1000
0010
1000
0010
0100
0001
0100
0001
,
1000
0001
0010
0100
1000
0100
0010
0001
1000
0010
1000
0001
0100
0010
1000
0001
,
0010
0100
0010
0001
1000
0100
1000
0001
0100
0010
1000
0001
0010
0100
1000
0001
,
0100
0010
1000
0100
0010
0001
1000
0010
0100
0001
0010
0100
1000
0010
0100
0001
,
1000
0001
0010
0100
1000
0010
1000
0100
0010
0001
0100
0010
1000
0100
1000
0001
,
0100
0000
0000
0110
0000
0000
1001
0000
0000
0000
0000
0000
0000
0000
0000
0000
;

//--------------- dance-double - Fred-104 ----------------
#NOTES:
     dance-double:
     Fred-104:
     Easy:
     6:
     :
00000000
00000000
00000000
00000000
,
00000000
00000000
00000000
00000000
,
00000000
00000000
00000000
00000000
,
00000000
00000000
00000000
00000000
,
00000000
00000000
00000000
00000000
,
00000000
00000000
00000000
00000000
,
00010000
00000000
00001000
00000000
,
00010000
00010000
00000100
00000010
,
00000001
00000000
00001000
00000000
,
00000001
00000100
00001000
00010000
,
00000000
00000000
00000000
00000000
,
00001000
00001000
00100000
01000000
,
00100000
00010000
10000000
00000000
,
00010000
00010000
01000000
00100000
,
00010000
00001000
00010000
00000000
,
00001000
00000000
00010000
00010000
,
00000100
00000000
00000010
00000010
,
00000001
00000000
00001000
00001000
,
00000001
00000000
00000100
00001000
,
00010000
00000000
00000000
00010000
00000000
00000000
00001000
00000000
,
00000000
00001000
00000000
00000000
00010000
00001000
00010000
00000000
,
00011000
00000000
00000000
00000000
,
00001000
00000000
00010000
00000000
,
01000000
01000000
10000000
00000000
,
00010000
00010000
10000000
10000000
,
00100000
00010000
00001000
00000000
,
00010000
00000000
00000100
00000000
,
00000010
00000001
00001000
00000000
,
00000001
00000001
00000100
00000100
,
00001000
00010000
00011000
00000000
,
00010000
00001000
00010000
00010000
,
00000010
00001000
00000001
00000000
,
00001000
00001000
00000100
00000010
,
00000001
00000001
00001000
00000000
,
00000010
00000010
00000100
00001000
,
00010000
00010000
00001000
00000000
,
01000000
01000000
00100000
01000000
,
00010000
10000000
01000000
00010000
,
00002000
00000000
00000000
00003000
,
00020000
00000000
00000000
00030000
,
00002000
00000000
00000000
00003000
,
00020000
00000000
00000000
00030000
,
00001000
00000000
00010000
00000000
,
00000010
00000000
00001000
00000000
,
00000001
00000000
00000010
00000000
,
00000100
00010000
00001000
00000000
,
00010000
00010000
00001000
00001000
,
00100000
00010000
10000000
00000000
,
00010000
00010000
01000000
00100000
,
10000000
01000000
00010000
00000000
,
00001000
00001000
00010000
00000100
,
00000010
00000001
00001000
00000000
,
00000001
00000010
00001000
00010000
,
00002000
00000000
00000000
00003000
,
00010000
00010000
00001000
00001000
,
00100000
00010000
01000000
00000000
,
00100000
00100000
10000000
01000000
,
00010000
00000000
00001000
00001000
,
00010000
00010000
00000100
00000100
,
00000010
00000001
00001000
00000000
,
00000001
00000000
00000100
00001000
,
00010000
00000000
01000000
10000000
,
00010000
00010000
01000000
00100000
,
00010000
00001000
00010000
00000000
,
00000100
00000100
00001000
00000001
,
00000100
00000100
00001000
00000000
,
00010000
00010000
00001000
00010000
,
00000010
00001000
00000010
00000000
,
00010000
00000000
00000000
00010000
00000000
00000000
00001000
00000000
,
00001000
00000000
00000000
00001000
00000000
00000000
00010000
00000000
,
00001000
00000000
00100000
00000000
,
01000000
01000000
10000000
10000000
,
00100000
00100000
00010000
00010000
,
00011000
00000000
00000000
00000000
,
00010000
00010000
00000010
00000100
,
00000010
00001000
00000001
00000000
,
00001000
00001000
00000100
00000010
,
00001000
00010000
00001000
00010000
,
00011000
00000000
00000000
00000000
,
00001000
00000000
00100000
00000000
,
00010000
00000000
10000000
00000000
,
00100000
00000000
01000000
00000000
,
00001000
00000000
00010000
00000000
,
00000100
00000100
00000010
00000010
,
00000001
00000001
00001000
00001000
,
00000010
00000100
00001000
00010000
,
00001000
00100000
00010000
01000000
,
00001000
00000000
00000000
00011000
00000000
00000000
00000000
00000000
;

//--------------- dance-double - Fred-104 ----------------
#NOTES:
     dance-double:
     Fred-104:
     Medium:
     11:
     :
00000000
00000000
00000000
00000000
,
00000000
00000000
00000000
00000000
,
00000000
00000000
00000000
00000000
,
00000000
00000000
00000000
00000000
,
00000000
00000000
00000000
00000000
,
00000000
00000000
00000000
00000000
,
00001000
00001000
00000000
00100000
00000000
00010000
00000000
10000000
,
00000000
00010000
00000000
01000000
00000000
00100000
00010000
00001000
,
00010000
00010000
00000000
00000100
00000000
00001000
00000000
00000001
,
00000100
00000010
00000100
00000000
00001000
00010000
00001000
00010000
,
00000000
00000000
00000000
00000000
,
00001000
00100000
00010000
00000000
10000000
00100000
01000000
00000000
,
00010000
00000000
00000000
00010000
00000000
00000000
00010000
00000000
00100000
00000000
01000000
00000000
00010000
00000000
00000000
00000000
,
00001000
00010000
00000100
00000000
00000010
00000001
00001000
00000000
,
00000001
00000000
00000000
00000001
00000000
00000000
00000001
00000000
00000100
00000000
00001000
00000000
00010000
00000000
00000000
00000000
,
00001000
00000000
00000000
00100000
00000000
00000000
00010000
00000000
01000000
00000000
00001000
00000000
00010000
00000000
00000000
00000000
,
00001000
00000000
00000000
00010000
00000000
00000000
00000010
00000000
00001000
00000000
00000100
00000000
00010000
00000000
00000000
00000000
,
00001000
00000000
00000000
00010000
00000000
00000000
00100000
00000000
01000000
00000000
00010000
00000000
10000000
00000000
00000000
00000000
,
01000000
00100000
00001000
00010000
00000100
00010000
00001000
00000000
,
00010000
00000000
00000000
00010000
00000000
00000000
00001000
00000000
00000000
00001000
00000000
00000000
00000010
00000000
00000000
00000010
,
00000000
00000000
00000001
00000000
00000000
00000100
00000000
00000000
00001000
00000000
00010000
00000000
00100000
00000000
00000000
00000000
,
10100000
00000000
00000000
00000000
,
10000000
00010000
10000000
00000000
01000000
00100000
00001000
00000000
,
00010000
00000100
00001000
00000000
00000001
00001000
00000010
00000000
,
00000000
00000100
00000000
00000100
00000000
00001000
00010000
00001000
,
00000000
00100000
00000000
00100000
00010000
10000000
00010000
00000000
,
01000000
00100000
01000000
00000000
00100000
10000000
01000000
00000000
,
00100000
00000000
00000000
00001000
00000000
00001000
00000000
00000000
00010000
00000000
00000100
00000000
00001000
00000000
00000010
00000000
,
00010000
00001000
00000000
00001000
00010000
00000100
00000010
00000001
,
00001000
00000001
00000100
00001000
00010000
00000000
00011000
00000000
,
00001000
00000000
00100000
00000000
01000000
00000000
00000000
00100000
00000000
00000000
00010000
00000000
00010000
00000000
00000000
00000000
,
10000000
00000000
00000000
00100000
00000000
00100000
00000000
00000000
00010000
00000000
00001000
00000000
00010000
00000000
00000000
00000000
,
00000000
00000100
00000000
00000100
00000010
00000001
00001000
00000010
,
00010000
00000000
00000000
00001000
00000000
00001000
00000000
00000000
00010000
00000000
01000000
00000000
00100000
00000000
00000000
00000000
,
00010000
00000000
10000000
00000000
00100000
00000000
00000000
00010000
00000000
00000000
00001000
00000000
00001000
00000000
00000000
00000000
,
00010000
00000000
00000000
00000100
00000000
00000100
00000000
00000000
00000010
00000000
00000100
00000000
00001000
00000000
00000000
00000000
,
00000000
00000001
00000000
00000001
00000100
00001000
00010000
00000000
,
00001000
00100000
00010000
00000000
00100000
00000000
00001000
00000000
,
00012000
00000000
00000000
00000000
,
00023000
00000000
00000000
00000000
,
00030020
00000000
00000000
00000000
,
00020030
00000000
00000000
00031000
,
00010000
00001000
00100000
00000000
00010000
00000000
01000000
00000000
,
00100000
10000000
01000000
00000000
00010000
00000000
00001000
00000000
,
00010000
00000100
00000010
00000000
00000001
00001000
00000001
00000000
,
00000100
00000010
00000100
00001000
00010000
00000000
00011000
00000000
,
00000000
00001000
00000000
00100000
00000000
00010000
00000000
10000000
,
00000000
00010000
00000000
01000000
00000000
00100000
10000000
00100000
,
00000000
01000000
00000000
00100000
00000000
00010000
00000000
00001000
,
00000000
00010000
00000000
00000100
00000000
00000010
00000001
00000000
,
00000000
00001000
00000000
00000001
00000000
00000100
00000000
00001000
,
00000000
00010000
00000000
00001000
00000000
00000010
00001000
00010000
,
00000000
00001000
00000000
00100000
00000000
00010000
10000000
00100000
,
02000000
00000000
00000000
03000000
,
00010000
00000000
00000000
00010000
00000000
00000000
00010000
00000000
10000000
00000000
01000000
00000000
00010000
00000000
00001000
00000000
,
00000000
00001000
00010000
00000100
00001000
00000000
00001001
00000000
,
00000001
00000000
00000000
00000001
00000000
00000000
00000001
00000000
00001000
00000000
00000010
00000000
00000001
00000000
00000010
00000000
,
00001000
00000000
00000000
00001000
00000000
00000000
00000001
00000000
00000010
00000000
00000100
00000000
00010000
00000000
00000000
00000000
,
00001000
00000000
00000000
00001000
00000000
00000000
00001000
00000000
00100000
00000000
00010000
00000000
10000000
00000000
00010000
00000000
,
00000000
00010000
01000000
10000000
01000000
00000000
01010000
00000000
,
00010000
00000000
00000000
10000000
00000000
00000000
01000000
00000000
00100000
00000000
00001000
00000000
00010000
00000000
00000000
00000000
,
00000010
00000000
00000000
00001000
00000000
00000000
00000001
00000000
00000010
00000000
00000100
00000000
00010000
00000000
00000000
00000000
,
00001000
00000000
00000000
00001000
00000000
00000000
00001000
00000000
00010000
00000000
00100000
00000000
00010000
00000000
00001000
00000000
,
00000000
00001000
00010000
00000100
00000010
00000000
00000011
00000000
,
00001000
00000000
00000000
00001000
00000000
00000000
00001000
00000000
00000001
00000000
00000100
00000000
00001000
00000000
00010000
00000000
,
00001000
00000000
00000000
00001000
00000000
00000000
00001000
00000000
01000000
00000000
00010000
00000000
00100000
00000000
00000000
00000000
,
00001000
00000000
00000000
00001000
00000000
00000000
00001000
00000000
00010000
00000000
00000100
00000000
00000010
00000000
00000100
00000000
,
00000000
00000100
00000001
00000100
00000010
00000000
00000011
00000000
,
00001000
00000000
00000000
00000001
00000000
00000000
00000010
00000000
00000000
00000100
00000000
00000000
00010000
00000000
00001000
00000000
,
00100000
00000000
00000000
01000000
00000000
00000000
10000000
00000000
00000000
00010000
00000000
00000000
01000000
00000000
00100000
00000000
,
10000000
01000000
00010000
00000000
00001000
00000010
00000001
00000000
,
00001000
00000010
00000100
00000000
00001000
00010000
00001000
00000000
,
00101000
00010010
01001000
00010100
,
00001000
00010000
00100000
10000000
00000000
10010000
00000000
00000000
,
00010000
10000000
01000000
00000000
00100000
00001000
00010000
00000000
,
00001000
00000000
00000000
00001000
00000000
00000000
00001000
00000000
00010000
00000000
00000100
00000000
00000010
00000000
00000000
00000000
,
00000001
00001000
00000001
00000000
00000100
00000010
00000100
00000000
,
00001000
00000000
00000000
00001000
00000000
00000000
00001000
00000000
00010000
00000000
00000010
00000000
00001000
00000000
00000000
00000000
,
00002002
00000000
00000000
00003003
,
00000001
00001000
00000001
00000000
00000100
00000010
00000100
00000000
,
00001000
00010000
00001000
00000000
00100000
00010000
10000000
00000000
,
00100000
01000000
00010000
00000000
10000000
01000000
00010000
00000000
,
00001000
00010000
00100000
00000000
00010000
00001000
00010000
00000000
,
00000100
00001000
00000001
00001000
00000010
00000100
00000001
00000000
,
00001000
00000100
00000010
00000001
00000010
00000100
00001000
00000000
,
00000100
00010000
00001000
00010000
00001000
00100000
00010000
00000000
,
01000000
00100000
10000000
01000000
00100000
00001000
00010000
00000100
,
00000010
00000000
00000000
00000001
00000000
00000000
00001001
00000000
00000000
00000000
00000000
00000000
00000000
00000000
00000000
00000000
;

//--------------- dance-double - Fred-104 ----------------
#NOTES:
     dance-double:
     Fred-104:
     Hard:
     15:
     :
00000000
00000000
00000000
00000000
,
00000000
00000000
00000000
00000000
,
00000000
00000000
00000000
00000000
,
00000000
00000000
00000000
00000000
,
00000000
00000000
00000000
00000000
,
00000000
00000000
00000000
00000000
,
00001000
00010000
00001000
00010000
00000010
00001000
00000010
00001000
,
00000100
00000010
00000001
00000100
00000010
00001000
00000100
00000010
,
00000001
00001000
00000001
00001000
00000010
00000100
00001000
00010000
,
00001000
00000000
00100000
00000000
00010000
00000000
10000000
00000000
00100000
01000000
00100000
00000000
10000000
01000000
00100000
00010000
,
00000000
00000000
00000000
00000000
,
10000000
00100000
10000000
01000000
00100000
00001000
00010000
00000100
,
00000010
00000000
00000000
00000001
00000000
00000000
00001000
00000000
00000001
00000000
00000100
00000000
00001000
00000000
00010000
00000000
,
00001000
00010000
00001000
00000000
00100000
00000000
01000000
00000000
10000000
00010000
10000000
00000000
00010000
01000000
00010000
00000000
,
00100000
00000000
00001000
00010000
00000000
00001000
00010000
00000000
00011000
00000000
00000000
00001100
00000000
00000000
00000101
00000000
,
00000001
00000000
00000010
00000100
00000000
00000010
00000100
00000000
00010000
00000000
00001000
00000000
00011000
00000000
00000000
00000000
,
00010000
00000000
00001000
00000100
00000000
00001000
00000100
00000000
00000001
00000000
00001000
00000000
00000100
00000000
00000010
00000000
,
00001000
00000000
00010000
00001000
00000000
00010000
00001000
00000000
00100000
00000000
01000000
00000000
11000000
00000000
00000000
00000000
,
00010000
00000000
10000000
00100000
00000000
10000000
00100000
00000000
01000000
00000000
00100000
00000000
00010000
00001000
00010000
00000000
,
00001000
00000000
00000000
00010000
00000000
00000000
00100000
00000000
00000000
10000000
00000000
00000000
01000000
00000000
00000000
00010000
,
00000000
00000000
00001000
00000000
00000000
00000010
00000000
00000000
00000001
00000000
00000100
00000000
00001000
00000000
00010000
00000000
,
00011000
00000000
00000000
00000000
,
00010000
00000000
00001000
00000000
01000000
00000000
00010000
00000000
00100000
00000000
00001000
00010000
00001000
00000000
00010000
00000000
,
00000100
00000000
00000010
00000001
00000000
00000010
00000001
00000000
00000100
00000000
00000010
00001000
00000000
00000010
00001000
00000000
,
00000100
00000000
00000010
00000000
00001000
00000000
00010000
00000000
00001000
00000000
00100000
00010000
00100000
00000000
01000000
00000000
,
10000000
00000000
00100000
00000000
00010000
00000000
00100000
00000000
01000000
00000000
00010000
01000000
00100000
10000000
00010000
00000000
,
10000000
00000000
01000000
00000000
00100000
00010000
00100000
00000000
00001000
00000000
00010000
00000010
00010000
00000000
00001000
00000000
,
01000000
00000000
00010000
00100000
00000000
00100000
00010000
00000000
01000000
00000000
00001000
00000000
00010000
00000000
00000100
00000000
,
00000010
00000001
00000100
00000010
00000100
00001000
00010000
00001000
,
00100000
00000000
00010000
10000000
00010000
10000000
00010000
00000000
01000000
00000000
00100000
00000000
00010000
00000000
00001000
00000000
,
00010000
00000000
00001000
00010000
00001000
00000000
00100000
00010000
00000000
01000000
00100000
00000000
10100000
00000000
00000000
00000000
,
00010000
10000000
00000000
01000000
00000000
00010000
00000000
00001000
00010000
00000000
00001000
00000000
00011000
00000000
00000000
00000000
,
00010000
00000000
00001000
00000000
00000010
00000000
00001000
00000000
00010000
00000000
00000100
00001000
00000100
00000000
00000010
00000000
,
00000001
00000000
00001000
00000010
00000000
00000010
00000000
00000010
00000100
00000000
00001000
00010000
00001000
00000000
00000000
00000000
,
00010000
00000000
00001000
00100000
00010000
00000000
10000000
00010000
00000000
00100000
01000000
00000000
01100000
00000000
00000000
00000000
,
00100000
00001000
00000000
00010000
00000000
00001000
00000000
00000100
00000001
00000000
00001000
00000010
00001000
00000000
00000100
00000000
,
00010000
00001000
01000000
00100000
00010000
00001000
00000100
00000001
,
00001000
00000000
00000000
00000100
00000000
00000000
00000010
00000000
00000000
00000000
00000000
00000000
00000001
00000000
00000000
00000100
00000000
00000000
00000010
00000000
00000000
00000000
00000000
00000000
00001000
00000000
00000000
00000000
00000001
00000000
00000000
00000000
00000010
00000000
00000000
00000000
00000100
00000000
00000000
00000000
00001000
00000000
00000000
00000000
00000100
00000000
00000000
00000000
,
00020000
00000000
00000000
00000000
,
00032000
00000000
00000000
00000000
,
00023000
00000000
00000000
00000000
,
00032000
00000000
00000000
00000000
00000000
00000000
00003000
00010000
,
00011000
00000000
00001000
00000000
00100000
00010000
10000000
00000000
,
00010000
00000000
01000000
00000000
00100000
10000000
01000000
00000000
,
00100000
00001000
00010000
00000000
00001000
00000100
00000010
00000000
,
00000001
00000010
00000100
00000010
00001000
00000100
00010000
00000000
,
00001000
00100000
00010000
10000000
00100000
01000000
00010000
10000000
,
01000000
00000000
00100000
00000000
00001000
00000000
00010000
00000000
00000010
00001000
00000010
00001000
00000100
00000000
00000010
00000000
,
00001000
00010000
00001000
00100000
01000000
00100000
00010000
00001000
,
00000100
00000000
00000010
00000000
00001000
00000000
00000010
00000000
00000001
00001000
00000001
00000000
00000100
00000010
00000100
00000000
,
00000010
00000000
00010000
00001000
00010000
00000000
00001000
00100000
00001000
00000000
00010000
00000100
00010000
00000000
00000100
00000000
,
00000010
00000001
00000010
00000000
00000100
00001000
00000100
00000000
00010000
00000000
00000000
00010000
00000000
00000000
00010000
00000000
,
00001000
00000000
00100000
00010000
00100000
00000000
01000000
10000000
01000000
00000000
00100000
00001000
00100000
00000000
00001000
00000000
,
00010000
00001000
00010000
00000000
00000010
00001000
00000010
00001000
00000000
00000000
00000001
00001000
00000000
00000001
00001000
00000000
,
00000001
00000000
00000000
00000001
00000000
00000000
00000100
00000000
00000010
00000000
00000001
00000000
00000010
00000000
00000200
00000000
,
00000000
00000000
00001300
00000000
00010000
00000000
00100000
00000000
10000000
01000000
00000000
01000000
00100000
00000000
00001000
00000000
,
00010000
00000000
00000000
00010000
00000000
00000000
00001000
00000000
00000010
00000000
00000100
00000000
00000001
00000000
00000100
00001000
,
00000100
00000000
00000000
00010000
00000000
00000000
00001000
00000000
01000000
00010000
01000000
00000000
00100000
10000000
00100000
00000000
,
10000000
00000000
00000000
10000000
00000000
00000000
01000000
00000000
00100000
00000000
01000000
00000000
00010000
00000000
00002000
00000000
,
00000000
00000000
00003100
00000000
00000001
00000000
00000010
00000000
00000100
00001000
00000000
00001000
00000010
00000000
00010000
00000000
,
00001000
00000000
00000000
00100000
00000000
00000000
00001000
00000000
00010000
00001000
00100000
00000000
00010000
10000000
00100000
00000000
,
01000000
00000000
00000000
00100000
00000000
00000000
00010000
00000000
00001000
00010000
00000100
00000000
00001000
00000001
00000100
00000000
,
00000010
00000000
00000000
00000010
00000000
00000000
00000001
00000000
00001000
00000000
00000100
00000000
00000010
00000000
00020000
00000000
,
00000000
00000000
00031000
00000000
00100000
00000000
00010000
00000000
00100000
01000000
00000000
01000000
10000000
00000000
00010000
00000000
,
01000000
00000000
00000000
01000000
00000000
00000000
00100000
00000000
00010000
00000000
10000000
00000000
01000000
00000000
00100000
10000000
,
01000000
00000000
00000000
00100000
00000000
00000000
00001000
00000000
00010000
00000100
00010000
00000000
00000100
00001000
00000100
00000000
,
00010000
00000000
00000000
00010000
00000000
00000000
00001000
00000000
00010000
00000000
00100000
00000000
01000000
00000000
20000000
00000000
,
00000000
00000000
30010000
00000000
00100000
00000000
10000000
00000000
01000000
00100000
00000000
00100000
00001000
00000000
00010000
00000000
,
00001000
00000000
00010000
00000010
00000000
00001000
00000010
00000000
00010000
00000100
00000000
00001000
00000100
00000000
00010000
00000000
,
00001000
00000000
00010000
00000100
00000000
00001000
00000010
00000000
00000100
00000001
00000010
00000000
00000100
00001000
00000010
00000000
,
00010000
00001000
00100000
01000000
00010000
10000000
00100000
00010000
,
10000000
00000000
00100000
01000000
00100000
00000000
00010000
00001000
00010000
00000000
00000010
00001000
00000010
00000000
00010000
00000000
,
00002000
00013000
00200000
10300000
00020000
10030000
02000000
03010000
,
00001000
00010000
00000100
00000010
00000000
00001001
00000000
00000000
,
00000001
00001000
00000010
00010000
00001000
00100000
01000000
00100000
,
00010000
00000000
00100000
00001000
00000000
00001000
00010000
00000000
00100000
00000000
01000000
00000000
10000000
00000000
01000000
00000000
,
00010000
10000000
01000000
00000000
00100000
00000000
00001000
00000000
00010000
00000100
00001000
00000000
00000010
00010000
00001000
00000000
,
00010000
00000000
00000100
00000010
00000000
00000100
00000010
00000000
00000001
00000000
00000100
00000000
00001000
00000000
00020000
00000000
,
00000000
00000000
00000000
00000000
00000000
00030000
00011000
00000000
,
00001000
00010000
00001000
00000000
01000000
00000000
00100000
00000000
10000000
00000000
00010000
00000000
00100000
00000000
01000000
00000000
,
00100000
00010000
00100000
00000000
00001000
00000000
00010000
00000000
00000100
00000000
00000010
00000000
00000001
00000000
00001000
00000000
,
00000010
00010000
00000010
00000000
00000100
00000000
00001000
00000000
00010000
00000000
00100000
00000000
01000000
00000000
10000000
00000000
,
01000000
00100000
01000000
00000000
00010000
00000000
10000000
00000000
01000000
00100000
01000000
00000000
00010000
00001000
00010000
00000000
,
00001000
00010000
00001000
00000000
00010000
00000000
00000100
00000000
00000010
00000000
00000001
00000000
00001000
00000000
00000010
00000000
,
00000100
00000001
00000100
00000000
00000001
00000000
00000010
00000000
00000100
00000000
00010000
00000000
00001000
00000000
01000000
00000000
,
01100000
00100000
10000000
00000000
01100000
01000000
00010000
00000000
,
10000000
00000000
01000000
00000000
00100000
00000000
00001000
00000000
00010000
00001000
00010000
00001000
00010000
00001000
00010000
00001000
,
00010000
00000000
00000000
00001000
00000000
00000000
00011000
00000000
00000000
00000000
00000000
00000000
00000000
00000000
00000000
00000000
;

//--------------- dance-double - Fred-104† ----------------
#NOTES:
     dance-double:
     Fred-104†:
     Challenge:
     17:
     :
00000000
00000000
00000000
00000000
,
00000000
00000000
00000000
00000000
,
00000000
00000000
00000000
00000000
,
00000000
00000000
00000000
00000000
,
00000000
00000000
00000000
00000000
,
00000000
00000000
00000000
00000000
,
00010000
00000000
00001000
00010000
00001000
00000000
00010000
00000100
00010000
00000000
00000100
00001000
00000100
00000000
00000010
00000001
,
00000010
00000000
00000001
00001000
00000001
00000000
00000100
00000010
00000100
00000000
00001000
00000000
00010000
00001000
00010000
00000000
,
00001000
00000000
00100000
00010000
00100000
00000000
01000000
10000000
01000000
00000000
10000000
00010000
10000000
00000000
00010000
00000000
,
00100000
00001000
00100000
00000000
00001000
00010000
00001000
00000000
00010000
00000010
00001000
00000001
00000010
00000100
00001000
00000001
,
00000000
00000000
00000000
00000000
,
00000001
00000000
00000010
00000100
00000000
00001000
00000001
00000000
00001000
00000010
00001000
00000000
00000001
00000010
00000001
00000000
,
00001000
00000000
00000010
00010000
00000000
00001000
00010000
00000000
00001000
00100000
00010000
10000000
00100000
00000000
01000000
00000000
,
00010000
01000000
00010000
00000000
10000000
01000000
10000000
00000000
00100000
01000000
00100000
00000000
00010000
00001000
00010000
00000000
,
00001000
00000000
00010000
00000100
00000000
00001000
00000001
00001000
00000010
00000000
00000000
00000110
00000000
00000000
00001100
00000000
,
00001000
00000000
00010000
00001000
00000000
01000000
00010000
10000000
01000000
00000000
00100000
00000000
00101000
00000000
00000000
00000000
,
00001000
00000000
00010000
00000100
00000000
00001000
00000001
00001000
00000100
00000000
00000010
00000000
00000012
00000000
00001003
00000000
,
00000001
00000000
00000100
00000010
00000000
00000100
00001000
00010000
00001000
00000000
00100000
00000000
00001000
00010000
00001000
00010000
,
00001000
00000000
00100000
00010000
00000000
10000000
00100000
00000000
01000000
00010000
10000000
00000000
01000000
00100000
00010000
00000000
,
10010000
00000000
10000000
01000000
00000000
00100000
00010000
00000000
00100000
00001000
00000000
00010000
00000100
00000000
00001000
00000001
,
00000000
00000010
00000100
00000000
00001000
00000001
00000000
00000100
00000010
00000000
00001000
00000000
00000001
00001000
00000001
00001000
,
00001001
00000000
00000000
00000000
,
00001000
00000000
00000001
00000000
00000010
00000000
00001000
00000000
00100000
00000000
00010000
10000000
00100000
00000000
01000000
00010000
,
10000000
00000000
01000000
00100000
00000000
00010000
00100000
00000000
00001000
00010000
00000100
00000000
00001000
00000001
00000010
00000000
,
00000200
00000000
00000000
00000000
00000000
00000000
00000000
00000000
00001000
00000000
00000000
00000000
00000001
00000000
00000000
00000300
00000200
00000000
00000000
00000000
00000000
00000000
00000000
00000000
00000001
00000000
00000000
00000000
00001000
00000000
00000000
00000300
00000200
00000000
00000000
00000000
00000000
00000000
00000000
00000000
00001000
00000000
00000000
00000000
00000001
00000000
00000000
00000300
00000100
00000000
00000000
00000000
00000010
00000000
00000000
00000000
00010000
00000000
00000000
00000000
00000000
00000000
00000000
00000000
,
00002000
00000000
00000000
00000000
00000000
00000000
00000000
00000000
00010000
00000000
00000000
00000000
00000100
00000000
00000000
00003000
00002000
00000000
00000000
00000000
00000000
00000000
00000000
00000000
00000100
00000000
00000000
00000000
00010000
00000000
00000000
00003000
00001000
00000000
00000000
00000000
00000000
00000000
00000000
00000000
00010000
00000000
00000000
00000000
00001000
00000000
00000000
00000000
01000000
00000000
00000000
00000000
00010000
00000000
00000000
00000000
01000000
00000000
00000000
00000000
00000000
00000000
00000000
00000000
,
00010000
00000000
00100000
00000000
01000000
10000000
00000000
00010000
10000000
00000000
00100000
01000000
00100000
00000000
10000000
00000000
,
01000000
00000000
00100000
00001000
00000000
00001000
00010000
00000100
00020000
00000000
00032000
00000000
00003020
00000000
00000032
00000000
,
00002003
00000000
00000000
00000000
00000000
00000000
00000000
00000000
00000010
00000000
00000000
00000000
00000100
00000000
00000000
00003000
00002000
00000000
00000000
00000000
00000000
00000000
00000000
00000000
00010000
00000000
00000000
00000000
00000010
00000000
00000000
00003000
00002000
00000000
00000000
00000000
00000000
00000000
00000000
00000000
00023000
00000000
00000000
00000000
00000000
00000000
00000000
00000000
02030000
00000000
00000000
00000000
00000000
00000000
00000000
00000000
03002000
00000000
00000000
00000000
00000000
00000000
00000000
00000000
,
00013000
00001000
00010000
00001000
00100000
00001000
00010000
00001000
02000000
00000000
03200000
00000000
20300000
00000000
30020000
00000000
,
00130000
00000000
00001000
00010000
00001000
00000000
00010000
00000100
00000000
00001000
00000001
00001000
00000010
00000000
00001000
00000000
,
00000001
00000010
00000000
00000100
00000000
00001000
00000000
00000010
00010000
00000000
00011000
00000000
00101000
00000000
00100000
00010000
,
02000000
00000000
00000000
00000000
00000000
00000000
00000000
00000000
00100000
00000000
00000000
00000000
10000000
00000000
00000000
03000000
02000000
00000000
00000000
00000000
00000000
00000000
00000000
00000000
00100000
00000000
00000000
00000000
00010000
00000000
00000000
03000000
01000000
00000000
00000000
00000000
00000000
00000000
00000000
00000000
01000000
00000000
00000000
00000000
00100000
00000000
00000000
00000000
01000000
00000000
00000000
00000000
00000000
00000000
00000000
00000000
00010000
00000000
00000000
00000000
10000000
00000000
00000000
00000000
,
01000000
00000000
00100000
00010000
00000000
00010000
00000000
00100000
00001000
00010000
00001000
00010000
00001000
00000000
00000000
00000000
,
00010000
00000000
00001000
00000000
00000100
00000000
00000001
00001000
00000000
00000100
00000010
00000001
00001000
00000000
00001000
00000000
,
00000001
00001000
00000000
00000010
00000000
00000100
00000000
00001000
00010000
00000000
00001000
00000000
01000000
00000000
00100000
00000000
,
20000000
00000000
00000000
00000000
00000000
00000000
00000000
00000000
00010000
00000000
00000000
00000000
00100000
00000000
00000000
30000000
20000000
00000000
00000000
00000000
00000000
00000000
00000000
00000000
00010000
00000000
00000000
00000000
01000000
00000000
00000000
30000000
20000000
00000000
00000000
00000000
00000000
00000000
00000000
00000000
30200000
00000000
00000000
00000000
00000000
00000000
00000000
00000000
00320000
00000000
00000000
00000000
00000000
00000000
00000000
00000000
00032000
00000000
00000000
00000000
00000000
00000000
00000000
00000000
,
00013000
00000000
00000000
00001000
00000000
00000000
00010000
00000000
00000000
00000000
00000000
00000000
00000100
00000000
00000000
00001000
00000000
00000000
00000001
00000000
00000000
00000000
00000000
00000000
00001000
00000000
00000000
00000000
00000100
00000000
00000000
00000000
00000010
00000000
00000000
00000000
00000001
00000000
00000000
00000000
00000100
00000000
00000000
00000000
00000010
00000000
00000000
00000000
,
00001001
00000000
00000000
00000000
,
00000000
00000000
00000000
00000000
,
00000000
00000000
00000000
00000000
,
00000000
00000000
00000000
00000000
00000000
00000000
00000000
00001000
,
00011000
00010000
00000010
00001000
00000100
00000010
00000001
00000001
,
00001000
00000001
00000100
00001000
00010000
00001000
00000010
00000010
,
00001000
00010000
01000000
00100000
00010000
10000000
00100000
00100000
,
01000000
00001000
01000000
00001000
00010000
00000100
00001000
00000100
00001000
00000000
00000000
00000000
00001001
00000000
00000000
00000000
,
00000001
00000000
00001000
00000001
00000010
00000000
00000100
00001000
00000001
00001000
00000010
00000000
00000100
00000001
00001000
00000000
,
00000100
00010000
00000100
00000000
00000100
00010000
00000100
00000000
00010000
00001000
00100000
00000000
00010000
10000000
00100000
00000000
,
01000000
00010000
10000000
00000000
01000000
00100000
00010000
00000000
00100000
00001000
00010000
00000000
00000010
00001000
00000001
00000000
,
00000010
00000100
00001000
00000000
00000010
00000100
00001000
00000000
00010000
00001000
00010000
00001000
00020000
00030000
00020000
00030000
,
00001000
01000000
00001000
00000000
00001000
01000000
00001000
00000000
00010000
00000100
00001000
00000000
00000010
00010000
00001000
00000000
,
00010000
00000000
00000000
00000000
00001000
00000000
00010000
00000000
00000000
00000000
00000000
00000000
00001000
00000000
00000000
00100000
00000000
00000000
00010000
00000000
00000000
10000000
00000000
00000000
00200000
00000000
00000000
00300000
00000000
00000000
00000000
00000000
00000000
00200000
00000000
00000000
00300000
00000000
00000000
00000000
00000000
00000000
00200000
00000000
00000000
00300000
00000000
00000000
,
01000000
00000000
00010000
10000000
00010000
00000000
00100000
00001000
00010000
00000000
00000100
00001000
00000001
00000100
00000010
00000000
,
00001000
00000001
00001000
00000000
00001000
00000100
00000010
00000001
00000000
00000000
00000001
00001000
00000000
00001000
00000010
00010000
,
00001000
00000000
00010000
00001000
00000000
00001000
00000100
00000000
00000020
00000000
00002030
00000000
00003002
00000000
00000023
00000000
,
00000130
00000000
00002000
00000000
00003002
00000000
00000203
00000000
00001300
00010000
00000000
00010000
00001000
00000000
00100000
00000000
,
00010000
00000000
01000000
00100000
00000000
00100000
00010000
00000000
20000000
00000000
32000000
00000000
03200000
00000000
10300000
00010000
,
00200000
00000000
00000000
02300000
00000000
00000000
03020000
00000000
00031000
00010000
00000100
00000000
00001000
00000001
00001000
00000000
,
00000001
00000000
00000100
00000010
00000000
00000010
00000001
00000000
00002000
00000000
00003200
00000000
00000320
00000000
00020030
00000000
,
00031000
00000000
00200000
00000000
02300000
00000000
23000000
00000000
30010000
01000000
00000000
01000000
00100000
10000000
00100000
00000000
,
10000000
01000000
00100000
00010000
00000000
00100000
00001000
00000000
00010000
00000100
00001000
00000000
00000100
00000010
00000001
00000000
,
00001000
00000000
00000010
00000100
00000000
00000100
00000010
00000000
00001000
00000001
00000010
00000100
00001000
00000100
00010000
00001000
,
00200000
00000000
00000000
00000000
00000000
00000000
00000000
00000000
00010000
00000000
00000000
00000000
10000000
00000000
00000000
00300000
00200000
00000000
00000000
00000000
00000000
00000000
00000000
00000000
10000000
00000000
00000000
00000000
00010000
00000000
00000000
00300000
00200000
00000000
00000000
00000000
00000000
00000000
00000000
00000000
02300000
00000000
00000000
00000000
00000000
00000000
00000000
00000000
03020000
00000000
00000000
00000000
00000000
00000000
00000000
00000000
00032000
00000000
00000000
00000000
00000000
00000000
00000000
00000000
,
00013000
00000000
00000200
00000000
00000302
00000000
00002003
00000000
00003010
00000001
00000000
00000001
00001000
00000000
00000001
00001000
,
00000010
00000000
00001000
00000001
00000000
00000001
00000010
00000000
00000200
00000000
00002300
00000000
00023000
00000000
00130000
01000000
,
10000000
00000000
00010000
01000000
00000000
01000000
00100000
00000000
10000000
00010000
00100000
00000000
00001000
00010000
00001000
00000000
,
00010000
00000000
00000010
00010000
00000000
00010000
00001000
00000000
00000200
00000000
00000302
00000000
00002003
00000000
00003200
00000000
,
00000310
00000000
00000002
00000000
00002003
00000000
00003020
00000000
00000130
00001000
00000000
00001000
00010000
00001000
01000000
00000000
,
00010000
00100000
01000000
10000000
00000000
00010000
01000000
00000000
00001000
00010000
00000100
00000000
00000010
00000001
00001000
00000000
,
00000100
00000000
00000010
00000001
00000000
00000001
00000010
00000000
00000001
00001000
00000010
00001000
00000010
00010000
00001000
00100000
,
01000000
00000000
10000000
00010000
10000000
00000000
00100000
10000000
00000000
10000000
00010000
10000000
01000000
00100000
00010000
00100000
,
00001000
00010000
00001000
00010000
00000000
00000100
00000010
00000001
00000000
00000100
00000010
00001000
00000000
00000100
00000010
00000001
,
00002000
00000000
00003001
00000010
00000200
00000000
00001300
00010000
00200000
00000000
01300000
10000000
00020000
00000000
00130000
00000000
,
01000000
10000000
00010000
01000000
00001000
00010000
00001000
00000000
00000000
00000000
00011000
00000000
00000000
00000000
00010000
00001000
,
00010000
00000000
00000100
00001000
00000100
00000000
00000010
00000001
00001000
00000001
00001000
00000001
00000100
00000000
00001000
00000000
,
00010000
00000000
00001000
00100000
00000000
00010000
10000000
00000000
00100000
10000000
00010000
10000000
01000000
00000000
00100000
00000000
,
00002000
00000000
00000000
00000000
00000000
00000000
00000000
00000000
00010000
00000000
00000000
00000000
00000100
00000000
00000000
00003000
00002000
00000000
00000000
00000000
00000000
00000000
00000000
00000000
00000010
00000000
00000000
00000000
00010000
00000000
00000000
00003000
00001000
00000000
00000000
00000000
00000000
00000000
00000000
00000000
00000100
00000000
00000000
00000000
00000000
00000000
00000000
00000000
00000110
00000000
00000000
00000000
00000000
00000000
00000000
00000000
00000000
00000000
00000000
00000000
00000000
00000000
00000000
00000000
,
00001000
00000000
00000000
00000000
00000000
00000000
00000001
00000000
00000000
00000010
00000000
00000000
00000000
00000000
00000000
00000100
00000000
00000000
00001000
00000000
00000000
00000000
00000000
00000000
00000100
00000000
00000000
00000000
00000000
00000000
00010000
00000000
00001000
00000000
00010000
00000000
00001000
00000000
00000000
00000000
00000000
00000000
01000000
00000000
00100000
00000000
01000000
00000000
,
00200000
00000000
00000000
00000000
00000000
00300000
10010000
00000000
,
10000000
00010000
10000000
00000000
01000000
00100000
01000000
00000000
00100000
00010000
00100000
00000000
00001000
00010000
00001000
00000000
,
00010000
00000100
00010000
00000000
00000100
00001000
00000100
00000000
00000010
00000001
00000010
00000000
00000001
00001000
00000001
00000000
,
00000100
00000010
00000100
00000000
00001000
00010000
00001000
00000000
00100000
00010000
00100000
00000000
01000000
10000000
01000000
00000000
,
00100000
00001000
00100000
00000000
00001000
00010000
00001000
00000000
01000000
00010000
01000000
00000000
00100000
10000000
00100000
00000000
,
10000000
00010000
00100000
00000000
00001000
00010000
00001000
00000000
00010000
00000010
00001000
00000000
00000001
00000010
00000001
00000000
,
00001000
00000010
00000100
00000000
00001000
00010000
00001000
00000000
00100000
00010000
10000000
00000000
00100000
01000000
00100000
00000000
,
10000000
00010000
10000000
00000000
01000000
00100000
00010000
00000000
00100000
00001000
00010000
00000000
00000100
00001000
00000001
00000000
,
00001000
00000001
00001000
00000001
00000010
00000100
00001000
00000100
00010000
00001000
00100000
00010000
00100000
01000000
10000000
00010000
,
01000000
00000000
00000000
00100000
00000000
00000000
10010000
00000000
00000000
00000000
00000000
00000000
00000000
00000000
00000000
00000000
;
