#VERSION:0.83;
#TITLE:Feel The Beat;
#ARTIST:Falsion;
#GENRE:HARDCORE RAVE;
#BANNER:Feel The Beat.png;
#BACKGROUND:Feel The Beat-bg.png;
#CDTITLE:./CDTitles/bm IIDX 21 SPADA.png;
#MUSIC:Feel The Beat.ogg;
#SAMPLESTART:56.229;
#SAMPLELENGTH:15;
#BPMS:0=175;
#STAGE:27;

//--------------- dance-single - Fred-104 ----------------
#NOTEDATA:;
#STEPSTYPE:dance-single;
#DESCRIPTION:Fred-104;
#DIFFICULTY:Beginner;
#METER:4;
#CREDIT:Fred-104;
#NOTES:
0000
0000
0000
0000
,
0000
0000
0000
0000
,
0000
0000
0000
0000
,
0000
0000
0000
0000
,
0000
0000
0000
0000
,
1000
0000
0000
0000
,
0001
0000
0000
0000
,
0100
0000
0000
0000
,
2002
0000
3003
0000
,
1000
0000
0001
0000
,
1000
0000
0000
0000
,
0001
0000
1000
0000
,
0001
0000
0000
0000
,
0020
0000
0030
0000
,
0002
0000
0003
0000
,
0200
0000
0300
0000
,
2000
0000
3000
0000
,
0002
0000
0000
0003
,
2000
0000
0000
3000
,
0002
0000
0000
0003
,
2000
0000
0000
3000
,
0001
0000
0001
0000
,
0100
0000
0010
0000
,
2000
0000
0000
3000
,
0002
0000
0000
0003
,
1000
0000
0000
0000
,
0000
0000
0000
0000
,
0001
0000
0000
0000
,
0000
0000
0000
0000
,
1000
0000
0000
0000
,
0000
0000
0000
0000
,
0010
0000
0000
0000
,
1000
0000
0000
0000
,
0001
0000
0000
0000
,
1000
0000
0000
0000
,
0001
0000
0000
0000
,
1000
0000
0000
0000
,
0001
0000
1000
0000
,
0001
0000
1000
0000
,
0001
0001
0001
0000
,
1001
0000
0000
0000
,
1000
1000
1000
0000
,
0001
0000
1000
0000
,
0010
0000
1000
0000
,
0001
0000
0100
0000
,
0001
0001
0001
0000
,
0010
0000
0100
0000
,
1000
0000
0001
0000
,
0000
0000
0000
0000
,
0001
0001
0001
0000
,
1000
0000
0010
0000
,
0100
0100
0100
0000
,
0010
0000
1000
0000
,
0001
0000
1000
0000
,
0001
0000
0100
0000
,
0001
0000
1000
0000
,
0001
0000
1000
0000
,
0001
0000
0000
0000
,
1000
0000
0010
0000
,
1000
0000
0000
0000
,
0001
0000
0100
0000
,
0010
0000
0100
0000
,
0001
0000
1000
0000
,
0001
0001
0001
0000
,
1001
0000
0000
0000
,
2000
0000
0000
3000
,
0002
0000
0000
0003
,
2000
0000
0000
3000
,
0002
0000
0000
0003
,
1000
0000
0010
0000
,
1000
0000
0001
0000
,
0100
0000
0001
0000
,
1000
0000
0001
0000
,
1001
0000
0000
0000
,
0000
0000
0000
0000
,
0000
0000
0000
0000
,
0000
0000
0000
0000
,
2000
0000
0000
3000
,
0002
0000
0000
0003
,
1000
1000
1000
0000
,
1001
0000
0000
0000
,
0001
0001
0001
0000
,
0100
0000
0010
0000
,
0100
0100
0100
0000
,
0001
0000
1000
0000
,
0001
0001
0001
0001
,
1000
1000
1000
1000
,
0001
0000
0000
0000
,
2002
0000
0000
0000
0000
0000
0000
3003
;

//--------------- dance-single - Fred-104 ----------------
#NOTEDATA:;
#STEPSTYPE:dance-single;
#DESCRIPTION:Fred-104;
#DIFFICULTY:Easy;
#METER:8;
#CREDIT:Fred-104;
#NOTES:
0000
0000
0000
0000
,
0000
0000
0000
0000
,
0000
0000
0000
0000
,
0000
0000
0000
0000
,
0000
0000
0000
0000
,
1000
0000
0000
0010
0000
0000
1000
0000
,
0000
0001
0000
0000
0100
0000
0010
0000
,
0100
0000
0001
0000
,
1000
0001
2002
3003
,
1000
0100
0010
0001
,
0100
0010
1000
0100
,
1000
0001
0100
0010
,
1000
0110
1001
0000
,
0010
0010
1000
1000
,
0001
0001
0100
0100
,
0010
1000
0010
0000
0100
0001
0100
0000
,
1001
0110
2002
3003
,
2000
0000
0000
0000
,
3200
0000
0000
0000
,
0320
0000
0000
0000
,
0032
0000
0000
0000
,
1003
0000
0000
0010
0000
0000
0100
0000
,
0001
0000
0000
0010
0000
0000
0100
0000
,
1000
0000
0000
1010
0000
0000
1000
0000
,
0001
0000
0000
0011
0000
0000
0001
0000
,
2000
0000
0000
0000
,
3200
0000
0000
0000
,
0320
0000
0000
0000
,
0032
0000
0000
0000
,
2003
0000
0000
0000
,
3020
0000
0000
0000
,
0230
0000
0000
0000
,
0310
0000
1000
0000
0001
1000
0001
0000
,
0100
0000
0100
0000
,
0010
0000
0010
0000
,
1000
0000
1000
0000
,
0001
0000
0001
0000
,
1000
1000
0100
0100
,
0001
0001
0010
0010
,
1000
0010
1000
0000
0001
0100
0001
0000
,
1000
0001
2002
3003
,
1000
0010
1000
1000
,
0100
0010
0001
0100
,
0001
0001
0010
0100
,
0010
0000
0001
0000
1000
0001
1000
0000
,
0001
0001
0100
0010
,
0100
0001
0001
1000
,
0010
1000
0100
1001
,
0000
0001
0000
0000
0001
0000
0000
0001
,
1000
0010
1000
0100
,
1000
0100
0100
0010
,
0001
0100
0001
0010
,
0001
0000
1000
0000
0001
0100
0001
0000
,
1000
1000
0100
0100
,
0010
0010
0001
0001
,
0000
1000
0000
0000
1000
0000
0000
1000
,
0000
0001
0000
0000
0001
0000
0000
0001
,
1000
0000
0000
0010
0000
0000
1000
0000
,
0000
0100
0000
0000
0010
0000
0001
0000
,
1000
0000
0000
0001
0000
0000
0100
0000
,
0001
0010
0100
2000
,
3001
0000
0000
0100
0000
0000
0010
0000
,
0000
1000
0000
0000
0010
0000
1000
0000
,
0001
0100
0001
0000
1000
0010
1000
0000
,
0001
1000
2002
3003
,
2000
0000
0000
0000
,
3002
0000
0000
0000
,
1003
0000
0000
0010
0000
0000
0100
0000
,
0001
0000
0000
0010
0000
0000
0100
0000
,
1000
0010
1000
0100
,
0010
0001
1000
0001
,
1000
0100
0001
0100
,
1000
0001
0100
0010
,
0110
0000
0000
0000
,
0000
0000
0000
0000
,
0000
0000
0000
0000
,
0000
0000
0000
0000
,
1001
0000
0000
0000
,
0110
0000
0000
0000
,
1001
0000
0110
0000
,
1000
1000
0001
1001
,
0001
0100
0010
0100
,
0001
0000
0010
0000
0100
1000
0100
0000
,
1000
0010
1000
1000
,
0001
0000
0100
0000
0010
0100
0010
0000
,
1000
0010
0000
0010
,
0001
0100
0000
0100
,
0000
0000
1000
0000
0000
0100
0000
0000
0010
0000
0000
0001
0000
0000
1000
0000
,
0000
0000
0001
0000
0000
0001
0000
0000
1000
0000
0000
1000
0000
0000
1001
0000
;

//--------------- dance-single - Fred-104 ----------------
#NOTEDATA:;
#STEPSTYPE:dance-single;
#DESCRIPTION:Fred-104;
#DIFFICULTY:Medium;
#METER:12;
#CREDIT:Fred-104;
#NOTES:
0000
0000
0000
0000
,
0000
0000
0000
0000
,
0000
0000
0000
0000
,
0000
0000
0000
0000
,
0000
0000
0000
0000
,
1001
0000
1000
0100
0000
1000
0010
0000
,
0100
0001
0000
0010
0001
0000
1001
0000
,
0101
1000
1100
0001
,
1100
0110
0022
0033
,
0001
0100
0001
0000
1000
0100
1000
0000
,
0010
1000
0010
0000
0100
0001
0100
0000
,
0001
1000
0100
0000
1000
0001
0010
0000
,
0110
0000
0001
0000
1000
0010
1000
0000
,
1000
0100
1000
0001
0100
0010
1000
0001
,
0100
0010
1000
0100
0010
0001
0100
0010
,
1000
0010
0001
0010
1000
0100
0010
0001
,
0100
0001
1000
1001
,
0001
0000
0000
0001
0000
0000
1000
0000
0000
1000
0000
0000
1010
0000
0000
0000
,
1000
0000
0000
1000
0000
0000
0001
0000
0000
0001
0000
0000
0011
0000
0000
0000
,
0001
0000
0000
0001
0000
0000
1000
0000
0000
1000
0000
0000
1100
0000
0000
0000
,
1000
0000
0000
1000
0000
0000
0001
0000
0000
0001
0000
0000
0101
0000
0000
0000
,
1000
0000
0000
0100
0000
0000
1000
0000
0000
0010
0000
0000
0200
0000
0000
0000
,
0301
0000
0000
0010
0000
0000
0100
0000
0000
1000
0000
0000
0002
0000
0000
0000
,
1003
0000
0000
1100
0000
0000
0001
0000
0000
0101
0000
0000
1001
0000
0000
0000
,
0001
0000
0000
0011
0000
0000
1000
0000
0000
1010
0000
0000
1001
0000
0000
0000
,
2000
0000
3020
0000
,
0230
0000
0302
0000
,
0023
0000
0230
0000
,
1300
0100
0001
0010
,
2000
0000
3002
0000
,
0203
0000
2300
0000
,
3020
0000
0032
0000
,
1003
0000
0000
0000
0010
0000
0000
0000
1000
0000
0100
0000
1000
0001
1000
0001
,
1000
0000
0100
0000
0000
1000
0000
0000
0010
0000
0000
0100
0000
0000
0001
0000
,
0000
0000
0010
0000
0000
0001
0000
0000
0100
0000
0000
0010
0000
0000
1000
0000
,
0000
0000
0100
0000
0000
1000
0000
0000
0001
0000
0000
0100
0000
0000
0010
0000
,
0000
0000
0100
0000
0000
0001
0000
0000
0010
0000
0000
0001
0000
0000
1000
0000
,
0001
0010
1000
0000
0001
0100
1000
0000
,
0001
0100
1000
0000
0001
0010
1000
0000
,
0001
0100
0001
0100
0010
1000
0100
0010
,
0001
1000
0010
1010
,
1000
0100
0010
0001
0100
0010
0100
0001
,
0010
0100
1000
0001
0100
0010
0100
0000
,
0001
0010
1000
0010
0001
0100
0001
0010
,
0100
1000
0010
1000
0001
1000
0100
0000
,
1000
0100
0010
0001
1000
0001
0100
0010
,
1000
0010
0100
0001
0010
0100
0010
0000
,
0001
0100
1000
0100
0001
0010
0100
1000
,
0000
0000
1010
0000
0000
0101
0000
0000
1100
0000
0000
0011
0000
0000
1001
0000
,
0001
0000
0010
0000
0100
0000
1000
0000
0010
0000
0000
1000
0000
0000
0001
0000
,
1000
0000
0100
0000
0010
0000
0001
0000
1000
0000
0000
0100
0000
0000
0001
0000
,
0010
0000
1000
0000
0001
0000
0100
0000
0010
0000
0000
1000
0000
0000
0010
0000
,
0100
0001
0010
0100
1000
0010
0100
0000
,
0001
0010
0100
1000
0010
0100
1000
0100
,
0001
1000
0100
0010
0001
1000
0001
0100
,
0000
0000
0110
0000
0000
0010
0000
0000
1010
0000
0000
1000
0000
0000
1001
0000
,
0000
0000
0101
0000
0000
0010
0000
0000
1100
0000
0000
0010
0000
0000
0200
0000
,
0301
0000
0010
0001
0000
1000
0010
0000
,
1000
0100
0000
0010
0100
0000
1100
0000
,
1000
0000
0010
1000
0000
0100
0010
0000
,
0001
0010
0100
1000
0001
1000
0002
0000
,
0103
0000
0010
1000
0000
0010
0100
0000
,
0001
0010
0000
0100
1000
0000
1010
0000
,
1000
0100
0100
0000
0001
0010
0010
0000
,
2000
3020
0200
0330
,
0001
0000
0000
0001
0000
0000
0100
0000
0000
0010
0000
0000
1010
0000
0000
0000
,
1000
0000
0000
0100
0000
0000
0100
0000
0000
0010
0000
0000
0011
0000
0000
0000
,
0001
0000
0000
0101
0000
0000
1000
0000
0000
1100
0000
0000
1001
0000
0000
0000
,
1000
0000
0000
1010
0000
0000
0001
0000
0000
0011
0000
0000
1001
0000
0000
0000
,
0001
0000
0000
0010
0000
0000
0100
0000
0000
1000
0000
0000
0020
0000
0000
0000
,
0130
0000
0000
1000
0000
0000
0100
0000
0000
0001
0000
0000
2000
0000
0000
0000
,
3001
0000
0000
0100
0000
0000
0001
0000
0000
1000
0000
0000
0020
0000
0000
0000
,
0130
0000
0000
0001
0000
0000
1000
0000
0000
0001
0000
0000
0100
0000
0000
0000
,
0110
0000
0000
0000
,
0000
0000
0000
0000
,
0000
0000
0000
0000
,
0000
0000
0000
0000
,
0001
0000
0011
0000
0000
0001
0000
0000
1000
0000
0000
0010
0000
0000
1010
0000
,
0000
0000
1100
0000
0000
0100
0000
0000
0010
0000
0000
0001
0000
0000
0101
0000
,
0000
0000
0002
0000
0000
0203
0000
0000
0320
0000
0000
2030
0000
0000
3002
0000
,
0203
0001
1300
1001
,
0001
0100
0010
0001
0010
1000
0001
0100
,
0010
1000
0100
0010
0001
1000
0001
0000
,
1000
0100
0010
1000
0010
0001
1000
0100
,
1000
0001
0100
0010
1000
0100
0010
0000
,
0001
0000
0100
0000
0000
0010
0000
0000
1000
0000
0000
0100
0000
0000
0010
0000
,
0001
0000
0010
0000
0000
0001
0000
0000
1000
0000
0000
0010
0000
0000
0100
0000
,
0000
0000
1100
0000
0000
1000
0000
0000
1010
0000
0000
1000
0000
0000
1001
0000
,
0000
0000
0101
0000
0000
0001
0000
0000
0011
0000
0000
0001
0000
0000
1001
0000
;

//--------------- dance-single - Fred-104 ----------------
#NOTEDATA:;
#STEPSTYPE:dance-single;
#DESCRIPTION:Fred-104;
#DIFFICULTY:Hard;
#METER:16;
#CREDIT:Fred-104;
#NOTES:
0000
0000
0000
0000
,
0000
0000
0000
0000
,
0000
0000
0000
0000
,
0000
0000
0000
0000
,
0000
0000
0000
0000
,
0001
0000
1000
0100
0000
0010
0012
0000
,
1003
0010
0000
1000
0001
0000
0101
0000
,
1100
0011
1010
0101
,
2000
0000
0000
0000
3001
0000
0100
0000
0010
0000
1000
0100
1000
0001
1000
0000
,
0010
1000
0100
0010
0001
0100
0010
1000
,
0010
0001
1000
0100
0001
0010
1000
0001
,
0100
0010
0001
1000
0001
0100
0010
1000
,
0001
0000
0010
0000
0100
0000
1000
0010
1000
0000
0001
0000
1000
0000
1000
0000
,
0010
1000
0100
0000
0010
0000
0001
0000
1000
0000
0010
0000
0001
0000
0100
0000
,
1000
0001
0010
0000
0100
0000
1000
0000
0001
0000
0100
0000
1000
0000
0010
0000
,
0001
0100
0001
0100
0010
1000
0010
1000
0001
1000
0001
1000
0100
0010
0100
0010
,
0002
0100
1003
1001
,
1000
0000
0000
0010
0000
0000
0100
0000
0000
0001
0000
0000
1001
0000
0000
0000
,
0001
0000
0000
0010
0000
0000
0100
0000
0000
1000
0000
0000
1001
0000
0000
0000
,
0100
0000
0000
1000
0000
0000
0010
0000
0000
0100
0000
0000
0110
0000
0000
0000
,
0100
0000
0000
0001
0000
0000
0010
0000
0000
0100
0000
0000
0110
0000
0000
0000
,
0100
0000
0000
1000
0100
0000
0010
0000
0001
0100
0000
0010
0100
0000
0000
0000
,
0001
0000
0000
0010
0100
0000
1000
0000
0010
1000
0000
0100
0010
0001
1000
0000
,
1100
0000
0000
1010
0000
0000
0101
0000
0000
0011
0000
0000
1001
0000
0001
0000
,
0101
0000
0000
0011
0000
0000
1100
0000
0000
1010
0000
0000
1001
0000
0000
0000
,
1000
0000
0010
0000
0000
0001
0000
0000
0100
0000
0000
1000
0000
0000
0001
0000
,
0000
0000
0010
0000
0000
1000
0000
0000
0100
0000
0000
0001
1000
0001
1000
0001
,
0000
0000
1000
0000
0000
0100
0000
0000
0001
0000
0000
0010
0000
0000
1000
0000
,
0000
0000
0001
0000
0000
0100
0000
0000
0010
0000
1000
0000
0100
0010
0001
1000
,
0000
0000
0001
0000
0000
0010
0000
0000
1000
0000
0000
0100
0000
0000
0001
0000
,
0000
0000
1000
0000
0000
0010
0000
0000
0100
0000
0000
0001
1000
0000
0100
0010
,
0000
0000
0001
0000
0000
0100
0000
0000
1000
0000
0000
0010
0000
0000
0001
0000
,
0000
0000
2000
0000
0000
3020
0000
0000
0130
0000
0001
0000
1000
0100
0010
0001
,
1000
0000
1100
0000
0000
1001
0000
0000
0101
0000
0000
1001
0000
0000
1100
0000
,
1000
0000
1010
0000
0000
1001
0000
0000
0011
0000
0000
1001
0000
0000
1010
0000
,
0010
0000
0110
0000
0000
0101
0000
0000
0110
0000
0000
1010
0000
0000
0110
0000
,
0100
0000
0101
0000
0000
0011
0000
0000
0101
0000
0000
1001
0000
0000
1100
0000
,
0010
0000
0001
0000
1000
0100
0000
0100
0001
0000
1000
0000
0001
0100
0000
0100
,
1000
0000
0001
0000
1000
0010
0000
0010
0001
0000
1000
0000
0001
0010
0000
0010
,
1000
0000
0010
1000
0100
0000
0010
0001
0100
0000
0010
1000
0100
0000
0010
0001
,
2000
0000
0000
0000
0000
0000
0000
0000
0000
0000
0000
0000
0000
0000
0000
0000
3020
0000
0000
0000
0000
0000
0000
0000
0000
0000
0000
0000
0000
0000
0000
0000
0230
0000
0000
0000
0000
0000
0000
0000
0000
0000
0000
0000
0000
0000
0000
0300
0101
0000
0000
0000
0000
0000
0000
0000
0000
0000
0000
0000
0000
0000
0000
0000
,
1000
0000
0100
0000
0010
0001
0000
0010
0100
0000
0010
0001
0000
0010
0100
0000
,
1000
0000
0001
0000
0100
0001
0000
1000
0001
0000
0000
0010
0001
1000
0001
0100
,
0001
0000
0010
0000
0100
1000
0000
0010
1000
0000
0100
1000
0000
0001
1000
0000
,
0001
0000
0100
0000
0010
1000
0000
0010
0100
0000
0001
0000
1000
0100
0010
0001
,
1000
0000
0001
0000
1000
0010
0000
0100
0001
0000
1000
0010
0000
0100
0001
0000
,
1000
0000
0100
0000
0010
0001
0000
1000
0100
0000
0000
0010
0001
0000
1000
0100
,
1000
0000
0001
0000
0100
0010
0000
1000
0001
0000
0100
0010
0000
1000
0001
0000
,
0000
0000
0101
0000
0000
1100
0000
0000
0011
0000
0000
1010
0000
0000
1001
0000
,
0001
0000
1000
0000
0001
0100
0000
0100
1000
0000
0001
0010
0000
0010
1000
0000
,
1000
0000
0001
0000
1000
0010
0000
0010
0001
0000
1000
0100
0000
0100
0001
0000
,
0001
0000
1000
0000
0100
0010
0000
0010
0001
0000
0100
0010
0000
0010
1000
0000
,
0001
0000
1000
0000
0010
1000
0000
1000
0100
0000
0010
0000
0001
0100
0010
1000
,
0001
0000
1000
0100
0010
0000
0001
0010
0100
0000
1000
0010
0100
0000
0001
1000
,
0010
0000
1000
0001
0100
0000
0001
0010
1000
0000
0010
0001
0100
0000
0010
0000
,
0000
0000
1010
0000
0000
1100
0000
0000
0011
0000
0000
0101
0000
0000
0001
1000
,
0000
0000
0101
0000
0000
0011
0000
0000
1100
0000
0000
1010
0000
0010
0100
0000
,
0001
0010
1000
0100
0000
0001
1001
0000
,
1000
0001
0100
0100
2000
3100
0002
0103
,
1000
0010
0001
0100
0000
1000
1001
0000
,
0001
0001
1000
0100
1000
0010
0002
0203
,
1300
0010
0100
1000
0000
0100
0101
0000
,
1000
0100
0001
1000
0010
0001
1001
0000
,
0001
0001
0001
0100
0010
0010
0010
1000
,
0002
0000
0000
0000
2003
0000
0000
0000
3001
0010
0001
0010
0100
1000
0100
1000
,
0001
0000
0000
0010
0000
0000
0100
0000
0000
1000
0000
0000
1001
0000
0000
0000
,
1000
0000
0000
0010
0000
0000
0100
0000
0000
0001
0000
0000
1001
0000
0000
0000
,
1100
0000
0000
0110
0000
0000
0011
0000
0000
0101
0000
0000
1001
0000
0000
0000
,
1010
0000
0000
0110
0000
0000
0101
0000
0000
0011
0000
0000
1001
0000
0000
0000
,
0011
0000
0000
0001
0100
0000
0010
0000
1000
0100
0000
0001
0100
0000
0000
0000
,
1100
0000
0000
0100
0010
0000
0001
0000
0100
0010
0000
0001
0010
0000
0000
0000
,
1010
0000
0000
1000
0010
0000
0100
0000
0001
0010
0000
1000
0010
0000
0100
0000
,
1000
0000
0000
0010
0000
0000
0100
0000
0000
0001
0000
0000
0101
0000
0000
0000
,
1001
0000
0000
0000
,
0000
0000
0000
0000
,
0000
0000
0000
0000
,
0000
0000
0000
0000
,
1000
0000
1010
0000
0000
0101
0000
0000
1100
0000
0000
0011
0000
0000
1001
0000
,
0001
0000
0011
0000
0000
1010
0000
0000
0101
0000
0000
0001
1000
0000
0001
0100
,
0000
0000
0020
0000
0000
2030
0000
0000
3200
0000
0000
0320
0000
0000
0032
0000
,
0203
0000
0001
0000
1300
0100
0110
0000
,
0001
0000
1000
0000
0001
0100
0000
0010
0001
0000
0010
0100
0000
0001
1000
0000
,
0100
0000
0100
0000
1000
0100
0000
0010
1000
0000
0010
0100
0000
1000
0001
0000
,
1000
0000
0100
0000
1000
0010
0000
0100
0001
0000
1000
0100
0000
0010
0001
0000
,
1000
0000
0010
0000
0100
0001
0000
0010
0001
0000
1000
0000
0001
0010
0100
1000
,
0001
0000
0020
0000
0000
0032
0000
0000
2003
0000
0000
3020
0000
0000
0130
0000
,
0110
0000
0020
0000
0000
2030
0000
0000
3200
0000
0000
0320
0000
0000
0031
0000
,
0000
0000
0011
0000
0000
1010
0000
0000
0101
0000
0000
1100
0000
0000
0001
1000
,
0000
0000
1010
0000
0000
0101
0000
0000
1100
0000
0000
0011
0000
0000
1001
0000
;

//--------------- dance-single - Fred-104† ----------------
#NOTEDATA:;
#STEPSTYPE:dance-single;
#DESCRIPTION:Fred-104†;
#DIFFICULTY:Challenge;
#METER:17;
#CREDIT:Fred-104†;
#NOTES:
0000
0000
0000
0000
,
0000
0000
0000
0000
,
0000
0000
0000
0000
,
0000
0000
0000
0000
,
0000
0000
0000
0000
,
1000
0100
0001
1000
0000
0001
0201
0000
,
1300
0100
0100
0001
0010
0010
1000
0001
,
1100
0101
0011
1010
,
2001
0000
0000
0000
3001
0000
0100
0000
0001
0000
1000
0001
0100
0010
1000
0000
,
0010
1000
0010
0000
0100
0000
0001
0000
0010
0001
0010
0000
0100
0000
1000
0000
,
0001
1000
0001
0000
0100
0000
0010
0000
1000
0010
1000
0000
0100
0000
0010
0000
,
0001
0010
0100
0000
1000
0000
0001
0000
1000
0010
0100
0000
0010
0000
0100
0000
,
0001
0010
0100
0000
1000
0000
0001
0100
0010
0000
1000
0100
0000
0100
0010
0000
,
0001
0100
0010
0000
1000
0100
0010
0000
0001
0010
0100
0000
1000
0010
0100
0000
,
0001
0010
1000
0000
0010
0001
0100
0000
0001
0100
1000
0000
0100
0001
0010
0000
,
0001
0100
0010
0100
0001
0010
0100
1000
0010
1000
0010
1000
0100
0010
0100
1000
,
0002
0010
1003
1001
,
1000
0000
0000
0100
0000
0000
0001
0000
0000
0010
0000
0000
1010
0000
0000
0000
,
0001
0000
0000
0100
0000
0000
1000
0000
0000
0010
0000
0000
0011
0000
0000
0000
,
0002
0000
0000
0100
0000
0000
1000
0000
0000
0103
0000
0000
0001
0000
0000
0000
,
2000
0000
0000
0100
0000
0000
0001
0000
0000
3100
0000
0000
1000
0000
0000
0000
,
0001
0000
0010
1000
0000
0001
0100
0000
1000
0001
0000
0010
1000
0000
0001
0000
,
1000
0000
0010
0001
0000
1000
0100
0000
0001
1000
0000
0010
0001
0000
1000
0000
,
1001
0000
0000
0110
0000
0000
1010
0000
0000
0101
0000
0000
1100
0000
1000
0000
,
1010
0000
0000
0011
0000
0000
1100
0000
0000
0101
0000
0000
1001
0000
0000
0000
,
1001
0000
1000
0000
0000
0010
0000
0000
0001
0000
0000
0100
0000
0000
1000
0000
,
0000
0000
0001
0000
0000
0010
0000
0000
1000
0000
0000
0100
0001
0010
0100
1000
,
0000
0000
1000
0000
0000
0001
0000
0000
0100
0000
0000
1000
0000
0000
0100
0000
,
0000
0000
0010
0000
0000
1000
0000
0000
0100
0000
0010
0000
0001
0100
0010
0100
,
0001
0000
1000
0000
1000
0100
0000
0100
0010
0000
0010
0001
0000
0001
1000
0000
,
0001
0000
0100
0000
0010
1000
0000
1000
0001
0000
0001
0100
1000
0000
1000
0100
,
0001
0000
1000
0000
0001
0010
0000
0010
0100
0000
0100
1000
0000
1000
0010
0000
,
0000
0000
2000
0000
0000
3200
0000
0000
0301
0000
0100
0000
1000
0001
0100
0010
,
1000
0000
1010
0000
0000
0101
0000
0000
1100
0000
0000
0011
0000
0000
1001
0000
,
0001
0000
0101
0000
0000
0011
0000
0000
1100
0000
0000
1010
0000
0000
1001
0000
,
0100
0000
0110
0000
0000
1100
0000
0000
0110
0000
0000
0101
0000
0000
0110
0000
,
0010
0000
0110
0000
0000
0011
0000
0000
0110
0000
0000
1010
0000
0000
1001
0000
,
0001
0010
1000
0000
0010
0001
0000
0001
1000
0100
0001
0000
0100
1000
0000
1000
,
0001
0100
1000
0000
0100
0001
0000
0001
1000
0010
0001
0000
0010
1000
0000
1000
,
0001
0100
0010
0001
0010
0100
1000
0100
0010
1000
0100
0010
0001
1000
0010
0100
,
0002
0000
0000
0000
0000
0000
0000
0000
0000
0000
0000
0000
0000
0000
0000
0000
0203
0000
0000
0000
0000
0000
0000
0000
0000
0000
0000
0000
0000
0000
0000
0000
0320
0000
0000
0000
0000
0000
0000
0000
0000
0000
0000
0000
0000
0000
0000
0030
1010
0000
0000
0000
0000
0000
0000
0000
0000
0000
0000
0000
0000
0000
0000
0000
,
2000
0000
3002
0000
0013
0200
0000
1300
0200
0000
0310
0200
0000
1300
0200
0000
,
0320
0000
0032
0000
0103
0002
0000
0013
0002
0000
0000
0103
0002
0013
0001
1000
,
0002
0000
0203
0000
0310
0200
0000
0301
0200
0000
0310
0200
0000
0301
0200
0000
,
0302
0000
0023
0000
0130
2000
0000
3001
0100
0000
0010
0000
1000
0001
0010
0001
,
2000
0000
3020
0000
0130
2000
0000
3100
0020
0000
1030
0002
0000
0013
0002
0000
,
2003
0000
3200
0000
0310
2000
0000
3010
0200
0000
0000
1300
0002
0000
0103
0001
,
2000
0000
3200
0000
0310
0002
0000
0103
0020
0000
0031
0020
0000
1030
0002
0000
,
0003
0000
1010
0000
0000
0101
0000
0000
1100
0000
0000
0001
1000
0010
0100
0001
,
2000
0000
3200
0000
0301
0200
0000
1300
0200
0000
0301
0200
0000
1300
0200
0000
,
0302
0000
0023
0000
1030
0020
0000
0031
0020
0000
1030
0020
0000
0031
0020
0000
,
2030
0000
3020
0000
0130
2000
0000
3100
0002
0000
0013
0200
0000
1300
0002
0000
,
2003
0000
3200
0000
0310
2000
0000
3010
0001
0000
0100
0000
0010
1000
0100
0010
,
0001
0100
0010
0000
0001
1000
0100
0000
0010
1000
0100
0000
0010
1000
0010
0000
,
0001
0010
0100
0000
0001
0100
1000
0000
0001
0100
0010
0001
0010
1000
0001
0100
,
0000
0000
0110
0000
0000
1010
0000
0000
0101
0000
0000
0110
0000
0000
1000
0001
,
0000
0000
1100
0000
0000
0101
0000
0000
0011
0000
0000
1010
0000
0000
1001
0000
,
0001
0000
0010
0000
0100
0000
1000
0000
0001
0000
0100
0010
0100
0000
0000
0000
,
0001
0000
0010
0000
0010
0000
1000
0000
0001
0000
0100
0010
0100
0000
0001
0000
,
1000
0000
0100
0000
0010
0000
0001
0000
1000
0000
0001
0100
0001
0000
0000
0000
,
1000
0000
1000
0000
0010
0000
0100
0000
0001
0100
0001
0100
0020
0000
2030
0000
,
3001
0000
0010
0001
1000
0000
1010
0000
0000
0000
0010
0100
0001
0000
0000
0000
,
1000
0000
0001
1000
0100
0000
1000
0000
1100
0000
0000
0000
0011
0000
0000
0000
,
1100
0110
0001
0100
0101
0110
1000
0100
,
2000
0000
0000
0000
3002
0000
0000
0000
1003
0100
0010
0001
1000
0100
0010
0001
,
1000
0000
0000
0010
0000
0000
0001
0000
0000
0100
0000
0000
1100
0000
0000
0000
,
0001
0000
0000
0010
0000
0000
1000
0000
0000
0100
0000
0000
0101
0000
0000
0000
,
0011
0000
0000
1010
0000
0000
0011
0000
0000
1010
0000
0000
1001
0000
0000
0000
,
1100
0000
0000
0101
0000
0000
1100
0000
0000
0101
0000
0000
1001
0000
0000
0000
,
1000
0000
0100
0001
0000
1000
0010
0000
0001
1000
0000
0100
0001
0000
1000
0000
,
0001
0000
0100
1000
0000
0001
0010
0000
1000
0001
0000
0100
1000
0000
0001
0000
,
1001
0000
0001
0100
0000
1000
0100
0000
0001
0010
0000
0100
0010
0000
0001
0000
,
2000
0000
0000
3200
0000
0000
0302
0000
0000
0023
0000
0000
1030
0000
0000
0000
,
1001
0000
0000
0000
,
0000
0000
0000
0000
,
0000
0000
0000
0000
,
0000
0000
0000
0000
,
0001
0000
0011
0000
0000
1010
0000
0000
0101
0000
0000
1100
0000
0000
1001
0000
,
0001
0000
0101
0000
0000
1010
0000
0000
0011
0000
0000
0001
1000
0000
0001
0100
,
0010
1000
0100
0010
0001
0100
0010
1000
0100
0010
0001
0100
0010
1000
0100
0010
,
0002
0000
0100
0000
1003
0001
1001
0000
,
0001
0000
0001
0000
0100
1000
0000
0100
0010
0000
1000
0100
0000
0010
0001
0000
,
1000
0000
1000
0000
0100
0001
0000
0100
0010
0000
0001
0100
0000
0010
1000
0000
,
0001
0000
0001
0000
0010
1000
0000
0010
0100
0000
0001
0100
0000
0010
1000
0000
,
0001
0000
0001
0000
1000
0100
0000
0010
0100
0000
1000
0000
0001
0100
0010
1000
,
0001
0000
0200
0000
0000
2300
0000
0000
3200
0000
0000
0320
0000
0000
1030
0000
,
1100
0000
0200
0000
0000
0320
0000
0000
0032
0000
0000
2003
0000
0000
3002
0000
,
1003
0000
1100
0000
0000
0101
0000
0000
0011
0000
0000
1010
0000
0000
1000
0001
,
0000
0000
0001
0000
0001
0010
0000
0010
1000
0000
1000
0100
0000
0100
1001
0000
;

//--------------- dance-double - Fred-104 ----------------
#NOTEDATA:;
#STEPSTYPE:dance-double;
#DESCRIPTION:Fred-104;
#DIFFICULTY:Easy;
#METER:8;
#CREDIT:Fred-104;
#NOTES:
00000000
00000000
00000000
00000000
,
00000000
00000000
00000000
00000000
,
00000000
00000000
00000000
00000000
,
00000000
00000000
00000000
00000000
,
00000000
00000000
00000000
00000000
,
01000000
00000000
00000000
00100000
00000000
00000000
01000000
00000000
,
00010000
10000000
01000000
00100000
,
00001000
00010000
00001000
00000000
00010000
00000100
00001000
00000000
,
00000010
00001000
00002002
00003003
,
00000001
00000100
00000001
00000100
,
00000010
00001000
00000100
00010000
,
00001000
00010000
01000000
10000000
,
00010000
01100000
10010000
00000000
,
01000000
01000000
00001000
00001000
,
00010000
00010000
00000100
00000100
,
00010000
00001000
00010000
00000000
00001000
00010000
00001000
00000000
,
00110000
00011000
00002020
00003030
,
00000002
00000000
00000000
00000000
,
00000203
00000000
00000000
00000000
,
00002300
00000000
00000000
00000000
,
00003020
00000000
00000000
00000000
,
00000031
00000000
00000000
00001000
00000000
00000000
00000010
00000000
,
00000100
00000000
00000000
00000010
00000000
00000000
00010000
00000000
,
00001000
00000000
00000000
00011000
00000000
00000000
00010000
00000000
,
01000000
00000000
00000000
01100000
00000000
00000000
00100000
00000000
,
20000000
00000000
00000000
00000000
,
32000000
00000000
00000000
00000000
,
03200000
00000000
00000000
00000000
,
00320000
00000000
00000000
00000000
,
02030000
00000000
00000000
00000000
,
03002000
00000000
00000000
00000000
,
00023000
00000000
00000000
00000000
,
00031000
00000000
00010000
00000000
00000100
00001000
00000100
00000000
,
00001000
00000000
00001000
00000000
,
00000010
00000000
00000010
00000000
,
00000001
00000000
00000001
00000000
,
00000100
00000000
00000100
00000000
,
00001000
00010000
01000000
10000000
,
00010000
01000000
00100000
10000000
,
00010000
00100000
10000000
00100000
,
00010000
10000000
20020000
30030000
,
10000000
01000000
10000000
00100000
,
01000000
00010000
00001000
00010000
,
00000100
00000010
00000001
00001000
,
00000001
00000100
00000010
00000000
,
00001000
00000100
00000010
00000001
,
00001000
00000010
00010000
00001000
,
00010000
00100000
10000000
00010000
,
00000000
01000000
00000000
00000000
01000000
00000000
00000000
01000000
,
00100000
10000000
01000000
00100000
,
01000000
10000000
00010000
00100000
,
01000000
00010000
00001000
00000100
,
00000001
00000000
00001000
00000000
00000001
00000010
00000001
00000000
,
00000100
00000010
00001000
00000001
,
00000010
00000100
00010000
00001000
,
00000000
00001000
00000000
00000000
00010000
00000000
00000000
00001000
,
00000000
00100000
00000000
00000000
00010000
00000000
00000000
10000000
,
00010000
00000000
00000000
01000000
00000000
00000000
00100000
00000000
,
00000000
01000000
00000000
00000000
00010000
00000000
10000000
00000000
,
01000000
00000000
00000000
00100000
00000000
00000000
00001000
00000000
,
00010000
00000100
00010000
00002000
,
00013000
00000000
00000000
00000010
00000000
00000000
00001000
00000000
,
00000100
00000010
00000001
00000100
,
00000010
00001000
00000100
00000000
00010000
00001000
00010000
00000000
,
00001000
00010000
00022000
00033000
,
00020000
00000000
00000000
00000000
,
00032000
00000000
00000000
00000000
,
00013000
00000000
00000000
00010000
00000000
00000000
00010000
00000000
,
00001000
00000000
00000000
00001000
00000000
00000000
00001000
00000000
,
00010000
00000100
00001000
00000100
,
00000001
00001000
00000001
00000100
,
00000010
00000000
00000000
00001000
00000000
00000000
00000100
00000000
,
00010000
00000000
00000000
00001000
00000000
00000000
00010000
00000000
,
00011000
00000000
00000000
00000000
,
00000000
00000000
00000000
00000000
,
00000000
00000000
00000000
00000000
,
00000000
00000000
00000000
00000000
,
10010000
00000000
00000000
00000000
,
01100000
00000000
00000000
00000000
,
00011000
00000000
00000110
00000000
,
00000001
00000001
00001000
00001001
,
00000001
00000100
00001000
00000100
,
00000001
00000000
00001000
00000000
00000010
00000100
00000010
00000000
,
00001000
00010000
00100000
10000000
,
00010000
00000000
01000000
00000000
00100000
01000000
00100000
00000000
,
10000000
01000000
00000000
00010000
,
00001000
00000010
00000000
00000001
,
00000000
00000000
00001000
00000000
00000000
00001000
00000000
00000000
00000001
00000000
00000000
00000100
00000000
00000000
00000110
00000000
,
00000000
00000000
00010000
00000000
00000000
00001000
00000000
00000000
01000000
00000000
00000000
00100000
00000000
00000000
10010000
00000000
;

//--------------- dance-double - Fred-104 ----------------
#NOTEDATA:;
#STEPSTYPE:dance-double;
#DESCRIPTION:Fred-104;
#DIFFICULTY:Medium;
#METER:13;
#CREDIT:Fred-104;
#NOTES:
00000000
00000000
00000000
00000000
,
00000000
00000000
00000000
00000000
,
00000000
00000000
00000000
00000000
,
00000000
00000000
00000000
00000000
,
00000000
00000000
00000000
00000000
,
00001001
00000000
00000001
00000100
00000000
00000010
00001000
00000000
,
00000001
00000010
00000000
00000100
00000010
00000000
00000001
00000000
,
00000100
00001000
00010000
00000000
01000000
10000000
00010000
00000000
,
01000000
00100000
20200000
30300000
,
10000000
01000000
10000000
00000000
00100000
10000000
00100000
00000000
,
01000000
00010000
01000000
00000000
00001000
00010000
00001000
00000000
,
00000100
00000001
00000010
00000000
00000001
00001000
00000100
00000000
,
00010000
00001000
00010000
00000100
00001000
00000001
00000100
00000000
,
00000001
00001000
00000100
00001000
00000010
00010000
00001000
00100000
,
01000000
00100000
00010000
00100000
01000000
10000000
00010000
01000000
,
00100000
10000000
00010000
10000000
01000000
00100000
00010000
01000000
,
00100000
00010000
00001000
00011000
,
00010000
00000000
00000000
00001000
00000000
00000000
00000010
00000000
00000000
00000001
00000000
00000000
00001000
00000000
00000000
00000000
,
00000001
00000000
00000000
00000100
00000000
00000000
00001000
00000000
00000000
00010000
00000000
00000000
00001000
00000000
00000000
00000000
,
00010000
00000000
00000000
01000000
00000000
00000000
10000000
00000000
00000000
00010000
00000000
00000000
10000000
00000000
00000000
00000000
,
00010000
00000000
00000000
10000000
00000000
00000000
01000000
00000000
00000000
00100000
00000000
00000000
00001000
00000000
00000000
00000000
,
00010000
00000000
00000000
00000100
00000000
00000000
00001000
00000000
00000000
00000100
00000000
00000000
00000002
00000000
00000000
00000000
,
00000103
00000000
00000000
00001000
00000000
00000000
00000001
00000000
00000000
00000100
00000000
00000000
00000020
00000000
00000000
00000000
,
00001030
00000000
00000000
00001010
00000000
00000000
00010000
00000000
00000000
00011000
00000000
00000000
00110000
00000000
00000000
00000000
,
01000000
00000000
00000000
01010000
00000000
00000000
00001000
00000000
00000000
00011000
00000000
00000000
00001100
00000000
00000000
00000000
,
00000020
00000000
00000000
00000000
,
00000230
00000000
00000000
00000000
,
00000302
00000000
00000000
00000000
,
00001003
00000010
00010000
00100000
,
00002000
00000000
00023000
00000000
,
02030000
00000000
23000000
00000000
,
30020000
00000000
20030000
00000000
,
30010000
00000000
00000000
00000000
01000000
00000000
00000000
00000000
00001000
00000000
00010000
00000000
00001000
00010000
00001000
00010000
,
00001000
00000000
00001000
00000000
00000000
00010000
00000000
00000000
00010000
00000000
00000000
00001000
00000000
00000000
00001000
00000000
,
00000010
00000000
00000010
00000000
00000000
00000100
00000000
00000000
00000100
00000000
00000000
00000001
00000000
00000000
00001000
00000000
,
00000100
00000000
00000100
00000000
00000000
00010000
00000000
00000000
01000000
00000000
00000000
00100000
00000000
00000000
01000000
00000000
,
00010000
00000000
00010000
00000000
00000000
00100000
00000000
00000000
10000000
00000000
00000000
00100000
00000000
00000000
00010000
00000000
,
10000000
01000000
00010000
00000000
00001000
00000010
00000001
00000000
,
00000001
00000100
00001000
00000000
00010000
00100000
10000000
00000000
,
00010000
10000000
00010000
01000000
00100000
10000000
01000000
00100000
,
00001000
00010000
00022000
00033000
,
00010000
00001000
00010000
00000010
00010000
00000100
00010000
00000010
,
00001000
00000100
00000010
00000001
00001000
00000001
00000100
00000000
,
00000001
00000010
00000100
00010000
00001000
00010000
00000100
00010000
,
00001000
00010000
01000000
00010000
00001000
00100000
00010000
00000000
,
01000000
00001000
00010000
00001000
00100000
00010000
10000000
00100000
,
01000000
00010000
10000000
00100000
00010000
00100000
01000000
00000000
,
00010000
10000000
00100000
01000000
00100000
10000000
01000000
00100000
,
00000000
00000000
00101000
00000000
00000000
00001000
00000000
00000000
00010010
00000000
00000000
00010000
00000000
00000000
00001000
00000000
,
00010000
00000000
00000100
00000000
00010000
00000000
00001000
00000000
00010000
00000000
00000000
00000010
00000000
00000000
00001000
00000000
,
00000100
00000000
00010000
00000000
00000010
00000000
00001000
00000000
00000100
00000000
00000000
00010000
00000000
00000000
00001000
00000000
,
00010000
00000000
00000100
00000000
00010000
00000000
00001000
00000000
00010000
00000000
00000000
00001000
00000000
00000000
01000000
00000000
,
00001000
00010000
00000100
00001000
00000001
00000010
00000001
00000000
,
00000001
00000100
00000001
00000100
00001000
00010000
00001000
00010000
,
00100000
10000000
00100000
10000000
00010000
10000000
01000000
00100000
,
00000000
00000000
00110000
00000000
00000000
01000000
00000000
00000000
00011000
00000000
00000000
00000100
00000000
00000000
00000110
00000000
,
00000000
00000000
00000101
00000000
00000000
00000010
00000000
00000000
00001100
00000000
00000000
00000010
00000000
00000000
00000200
00000000
,
00000301
00000000
00001000
00000100
00000000
00000001
00000100
00000000
,
00001000
00000010
00000100
00000010
00001000
00000010
00010000
00000000
,
00001000
00000000
00010000
00001000
00000000
00000010
00000100
00000000
,
00010000
00001000
00100000
00001000
00010000
01000000
20000000
00000000
,
31000000
00000000
00010000
10000000
00000000
01000000
00100000
00000000
,
01000000
10000000
00000000
00100000
01000000
00000000
00001000
00010000
,
00001000
00010000
00010000
00000000
00010000
00000100
00000100
00000000
,
00002000
00003002
00000200
00000303
,
00000001
00000000
00000000
00000100
00000000
00000000
00001000
00000000
00000000
00010000
00000000
00000000
00100000
00000000
00000000
00000000
,
10000000
00000000
00000000
01000000
00000000
00000000
00010000
00000000
00000000
00001000
00000000
00000000
00000010
00000000
00000000
00000000
,
00000011
00000000
00000000
00000011
00000000
00000000
00000101
00000000
00000000
00000101
00000000
00000000
00001001
00000000
00000000
00000000
,
00001010
00000000
00000000
00010010
00000000
00000000
00011000
00000000
00000000
00101000
00000000
00000000
00011000
00000000
00000000
00000000
,
00001000
00000000
00000000
00010000
00000000
00000000
01000000
00000000
00000000
00100000
00000000
00000000
02000000
00000000
00000000
00000000
,
03010000
00000000
00000000
10000000
00000000
00000000
01000000
00000000
00000000
00100000
00000000
00000000
00020000
00000000
00000000
00000000
,
01030000
00000000
00000000
00001000
00000000
00000000
00010000
00000000
00000000
00001000
00000000
00000000
00000200
00000000
00000000
00000000
,
00000310
00000000
00000000
00000001
00000000
00000000
00001000
00000000
00000000
00000001
00000000
00000000
00000100
00000000
00000000
00000000
,
00000110
00000000
00000000
00000000
,
00000000
00000000
00000000
00000000
,
00000000
00000000
00000000
00000000
,
00000000
00000000
00000000
00000000
,
00000100
00000000
00000110
00000000
00000000
00000010
00000000
00000000
00000001
00000000
00000000
00000100
00000000
00000000
00000010
00000000
,
00010000
00000000
00011000
00000000
00000000
00001000
00000000
00000000
01000000
00000000
00000000
00100000
00000000
00000000
10000000
00000000
,
00000000
00000000
02000000
00000000
00000000
23000000
00000000
00000000
30200000
00000000
00000000
20300000
00000000
00000000
30020000
00000000
,
02030000
00001000
03010000
00011000
,
00010000
00001000
00000010
00000001
00001000
00000100
00000010
00000100
,
00001000
00000010
00000001
00000100
00001000
00010000
00001000
00000000
,
00010000
00001000
01000000
00010000
10000000
01000000
00010000
01000000
,
10000000
00100000
00010000
00001000
00000010
00000001
00000010
00000000
,
00001000
00000000
00000001
00000000
00000000
00000010
00000000
00000000
00000001
00000000
00000000
00000100
00000000
00000000
00000010
00000000
,
00010000
00000000
00001000
00000000
00000000
01000000
00000000
00000000
00100000
00000000
00000000
10000000
00000000
00000000
00010000
00000000
,
00000000
00000000
01010000
00000000
00000000
00100000
00000000
00000000
10100000
00000000
00000000
10000000
00000000
00000000
10010000
00000000
,
00000000
00000000
00011000
00000000
00000000
00000100
00000000
00000000
00000110
00000000
00000000
00000010
00000000
00000000
00000011
00000000
;

//--------------- dance-double - Fred-104 ----------------
#NOTEDATA:;
#STEPSTYPE:dance-double;
#DESCRIPTION:Fred-104;
#DIFFICULTY:Hard;
#METER:16;
#CREDIT:Fred-104;
#NOTES:
00000000
00000000
00000000
00000000
,
00000000
00000000
00000000
00000000
,
00000000
00000000
00000000
00000000
,
00000000
00000000
00000000
00000000
,
00000000
00000000
00000000
00000000
,
00010000
00000000
00001000
00010000
00000000
00000010
00002010
00000000
,
00003100
00010000
00000000
00001000
00100000
00000000
00110000
00000000
,
01010000
01100000
11000000
01100000
,
00011000
00000110
00002002
00003003
,
00000001
00000100
00000010
00001000
00000100
00010000
00001000
00000100
,
00001000
00010000
00001000
00010000
01000000
00010000
00001000
00100000
,
00010000
01000000
00100000
10000000
00010000
00100000
01000000
10000000
,
00010000
00000000
01000000
00000000
00100000
00000000
10000000
01000000
00010000
00000000
00001000
00000100
00000000
00000100
00000001
00000000
,
00000010
00000001
00001000
00000010
00000001
00001000
00000100
00000001
,
00000010
00001000
00010000
01000000
10000000
00100000
00010000
10000000
,
01000000
00010000
01000000
00000000
00010000
00100000
00010000
00000000
00100000
00001000
00010000
00001000
00010000
00000100
00000010
00000001
,
00002000
00000010
00003100
00001001
,
00000001
00000000
00000000
00000100
00000000
00000000
00000010
00000000
00000000
00001000
00000000
00000000
00001001
00000000
00000000
00000000
,
00000001
00000000
00000000
00000100
00000000
00000000
00001000
00000000
00000000
00010000
00000000
00000000
00100000
00000000
10000000
00010000
,
10000000
00000000
00000000
01000000
00000000
00000000
00100000
00000000
00000000
00010000
00000000
00000000
10010000
00000000
00000000
00000000
,
10000000
00000000
00000000
01000000
00000000
00000000
00010000
00000000
00000000
00001000
00000000
00000000
00000010
00000000
00000001
00001000
,
00000001
00000000
00000000
00000100
00001000
00000000
00000100
00000000
00000010
00001000
00000000
00000001
00000100
00000000
00000000
00000000
,
00000010
00000000
00000000
00001000
00010000
00000000
00001000
00000000
01000000
00001000
00000000
00010000
00001000
00000000
00000000
00000000
,
00011000
00000000
00000000
00001010
00000000
00000000
00011000
00000000
00000000
00001100
00000000
00000000
00010000
00000000
00001000
00000000
,
00101000
00000000
00000000
00011000
00000000
00000000
00010010
00000000
00000000
01001000
00000000
00000000
00010100
00000000
00000000
00000000
,
00010000
00000000
00001000
00000000
00000000
00100000
00000000
00000000
00001000
00000000
00000000
00010000
00000000
00000000
00000100
00000000
,
00000000
00000000
00001000
00000000
00000000
00000100
00000000
00000000
00000010
00000000
00000000
00000001
00000010
00000100
00000010
00000001
,
00000000
00000000
00000100
00000000
00000000
00001000
00000000
00000000
00010000
00000000
00000000
00100000
00000000
00000000
10000000
00000000
,
00000000
00000000
00010000
00000000
00000000
01000000
00000000
00000000
00100000
00000000
10000000
00000000
01000000
00100000
00010000
00100000
,
00000000
00000000
00001000
00000000
00000000
00000010
00000000
00000000
00001000
00000000
00000000
00010000
00000000
00000000
00001000
00000000
,
00000000
00000000
01000000
00000000
00000000
00001000
00000000
00000000
00010000
00000000
00000000
00000100
00001000
00000000
00000100
00000010
,
00000000
00000000
00000001
00000000
00000000
00001000
00000000
00000000
00000010
00000000
00000000
00000100
00000000
00000000
00000001
00000000
,
00000000
00000000
00000020
00000000
00000000
00000230
00000000
00000000
00001300
00000000
00000001
00000000
00000100
00000010
00001000
00000010
,
00000100
00000000
00000110
00000000
00000000
00001010
00000000
00000000
00001100
00000000
00000000
00010100
00000000
00000000
00011000
00000000
,
00001000
00000000
00101000
00000000
00000000
00011000
00000000
00000000
00010010
00000000
00000000
00011000
00000000
00000000
01001000
00000000
,
00001000
00000000
00101000
00000000
00000000
00110000
00000000
00000000
10010000
00000000
00000000
01100000
00000000
00000000
10010000
00000000
,
10000000
00000000
11000000
00000000
00000000
01100000
00000000
00000000
11000000
00000000
00000000
10100000
00000000
00000000
10010000
00000000
,
10000000
00000000
01000000
00000000
00100000
00001000
00000000
00001000
00010000
00000000
00000100
00000000
00001000
00000010
00000000
00000010
,
00000100
00000000
00000001
00000000
00001000
00000100
00000000
00000100
00000010
00000000
00000001
00000000
00000100
00001000
00000000
00001000
,
00000100
00000000
00000001
00000010
00000100
00000000
00001000
00000010
00000100
00000000
00000010
00001000
00000100
00000000
00010000
00000000
,
00002000
00000000
00000000
00000000
00000000
00000000
00000000
00000000
00000000
00000000
00000000
00000000
00000000
00000000
00000000
00000000
00023000
00000000
00000000
00000000
00000000
00000000
00000000
00000000
00000000
00000000
00000000
00000000
00000000
00000000
00000000
00000000
00032000
00000000
00000000
00000000
00000000
00000000
00000000
00000000
00000000
00000000
00000000
00000000
00000000
00000000
00000000
00003000
00011000
00000000
00000000
00000000
00000000
00000000
00000000
00000000
00000000
00000000
00000000
00000000
00000000
00000000
00000000
00000000
,
00001000
00000000
00010000
00000000
00001000
00100000
00000000
00010000
00100000
00000000
00001000
00100000
00000000
00010000
00100000
00000000
,
00001000
00000000
00010000
00000000
00000010
00001000
00000000
00000100
00001000
00000000
00000000
00000010
00000100
00000001
00000100
00000001
,
00000010
00000000
00000100
00000000
00001000
00000100
00000000
00000010
00000100
00000000
00001000
00000100
00000000
00000010
00000100
00000000
,
00010000
00000000
00001000
00000000
00100000
00001000
00000000
00010000
00001000
00000000
00100000
00000000
00010000
10000000
01000000
10000000
,
00010000
00000000
01000000
00000000
00100000
10000000
00000000
00100000
01000000
00000000
00010000
00100000
00000000
01000000
00100000
00000000
,
00010000
00000000
10000000
00000000
01000000
00100000
00000000
00001000
00010000
00000000
00000000
00001000
00010000
00000000
00000100
00000010
,
00000100
00000000
00000010
00000000
00000001
00000100
00000000
00000010
00001000
00000000
00000001
00000010
00000000
00000100
00001000
00000000
,
00000000
00000000
00011000
00000000
00000000
00001010
00000000
00000000
00011000
00000000
00000000
00001100
00000000
00000000
00000110
00000000
,
00000010
00000000
00000001
00000000
00001000
00000001
00000000
00000100
00000010
00000000
00001000
00000001
00000000
00000100
00000010
00000000
,
00001000
00000000
00000100
00000000
00010000
00001000
00000000
00010000
00000100
00000000
00010000
00001000
00000000
00010000
00000010
00000000
,
00010000
00000000
00001000
00000000
00100000
00010000
00000000
01000000
00001000
00000000
00100000
00010000
00000000
01000000
00001000
00000000
,
00100000
00000000
00010000
00000000
01000000
00100000
00000000
10000000
01000000
00000000
10000000
00000000
00010000
10000000
01000000
10000000
,
00010000
00000000
10000000
01000000
10000000
00000000
00100000
01000000
00100000
00000000
01000000
00001000
01000000
00000000
00001000
00010000
,
00001000
00000000
00010000
00000100
00010000
00000000
00000010
00001000
00000010
00000000
00000100
00000001
00000100
00000000
00000001
00000000
,
00000000
00000000
00000011
00000000
00000000
00001010
00000000
00000000
00011000
00000000
00000000
00110000
00000000
00000000
00100000
10000000
,
00000000
00000000
11000000
00000000
00000000
01010000
00000000
00000000
00011000
00000000
00000000
00001100
00000000
00000000
00000101
00000000
,
00000001
00000010
00000100
00000010
00000000
00000001
00001001
00000000
,
00000001
00000100
00001000
00000100
00000002
00000103
00002000
00000000
,
00013000
00001000
00010000
00100000
00000000
10000000
10010000
00000000
,
00010000
00100000
01000000
00100000
00010000
01000000
20000000
30200000
,
00310000
10000000
00010000
01000000
00000000
00001000
00011000
00000000
,
00010000
00000010
00001000
00000001
00000100
00000000
00001001
00000000
,
00000001
00000010
00001000
00010000
01000000
10000000
00010000
01000000
,
00200000
20300000
00020000
30030000
,
10000000
00000000
00000000
01000000
00000000
00000000
00010000
00000000
00000000
00001000
00000000
00000000
00000010
00000000
00000000
00000000
,
00000001
00000000
00000000
00000100
00000000
00000000
00001000
00000000
00000000
00010000
00000000
00000000
00100000
00000000
00000000
00000000
,
10100000
00000000
00000000
01010000
00000000
00000000
11000000
00000000
00000000
00110000
00000000
00000000
00101000
00000000
00000000
00000000
,
00010010
00000000
00000000
00001010
00000000
00000000
00000101
00000000
00000000
00001100
00000000
00000000
00000110
00000000
00000000
00000000
,
00001001
00000000
00000000
00000001
00000100
00000000
00001000
00000000
00000100
00000010
00000000
00001000
00000001
00000000
00000000
00000000
,
00001100
00000000
00000000
00000010
00010000
00000000
00001000
00000000
00100000
00001000
00000000
00010000
00001000
00000000
00000000
00000000
,
00011000
00000000
00000000
00001000
00100000
00000000
00010000
00000000
01000000
10000000
00000000
01000000
00100000
00000000
10000000
00000000
,
00010000
00000000
00000000
10000000
00000000
00000000
01000000
00000000
00000000
00100000
00000000
00000000
00110000
00000000
00000000
00000000
,
10010000
00000000
00000000
00000000
,
00000000
00000000
00000000
00000000
,
00000000
00000000
00000000
00000000
,
00000000
00000000
00000000
00000000
,
00001000
00000000
00001100
00000000
00000000
00000110
00000000
00000000
00000011
00000000
00000000
00000101
00000000
00000000
00001001
00000000
,
00000001
00000000
00000101
00000000
00000000
00000110
00000000
00000000
00001010
00000000
00000000
00001100
00000000
00000000
00010000
00001000
,
00000000
00000000
00020000
00000000
00000000
00032000
00000000
00000000
00203000
00000000
00000000
00302000
00000000
00000000
00023000
00000000
,
00032000
00000000
00010000
00000000
00013000
00001000
00011000
00000000
,
00010000
00000000
00001000
00000000
00100000
00010000
00000000
10000000
00010000
00000000
01000000
00100000
00000000
10000000
00100000
00000000
,
10000000
00000000
01000000
00000000
00100000
00010000
00000000
10000000
01000000
00000000
00100000
00010000
00000000
10000000
01000000
00000000
,
00100000
00000000
00001000
00000000
00010000
00001000
00000000
01000000
00001000
00000000
00010000
00001000
00000000
00000100
00000010
00000000
,
00000001
00000000
00000010
00000000
00000100
00000001
00000000
00000100
00000010
00000000
00000001
00000000
00001000
00000001
00000100
00000001
,
00001000
00000000
00000200
00000000
00000000
00000320
00000000
00000000
00000032
00000000
00000000
00000203
00000000
00000000
00000310
00000000
,
00001010
00000000
00002000
00000000
00000000
00003200
00000000
00000000
00020300
00000000
00000000
00032000
00000000
00000000
00013000
00000000
,
00000000
00000000
00011000
00000000
00000000
00110000
00000000
00000000
00011000
00000000
00000000
00001010
00000000
00000000
00010000
00001000
,
00000000
00000000
00011000
00000000
00000000
00001100
00000000
00000000
00011000
00000000
00000000
01010000
00000000
00000000
00011000
00000000
;

//--------------- dance-double - Fred-104† ----------------
#NOTEDATA:;
#STEPSTYPE:dance-double;
#DESCRIPTION:Fred-104†;
#DIFFICULTY:Challenge;
#METER:17;
#CREDIT:Fred-104†;
#NOTES:
00000000
00000000
00000000
00000000
,
00000000
00000000
00000000
00000000
,
00000000
00000000
00000000
00000000
,
00000000
00000000
00000000
00000000
,
00000000
00000000
00000000
00000000
,
00001000
00010000
00100000
10000000
00000000
00010000
20010000
00000000
,
30010000
00000000
10000000
00000000
01000000
00000000
01000000
00000000
00010000
00000000
10000000
01000000
00100000
00000000
00010000
00000000
,
10010000
11000000
01010000
00011000
,
00001010
00000011
00002002
00003003
,
00000010
00001000
00000010
00000000
00000100
00000000
00000001
00000000
00000010
00000100
00000010
00000000
00000100
00000000
00010000
00000000
,
00001000
00010000
00001000
00000000
00100000
00000000
00010000
00000000
01000000
00100000
01000000
00000000
00010000
00000000
00100000
00000000
,
01000000
10000000
00010000
00000000
01000000
00000000
00100000
00000000
00010000
00001000
01000000
00000000
00001000
00000000
00010000
00000000
,
00000100
00000000
00001000
00000100
00000010
00000000
00000001
00000100
00000000
00001000
00010000
00000000
00001000
00000000
00001000
00000000
,
00010000
01000000
10000000
00000000
00100000
00000000
01000000
00000000
00010000
01000000
10000000
00000000
01000000
00000000
00100000
00000000
,
10000000
01000000
00100000
00000000
00001000
00000000
00010000
00000000
00000100
00001000
00000010
00000000
00000100
00000000
00000001
00000000
,
00000001
00000100
00000001
00000100
00000010
00010000
00000010
00010000
00001000
00010000
00001000
01000000
00010000
00100000
01000000
10000000
,
02000000
10000000
03010000
10010000
,
10000000
00000000
00000000
00100000
00000000
00000000
01000000
00000000
00000000
00010000
00000000
00000000
10010000
00000000
00000000
00000000
,
10000000
00000000
00000000
00100000
00000000
00000000
00010000
00000000
00000000
00001000
00000000
00000000
00000100
00000000
00000001
00001000
,
00000002
00000000
00000000
00000023
00000000
00000000
00000230
00000000
00000000
00002300
00000000
00003000
00001001
00000000
00000000
00000000
,
00000002
00000000
00000000
00000023
00000000
00000000
00002030
00000000
00000000
00023000
00000000
00000000
01030000
00000000
10000000
00010000
,
10000000
00000000
00010000
00100000
00000000
01000000
10000000
00000000
00010000
01000000
00000000
00100000
10000000
00000000
01000000
00000000
,
00100000
00000000
10000000
00100000
00000000
00010000
10000000
00000000
01000000
00100000
00000000
00001000
00010000
00000000
00001000
00000000
,
00011000
00000000
00000000
01001000
00000000
00000000
00010100
00000000
00000000
00101000
00000000
00000000
00010010
00000000
00010000
00000000
,
00011000
00000000
00000000
00001100
00000000
00000000
00011000
00000000
00000000
01010000
00000000
00000000
00011000
00000000
00000000
00000000
,
00011000
00000000
00010000
00000000
00000000
00001000
00000000
00000000
00000010
00000000
00000000
00000001
00000000
00000000
00000100
00000000
,
00000000
00000000
00001000
00000000
00000000
00010000
00000000
00000000
00100000
00000000
00000000
10000000
00010000
01000000
00100000
01000000
,
00000000
00000000
00010000
00000000
00000000
01000000
00000000
00000000
10000000
00000000
00000000
00100000
00000000
00000000
00010000
00000000
,
00000000
00000000
00001000
00000000
00000000
00000100
00000000
00000000
00000001
00000000
00000010
00000000
00001000
00000001
00001000
00000001
,
00001000
00000000
00000100
00000000
00000010
00000001
00000000
00001000
00000010
00000000
00000100
00000001
00000000
00001000
00000100
00000000
,
00000010
00000000
00000001
00000000
00000100
00001000
00000000
00001000
00010000
00000000
00000000
00010000
01000000
00000000
10000000
00010000
,
10000000
00000000
00010000
00000000
01000000
00100000
00000000
00100000
10000000
00000000
10000000
01000000
00000000
01000000
00100000
00000000
,
00000000
00000000
00002000
00000000
00000000
00023000
00000000
00000000
00030010
00000000
00001000
00000000
00000100
00000010
00000001
00001000
,
00000001
00000000
00000011
00000000
00000000
00001010
00000000
00000000
00000101
00000000
00000000
00001100
00000000
00000000
00011000
00000000
,
00010000
00000000
00110000
00000000
00000000
10100000
00000000
00000000
01010000
00000000
00000000
11000000
00000000
00000000
01100000
00000000
,
00100000
00000000
00110000
00000000
00000000
01001000
00000000
00000000
00011000
00000000
00000000
00010100
00000000
00000000
00001100
00000000
,
00000100
00000000
00000110
00000000
00000000
00001010
00000000
00000000
00010010
00000000
00000000
00011000
00000000
00000000
00101000
00000000
,
00001000
00010000
00001000
00000100
00000010
00000001
00000000
00000000
00000100
00000001
00000010
00000001
00001000
00000010
00000000
00000000
,
00010000
00001000
00100000
00010000
10000000
00010000
00000000
00000000
01000000
00100000
10000000
00100000
01000000
00010000
00000000
00000000
,
10000000
00100000
10000000
00100000
01000000
00001000
01000000
00001000
00010000
00000100
00010000
00000100
00001000
00000010
00001000
00000010
,
00000200
00000000
00000000
00000000
00000000
00000000
00000000
00000000
00000000
00000000
00000000
00000000
00000000
00000000
00000000
00000000
00000302
00000000
00000000
00000000
00000000
00000000
00000000
00000000
00000000
00000000
00000000
00000000
00000000
00000000
00000000
00000000
00002003
00000000
00000000
00000000
00000000
00000000
00000000
00000000
00000000
00000000
00000000
00000000
00000000
00000000
00000000
00003000
00001001
00000000
00000000
00000000
00000000
00000000
00000000
00000000
00000000
00000000
00000000
00000000
00000000
00000000
00000000
00000000
,
00000002
00000000
00000203
00000000
00000301
00000200
00000000
00000310
00000200
00000000
00000301
00000200
00000000
00000310
00000200
00000000
,
00000302
00000000
00000023
00000000
00000130
00002000
00000000
00003010
00002000
00000000
00000000
00003200
00020300
00031000
00010000
00001000
,
00200000
00000000
02300000
00000000
13000000
00020000
00000000
00130000
02000000
00000000
03100000
00020000
00000000
01030000
00200000
00000000
,
20300000
00000000
30200000
00000000
01300000
00020000
00000000
00130000
01000000
00000000
00100000
00000000
00001000
00010000
00001000
00010000
,
00002000
00000000
00023000
00000000
00030100
00002000
00000000
00003100
00020000
00000000
00030100
00002000
00000000
00003010
00002000
00000000
,
00003200
00000000
00000320
00000000
00000031
00000200
00000000
00000310
00000002
00000000
00000000
00000013
00002000
00000000
00003001
00001000
,
00000100
00000000
00000020
00000000
00000031
00002000
00000000
00003100
00000020
00000000
00000130
00002000
00000000
00013000
00002000
00000000
,
00003000
00000000
00011000
00000000
00000000
00101000
00000000
00000000
00011000
00000000
00000000
00001000
00100000
00010000
10000000
00010000
,
20000000
00000000
30200000
00000000
00310000
00200000
00000000
10300000
00200000
00000000
00310000
00200000
00000000
10300000
00020000
00000000
,
20030000
00000000
32000000
00000000
03010000
00002000
00000000
00013000
00200000
00000000
10300000
00020000
00000000
10030000
02000000
00000000
,
23000000
00000000
30200000
00000000
01300000
00020000
00000000
00130000
02000000
00000000
03100000
00002000
00000000
00013000
00000200
00000000
,
00002300
00000000
00003200
00000000
00000310
00000002
00000000
00000103
00000010
00000000
00001000
00000000
00001000
00000001
00001000
00000100
,
00001000
00000010
00000100
00000000
00000010
00001000
00010000
00000000
00001000
00010000
01000000
00000000
00100000
01000000
00010000
00000000
,
00001000
00010000
00100000
00000000
01000000
00010000
00100000
00000000
00010000
01000000
00100000
00000000
00010000
00001000
00010000
00000000
,
00000000
00000000
00011000
00000000
00000000
00001010
00000000
00000000
00000011
00000000
00000000
00000101
00000000
00000000
00000100
00001000
,
00000000
00000000
00011000
00000000
00000000
00110000
00000000
00000000
10100000
00000000
00000000
10000000
00010000
01000000
00100000
00000000
,
10000000
01000000
00100000
00001000
00010000
00100000
20000000
00000000
,
30010000
00000000
01000000
00000000
10000000
00000000
01000000
00000000
00001000
00000000
00010000
00001000
00010000
00000000
00000100
00000000
,
00001000
00000100
00000010
00000001
00001000
00000010
00000200
00000000
,
00000301
00000000
00000100
00000000
00001000
00000000
00000100
00000000
00000001
00000010
00000001
00000010
00000002
00000000
00002003
00000000
,
00003010
00000000
00000100
00000010
00001000
00000000
00001100
00000000
00000000
00000000
00010000
00001000
00020000
00000000
00000000
00000000
,
00031000
00000000
00100000
00010000
10000000
00000000
00100000
00000000
01100000
00000000
00000000
00000000
10010000
00000000
00000000
00000000
,
10100000
01100000
00001000
00010000
00010100
00001100
00001000
00000001
,
00000200
00000000
00000000
00000000
00000320
00000000
00000000
00000000
00001030
00000100
00000010
00000001
00000100
00000010
00001000
00000001
,
00001000
00000000
00000000
00000010
00000000
00000000
00000001
00000000
00000000
00000100
00000000
00000000
00001100
00000000
00000000
00000000
,
00010000
00000000
00000000
00100000
00000000
00000000
10000000
00000000
00000000
01000000
00000000
00000000
01010000
00000000
00000000
00000000
,
00011000
00000000
00000000
00110000
00000000
00000000
00011000
00000000
00000000
00001010
00000000
00000000
00011000
00000000
00000000
00000000
,
00011000
00000000
00000000
00001100
00000000
00000000
00011000
00000000
00000000
01010000
00000000
00000000
00011000
00000000
00000000
00000000
,
00010000
00000000
00001000
00000010
00000000
00000001
00001000
00000000
00000001
00000100
00000000
00000010
00001000
00000000
00010000
00000000
,
00001000
00000000
00010000
00100000
00000000
10000000
00010000
00000000
10000000
01000000
00000000
00100000
00010000
00000000
01000000
00000000
,
00100000
00000000
10000000
00100000
00000000
00010000
00100000
00000000
01000000
00010000
00000000
10000000
01000000
00000000
00100000
00000000
,
00002000
00000000
00000000
00023000
00000000
00000000
00030200
00000000
00000000
00002300
00000000
00000000
00003001
00000000
00000000
00000000
,
00001001
00000000
00000000
00000000
,
00000000
00000000
00000000
00000000
,
00000000
00000000
00000000
00000000
,
00000000
00000000
00000000
00000000
,
01000000
00000000
01100000
00000000
00000000
10100000
00000000
00000000
01010000
00000000
00000000
11000000
00000000
00000000
00110000
00000000
,
00100000
00000000
00101000
00000000
00000000
00011000
00000000
00000000
00010010
00000000
00000000
00001010
00000000
00000000
00000001
00000100
,
00000001
00000010
00000001
00000010
00000100
00001000
00000100
00010000
00001000
00100000
00010000
00100000
01000000
10000000
00010000
10000000
,
00020000
00000000
01000000
00000000
10030000
00010000
10010000
00000000
,
00010000
00000000
00010000
00000000
10000000
01000000
00000000
00100000
00010000
00000000
01000000
00100000
00000000
00010000
00100000
00000000
,
10000000
00000000
10000000
00000000
00010000
01000000
00000000
10000000
01000000
00000000
00100000
10000000
00000000
01000000
00100000
00000000
,
00001000
00000000
00001000
00000000
00010000
00001000
00000000
00000100
00000010
00000000
00000001
00000010
00000000
00000100
00010000
00000000
,
00001000
00000000
00010000
00000000
00000100
00001000
00000000
00000010
00000100
00000000
00000001
00000000
00001000
00000100
00000010
00000001
,
00002000
00000000
00003020
00000000
00000000
00000032
00000000
00000000
00000203
00000000
00000000
00002300
00000000
00000000
00013000
00000000
,
00011000
00000000
00002000
00000000
00000000
00023000
00000000
00000000
02030000
00000000
00000000
23000000
00000000
00000000
30200000
00000000
,
00310000
00000000
00011000
00000000
00000000
00001100
00000000
00000000
00000101
00000000
00000000
00001001
00000000
00000000
00000001
00000100
,
00000000
00000000
00000001
00000000
00000100
00000010
00000000
00010000
00001000
00000000
01000000
00100000
00000000
10000000
00010000
00000000
;
