#TITLE:Fantasia;
#ARTIST:TËЯRA;
#ARTISTTRANSLIT:TERRA;
#GENRE:HYPER FANTASIA;
#BANNER:Fantasia.png;
#BACKGROUND:Fantasia-bg.png;
#CDTITLE:./CDTitles/pnm 17 THE MOVIE.png;
#MUSIC:Fantasia.ogg;
#SAMPLESTART:30.982;
#SAMPLELENGTH:15;
#BPMS:0=165;
#BGSTAGE:3;

//--------------- dance-single - Fred-104 ----------------
#NOTES:
     dance-single:
     Fred-104:
     Beginner:
     3:
     :
0000
0000
0000
0000
,
0000
0000
0000
0000
,
0000
0000
0000
0000
,
0000
0000
0000
0000
,
0000
0000
0000
0000
,
1000
0000
1000
0000
,
0001
0000
0001
0000
,
1000
0000
1000
0000
,
0100
0000
0100
0000
,
0010
0000
0000
0000
,
0001
0000
0001
0000
,
0001
0000
0000
0000
,
1000
0000
0010
0000
,
2000
0000
3000
0000
,
0002
0000
0003
0000
,
2000
0000
3000
0000
,
0002
0000
0003
0000
,
0100
0000
0100
0000
,
0010
0000
0010
0000
,
0100
0000
0100
0000
,
0001
0000
0000
0000
,
1001
0000
0000
0000
,
1000
0000
0100
0000
,
0010
0000
0000
0000
,
0001
0000
1000
0000
,
0001
0000
0000
0000
,
0100
0000
0010
0000
,
0100
0000
0000
0000
,
0001
0000
1000
0000
,
0001
0000
0000
0000
,
1000
0000
0100
0000
,
1000
0000
0000
0000
,
0001
0000
0100
0000
,
0010
0000
0000
0000
,
0100
0000
0100
0000
,
0100
0000
0100
0000
,
0100
0000
0000
0000
,
0001
0000
1000
0000
,
0001
0000
0000
0000
,
1000
1000
1000
0000
,
1001
0000
0000
0000
,
0000
0000
0000
0000
,
0000
0000
0000
0000
,
0000
0000
0000
0000
,
0001
0000
0000
0000
,
1000
0000
0000
0000
,
0001
0000
0001
0000
,
1001
0000
0000
0000
,
1000
0000
0010
0000
,
0100
0000
0000
0000
,
0010
0000
1000
0000
,
0001
0000
0000
0000
,
0010
0000
0010
0000
,
0100
0000
0100
0000
,
1000
0000
1000
0000
,
0001
0000
0001
0000
,
1000
0000
0001
0000
,
0100
0000
0000
0000
,
0001
0000
1000
0000
,
0100
0000
0100
0000
,
0010
0000
0010
0000
,
0010
0000
0010
0000
,
0010
0000
0000
0000
,
0001
0000
1000
0000
,
1001
0000
0000
0000
,
0001
0000
0001
0000
,
0100
0000
0100
0000
,
1000
0000
1000
0000
,
0010
0000
0010
0000
,
0001
0001
0001
0000
,
1001
0000
0000
0000
;

//--------------- dance-single - Fred-104 ----------------
#NOTES:
     dance-single:
     Fred-104:
     Easy:
     4:
     :
0000
0000
0000
0000
,
0000
0000
0000
0000
,
0000
0000
0000
0000
,
0000
0000
0000
0000
,
0000
0000
0000
0000
,
0001
0000
0001
0000
,
1000
0000
1000
0000
,
0010
0000
0010
0000
,
0100
0000
0110
0000
,
0001
0000
1000
0000
,
0100
0010
0010
0000
,
0001
0000
1000
0000
,
0010
0010
0100
0100
,
0002
0000
2003
0000
,
3200
0000
0300
0000
,
0010
0001
0010
0000
,
0001
0000
1000
1000
,
1000
0000
0010
0000
,
0001
0000
0100
0000
,
1000
0001
1000
1000
,
0100
0000
0010
0010
,
2002
0000
3003
0000
,
1000
0000
0100
0010
,
0001
0000
1000
0001
,
1000
0010
1000
0000
,
0001
0000
1000
0000
,
0001
0000
0100
0000
,
0001
1000
0001
0000
,
0010
0000
0100
0000
,
1000
0001
1001
0000
,
1000
0000
0010
1000
,
0010
0000
0100
0100
,
0001
0000
1000
0000
,
0001
1000
0001
0000
,
0010
0000
0100
0000
,
1000
0000
0001
0001
,
1000
0000
0010
0000
,
0100
0100
0100
0100
,
0020
0000
0030
0000
,
2000
0000
3000
0000
,
0002
0000
0000
0003
,
2000
0000
0000
3000
,
0002
0003
2000
3000
,
0020
0030
0200
0300
,
0001
0000
1000
0000
,
0100
0000
0010
0000
,
0001
0000
1000
0000
,
1001
0000
0000
0000
,
0001
0000
0100
0010
,
1000
0000
0001
1000
,
0001
0010
0001
0000
,
1000
0000
0001
0000
,
1000
0000
0100
0000
,
1000
0001
1000
0000
,
0010
0000
0100
0000
,
0001
1000
1001
0000
,
0001
0000
0010
0001
,
0010
0000
0100
0100
,
1000
0000
0001
0000
,
1000
0001
1000
0000
,
0010
0000
0100
0000
,
0001
0000
1000
1000
,
0001
0000
0010
0000
,
0100
0100
0100
0100
,
1000
0000
0001
0000
,
1000
0000
0010
0000
,
0100
0000
0001
0000
,
1000
0000
0100
0000
,
0010
0000
0001
0000
,
1000
1000
1000
1000
,
1001
0000
0000
0000
;

//--------------- dance-single - Fred-104 ----------------
#NOTES:
     dance-single:
     Fred-104:
     Medium:
     9:
     :
0000
0000
0000
0000
,
0000
0000
0000
0000
,
0000
0000
0000
0000
,
0000
0000
0000
0000
,
0000
0000
0000
0000
,
0001
1000
0001
0000
,
0100
0010
0100
0000
,
0001
0010
0100
1000
,
0010
0100
1001
0000
,
0001
0010
0001
0000
1000
0000
0010
0000
,
0100
0010
1000
0000
0100
0000
0010
0000
,
0001
1000
0010
0000
0100
0000
0001
0000
,
0010
0001
1000
0001
,
1000
0000
0000
1000
0000
0000
0100
0000
0010
0000
0000
0000
0001
0000
1000
0000
,
0001
0000
0000
0100
0200
0000
0000
0000
,
0310
0100
0001
1000
,
0100
0000
0000
0100
0000
0010
0010
0000
,
0001
0000
0000
0000
0000
0000
1000
0000
1000
0000
0000
0010
0000
0000
0100
0000
,
0010
0000
0000
1000
0000
0000
0100
0000
0010
0000
0000
0000
0000
0000
0001
0000
,
0001
0000
0000
0000
1000
0000
0000
0000
0001
0000
0000
0100
0000
0000
0010
0000
,
0200
0000
0301
1000
,
2002
0000
3003
0000
,
0001
0000
0010
0010
0100
0000
1000
0000
,
0001
0000
1000
0000
0010
0100
0010
0000
,
1000
0100
0001
0100
,
0010
0000
0100
1000
0001
0000
0000
0000
,
1000
0100
0001
0010
,
1000
0000
0000
1000
0000
0000
1000
0000
1001
0000
0000
0000
0000
0000
0000
0000
,
0001
0000
0100
0000
0010
1000
0010
0000
,
0100
0000
0000
0100
0000
0000
0100
0000
0110
0000
0000
0000
0000
0000
0000
0000
,
0001
0000
1000
1000
0010
0000
0100
0000
,
0001
0000
0010
0000
0100
0100
1000
0000
,
0001
0000
0000
0000
1000
0000
0001
0000
0100
0000
0000
0100
0000
0000
0010
0000
,
0100
0000
0000
0001
0000
0000
0001
0000
0010
0000
0000
0000
1100
0000
0000
0000
,
0001
0000
0000
0001
0000
0000
0100
0000
1000
0000
0000
1000
0000
0000
0100
0000
,
0002
0000
0000
0000
0000
0000
0000
0000
0013
0000
0000
0010
0000
0000
0100
0000
,
2000
0000
0000
3001
,
0100
0010
0110
1001
,
0001
0100
0001
0000
0001
0010
0100
0000
,
1000
0010
1000
0000
1000
0100
0010
0000
,
0002
0000
1003
0010
,
0200
0000
0310
1000
,
0001
0010
0100
0010
,
0001
1000
1001
0000
,
0001
1000
0100
0000
,
0010
0001
1000
0000
,
0010
1000
0010
0000
0100
0001
0100
0000
,
2002
0000
3003
0000
,
1000
0000
0010
0010
0100
0000
0001
0000
,
1000
0000
0001
0000
0010
0100
0010
0000
,
0001
0100
1000
0100
,
0010
0000
0100
0001
1000
0000
0000
0000
,
0001
0100
1000
0010
,
0001
0000
0000
0001
0000
0000
0001
0000
1001
0000
0000
0000
0000
0000
0000
0000
,
1000
0000
0100
0000
0010
0001
0010
0000
,
0100
0000
0000
0100
0000
0000
0100
0000
0110
0000
0000
0000
0000
0000
0000
0000
,
1000
0000
0001
0001
0010
0000
0100
0000
,
1000
0000
0010
0000
0100
0100
0001
0000
,
1000
0000
0000
0000
0001
0000
1000
0000
0100
0000
0000
0100
0000
0000
0010
0000
,
0100
0000
0000
1000
0000
0000
1000
0000
0010
0000
0000
0000
0101
0000
0000
0000
,
1000
0000
0000
1000
0000
0000
0100
0000
0001
0000
0000
0001
0000
0000
0100
0000
,
2000
0000
0000
0000
0000
0000
0000
0000
3010
0000
0000
0010
0000
0000
0100
0000
,
0002
0000
0000
1003
,
0100
0010
0110
1001
,
0001
0100
0001
0000
0010
0100
0010
0000
,
0100
0001
1000
0010
,
0100
0010
0100
0000
0001
0010
0001
0000
,
1000
0001
0100
0010
,
1000
0001
0010
0000
0100
0010
0001
0000
,
1000
0001
0100
0010
,
0110
0000
0000
0000
;

//--------------- dance-single - Fred-104 ----------------
#NOTES:
     dance-single:
     Fred-104:
     Hard:
     13:
     :
0000
0000
0000
0000
,
0000
0000
0000
0000
,
0000
0000
0000
0000
,
0000
0000
0000
0000
,
0000
0000
0000
0000
,
1000
0000
0000
0010
0000
0000
0100
0000
0001
0000
0000
0000
1000
0000
1000
0000
,
0100
0000
0000
0010
0000
0000
0001
0000
1000
0000
0000
0000
0001
0000
1000
0000
,
0001
0000
0000
1000
0000
0000
0100
0000
0001
0000
0000
1000
0000
0000
0010
0000
,
0001
0000
0000
0100
0000
0000
0010
0000
2020
0000
0000
0000
3030
0000
0000
0000
,
0001
0010
0001
1000
0010
0100
0001
1000
,
0100
0010
0001
0010
0100
1000
0001
0000
,
1000
0100
1000
0001
0100
0010
1000
1100
,
0000
0101
0000
0011
0000
1010
0000
1001
,
0001
0000
0000
0010
0000
0000
0100
0000
2000
0000
0000
0000
3001
0000
0100
0000
,
0020
0000
0000
0000
0000
0000
1030
0001
2000
0000
0000
0000
0000
0000
3100
0000
,
0020
0032
2003
3020
,
0032
0000
0013
0200
0000
0301
1000
0100
,
0110
0000
0000
0000
0001
0000
0100
0000
1000
0000
0000
0001
0000
0000
0010
0000
,
1000
0000
0000
0100
0000
0000
0001
0000
2000
0000
0000
0000
3010
0000
0001
0000
,
1000
0000
0010
0000
0100
0000
0010
0000
1000
0000
0000
0001
0000
0000
0010
0000
,
0100
1000
0010
0100
0001
1000
0100
0010
,
0001
0000
0000
0001
0000
0001
1000
0010
,
0100
0000
0001
0000
1000
0000
0100
0010
0100
0000
0010
0000
0001
0000
1000
0000
,
0100
1000
0010
1000
0100
1000
0001
0000
,
0011
1010
0101
1100
,
0110
0000
0000
0000
0001
0000
1000
0001
1000
0000
0100
0000
0010
0000
0001
0000
,
2000
0010
3001
0000
0002
0010
1003
0000
,
1000
0000
0000
0100
0000
0000
0010
0000
0011
0000
0000
0000
1001
0000
0000
0000
,
0120
0030
0001
0100
1000
0001
0010
1000
,
0100
0000
0000
0010
0000
0000
0001
0000
0101
0000
0000
0000
1001
0000
0000
0000
,
1000
0000
0010
0000
1000
0000
0001
0010
0001
0000
1000
0000
0001
0000
0100
0000
,
0001
0010
0001
0100
0001
0010
0100
0000
,
1100
0000
0000
0000
0001
0000
1000
0000
0100
0000
0000
0001
0000
0000
1000
0000
,
0010
0000
0000
0001
0000
0000
0010
0000
0100
0000
1000
0000
0001
0000
0000
0000
,
1000
0000
0000
0100
0000
0000
0001
0000
1000
0000
0000
0010
0000
0000
0100
0000
,
1000
0000
0000
0000
0001
0000
0010
0100
0010
0000
0000
0001
0000
0000
1000
0000
,
0002
0000
0100
0000
1003
0001
1000
0000
,
1100
0101
0011
1010
,
1000
0000
0010
0100
0010
0000
0100
0001
0100
0000
0001
1000
0001
0000
1000
0000
,
0001
0010
0001
0000
1000
0100
1000
0000
0001
1000
0001
1000
0001
1000
0001
1000
,
0001
1000
0010
0000
1000
0100
0010
0001
,
2000
0000
0000
0000
0001
0000
3001
1000
,
0010
0100
0010
1000
0100
0010
0001
0100
,
0010
0000
1000
0001
0100
1000
0100
0001
,
2000
0000
0100
0000
3100
0010
0001
1000
,
0010
0100
0010
0001
1000
0100
0010
1000
,
0001
0010
0100
0000
1000
0010
0100
0000
,
1001
0000
0000
1000
1000
0010
0100
0001
,
1000
0000
0100
0000
0010
0000
0001
1000
0001
0000
0100
0000
0001
0000
1000
0000
,
0100
1000
0010
1000
0100
0010
0001
0000
,
0011
1010
1100
0101
,
0110
0000
0000
0000
0001
0000
1000
0010
0100
0000
0001
0000
1000
0000
0001
0000
,
2000
0100
3001
0000
0002
0100
1003
0000
,
1000
0000
0000
0001
0000
0000
0100
0000
0010
0000
1000
0001
1000
0000
0100
0000
,
0010
0000
0001
0010
1000
0001
0100
1000
,
0010
0000
0000
0100
0000
0000
0001
0000
1000
0000
0001
0000
1001
0000
0000
0000
,
0001
0000
0010
0000
0100
0000
1000
0001
1000
0000
0010
0000
1000
0000
0100
0000
,
0001
1000
0010
0100
0010
0001
1000
0001
,
0100
0000
0000
0000
0010
0000
1000
0000
0100
0000
0000
0001
0000
0000
0100
0000
,
1000
0000
0000
0001
0000
0000
0100
0000
0110
0000
0000
0000
1001
0000
0000
0000
,
0001
0000
0000
0010
0000
0000
1000
0000
0001
0000
0000
0100
0000
0000
0010
0000
,
0001
0000
0000
0000
1000
0000
0100
0000
0001
0000
0000
0100
0000
0000
0010
0000
,
0002
0000
0010
0000
1003
0001
0100
0000
,
0101
1100
1010
0011
,
1000
0100
0001
0100
1000
0100
0001
0100
,
0010
1000
0010
0001
1000
0100
0010
0001
,
1000
0010
0001
0010
1000
0010
0001
0010
,
0100
1000
0100
0001
0010
0100
1000
0001
,
1000
0010
0100
1000
0001
0010
1000
0001
,
0010
0100
0001
1000
0010
0001
0100
0000
,
0110
0000
0000
0000
;

//--------------- dance-single - Fred-104† ----------------
#NOTES:
     dance-single:
     Fred-104†:
     Challenge:
     15:
     :
0000
0000
0000
0000
,
0000
0000
0000
0000
,
0000
0000
0000
0000
,
0000
0000
0000
0000
,
0000
0000
0000
0000
,
0001
0000
0000
0001
0000
0000
0001
0000
0101
0000
0000
0000
1001
0000
1000
0001
,
1000
0000
0000
1000
0000
0000
1000
0000
1100
0000
0000
0000
1001
0000
0001
1000
,
0001
0000
0000
0100
0000
0000
1000
0000
0001
0000
0000
0010
0000
0000
1000
0000
,
0001
0000
0000
1000
0000
0000
0100
0000
0010
0000
0001
0000
0011
0000
0000
0000
,
0001
1000
0100
0001
0100
1000
0100
0010
,
0001
1000
0010
0001
0010
0100
1000
0100
,
0001
0010
0100
0001
0100
1000
0010
0100
,
0001
0101
1000
1100
0001
0011
1000
1010
,
0001
0000
1000
0001
1000
0001
1000
0001
0010
0000
0100
1000
0100
1000
0100
1000
,
0001
0000
0100
0010
0100
0000
0010
1000
0010
0000
1000
0000
0100
0000
0010
0000
,
0001
0000
1000
0010
1000
0000
0001
0100
0001
0000
1000
0100
1000
0001
0010
0000
,
0100
0000
1000
0001
1000
0000
0010
0100
0001
0000
1000
0000
0100
0000
0010
0000
,
0011
0000
0000
0000
1000
0000
0001
1000
0010
0000
1000
0100
0000
0100
0010
0000
,
0001
0000
1000
0010
0000
0010
0100
0000
0102
0000
0000
0000
1003
0000
0100
0000
,
2000
0000
0010
0000
3002
0000
0100
0000
1003
0000
0100
0010
0000
0010
0001
0000
,
1000
0000
0001
0100
0001
0000
1000
0000
0100
0000
0010
0001
0010
0000
0100
0000
,
2200
0000
3300
0000
,
0011
0000
0010
0100
1000
0000
0010
0100
0001
0000
1000
0001
0010
0000
0001
0000
,
0200
0000
1000
0000
0010
0000
0301
1000
,
1100
0101
0011
1010
,
1001
0000
0000
0000
1000
0100
0010
0001
1000
0000
0001
0000
0100
0000
0010
0000
,
1000
0001
0010
0000
0100
0000
1000
0000
0001
1000
0010
0000
0100
0000
0001
0000
,
1000
0000
0100
0010
0000
0010
0001
0000
0100
0000
0001
0000
0010
0100
1000
0000
,
1100
0000
0000
0000
0001
0000
0010
0100
1000
0000
0001
0000
1000
0000
0010
0000
,
0100
0001
0000
0001
0010
0000
0100
0000
2200
0000
0000
0000
3300
0000
0000
0000
,
1001
0000
1000
0010
0100
0000
0010
1000
0100
0000
0010
0001
0100
0000
0001
0000
,
1000
0100
0001
1000
0010
0001
1001
0000
,
0110
0000
0000
0000
1000
0100
0010
0001
1000
0000
0001
0100
0000
0100
0010
0000
,
1000
0000
0001
0010
0000
0010
0100
0000
1100
0000
0001
0000
1000
0000
0000
0000
,
0110
0000
1000
0100
0000
0100
0010
0000
0011
0000
0001
1000
0000
1000
0010
0000
,
0110
0000
0000
0000
0001
0100
0010
1000
0100
0000
0010
0001
0000
1000
0010
0000
,
0100
0000
0001
1000
0100
0000
0010
0100
0010
0000
0001
1000
0010
0000
1000
0000
,
0002
0010
2003
0100
3001
1000
1001
0000
,
0001
0000
1000
0100
1000
0000
0001
0100
0001
0100
0001
0000
1000
0001
1000
0000
,
0001
0010
0001
0010
0001
0010
0001
0010
0100
1000
0100
1000
0100
1000
0100
1000
,
0002
0000
2003
0000
,
3020
0000
0130
0001
,
0200
0000
0302
0000
,
2003
3002
0020
0033
,
0002
0203
0320
2030
,
3200
0000
0020
0330
,
0001
0100
1000
0100
0010
0001
0010
1000
,
2002
0000
3003
0000
,
0110
0000
1000
0001
0010
0000
0100
1000
0001
0000
0100
0010
1000
0000
0001
0000
,
0200
0000
1000
0000
0010
0000
0301
1000
,
1010
1000
1100
0000
0011
0001
0101
0000
,
0110
0000
0000
0000
1000
0001
0100
0010
1000
0000
0100
0000
0010
0000
0001
0000
,
1000
0001
0100
0000
0010
0000
1000
0000
0001
1000
0100
0000
0010
0000
0001
0000
,
0100
0010
0000
0100
0001
0000
0010
0000
0110
0000
1000
0000
0001
0000
0000
0000
,
0110
0000
0000
0000
1000
0000
0001
1000
0010
0000
0100
0010
1000
0000
0100
0000
,
0010
0000
0001
1000
0000
1000
0010
0000
0100
0001
0100
0001
0100
0000
0000
0000
,
1001
0000
0001
1000
0010
0000
1000
0001
0010
0000
0100
1000
0010
0000
1000
0000
,
0200
0000
0010
0000
0001
0000
1300
0001
,
1000
0000
0001
0010
0100
0000
0010
0001
1000
0000
0010
0100
0000
0010
1000
0000
,
0100
0000
0010
0001
0000
1000
0001
0100
0001
0000
0000
0000
1001
0000
0000
0000
,
0002
0000
0000
0010
0000
0000
1003
0000
2000
0000
0000
0010
0000
0000
3001
0000
,
1001
0000
0000
0000
1000
0100
0010
0001
1000
0000
0001
0100
0000
0010
1000
0000
,
0100
0000
0010
0001
0010
0000
0001
0100
0010
0000
1000
0100
1000
0000
0001
0000
,
2000
0100
3002
0010
1003
0001
1001
0000
,
0001
0000
0010
0000
0100
0000
1000
0000
0001
0000
1000
0010
0100
0000
0001
0000
,
1000
0000
0010
1000
0001
0000
0010
0000
0100
1000
0100
1000
0010
0000
0000
0000
,
1000
0000
0001
0000
0100
0000
0010
0000
1000
0000
0100
0010
0001
0000
1000
0000
,
0010
0000
0100
0001
0010
0000
0100
0000
0010
0001
0010
0001
1000
0000
0000
0000
,
0001
0000
0100
0000
0010
0000
1000
0001
0010
0000
0100
1000
0001
0000
0100
0000
,
0010
1000
0010
0100
0001
0000
0010
0000
0100
1000
0001
0100
0010
0000
0000
0000
,
1001
0000
0000
0000
;

//--------------- dance-double - Fred-104 ----------------
#NOTES:
     dance-double:
     Fred-104:
     Easy:
     4:
     :
00000000
00000000
00000000
00000000
,
00000000
00000000
00000000
00000000
,
00000000
00000000
00000000
00000000
,
00000000
00000000
00000000
00000000
,
00000000
00000000
00000000
00000000
,
00010000
00000000
00010000
00000000
,
00000100
00000000
00000100
00000000
,
00010000
00000000
00001000
00000000
,
00010000
00000000
00011000
00000000
,
00001000
00000000
01000000
00000000
,
00001000
00000000
01000000
00010000
,
01000000
00000000
00100000
00000000
,
10000000
00000000
01000000
00000000
,
00100000
00000000
00100000
00000000
,
00001000
00010000
00001000
00000000
,
00010000
00000000
00010000
00000000
,
00000010
00000000
00001000
00000010
,
00001000
00000000
00000001
00000000
,
00000010
00000000
00001000
00000000
,
00010000
00000000
00001000
00010000
,
00001000
00000000
00010000
00010000
,
00022000
00000000
00033000
00000000
,
00010000
00000000
00001000
00000100
,
00000001
00000000
00001000
00000001
,
00001000
00000000
00000001
00000000
,
00001000
00000000
00000100
00000000
,
00010000
00001000
00010000
00000000
,
00001000
00100000
00001000
00000000
,
00100000
00000000
00010000
00000000
,
00100000
01000000
10000000
00000000
,
00010000
00000000
10000000
00100000
,
00010000
00000000
00001000
00010000
,
00001000
00000000
00010000
00000000
,
00000010
00010000
00001000
00000000
,
00010000
00000000
00001000
00000000
,
00000010
00000000
00000100
00000000
,
00001000
00000000
00000001
00000000
,
00001000
00000010
00010000
00001000
,
00010000
00010000
00001000
00001000
,
01000000
00001000
01000000
00001000
,
00020000
00000000
00032000
00000000
,
00023000
00000000
00030000
00000000
,
00002000
00000000
02003000
00000000
,
03020000
00000000
00030000
00000000
,
20000000
00000000
32000000
00000000
,
03200000
00000000
00302000
00000000
,
00013000
00010000
00001000
00001000
,
00011000
00000000
00000000
00000000
,
00001000
00000000
00010000
01000000
,
10000000
00000000
00010000
10000000
,
00010000
00000000
10000000
00000000
,
00010000
00000000
01000000
00000000
,
00001000
00010000
00001000
00000000
,
00010000
00000010
00010000
00000000
,
00000010
00000000
00001000
00000000
,
00000010
00000100
00000001
00000000
,
00001000
00000000
00000001
00000010
,
00001000
00000000
00010000
00001000
,
00010000
00000000
00001000
00000000
,
00100000
00001000
00010000
00000000
,
00001000
00000000
00010000
00000000
,
00100000
00000000
01000000
00000000
,
00010000
00000000
10000000
00000000
,
00010000
00100000
00001000
00010000
,
00001000
00000000
00010000
00000000
,
00000010
00000000
00001000
00000000
,
00000100
00000000
00000010
00000000
,
00000001
00000000
00001000
00000000
,
00000001
00000000
00000100
00000000
,
00001000
00000000
00010000
00000000
,
00011000
00000000
00000000
00000000
;

//--------------- dance-double - Fred-104 ----------------
#NOTES:
     dance-double:
     Fred-104:
     Medium:
     9:
     :
00000000
00000000
00000000
00000000
,
00000000
00000000
00000000
00000000
,
00000000
00000000
00000000
00000000
,
00000000
00000000
00000000
00000000
,
00000000
00000000
00000000
00000000
,
00001000
01000000
00010000
00000000
,
00100000
01000000
10000000
00000000
,
00100000
00010000
00001000
00000100
,
00000001
00000010
00000110
00000000
,
00000001
00000100
00000001
00000000
00000010
00000000
00000100
00000000
,
00010000
00001000
01000000
00000000
00010000
00000000
00100000
00000000
,
01000000
10000000
00100000
00000000
01000000
00000000
00100000
00000000
,
00010000
00001000
00010000
00000000
00000010
00001000
00000010
00000000
,
00010000
00000000
00000000
00001000
00000000
00000000
00001000
00000000
00000100
00000000
00000000
00000000
00000001
00000000
00000010
00000000
,
00000100
00000000
00000000
00010000
00010000
00000000
00001000
01000000
,
00002000
00203000
00320000
02030000
,
03001000
00000000
00000000
00001000
00000000
00010000
00100000
10000000
,
01000000
00000000
00000000
00000000
00000000
00000000
00100000
00000000
00100000
00000000
00000000
00001000
00000000
00000000
00001000
00000000
,
00010000
00000000
00000000
00000100
00000000
00000000
00000100
00000000
00010000
00000000
00000000
00000000
00001000
00000000
00000100
00000000
,
00000010
00000000
00000000
00000000
00001000
00000000
00000000
00000000
00000100
00000000
00000000
00000100
00000000
00000000
00000010
00000000
,
00000002
00000000
00000103
00001000
,
00022000
00000000
00033000
00000000
,
00001000
00000000
00010000
00010000
00100000
00000000
01000000
00000000
,
00010000
10000000
01000000
01010000
,
00001000
00010000
00100000
00010000
,
00001000
00000000
00010000
00001000
00010000
00000000
00000000
00000000
,
00010000
00000000
00001000
00000000
00000100
00000001
00001000
00000000
,
00000100
00000000
00000000
00000010
00000000
00000000
00000001
00000000
00001000
00000000
00000000
00000000
00000000
00000000
00000000
00000000
,
00000001
00000000
00000100
00001000
00010000
00000000
00001000
01000000
,
00001000
00000000
00000000
00001000
00000000
00000000
00010000
00000000
00011000
00000000
00000000
00000000
00000000
00000000
00000000
00000000
,
01100000
00000000
00010000
10000000
00100000
00000000
01000000
00000000
,
00100000
00000000
00010000
00000000
00001000
00010000
00000100
00000000
,
00011000
00000000
00000000
00000000
00000000
00000000
00000000
00000000
00010000
00000000
00000000
00001000
00000000
00000000
00000100
00000000
,
00000010
00000000
00000000
00001000
00000000
00000000
00000100
00000000
00000010
00000000
00000000
00000000
00000011
00000000
00000000
00000000
,
00000001
00000000
00000000
00000100
00000000
00000000
00001000
00000000
00010000
00000000
00000000
00001000
00000000
00000000
00010000
00000000
,
01000000
00000000
00000000
00000000
10000000
00000000
00010000
00000000
10000000
00000000
00000000
00100000
00000000
00000000
00010000
00000000
,
00002000
00000000
00000000
00013000
,
00000010
00001000
00001010
00001001
,
00000001
00000100
00001000
00010000
,
01000000
00000000
10000000
00000000
00010000
10000000
00010000
00000000
,
00100000
00000000
01000000
00000000
,
10000000
00000000
00100000
00000000
,
00010000
00001000
00010000
00000000
,
00000100
00001000
00000001
00000000
,
00000001
00000000
00000010
00000000
,
00001000
00010000
00100000
00000000
,
10000000
01000000
00100000
00001000
,
00022000
00000000
00033000
00000000
,
00010000
00000000
00001000
00001000
00000010
00000000
00000100
00000000
,
00001000
00000001
00000100
00001100
,
00010000
00001000
00000010
00001000
,
00010000
00000000
00001000
00010000
00001000
00000000
00000000
00000000
,
00001000
00000000
00010000
00000000
01000000
10000000
00010000
00000000
,
01000000
00000000
00000000
00100000
00000000
00000000
10000000
00000000
00010000
00000000
00000000
00000000
00000000
00000000
00000000
00000000
,
10000000
00000000
01000000
00010000
00001000
00000000
00010000
00000100
,
00010000
00000000
00000000
00010000
00000000
00000000
00001000
00000000
00011000
00000000
00000000
00000000
00000000
00000000
00000000
00000000
,
00000110
00000000
00001000
00000001
00000010
00000000
00000100
00000000
,
00000010
00000000
00001000
00000000
00010000
00001000
01000000
00000000
,
00011000
00000000
00000000
00000000
00000000
00000000
00000000
00000000
00001000
00000000
00000000
00010000
00000000
00000000
01000000
00000000
,
00100000
00000000
00000000
00010000
00000000
00000000
01000000
00000000
00100000
00000000
00000000
00000000
10100000
00000000
00000000
00000000
,
10000000
00000000
00000000
01000000
00000000
00000000
00010000
00000000
00001000
00000000
00000000
00010000
00000000
00000000
00001000
00000000
,
00000100
00000000
00000000
00000000
00000001
00000000
00001000
00000000
00000001
00000000
00000000
00000010
00000000
00000000
00001000
00000000
,
00020000
00000000
00000000
00031000
,
00100000
00010000
00110000
10010000
,
00010000
10000000
01000000
00000000
00100000
00010000
00100000
00000000
,
00001000
00010000
00000010
00001000
,
00000100
00000010
00000001
00000000
00001000
00000010
00000100
00000000
,
00001000
00010000
00001000
01000000
,
00010000
10000000
01000000
00000000
00100000
00010000
00100000
00000000
,
00010000
10000000
00100000
01000000
,
10010000
00000000
00000000
00000000
;

//--------------- dance-double - Fred-104 ----------------
#NOTES:
     dance-double:
     Fred-104:
     Hard:
     13:
     :
00000000
00000000
00000000
00000000
,
00000000
00000000
00000000
00000000
,
00000000
00000000
00000000
00000000
,
00000000
00000000
00000000
00000000
,
00000000
00000000
00000000
00000000
,
00010000
00000000
00000000
00000010
00000000
00000000
00001000
00000000
00000100
00000000
00000000
00000000
00000010
00000000
00000001
00000000
,
00001000
00000000
00000000
00000010
00000000
00000000
00000100
00000000
00001000
00000000
00000000
00000000
00010000
00000000
00001000
00000000
,
01000000
00000000
00000000
00001000
00000000
00000000
00010000
00000000
00001000
00000000
00000000
00000100
00000000
00000000
00001000
00000000
,
00010000
00000000
00000000
00001000
00000000
00000000
00100000
00000000
00202000
00000000
00000000
00000000
00303000
00000000
00000000
00000000
,
00001000
00010000
00100000
01000000
00010000
00100000
01000000
00010000
,
00000010
00001000
00000100
00000010
00000001
00001000
00000010
00000000
,
00010000
00000100
00001000
00010000
00100000
01000000
10000000
00010000
,
00000000
10010000
00000000
11000000
00000000
01010000
00000000
00011000
,
00010000
00000000
00000000
00001000
00000000
00000000
00000100
00000000
00000001
00000000
00000000
00000000
00001000
00000000
00000100
00000000
,
00000020
00000000
00000000
00000000
00000000
00000000
00000031
00001000
00000002
00000000
00000000
00000000
00000000
00000000
00000103
00000000
,
00002000
00023000
00230000
20300000
,
32000000
00000000
03100000
00002000
00000000
00013000
00001000
01000000
,
01100000
00000000
00000000
00000000
00010000
00000000
10000000
00000000
01000000
00000000
00000000
00010000
00000000
00000000
00001000
00000000
,
00010000
00000000
00000000
00000100
00000000
00000000
00010000
00000000
00002000
00000000
00000000
00000000
00003010
00000000
00000100
00000000
,
00001000
00000000
00000001
00000000
00000100
00000000
00001000
00000000
00010000
00000000
00000000
00001000
00000000
00000000
01000000
00000000
,
00020000
00100000
00001000
00130000
,
00011000
00000000
00000000
00001000
00000000
00001000
00010000
00000100
,
00010000
00000000
00001000
00000000
00100000
00000000
00010000
10000000
00010000
00000000
00100000
00000000
01000000
00000000
00000000
00000000
,
10000000
00100000
01000000
00100000
00010000
00001000
00010000
00000000
,
00011000
01001000
00010100
00001001
,
00000110
00000000
00000000
00000000
00000001
00000000
00000100
00000010
00000100
00000000
00001000
00000000
00010000
00000000
00000000
00000000
,
00002000
00010000
00103000
00000000
00200000
00010000
00301000
00000000
,
00001000
00000000
00000000
00010000
00000000
00000000
01000000
00000000
10000000
00000000
00010000
00000000
10010000
00000000
00000000
00000000
,
01100000
00000000
10000000
01000000
00010000
00001000
00000100
00000001
,
00001000
00000000
00000000
00000100
00000000
00000000
00000010
00000000
00000001
00000000
00001000
00000010
00001000
00000000
00000000
00000000
,
00000001
00000000
00000010
00000000
00000100
00000000
00010000
00001000
00010000
00000000
01000000
00000000
00100000
00000000
00000000
00000000
,
00010000
10000000
00100000
00010000
00001000
00010000
01000000
00000000
,
01100000
00000000
00000000
00000000
00010000
00000000
10000000
00000000
00100000
00000000
00000000
00010000
00000000
00000000
00000010
00000000
,
00001000
00000000
00000000
00000001
00000000
00000000
00000010
00000000
00000110
00000000
00000000
00000000
00011000
00000000
00000000
00000000
,
00001000
00000000
00000000
00010000
00000000
00000000
00100000
00000000
00010000
00000000
00000000
00001000
00000000
00000000
01000000
00000000
,
00001000
00000000
00000000
00000000
00010000
00000000
00001000
00000000
00000100
00000000
00000000
00000001
00000000
00000000
00000010
00000000
,
00000100
00001000
00000001
00000010
00001000
00000010
00000001
00000000
,
00001010
00011000
00110000
10100000
,
00010000
00000000
00100000
01000000
00100000
00000000
01000000
10000000
00010000
00000000
01000000
00010000
01000000
00000000
00001000
00000000
,
00010000
00000100
00010000
00000000
00000100
00001000
00000100
00000000
00000010
00000001
00000010
00000001
00000010
00000001
00000010
00000001
,
00001000
00000001
00001000
00000000
00000010
00000100
00001000
00010000
,
00002000
00000000
00000000
00000000
00010000
00000000
00013000
00001000
,
01000000
00001000
00010000
01000000
10000000
01000000
00010000
00001000
,
00010000
00000000
00000100
00010000
00001000
00000010
00000001
00001000
,
00000020
00000000
00000100
00000000
00000130
00000001
00001000
00000100
,
00010000
00001000
00010000
01000000
00100000
00001000
00010000
00000010
,
00001000
00000001
00000100
00000000
00001000
00010000
01000000
00000000
,
11000000
00000000
00000000
10000000
10000000
01000000
00010000
00001000
,
00010000
00000000
00000100
00000000
00001000
00000000
00000010
00000100
00000010
00000000
00001000
00000000
00000001
00000000
00001000
00000000
,
00000010
00000100
00001000
00010000
01000000
10000000
00010000
00000000
,
01010000
11000000
10100000
00110000
,
10010000
00000000
00000000
00000000
10000000
00000000
01000000
00100000
01000000
00000000
00100000
00000000
00001000
00000000
00000000
00000000
,
00020000
00001000
00030010
00000000
00000020
00001000
00010030
00000000
,
00010000
00000000
00000000
00001000
00000000
00000000
00000100
00000000
00000001
00000000
00000000
00000000
00000110
00000000
00000000
00000000
,
00001000
00000010
00000001
00000010
00001000
00000001
00000010
00001000
,
00010000
00000000
00000000
00100000
00000000
00000000
10000000
00000000
01000000
00000000
00000000
00000000
10010000
00000000
00000000
00000000
,
00010000
00000000
10000000
00000000
01000000
00000000
00100000
00010000
00100000
00000000
00001000
00000000
00010000
00000000
00000010
00000000
,
00001000
00000100
00010000
00000100
00001000
00000001
00000100
00001000
,
00010000
00000000
00000000
00000000
00001000
00000000
00010000
00000000
00100000
00000000
00000000
01000000
00000000
00000000
00100000
00000000
,
10000000
00000000
00000000
01000000
00000000
00000000
00010000
00000000
00001000
00000000
00000000
00000000
00011000
00000000
00000000
00000000
,
00010000
00000000
00000000
00001000
00000000
00000000
00000100
00000000
00000001
00000000
00000000
00001000
00000000
00000000
00000100
00000000
,
00000010
00000000
00000000
00000000
00000001
00000000
00001000
00000000
00000010
00000000
00000000
00000100
00000000
00000000
00001000
00000000
,
00020000
00001000
01000000
00031000
,
00011000
00001100
00000101
00001010
,
00000001
00001000
00000100
00000010
00000001
00001000
00000010
00010000
,
00001000
00010000
01000000
00100000
00010000
10000000
00100000
00000000
,
10000000
01000000
00100000
01000000
00010000
00001000
00000100
00000001
,
00001000
00000100
00000010
00001000
00010000
00001000
01000000
00000000
,
00001000
00010000
00001000
00100000
01000000
10000000
00010000
01000000
,
00001000
00010000
00100000
00010000
00001000
00010000
00000010
00000000
,
00001001
00000000
00000000
00000000
;

//--------------- dance-double - Fred-104† ----------------
#NOTES:
     dance-double:
     Fred-104†:
     Challenge:
     15:
     :
00000000
00000000
00000000
00000000
,
00000000
00000000
00000000
00000000
,
00000000
00000000
00000000
00000000
,
00000000
00000000
00000000
00000000
,
00000000
00000000
00000000
00000000
,
00001000
00000000
00000000
00001000
00000000
00000000
00001000
00000000
00011000
00000000
00000000
00000000
00001000
00000000
01000000
00010000
,
10000000
00000000
00000000
10000000
00000000
00000000
01000000
00000000
01100000
00000000
00000000
00000000
00001000
00000000
00010000
00000100
,
00001000
00000000
00000000
00000100
00000000
00000000
00000010
00000000
00000001
00000000
00000000
00000100
00000000
00000000
00001000
00000000
,
00100000
00000000
00000000
00010000
00000000
00000000
10000000
00000000
20020000
00000000
00000000
00000000
30030000
00000000
00000000
00000000
,
00010000
10000000
00100000
00010000
00001000
00010000
00000100
00001000
,
00000010
00001000
00010000
00100000
01000000
00010000
00001000
00010000
,
00000100
00010000
00001000
00000100
00000001
00001000
00000100
00000010
,
00000001
00000011
00001000
00001010
00000001
00000101
00001000
00001100
,
00010000
00000000
00001000
01000000
00010000
00000000
10000000
01000000
10000000
00000000
00100000
00010000
00001000
00000000
00010000
00000010
,
00010000
00000000
00000100
00001000
00000001
00000000
00000100
00000010
00001000
00000000
00000001
00000000
00000010
00000000
00000100
00000000
,
00010000
00000000
00001000
01000000
00001000
00000000
00010000
00000100
00010000
00000000
00001000
00100000
00010000
00000000
00100000
00000000
,
01000000
00000000
10000000
00010000
10000000
00000000
00010000
01000000
00100000
00000000
00010000
00000000
00001000
00000000
00000100
00000000
,
00000001
00000000
00000000
00000000
00001000
00000000
00000010
00000000
00000100
00000000
00001000
00010000
00000000
00010000
00001000
00000000
,
01000000
00000000
00010000
00100000
00000000
00100000
01000000
00000000
20000000
00000000
00000000
00000000
30010000
00000000
10000000
00000000
,
00200000
00000000
10000000
00000000
02300000
00000000
00010000
00000000
03100000
00000000
10000000
00100000
00000000
00100000
00010000
00000000
,
00001000
00010000
00000100
00000010
00000001
00001000
00000010
00010000
,
00022000
00000000
00033000
00000000
,
00011000
00000000
00001000
01000000
00010000
00000000
00100000
01000000
10000000
00000000
00100000
01000000
00100000
00000000
00010000
00000000
,
00001000
00000010
00000001
00001000
00000010
00000100
00001000
00000000
,
00011000
01010000
00011000
00001100
,
00011000
00000000
00000000
00000000
00001000
00010000
00001000
01000000
00010000
00000000
10000000
00000000
10010000
00000000
00000000
00000000
,
10000000
00010000
01000000
00000000
00100000
00000000
00010000
00000000
00001000
00010000
00000010
00000000
00001000
00000000
00000100
00000000
,
00000010
00000001
00000000
00000001
00000100
00000000
00001000
00000000
00011000
00000000
00000000
00000000
01100000
00000000
00000000
00000000
,
10010000
00000000
00000000
00000000
00010000
00000000
10000000
01000000
00010000
00000000
00001000
00010000
00001000
00000000
00000100
00000000
,
00000001
00000010
00000000
00000010
00000100
00000000
00010000
00000000
00001000
00010000
00001000
00010000
00001000
00000000
00000000
00000000
,
00011000
00000000
00010000
00000100
00001000
00000000
00000100
00000010
00000001
00000000
00001000
00000010
00000100
00000000
00001000
00000000
,
00010000
00100000
10000000
00010000
10000000
01000000
00010000
00000000
,
00011000
00000000
00000000
00000000
00010000
00000100
00001000
00000100
00000010
00000000
00000001
00001000
00000000
00000010
00000100
00000000
,
00001000
00000000
00010000
00001000
00000000
01000000
00001000
00000000
00011000
00000000
00000000
00000000
01100000
00000000
00000000
00000000
,
10010000
00000000
00010000
00100000
00000000
01000000
10000000
00000000
00010000
00000000
10000000
00100000
00000000
00010000
00001000
00000000
,
00011000
00000000
00000000
00000000
00010000
00000100
00001000
00000001
00000100
00000000
00000010
00001000
00000000
00000001
00000010
00000000
,
00000200
00000000
00000001
00000000
00000010
00000000
00001300
00000010
,
00010000
00100000
01000000
00010000
10000000
01000000
00010000
00000000
,
00001000
00000000
00010000
00000100
00001000
00000000
00000100
00000010
00000001
00000000
00001000
00000010
00000100
00000000
00001000
00000000
,
00010000
00001000
00010000
00001000
00010000
00001000
00010000
00001000
01000000
00010000
01000000
00010000
01000000
00010000
01000000
00010000
,
00200000
00000000
02300000
00000000
,
23000000
00000000
30200000
00320000
,
00032000
00003200
00000302
00002003
,
00003200
00000320
00000002
00000033
,
00000002
00000203
00002300
00023000
,
00032000
00000000
02000000
03003000
,
00010000
10000000
01000000
00100000
00010000
00001000
00000100
00000010
,
00000022
00000000
00000033
00000000
,
00000110
00000000
00001000
00000001
00000100
00000000
00001000
00010000
00001000
00000000
01000000
00010000
00100000
00000000
01000000
00000000
,
00100000
00010000
10000000
00100000
00010000
00001000
00010000
00000000
,
00011000
00010010
00011000
00101000
,
00011000
00000000
00000000
00000000
00001000
00010000
00000100
00010000
00001000
00000000
00010000
00000000
00100000
00000000
10000000
00000000
,
00010000
00100000
01000000
00000000
10000000
00000000
00010000
00000000
01000000
00100000
00010000
00000000
00001000
00000000
00010000
00000000
,
00000010
00000000
00001000
00000100
00000000
00000100
00000010
00000000
00000011
00000000
00000000
00000000
00001001
00000000
00000000
00000000
,
00000110
00000000
00000000
00000000
00001000
00000001
00000010
00000100
00001000
00000000
00000100
00010000
00001000
00000000
00010000
00000000
,
00100000
10000000
00000000
10000000
00010000
00000000
00100000
00000000
01000000
00000000
00010000
00000000
00001000
00000000
00000000
00000000
,
00011000
00000000
00010000
00000100
00001000
00000000
00000010
00000100
00001000
00000000
00010000
00001000
01000000
00000000
00001000
00000000
,
00010000
00001000
00000100
00000010
00001000
00000100
00000010
00000001
,
00000011
00000000
00000000
00000000
00001000
00000001
00000010
00000100
00001000
00000000
00000001
00000100
00000000
00001000
00010000
00000000
,
00001000
00000000
01000000
00001000
00000000
00010000
00000100
00000000
00001100
00000000
00000000
00000000
00010100
00000000
00000000
00000000
,
00011000
00000000
00001000
00010000
00000000
00100000
10000000
00100000
10000000
00000000
00010000
00100000
00000000
01000000
10000000
00100000
,
10000000
00000000
00000000
00000000
00010000
10000000
01000000
00100000
00001000
00000000
00010000
00000010
00000000
00001000
00000100
00000000
,
00000020
00000001
00001000
00000031
,
00000011
00001100
00110000
11000000
,
00010000
10000000
00100000
00010000
00001000
01000000
00010000
00000100
,
00000010
00000000
00001000
00000000
00000100
00000000
00000010
00000000
00001000
00010000
00001000
00010000
00001000
00000000
00000000
00000000
,
00010000
00001000
00000010
00000001
00001000
00000100
00010000
00000010
,
00000100
00000000
00001000
00000000
00010000
00000000
00100000
00000000
01000000
00001000
00010000
00001000
00010000
00000000
00000000
00000000
,
00001000
00000000
00010000
00000000
00100000
00000000
10000000
00010000
00100000
00000000
00001000
00010000
00000100
00000000
00000010
00000000
,
00000001
00001000
00000001
00001000
00000010
00000000
00000100
00000000
00001000
00010000
00001000
01000000
00001000
00000000
00010000
00000000
,
00011000
00000000
00000000
00000000
;
