#VERSION:0.83;
#TITLE:FUNKY SUMMER BEACH;
#ARTIST:P*Light;
#BANNER:FUNKY SUMMER BEACH.png;
#BACKGROUND:FUNKY SUMMER BEACH-bg.png;
#CDTITLE:./CDTitles/jb saucer fulfill.png;
#MUSIC:FUNKY SUMMER BEACH.ogg;
#SAMPLESTART:82.286;
#SAMPLELENGTH:15;
#BPMS:0=87.5,20=175,71=350,71.5=175,71.75=87.5,72=175,74=350,75=175,75.5=350,76=175,83=350,83.5=175,83.75=87.5,84=175,150=87.5,151=43.75,152=87.5,168=175,199=350,199.5=175,199.75=87.5,200=175;
#STOPS:74=0.043,74.25=0.043,74.5=0.043,74.75=0.042,75.5=0.043,75.75=0.043;
#BGSTAGE:16;

//--------------- dance-single - Fred-104 ----------------
#NOTEDATA:;
#STEPSTYPE:dance-single;
#DESCRIPTION:Fred-104;
#DIFFICULTY:Beginner;
#METER:4;
#CREDIT:Fred-104;
#NOTES:
0000
0000
0000
0000
,
0000
0000
0000
0000
,
0000
0000
0000
0000
,
1000
0000
0001
0000
,
0010
0010
0010
0010
,
0100
0000
1000
0000
,
0001
0000
1000
0000
,
0001
0000
1000
0000
,
0100
0000
0010
0010
,
0010
0000
0001
0000
,
1000
0000
0001
0000
,
0100
0000
0010
0000
,
0100
0000
0001
0001
,
1001
0000
0000
0000
,
1000
0000
0000
0000
,
0001
0000
0000
0000
,
0100
0100
0100
0000
,
0002
0000
0000
0003
,
2000
0000
3000
0000
,
0001
0001
0001
0000
,
2002
0000
0000
3003
,
1000
0000
0001
0000
,
0100
0000
0010
0000
,
0100
0000
0001
0000
,
1000
1000
1000
0000
,
0001
0000
1000
0000
,
0001
0000
0010
0000
,
0100
0000
0010
0000
,
1001
0000
0000
0000
,
2000
0000
0000
0000
,
0000
0000
3000
0000
,
0002
0000
0000
0000
,
0000
0000
0003
0000
,
2000
0000
3000
0000
,
0002
0000
0003
0000
,
2000
3000
0002
0003
,
1000
1000
1000
0000
,
1001
0000
0000
0000
,
0002
0000
0000
0003
,
2000
0000
0000
3000
,
0020
0000
0000
0030
,
0200
0000
0000
0300
,
1001
0000
0000
0000
,
1000
0001
1001
0000
,
1001
0000
0000
0000
,
0001
1000
1001
0000
,
0001
0000
1000
0000
,
0001
0000
0100
0000
,
0010
0010
0010
0000
,
0110
0000
0000
0000
,
0001
0000
1000
0000
,
0001
0000
0100
0000
,
0001
0000
1000
0000
,
0100
0000
0010
0010
,
0010
0000
0001
0000
,
1000
0000
0001
0000
,
0100
0000
0010
0000
,
1001
0000
0000
0000
,
2000
0000
0000
0000
,
0000
0000
3000
0000
,
0002
0000
0000
0003
,
2000
3000
0002
0003
,
1001
0000
0000
0000
,
0110
0000
0000
0000
,
1001
0000
0110
0000
,
1001
0000
0000
0000
,
1001
0000
0000
0000
;

//--------------- dance-single - Fred-104 ----------------
#NOTEDATA:;
#STEPSTYPE:dance-single;
#DESCRIPTION:Fred-104;
#DIFFICULTY:Easy;
#METER:8;
#CREDIT:Fred-104;
#NOTES:
0000
0000
0000
0000
,
0000
0000
0000
0000
,
0000
0000
0000
0000
,
0001
0110
1000
0110
,
0001
1000
0001
0100
0010
0100
0110
0000
,
0001
0010
0100
1000
,
0001
1000
0200
0300
,
0010
0010
0001
1000
,
0001
0000
0100
0000
0010
0100
0010
0000
,
0100
0001
1000
0001
,
0010
0100
1001
0000
,
0110
0000
1001
0000
,
0001
1000
0110
1001
,
0002
0003
2000
3000
,
0020
0030
0100
0110
,
1001
0000
0001
0000
,
1000
0100
0010
0001
,
1001
0000
0220
0330
,
1001
0000
0220
0330
,
0001
0001
1000
1000
,
2002
0000
0000
3003
,
1000
0000
0100
0000
0010
0001
0010
0000
,
0001
0000
1000
0000
0001
0100
0001
0000
,
0100
0000
0010
0000
1000
0010
1000
0000
,
0001
0100
0110
1001
,
0001
0000
1000
0000
0010
0100
0010
0000
,
1000
0000
0001
0000
0010
0100
0010
0000
,
0001
0000
1000
0000
0001
0100
0001
0000
,
1000
0000
0000
1000
0000
0000
1000
0000
0001
0000
0000
0000
1001
0000
0000
0000
,
0000
1000
0000
1000
0000
0001
0000
0001
,
0000
0100
0000
0100
0000
0010
0000
0010
,
0000
0100
0000
0100
0000
0001
0000
0001
,
0000
1000
0000
0100
0000
0001
0000
0100
,
0000
1000
0000
0001
0000
0100
0000
0010
,
0000
1000
0000
0001
0000
0010
0000
0100
,
0000
1000
0000
0001
0000
0100
0000
0010
,
0000
1000
0100
1000
0000
0001
1000
0000
,
2002
0000
0000
0000
0000
0000
0000
3003
,
0110
0000
1000
0000
0100
0010
0010
0000
,
0001
0000
1000
0000
0001
0100
0100
0000
,
0010
0000
0100
0000
0001
1000
0001
0010
,
0100
0000
0000
1000
0000
0001
0000
2002
0000
0000
0000
0000
3003
0000
0000
0000
,
0110
0000
0000
0000
0000
0000
0000
0001
,
0001
0000
0010
0000
0100
1000
0100
0000
,
1001
0000
0000
0000
0000
0000
0000
1000
,
1000
0000
0010
0000
0100
0001
0100
0000
,
1001
0000
0110
0000
,
1001
0000
0110
0001
,
1000
0100
0010
0001
,
2002
0000
0000
3003
,
1000
0000
0010
0000
0100
0001
0100
0000
,
0001
1000
0001
0010
,
0100
0000
0010
0000
0001
1000
0001
0000
,
0100
0010
0100
0001
,
1000
0000
0100
0000
0010
0100
1000
0000
,
0001
1000
0010
0100
,
0001
0000
1000
0000
0100
0010
0001
0000
,
1000
0000
0000
1000
0000
0000
0001
0000
0000
0001
0000
0000
1001
0000
0000
0000
,
0000
0001
0000
0010
0000
0001
0000
1000
,
0000
0010
0000
0100
0000
0010
0000
1000
,
0000
0001
0000
0010
0000
0100
0000
1000
,
0000
0001
0000
0100
0000
0010
0000
0000
,
1001
0000
0100
0010
,
1001
0000
0110
0000
,
0001
0001
1000
1000
,
0100
0010
0001
1000
,
1001
0000
0000
0000
;

//--------------- dance-single - Fred-104 ----------------
#NOTEDATA:;
#STEPSTYPE:dance-single;
#DESCRIPTION:Fred-104;
#DIFFICULTY:Medium;
#METER:12;
#CREDIT:Fred-104;
#NOTES:
0000
0000
0000
0000
,
0000
0000
0000
0000
,
0000
0000
0000
0000
,
0110
0000
1000
0100
0010
0000
0001
0100
0020
0000
2030
0000
3002
0000
0023
0000
,
0130
0000
0000
0100
0000
0000
0100
0000
1000
0000
0000
0000
0001
0000
0100
0000
1000
0000
0100
0000
0001
0000
0000
0000
0110
0000
0000
0000
1001
0000
0000
0000
,
0000
1000
0100
0001
1000
0010
0001
0010
,
0100
1000
0001
0100
0010
1000
0002
0000
,
0013
0010
0100
0100
1000
0001
0100
0000
,
0010
0010
0100
0100
0001
1000
0001
0000
,
1000
0100
1000
0100
0001
0100
0010
0001
,
1000
0010
1000
0010
0001
0010
0100
0001
,
1000
0100
0001
0000
1000
0010
0001
0000
,
0110
0000
1001
0000
0001
0010
0100
1000
,
0001
0100
1000
0010
,
1000
0100
0001
0011
,
1000
0100
0010
0001
,
0011
1010
0101
1100
,
0001
0000
0000
0001
0000
0000
0001
0000
0010
0000
0100
0000
2000
0000
0000
0000
,
3001
0000
0000
0001
0000
0000
0001
0000
0200
0000
0000
0000
0320
0000
0000
0000
,
1030
1010
0001
0101
,
0220
0000
0000
0330
,
1000
0000
0000
1000
0000
0000
1000
0000
0010
0000
0100
0000
0001
0000
0000
0000
,
0010
0000
0000
0010
0000
0000
0010
0000
0100
0000
0010
0000
0001
0000
0000
0000
,
0100
0000
0000
0100
0000
0000
0100
0000
0001
0000
1000
0000
0010
0000
0000
0000
,
0200
0000
0000
0320
0000
0000
0230
0000
0301
0000
1000
0000
1001
0000
0000
0000
,
0001
0000
0000
0010
0000
0000
0010
0000
0100
0000
0010
0000
0001
0000
1000
0000
,
0010
0000
0000
0010
0000
0000
0100
0000
0001
0000
1000
0000
0100
0000
0010
0000
,
0100
0000
0000
1000
0000
0000
1000
0000
0010
0000
1000
0000
0001
0000
0010
0000
,
0100
0000
0000
0100
0000
0000
0100
0000
1000
0000
0001
0000
1001
0000
0000
0000
,
0000
1010
0000
0101
0000
1010
0000
0101
,
0000
1100
0000
0001
1000
0001
0100
0010
,
0000
1010
0000
0101
0000
1100
0000
0011
,
0000
1000
0100
0001
0000
1000
0010
0001
,
0000
0011
0000
1001
0000
1000
0001
0100
,
0000
0110
0000
0001
1000
0001
0100
0010
,
0000
1010
0000
0101
0000
1000
0100
0010
,
0000
0001
0100
1000
0001
0010
1000
0100
,
0220
0000
0000
0000
0000
0000
0000
0330
,
1001
0000
0001
0000
0010
0000
0100
0000
1000
0000
0001
0000
1000
0100
0010
0000
,
0001
0000
0010
0000
0100
0000
1000
0000
0010
0000
0100
0001
0100
0000
0001
0000
,
1000
0100
0001
0000
1000
0000
0010
0001
0010
0000
0100
1000
0100
0000
0010
0000
,
0001
0000
0100
0100
0000
0110
0000
2002
0000
0000
0000
0000
3003
0000
0000
0000
,
0110
0000
0001
0100
1000
0100
0001
0000
,
0011
0000
1010
0000
0001
1000
1001
0000
,
1000
0010
0001
1000
0100
0001
0100
0000
,
0110
0000
1001
0000
0001
0010
0100
0000
,
1000
0100
1000
0100
0001
0000
0100
0001
,
0100
1000
0001
1000
0010
0000
0100
0010
,
1000
0001
0010
0100
1000
0001
0100
0010
,
1000
1000
0001
0001
1000
0000
1001
0000
,
0001
0000
0000
0001
0000
0000
0010
0000
0000
0100
0000
0000
1000
0000
0001
0000
,
0100
0000
0000
0010
0000
0000
1000
0000
0000
0010
0000
0000
0100
0000
0001
0000
,
1000
0000
0000
0100
0000
0000
0010
0000
0000
0001
0000
0000
0010
0000
0100
0000
,
1000
0000
0000
0010
0000
0000
0100
0000
0000
0010
0000
0000
1000
0000
0001
0000
,
0010
0000
0000
0100
0000
0000
1000
0000
0000
0010
0000
0000
0100
0000
0010
0000
,
1000
0000
0000
0100
0000
0000
0010
0000
0000
0001
0000
0000
0100
0000
0010
0000
,
0100
0000
0000
0001
0000
0000
1000
0000
0000
0010
0000
0000
1000
0000
0100
0000
,
1100
0000
0000
1001
0000
0000
0101
0000
0000
1001
0000
0000
0110
0000
0000
0000
,
0000
1010
0000
0101
0000
1100
0000
0011
,
0000
0110
0000
1000
0100
0001
0100
1000
,
0000
1010
0000
0101
0000
1100
0000
0011
,
0000
1000
0100
0001
0000
1000
0010
0001
,
0000
0011
0000
1010
0000
0001
1000
0100
,
0000
0110
0000
0001
1000
0010
0100
0001
,
1000
0100
0010
0001
0010
0100
1000
0010
,
0100
1000
0100
0010
0000
0100
0001
0000
,
1001
0000
0000
0000
;

//--------------- dance-single - Fred-104 ----------------
#NOTEDATA:;
#STEPSTYPE:dance-single;
#DESCRIPTION:Fred-104;
#DIFFICULTY:Hard;
#METER:15;
#CREDIT:Fred-104;
#NOTES:
0000
0000
0000
0000
,
0000
0000
0000
0000
,
0000
0000
0000
0000
,
0110
0000
1000
0100
0010
0000
0001
0100
0010
1000
0001
0000
0010
0100
1000
0000
,
0001
0000
0000
0001
0000
0000
0001
0000
0110
0000
0000
0000
1000
0000
0100
0000
0010
0000
0001
0000
1001
0000
0000
0000
0001
1000
0001
1000
0001
1000
0001
1000
,
0001
0000
0010
0000
0100
0000
1000
0100
1000
0100
1000
0000
0001
0000
0100
0000
,
0010
0000
1000
0000
0100
0000
0010
0000
0001
1000
0010
1000
0002
0000
0000
0000
,
1003
0100
1000
0100
0010
0000
0001
0000
1000
0010
0100
0000
0010
0000
1000
0000
,
0001
0010
0100
1000
1010
1000
1100
0000
,
0001
0000
0100
0000
1000
0000
0100
0000
0010
0000
0100
0000
0001
0000
1000
0001
,
1000
0000
0100
0000
0010
0000
0100
0010
0100
0000
0010
0001
1000
0000
0010
0000
,
0110
0100
0101
0000
0110
0010
1010
0000
,
1100
0000
0101
0000
1000
1000
0001
0001
,
1001
0001
0100
0010
,
1000
0001
0010
0110
,
1100
0001
0100
0010
,
1010
0101
1100
0011
,
1000
0000
0001
0100
0000
0010
1000
0000
0001
1000
0001
1000
0002
0000
0000
0000
,
0103
0000
0000
0000
0000
0000
0000
0000
0010
0000
0000
0000
1000
0000
0000
0000
0000
0000
0000
0000
0010
0000
0000
0000
0100
0000
0000
0000
0000
0000
0000
0000
0002
0003
0000
0000
2000
3000
0000
0000
0002
0003
0000
0000
2000
3000
0000
0000
0001
0000
0000
0000
0000
0000
0000
0000
0200
0300
0000
0000
0020
0030
0000
0000
,
0100
0001
1000
0100
0010
0001
1000
0001
,
1000
0000
1000
0000
0001
0000
0001
0000
1000
0001
1000
0001
2000
0000
0000
0000
,
3001
0000
0100
0001
0000
0001
0010
0000
0100
0000
1000
0000
0001
0100
0001
0000
,
1000
0000
0010
0100
0000
0100
0001
0000
0010
0000
0100
0000
1000
0010
1000
0000
,
0010
0000
0100
0001
0000
0001
0010
0000
0100
0000
0010
0000
0001
1000
0001
0000
,
1000
0000
0000
0100
0000
0000
0001
0000
1000
0000
0010
0000
0011
0000
0000
0000
,
1000
0000
0010
0100
0000
0100
0001
0000
0010
0000
0100
0000
1000
0010
1000
0000
,
0100
0000
0010
0100
0000
0100
1000
0000
0010
0000
0100
0000
0001
0010
0001
0000
,
1000
0000
0001
1000
0000
1000
0010
0000
0100
0000
0001
0000
1000
0100
1000
0000
,
1010
0000
0000
0101
0000
0000
1100
0000
0100
0000
0010
0000
0011
0000
0000
0000
,
1000
0000
0001
0010
0100
0000
1000
0000
0001
0000
0010
0100
1000
0000
0001
0000
,
1000
0000
0010
0100
0001
0000
1000
0100
0010
0001
1000
0000
0010
0000
0200
0000
,
0000
0000
0301
0100
0010
0000
1000
0000
0001
0000
0100
0010
1000
0000
0001
0000
,
1000
0000
0100
0010
0001
0000
1000
0000
0010
0000
0100
0001
1000
0000
0001
0000
,
1000
0000
0100
0010
0001
0000
1000
0100
0010
0000
0001
1000
0100
0000
0010
0000
,
0001
0000
1000
0010
0100
0000
0010
1000
0001
0010
0100
0000
1000
0000
0001
0000
,
1000
0010
0001
0010
0100
1000
0100
0001
,
1000
0000
0001
0100
0010
0000
1000
0001
0010
0100
1000
0000
0001
0000
0100
0000
,
0220
0000
0000
0000
0000
0000
0000
0330
,
1001
0000
0001
0010
0100
1000
0010
0100
0001
0000
0100
0000
1000
0100
0001
0000
,
1000
0100
0010
0001
0100
0010
1000
0100
0010
0000
0001
0010
1000
0010
0001
0000
,
0100
0010
0001
0010
0100
0000
0001
0010
0100
0001
0100
0010
0001
0000
1000
0100
,
0001
1000
0010
0001
0000
0110
0000
2002
0000
0000
0000
0000
3003
0000
0000
0000
,
1100
0000
1000
0100
0010
1000
0010
0001
,
0011
0000
1010
0000
0001
0100
0110
0000
,
1000
0100
0001
1000
0010
0001
0010
0100
,
1100
0000
0001
0100
0110
0010
1010
0000
,
0001
0010
1000
0010
0001
0010
1000
0010
,
0100
0001
0100
1000
0100
0001
0100
1000
,
0001
0000
0010
0000
0100
0000
1000
0000
0001
1000
0001
1000
0001
1000
0001
1000
,
0001
0000
0001
0000
1000
0000
0100
0010
0100
0010
0100
0000
2000
0000
0000
0000
,
3001
0000
1000
0001
0000
0100
0001
0000
1000
0001
0000
0100
0010
0000
1000
0000
,
0001
0000
0010
0100
0000
1000
0001
0000
0100
0010
0000
1000
0010
0000
0100
0000
,
0001
0000
1000
0100
0000
0010
0001
0000
1000
0001
0000
0100
0010
0000
1000
0000
,
0001
0000
0010
0100
0000
1000
0001
0000
0100
0010
0000
1000
0010
0000
0100
0000
,
0001
0000
1000
0001
0000
0100
0001
0000
1000
0010
0000
0100
0010
0000
1000
0000
,
0001
0000
0010
0100
0000
1000
0001
0000
0100
0010
0000
1000
0010
0000
0100
0000
,
0001
0000
1000
0100
0000
0010
0100
0000
1000
0001
0000
0100
0001
0000
1000
0000
,
1100
0000
0000
0101
0000
0000
0011
0000
0000
1010
0000
0000
1000
0001
1000
0001
,
1000
0000
0001
0100
0001
0000
1000
0000
0001
0000
1000
0100
1000
0000
0001
0000
,
0100
0000
0010
0000
1000
0000
0001
0010
0001
0010
0001
0000
0010
0000
0200
0000
,
0000
0000
1300
0001
1000
0000
0010
0000
0100
0000
0001
1000
0001
0000
1000
0000
,
0001
0200
2300
3200
0310
0002
0023
2030
,
3001
0000
0100
0000
0010
0000
1000
0000
0001
0010
0001
0010
0100
0000
1000
0000
,
0001
0000
0100
0000
0010
0000
1000
0000
0001
1000
0001
1000
0100
0000
0010
0000
,
0011
1010
1100
0101
,
0001
0000
0100
0010
0100
0000
0001
0000
1000
0100
0010
0001
0010
0100
1000
0000
,
1001
0000
0000
0000
;

//--------------- dance-single - Fred-104 ----------------
#NOTEDATA:;
#STEPSTYPE:dance-single;
#DESCRIPTION:Fred-104;
#DIFFICULTY:Challenge;
#METER:17;
#CREDIT:Fred-104;
#NOTES:
0000
0000
0000
0000
,
0000
0000
0000
0000
,
0000
0000
0000
0000
,
1001
0000
1000
0100
0001
0000
1000
0010
0001
1000
0010
0100
0001
0010
0100
0000
,
1100
0000
0000
0101
0000
0000
1100
0000
1000
0000
0010
0000
1000
0000
1000
0000
0001
0010
0001
0010
0001
0010
0001
0010
0100
1000
0001
1000
0001
1000
0010
0100
,
0001
0000
1000
0000
0100
0000
1000
0010
1000
0010
0100
0000
0001
0000
1000
0100
,
0010
0100
0010
0000
0001
1000
0010
0000
1000
0001
1000
0100
2000
0000
0000
0000
,
3001
0000
0000
0000
0010
0000
0000
0000
0001
0000
0000
0000
0010
0000
0000
0000
0100
0000
0000
0000
1000
0000
0000
0000
0100
0000
0000
0000
1000
0000
0000
0000
0001
0000
0000
0000
1000
0000
0000
0000
0001
0000
0000
0000
0000
0000
0000
0000
0200
0300
0000
0000
0000
0000
0000
0000
0200
0300
0000
0000
0000
0000
0000
0000
,
1000
0000
0001
0000
1000
0010
1000
0010
0100
0001
1000
0001
0010
0100
1000
0000
,
0001
0100
0010
0100
0001
0100
0010
0000
1000
0001
1000
0100
1000
0001
1000
0010
,
0100
0000
0001
0000
1000
0001
1000
0001
1000
0100
0010
0001
1000
0000
0001
0000
,
0010
0000
0100
0000
1100
0000
1000
0000
0001
0100
0010
0100
0001
0000
1000
0000
,
1100
0010
0101
0010
1100
0100
0110
0010
,
0011
0001
1000
0010
,
0100
0000
0100
0001
0000
0100
0001
0000
1000
0000
0100
0000
1100
0000
0000
0000
,
0101
0000
0001
1000
0000
0010
1000
0000
0010
0000
0100
0000
0001
0000
0000
0000
,
0021
0000
0001
1030
0020
0000
1000
0031
0010
0000
0100
0000
1100
0000
0000
0000
,
0001
0000
0100
0010
0000
1000
0001
0000
1000
0100
0010
0001
2000
0000
0000
0000
,
3001
0000
0000
0000
0000
0000
0000
0000
0100
0000
0000
0000
0010
0000
0000
0000
0000
0000
0000
0000
1000
0000
0000
0000
0001
0000
0000
0000
0000
0000
0000
0000
2000
3000
0000
0000
0002
0003
0000
0000
2000
3000
0000
0000
0002
0003
0000
0000
1000
0000
0000
0000
0000
0000
0000
0000
0002
0003
0000
0000
0200
0300
0000
0000
,
0001
0001
0010
0010
0100
0100
1000
1000
,
0001
0000
0100
0000
0010
0000
0100
1000
0100
0001
1000
0001
2000
0000
0000
0000
,
3001
0000
1000
0100
0000
1000
0001
0000
1000
0000
0100
0000
0010
0100
0010
0000
,
0001
0000
0100
0010
0000
0100
1000
0000
0100
0000
0001
0000
1000
0100
0010
0000
,
0001
0000
0010
0100
0000
0010
1000
0000
0010
0000
0001
0000
1000
0100
0010
0000
,
0001
0000
0100
0010
0000
0100
0001
0000
1000
0000
0100
0000
0110
0000
0000
0000
,
1000
0000
0100
0010
0000
0001
1000
0000
0010
0000
0100
0000
0010
1000
0001
0000
,
1000
0000
0100
0001
0000
1000
0010
0000
0001
0000
1000
0000
0001
1000
0010
0000
,
1000
0000
0010
0001
0000
1000
0100
0000
0010
0000
1000
0000
0001
1000
0001
0000
,
0101
0000
0000
1010
0000
0000
1001
0000
0001
0000
0100
0000
0110
0000
0000
0000
,
1000
0000
0010
1000
0010
0000
1000
0100
1000
0000
0001
0100
0001
0000
1000
0010
,
1000
0000
0001
0010
0001
0000
1000
0100
0010
0001
0010
0000
0001
0000
0100
0000
,
0010
0000
1000
0010
1000
0000
0001
0010
0001
0000
0100
0001
0100
0000
0001
1000
,
0001
0000
1000
0100
1000
0100
0010
0000
0001
0000
1000
0010
1000
0010
0100
0000
,
0001
0000
0100
0010
0100
0000
1000
0000
0001
0000
0010
0100
0010
0000
1000
0000
,
0001
0000
1000
0100
0010
0000
0001
0000
1000
0001
0100
0000
0010
0000
1000
0000
,
0001
0010
0001
0010
0100
1000
0100
1000
0001
0100
0001
0100
0010
1000
0010
1000
,
0001
1000
0100
0010
0001
0100
0010
1000
0010
0100
0001
1000
0001
0000
1000
0000
,
2002
0000
0000
0000
0000
0000
0000
3003
,
1000
0000
0001
1000
0010
0001
1000
0100
0020
0000
2030
0000
3001
0010
0200
0000
,
1300
0010
0100
1000
0001
0010
0100
0010
2000
0000
3001
0100
1000
0100
0002
0000
,
1003
0100
0010
1000
0002
0000
0103
0010
0001
0100
0010
0001
2000
0000
3100
0001
,
1000
0000
0000
0000
0100
0000
0000
0000
0010
0000
0000
0000
0001
0000
0000
0000
0000
0000
0000
0000
1010
0000
0000
0000
0000
0000
0000
0000
0202
0000
0000
0000
0000
0000
0000
0000
0000
0000
0000
0000
0000
0000
0000
0000
0000
0000
0000
0000
0000
0303
0000
0000
0000
0000
0000
0000
0000
0000
0000
0000
0000
0000
0000
0000
,
1000
0000
0001
0100
0010
1000
0100
1100
,
1001
0000
0000
0000
0000
0000
1000
0000
0000
0000
0000
0000
1010
0000
0000
0110
0000
0000
0101
0000
0000
0001
1000
0001
,
1000
0010
0100
1000
0001
0010
1000
1001
,
1001
0000
0011
0010
0100
1000
1001
0000
,
1000
0100
1000
0000
0100
0010
0100
0000
0010
0001
0010
0000
0001
1000
0001
0000
,
1000
0010
0100
0000
0010
1000
0001
0000
0010
0001
1000
0000
0001
1000
0100
0000
,
1000
0001
0100
0001
1000
0010
0100
0010
1000
0001
0010
0100
1000
0001
0010
0001
,
1000
0000
0001
0000
0100
0000
1000
0100
0010
0100
0001
1000
0002
0000
0000
0000
,
1003
0000
0010
1000
0000
0100
1000
0000
0001
1000
0000
0100
1000
0000
0010
0000
,
1000
0000
0100
0010
0000
0001
1000
0000
0001
0010
0000
0001
1000
0000
0001
0000
,
0010
0000
0001
0100
0000
0001
1000
0000
0100
1000
0000
0100
0010
0000
0100
0000
,
1000
0000
0001
0100
0000
1000
0100
0000
0010
0001
0000
0010
1000
0000
0001
0000
,
1000
0000
0010
1000
0000
0001
0100
0000
0010
1000
0000
0010
0100
0000
0001
0000
,
1000
0000
0001
0010
0000
0100
0010
0000
0100
1000
0000
0001
0100
0000
0010
0000
,
1000
0000
0001
0010
0000
1000
0010
0000
0100
0001
0000
0100
1000
0000
0001
0000
,
0101
0000
0000
1100
0000
0000
0011
0000
0000
1010
0000
0000
0001
0010
0100
1000
,
0001
0000
0100
0001
1000
0000
0100
0010
0001
0000
1000
0010
0100
0000
0001
0100
,
0010
0000
1000
0001
0010
0000
0100
0010
0001
1000
0010
0000
0200
0000
0010
0000
,
0000
0000
0301
1000
0010
0000
1000
0001
0010
0000
0100
0010
0001
0000
1000
0010
,
0100
0000
0001
0010
0100
1000
0001
0000
0100
0000
0010
0100
0001
1000
0001
0000
,
1000
0100
0010
0100
1000
0001
1000
0000
0001
0100
0010
0100
0001
1000
0001
0000
,
1000
0100
0010
0001
0100
0010
1000
0000
0001
0100
0010
1000
0001
0010
0100
0000
,
1000
0001
0100
0000
0010
0100
0001
0000
1000
0001
1000
0001
0010
0100
0010
0100
,
1000
0010
0100
0001
0010
0100
1000
0100
0010
0001
1000
0001
0100
0010
1000
0000
,
1001
0000
0000
0000
;

//--------------- dance-double - Fred-104 ----------------
#NOTEDATA:;
#STEPSTYPE:dance-double;
#DESCRIPTION:Fred-104;
#DIFFICULTY:Easy;
#METER:8;
#CREDIT:Fred-104;
#NOTES:
00000000
00000000
00000000
00000000
,
00000000
00000000
00000000
00000000
,
00000000
00000000
00000000
00000000
,
00010000
00000000
00001000
00000000
00000010
00000001
00000010
00000000
,
00000100
00000100
00000100
00000000
00010000
00000000
00011000
00000000
,
00001000
00010000
00100000
10000000
,
00010000
00100000
01000000
10000000
,
00100000
10000000
01000000
00010000
,
00001000
00000000
00000100
00000000
00000001
00001000
00000001
00000000
,
00000010
00000010
00000100
00010000
,
00001000
00001000
00100000
01000000
,
11000000
00000000
01010000
00000000
,
10000000
00010000
01000000
00100000
,
01100000
00000000
00010000
00000000
,
10000000
00000000
01000000
00100000
,
00011000
00000000
00001000
00000000
,
00010000
00010000
00001000
00001000
,
00011000
00000000
00000220
00000330
,
00011000
00000000
02200000
03300000
,
10000000
01000000
00010000
00001000
,
00022000
00000000
00000000
00033000
,
00010000
00001000
00000100
00000001
,
00000010
00000000
00000100
00000000
00001000
00000100
00001000
00000000
,
00000001
00000100
00001000
00010000
,
00100000
00000000
10000000
00000000
00010000
10000000
00010000
00000000
,
01000000
00100000
10000000
01000000
,
00010000
00000000
00001000
00000000
00010000
00000100
00010000
00000000
,
00001000
00010000
00000010
00001000
,
00000100
00000000
00000000
00000010
00000000
00000000
00001000
00000000
00010000
00000000
00000000
00000000
00011000
00000000
00000000
00000000
,
00000000
00010000
00000000
00001000
00000000
00000100
00000000
00000001
,
00000000
00001000
00000000
00000001
00000000
00000010
00000000
00000100
,
00000000
00010000
00000000
00001000
00000000
00100000
00000000
01000000
,
00000000
10000000
00000000
00010000
00000000
01000000
00000000
00100000
,
00000000
10000000
00000000
01000000
00000000
00010000
00000000
00001000
,
00000000
00010000
00000000
00100000
00000000
00010000
00000000
00001000
,
00000000
00000100
00000000
00000001
00000000
00001000
00000000
00000100
,
00000000
00000010
00000001
00000010
00000000
00000100
00010000
00000000
,
00022000
00000000
00000000
00000000
00000000
00000000
00000000
00033000
,
00011000
00001000
00010000
00100000
10000000
00000000
00010000
00000000
,
10000000
01000000
00100000
01000000
00100000
00000000
00001000
00000000
,
00010000
00001000
00000100
00000001
00001000
00000100
00000010
00000000
,
00000001
00000000
00000000
00000100
00000000
00001000
00000000
00022000
00000000
00000000
00000000
00000000
00033000
00000000
00000000
00000000
,
01100000
00000000
00000000
00000000
00000000
00000000
00000000
10000000
,
10000000
00000000
01000000
00000000
00100000
00100000
00100000
00000000
,
00011000
00000000
00000000
00000000
00000000
00000000
00000000
00001000
,
00001000
00000000
00010000
00000000
00000010
00000010
00000010
00000000
,
00001001
00000000
00000110
00000000
,
00011000
00000000
01100000
00000000
,
10000000
01000000
00100000
00010000
,
20020000
00000000
00000000
30030000
,
10000000
00100000
00010000
00001000
,
00010000
00000000
00000010
00000000
00010000
00001000
00010000
00000000
,
00000010
00010000
00000010
00001000
,
00000001
00000000
00000010
00000000
00000100
00001000
00000100
00000000
,
00010000
00001000
01000000
00001000
,
00010000
00000000
00001000
00000000
00100000
00010000
00100000
00000000
,
01000000
10000000
00100000
00010000
,
00001000
00000000
00000000
00001000
00000000
00000000
00010000
00000000
00000000
00010000
00000000
00000000
00011000
00000000
00000000
00000000
,
00000000
00001000
00000000
00010000
00000000
00100000
00000000
01000000
,
00000000
00100000
00000000
10000000
00000000
00010000
00000000
10000000
,
00000000
01000000
00000000
00100000
00000000
00001000
00000000
00010000
,
00000000
00000010
00000000
00001000
00000000
00000100
00000000
00000010
,
00000011
00000000
00000001
00000100
,
00000110
00000000
00011000
00000000
,
00001000
00010000
00100000
10000000
,
01000000
00000000
00010000
00000000
00001000
00010000
00001000
00000000
,
00011000
00000000
00000000
00000000
;

//--------------- dance-double - Fred-104 ----------------
#NOTEDATA:;
#STEPSTYPE:dance-double;
#DESCRIPTION:Fred-104;
#DIFFICULTY:Medium;
#METER:11;
#CREDIT:Fred-104;
#NOTES:
00000000
00000000
00000000
00000000
,
00000000
00000000
00000000
00000000
,
00000000
00000000
00000000
00000000
,
10010000
00000000
10000000
01000000
00100000
00000000
00001000
00010000
00001000
00000000
01000000
00000000
00001000
00000000
00010000
00000000
,
00001000
00000000
00000000
00010000
00000000
00000000
00010000
00000000
00001000
00000000
00000000
00000000
00010000
00000000
00001000
00000000
00000100
00000000
00000001
00000000
00000010
00000000
00000000
00000000
00000110
00000000
00000000
00000000
00001001
00000000
00000000
00000000
,
00000000
00000001
00000100
00001000
00010000
00100000
01000000
00000000
,
00100000
10000000
00010000
00000000
10000000
01000000
00100000
00000000
,
00001000
00010000
00001000
00010000
00000010
00010000
00001000
00000000
,
00010000
00001000
00000100
00000001
00000010
00000100
00000010
00000000
,
00000001
00001000
00000010
00000000
00001000
00000001
00000010
00000000
,
00000100
00010000
00001000
00000000
00010000
00100000
01000000
00000000
,
00100000
10000000
00010000
00000000
10000000
01000000
00100000
00000000
,
00011000
00010010
00101000
00110000
,
00010000
10000000
01000000
00100000
,
00001000
00010000
00000010
00000110
,
00001001
00000001
00000100
00001000
,
00011000
00110000
10100000
10010000
,
10000000
00000000
00000000
10000000
00000000
00000000
10000000
00000000
01000000
00000000
00010000
00000000
00002000
00000000
00000000
00000000
,
00013000
00000000
00000000
00001000
00000000
00000000
00000100
00000000
00000020
00000000
00000000
00000000
00002030
00000000
00000000
00000000
,
00003001
00000010
00001000
00010000
,
00022000
00000000
00000000
00033000
,
00001000
00000000
00000000
00001000
00000000
00000000
00001000
00000000
00010000
00000000
00100000
00000000
10000000
00000000
00000000
00000000
,
00010000
00000000
00000000
00010000
00000000
00000000
00010000
00000000
01000000
00000000
00100000
00000000
01000000
00000000
00000000
00000000
,
00001000
00000000
00000000
00001000
00000000
00000000
00001000
00000000
00010000
00000000
00000100
00000000
00000010
00000000
00000000
00000000
,
00000002
00000000
00000000
00002003
00000000
00000000
00003020
00000000
00000130
00000000
00001000
00000000
00010000
00000000
00000000
00000000
,
00001000
00000000
00000000
00001000
00000000
00000000
00001000
00000000
00010000
00000000
00100000
00000000
10000000
00000000
00010000
00000000
,
00100000
00000000
00000000
00100000
00000000
00000000
00100000
00000000
01000000
00000000
00100000
00000000
00001000
00000000
00010000
00000000
,
00000100
00000000
00000000
00000100
00000000
00000000
00000100
00000000
00001000
00000000
00000001
00000000
00000100
00000000
00000010
00000000
,
00000100
00000000
00000000
00000100
00000000
00000000
00000100
00000000
00001000
00000000
00010000
00000000
00011000
00000000
00000000
00000000
,
00000000
00010010
00000000
00101000
00000000
00010100
00000000
01001000
,
00000000
00010100
00000000
00010000
00001000
00000100
00000010
00001000
,
00000000
00001001
00000000
00001100
00000000
00000101
00000000
00000110
,
00000000
00000001
00000100
00001000
00000000
00010000
01000000
10000000
,
00000000
10100000
00000000
01010000
00000000
10000000
01000000
00100000
,
00000000
00011000
00000000
00010000
00001000
00000010
00001000
00010000
,
00000000
00011000
00000000
00010100
00000000
00010000
00000100
00001000
,
00000000
00000100
00000010
00000001
00000000
00000100
00001000
00010000
,
00022000
00000000
00000000
00000000
00000000
00000000
00000000
00033000
,
01100000
00010000
10000000
01000000
00200000
00302000
00003020
00000230
,
00001300
00000000
00000010
00000000
00000100
00000001
00001000
00000000
00000200
00000000
00000320
00000000
00002030
00000000
00023000
00000000
,
00031000
00010000
00001000
00010000
00100000
00000000
01000000
00010000
10000000
00010000
10000000
01000000
00200000
00000000
00302000
00000000
,
00013000
00000000
00001000
00001000
00000000
00010000
00000000
00022000
00000000
00000000
00000000
00000000
00033000
00000000
00000000
00000000
,
00011000
00000000
00010000
00000000
00001000
00000000
00000100
00000001
,
00001001
00000000
00000110
00000000
00000001
00001000
00000100
00000000
,
00011000
00000000
00100000
00000000
01000000
00000000
00010000
10000000
,
11000000
01010000
01100000
10010000
,
10000000
01000000
00010000
00000000
00001000
00000100
00000001
00000000
,
00000001
00000010
00001000
00000000
00010000
00100000
10000000
00000000
,
01000000
00100000
00001000
00010000
00000010
00001000
00000010
00010000
,
00022000
00000000
00000000
00033000
,
00010000
00000000
00000000
00001000
00000000
00000000
01000000
00000000
00010000
00000000
00100000
00000000
01000000
00000000
00000000
00000000
,
10000000
00000000
00000000
00100000
00000000
00000000
10000000
00000000
01000000
00000000
00100000
00000000
00001000
00000000
00000000
00000000
,
00010000
00000000
00000000
00001000
00000000
00000000
00000010
00000000
00000100
00000000
00000010
00000000
00000001
00000000
00000000
00000000
,
00001000
00000000
00000000
00000001
00000000
00000000
00000100
00000000
00001000
00000000
00010000
00000000
00001000
00000000
00000000
00000000
,
00010000
00000000
00000000
00100000
00000000
00000000
01000000
00000000
00000000
00010000
00000000
00000000
00100000
00000000
01000000
00000000
,
10000000
00000000
00000000
00010000
00000000
00000000
01000000
00000000
00000000
00001000
00000000
00000000
00010000
00000000
00000100
00000000
,
00001000
00000000
00000000
00000100
00000000
00000000
00000010
00000000
00000000
00000001
00000000
00000000
00000100
00000000
00000000
00000000
,
00001001
00000000
00000000
00001010
00000000
00000000
00010010
00000000
00000000
00101000
00000000
00000000
00011000
00000000
00000000
00000000
,
00000000
00101000
00000000
00010010
00000000
01001000
00000000
00010100
,
00000000
00011000
00000000
00001000
00010000
00100000
10000000
00010000
,
00000000
01100000
00000000
10010000
00000000
11000000
00000000
01010000
,
00000000
10000000
00100000
00010000
00000000
00001000
00000010
00000001
,
00000000
00000110
00000000
00001001
00000000
00000001
00000100
00001000
,
00000000
00011000
00000000
00010000
01000000
10000000
00010000
10000000
,
00000000
01100000
00000000
00011000
00000000
00000110
00000000
00001001
,
00000000
00000001
00000100
00001000
00010000
00001000
00000010
00000001
,
00001001
00000000
00000000
00000000
;

//--------------- dance-double - Fred-104 ----------------
#NOTEDATA:;
#STEPSTYPE:dance-double;
#DESCRIPTION:Fred-104;
#DIFFICULTY:Hard;
#METER:15;
#CREDIT:Fred-104;
#NOTES:
00000000
00000000
00000000
00000000
,
00000000
00000000
00000000
00000000
,
00000000
00000000
00000000
00000000
,
00001001
00000000
00000001
00000100
00001000
00000000
00010000
01000000
10000000
01000000
00100000
00000000
00001000
00000000
00010000
00000000
,
00001000
00000000
00000000
00001000
00000000
00000000
00001000
00000000
00011000
00000000
00000000
00000000
00010000
00000000
00001000
00000000
00000100
00000000
00000001
00000000
00000010
00000000
00000000
00000000
00000100
00001000
00000100
00001000
00000100
00001000
00000100
00001000
,
00000100
00000000
00000010
00000000
00000001
00000000
00001000
00000010
00001000
00000010
00001000
00000000
00000001
00000000
00000010
00000000
,
00000100
00000000
00000010
00000000
00001000
00000000
00010000
00000000
01000000
10000000
01000000
10000000
00020000
00000000
00000000
00000000
,
01030000
00100000
01000000
00000000
00100000
00000000
10000000
00000000
01000000
00000000
00100000
00000000
00001000
00000000
00010000
00000000
,
00100000
00000000
01000000
00000000
00001000
00000000
00010000
00000000
00000010
00001000
00000010
00000000
00000100
00000000
00000100
00000000
,
00000001
00000000
00001000
00000000
00000100
00000000
00000010
00000000
00000001
00000000
00000100
00000000
00001000
00000000
00010000
00001000
,
00010000
00000000
00100000
00000000
10000000
00000000
00010000
00000000
00100000
01000000
00100000
01000000
00100000
00000000
00010000
00000000
,
10000000
00100000
00010000
00001000
00000100
00000001
00000010
00000000
,
00000110
00000000
00011000
00000000
00011000
00001000
00011000
00010000
,
00011000
00010000
00001000
01000000
,
00010000
00100000
01000000
11000000
,
01010000
10000000
00100000
01000000
,
01010000
00101000
00010100
00001010
,
00001001
00000000
00000001
00000010
00000000
00000100
00010000
00000000
00001000
00010000
00001000
00010000
00002000
00000000
00000000
00000000
,
00103000
00000000
00000000
00000000
00000000
00000000
00000000
00000000
00001000
00000000
00000000
00000000
00100000
00000000
00000000
00000000
00000000
00000000
00000000
00000000
00010000
00000000
00000000
00000000
10000000
00000000
00000000
00000000
00000000
00000000
00000000
00000000
02000000
03000000
00000000
00000000
00200000
00300000
00000000
00000000
02000000
03000000
00000000
00000000
00200000
00300000
00000000
00000000
02000000
03000000
00000000
00000000
00000000
00000000
00000000
00000000
20000000
30000000
00000000
00000000
00020000
00030000
00000000
00000000
,
10000000
00100000
01000000
00010000
00001000
00000010
00000100
00000000
,
00000001
00000000
00000010
00000000
00001000
00000000
00010000
00000000
00001000
00010000
00001000
00010000
00002000
00000000
00000000
00000000
,
00013000
00000000
00000100
00001000
00000000
00001000
00000001
00000000
00000100
00000000
00000010
00000000
00001000
00000000
00000001
00000000
,
00000010
00000000
00000100
00001000
00000000
00001000
00000010
00000000
00010000
00000000
00001000
00000000
00010000
00000000
00100000
00000000
,
01000000
00000000
00010000
00100000
00000000
00100000
01000000
00000000
00100000
00000000
00010000
00000000
10000000
00000000
00100000
00000000
,
00010000
00000000
00000000
00001000
00000000
00000000
00010000
00000000
00100000
00000000
01000000
00000000
00020000
00000000
00000000
00000000
,
10030000
00000000
00010000
01000000
00000000
00100000
01000000
00000000
00010000
00000000
10000000
00000000
01000000
00000000
00100000
00000000
,
00001000
00000000
00010000
00000100
00000000
00000010
00000100
00000000
00001000
00000000
00000001
00000000
00000100
00000000
00001000
00000000
,
00010000
00000000
00100000
01000000
00000000
00010000
10000000
00000000
01000000
00000000
00100000
00000000
00001000
00000000
00010000
00000000
,
00011000
00000000
00000000
00010010
00000000
00000000
00001010
00000000
00001000
00000000
00000100
00000000
00000110
00000000
00000000
00000000
,
00000001
00000100
00001000
00010000
00001000
00000100
00001000
00010000
,
01000000
00000000
10000000
00000000
01000000
00000000
00010000
00001000
00010000
00001000
00010000
00000000
00000100
00000000
00000010
00000000
,
00000001
00000010
00001000
00010000
00001000
00000010
00001000
00010000
,
00100000
00000000
00010000
00000000
00001000
00000000
00010000
00000000
00100000
00000000
10000000
00000000
00010000
00000000
00100000
01000000
,
00100000
00000000
00001000
00010000
00001000
00000000
00100000
00000000
00001000
00010000
00001000
00000000
00000010
00000000
00000001
00000000
,
00000010
00000000
00000100
00001000
00000100
00000000
00010000
00000000
00001000
01000000
00001000
01000000
00001000
00000000
00010000
00000000
,
00001000
00010000
00100000
10000000
00010000
00100000
01000000
00100000
,
00001000
00000000
00010000
00000010
00001000
00000000
00000010
00000100
00000001
00001000
00000100
00000000
00000010
00000000
00000001
00000000
,
00002002
00000000
00000000
00000000
00000000
00000000
00000000
00003003
,
00001001
00000000
00000001
00000100
00000010
00000100
00001000
00010000
00001000
00000000
00010000
00000000
01000000
00100000
00010000
00000000
,
10000000
00100000
00010000
00001000
00000010
00000001
00001000
00000010
00000100
00000000
00000001
00000100
00001000
00000100
00000001
00000000
,
00001000
00000001
00000010
00001000
00010000
00000000
00100000
10000000
00010000
00100000
01000000
10000000
00100000
00000000
10000000
01000000
,
00010000
00001000
00010000
00000100
00000000
00000110
00000000
00002002
00000000
00000000
00000000
00000000
00003003
00000000
00000000
00000000
,
00000110
00000000
00000001
00000010
00001000
00010000
01000000
00100000
,
00110000
00000000
10100000
00000000
10000000
01000000
01100000
00000000
,
10000000
01000000
00010000
00001000
00000010
00000001
00001000
00000100
,
00000110
00000000
00000001
00000100
00000110
00000100
00000110
00000000
,
00000001
00000010
00001000
00000010
00000001
00000010
00001000
00010000
,
00100000
10000000
00010000
01000000
10000000
01000000
00010000
10000000
,
01000000
00000000
00100000
00000000
00001000
00000000
00010000
00000000
00001000
00010000
00001000
00010000
00001000
00010000
00001000
00010000
,
00001000
00000000
00010000
00000000
00000100
00000000
00000010
00000100
00000010
00000100
00000010
00000000
00000002
00000000
00000000
00000000
,
00001003
00000000
00000001
00000100
00000000
00000010
00001000
00000000
00000001
00000010
00000000
00000100
00001000
00000000
00000100
00000000
,
00010000
00000000
00001000
01000000
00000000
00001000
00010000
00000000
00001000
00100000
00000000
00010000
10000000
00000000
00100000
00000000
,
01000000
00000000
00010000
10000000
00000000
01000000
00100000
00000000
00001000
00010000
00000000
00000010
00010000
00000000
00001000
00000000
,
00010000
00000000
00000100
00001000
00000000
00000100
00000010
00000000
00000001
00001000
00000000
00000010
00000100
00000000
00000010
00000000
,
00001000
00000000
00000001
00000010
00000000
00000100
00000010
00000000
00001000
00010000
00000000
01000000
00100000
00000000
01000000
00000000
,
10000000
00000000
00010000
10000000
00000000
01000000
00100000
00000000
00001000
00010000
00000000
00000100
00000010
00000000
00000001
00000000
,
00001000
00000000
00000001
00000100
00000000
00001000
00010000
00000000
00100000
01000000
00000000
00100000
10000000
00000000
00010000
00000000
,
00110000
00000000
00000000
00101000
00000000
00000000
00010010
00000000
00000000
00011000
00000000
00000000
00010000
00001000
00010000
00001000
,
00010000
00001000
00000100
00000001
00001000
00000010
00000100
00001000
,
00010000
00000000
00100000
00000000
10000000
00000000
00010000
00100000
01000000
00100000
00010000
00000000
01000000
00000000
00100000
00000000
,
00010000
00001000
00000100
00000010
00001000
00000001
00000010
00000001
,
00000100
00000000
00001000
00000000
00010000
00000000
00100000
00000000
10000000
00000000
01000000
00100000
01000000
00100000
01000000
00000000
,
10000000
00000000
00010000
01000000
00010000
00000000
10000000
00000000
01000000
00100000
01000000
00000000
00100000
00000000
00001000
00000000
,
00010000
00000000
00000100
00001000
00000100
00000000
00010000
00000100
00001000
00000100
00000010
00000000
00000001
00000000
00001000
00000000
,
00000001
00000100
00000010
00000100
00001000
00010000
00100000
01000000
,
00001000
00000000
01000000
00010000
10000000
00010000
00100000
00000000
01000000
00000000
00010000
00000000
00001000
00010000
00001000
00000000
,
00011000
00000000
00000000
00000000
;

//--------------- dance-double - Fred-104 ----------------
#NOTEDATA:;
#STEPSTYPE:dance-double;
#DESCRIPTION:Fred-104;
#DIFFICULTY:Challenge;
#METER:17;
#CREDIT:Fred-104;
#NOTES:
00000000
00000000
00000000
00000000
,
00000000
00000000
00000000
00000000
,
00000000
00000000
00000000
00000000
,
00011000
00000000
00001000
00010000
00100000
00000000
01000000
00010000
10000000
00100000
00010000
00000000
00001000
00000010
00000001
00000000
,
00001001
00000000
00000000
00000001
00000000
00000000
00000100
00000000
00001000
00000000
00010000
00000000
00100000
00000000
01000000
00000000
00010000
10000000
00010000
10000000
01000000
00100000
01000000
00100000
00001000
00010000
00001000
00010000
00000100
00000010
00000100
00000010
,
00000001
00000000
00001000
00000000
00000001
00000000
00000010
00000100
00000010
00000100
00000010
00000000
00001000
00000000
00010000
00001000
,
00010000
00000000
00100000
00000000
10000000
00010000
10000000
00000000
00010000
01000000
00100000
01000000
00020000
00000000
00000000
00000000
,
10030000
01000000
10000000
01000000
00100000
00010000
00100000
00010000
10000000
00100000
01000000
00000000
00010000
00000000
00100000
00000000
,
01000000
00000000
00100000
00000000
00001000
00010000
00001000
00010000
00000010
00001000
00000100
00000000
00010000
00000000
00001000
00000000
,
00000010
00000100
00000010
00000000
00000001
00001000
00000010
00000000
00001000
00000001
00000010
00000000
00000100
00001000
00000001
00000100
,
00000010
00000000
00001000
00000000
00000001
00000010
00000100
00000000
00010000
00001000
00100000
00001000
00010000
00000000
00001000
00000000
,
00010000
00000000
00100000
00000000
10000000
00000000
00010000
00000000
10000000
01000000
00100000
00001000
00010000
00000000
00001000
00000000
,
00011000
00010000
00010010
00000010
00001010
00001000
00001001
00000001
,
00001001
00001000
00000001
00010000
,
00001000
00000000
00001000
01000000
00000000
00010000
01000000
00000000
00010000
00000000
10000000
00000000
11000000
00000000
00000000
00000000
,
00011000
00000000
00000000
00000010
00000000
00000000
00000100
00000000
00000001
00000000
00001000
00000000
00000001
00000000
00000000
00000000
,
00001000
00000000
00000001
00000100
00001000
00000000
00010000
01000000
10000000
00000000
01000000
00000000
01100000
00000000
00000000
00000000
,
10000000
00000000
00100000
01000000
00000000
00010000
10000000
00000000
00010000
00100000
01000000
00100000
00020000
00000000
00000000
00000000
,
10030000
00000000
00000000
00000000
00000000
00000000
00000000
00000000
00100000
00000000
00000000
00000000
00010000
00000000
00000000
00000000
00000000
00000000
00000000
00000000
00001000
00000000
00000000
00000000
00000100
00000000
00000000
00000000
00000000
00000000
00000000
00000000
00000020
00000030
00000000
00000000
00002000
00003000
00000000
00000000
00000020
00000030
00000000
00000000
00002000
00003000
00000000
00000000
00000001
00000000
00000000
00000000
00000000
00000000
00000000
00000000
00000020
00000030
00000000
00000000
00000200
00000300
00000000
00000000
,
00000010
00000010
00000001
00000001
00001000
00001000
00000010
00000010
,
00010000
00000000
00001000
00000000
00010000
00000000
01000000
00100000
01000000
10000000
00010000
10000000
00020000
00000000
00000000
00000000
,
10030000
00000000
00100000
01000000
00000000
00100000
00010000
00000000
00001000
00000000
00000100
00000000
00000001
00001000
00000100
00000000
,
00000010
00000000
00000001
00001000
00000000
00000010
00000001
00000000
00000010
00000000
00000100
00000000
00000001
00001000
00000100
00000000
,
00010000
00000000
00001000
00010000
00000000
00000100
00010000
00000000
00001000
00000000
00010000
00000000
00100000
10000000
00010000
00000000
,
00100000
00000000
00000000
01000000
00000000
00000000
00010000
00000000
00001000
00000000
00000010
00000000
00000200
00000000
00000000
00000000
,
00001300
00000000
00000100
00000001
00000000
00000100
00001000
00000000
00000001
00000000
00000100
00000000
00001000
00010000
01000000
00000000
,
10000000
00000000
00010000
00100000
00000000
10000000
00100000
00000000
00010000
00000000
10000000
00000000
00100000
00010000
00001000
00000000
,
00000010
00000000
00000001
00000100
00000000
00000010
00000100
00000000
00001000
00000000
00010000
00000000
00100000
01000000
00010000
00000000
,
10010000
00000000
00000000
11000000
00000000
00000000
00110000
00000000
00100000
00000000
00001000
00000000
00011000
00000000
00000000
00000000
,
00010000
00000000
00000010
00001000
00000001
00000000
00000010
00000000
00000100
00000000
00000010
00000001
00001000
00000000
00000010
00000000
,
00000100
00000000
00001000
00010000
00100000
00000000
01000000
00010000
10000000
00010000
00100000
00000000
01000000
00000000
00100000
00000000
,
00001000
00000000
00010000
00001000
00000100
00000000
00000001
00000000
00000100
00000000
00001000
00010000
00001000
00000000
00100000
00000000
,
00001000
00000000
00010000
00100000
01000000
00000000
00100000
00000000
00010000
00000000
00001000
00010000
00000010
00000000
00001000
00000000
,
00000010
00000000
00000100
00000001
00001000
00000001
00000010
00000000
00000100
00000000
00010000
00001000
00010000
00001000
00010000
00000000
,
00100000
00000000
01000000
00010000
10000000
00010000
00100000
00000000
01000000
00000000
10000000
00000000
00100000
00000000
10000000
00000000
,
01000000
00100000
00001000
00000000
00010000
00000100
00001000
00000000
00000001
00000100
00000010
00000000
00001000
00000100
00000010
00000000
,
00000001
00000100
00000010
00000100
00001000
00010000
00100000
01000000
00100000
10000000
00010000
00100000
01000000
00000000
10000000
00000000
,
20020000
00000000
00000000
00000000
00000000
00000000
00000000
30030000
,
01100000
00000000
10000000
01000000
00010000
00001000
00000100
00000001
00000020
00000000
00000230
00000000
00010300
00001000
00020000
00000000
,
00031000
00010000
00100000
01000000
10000000
00010000
00001000
00000100
00002000
00000000
00013000
00001000
00000010
00000001
00002000
00000000
,
00003001
00000100
00001000
00010000
00200000
00000000
10300000
01000000
00010000
00001000
00000010
00000001
00002000
00000000
00003010
00000100
,
00001000
00010000
00100000
01000000
00000000
01010000
00000000
20020000
00000000
00000000
00000000
00000000
30030000
00000000
00000000
00000000
,
10010000
00000000
10000000
01000000
00010000
00001000
00000100
00000101
,
00001001
00000000
00000000
00000000
00000000
00000000
00000110
00000000
00000000
00000000
00000000
00000000
00001000
00000000
00000000
00000100
00000000
00000000
00000110
00000000
00000000
00000001
00001000
00000001
,
00001000
00000100
00000001
00000100
00001000
00000001
00000100
00001100
,
00011000
00000000
00001000
00010000
00100000
10100000
10010000
00000000
,
10000000
00000000
01000000
00100000
00001000
00000000
00010000
00000000
00000100
00000000
00001000
00000001
00000010
00000000
00000100
00000000
,
00000010
00000000
00000001
00001000
00000010
00000000
00001000
00000001
00000010
00000000
00000100
00001000
00000100
00000000
00010000
00000000
,
00001000
00100000
00010000
10000000
00010000
01000000
00001000
00010000
00000100
00001000
00000001
00001000
00000010
00010000
00001000
00010000
,
00001000
00000000
00010000
00000000
00000100
00000000
00001000
00000100
00000010
00000001
00001000
00000010
00000200
00000000
00000000
00000000
,
00000301
00000000
00000010
00000100
00000000
00000010
00001000
00000000
00000010
00000001
00000000
00001000
00000010
00000000
00000100
00000000
,
00000001
00000000
00000010
00000100
00000000
00000010
00001000
00000000
00010000
01000000
00000000
00100000
00010000
00000000
10000000
00000000
,
00010000
00000000
01000000
10000000
00000000
01000000
00100000
00000000
01000000
00010000
00000000
10000000
01000000
00000000
00100000
00000000
,
00001000
00000000
00010000
00001000
00000000
00000100
00000010
00000000
00000100
00001000
00000000
00010000
00001000
00000000
00010000
00000000
,
00000010
00000000
00001000
00000001
00000000
00000010
00000100
00000000
00000001
00000100
00000000
00001000
00000001
00000000
00000100
00000000
,
00001000
00000000
00010000
00100000
00000000
01000000
00010000
00000000
00100000
01000000
00000000
00100000
00001000
00000000
00010000
00000000
,
00001000
00000000
00010000
00100000
00000000
10000000
00100000
00000000
00010000
00001000
00000000
00010000
00000100
00000000
00010000
00000000
,
00011000
00000000
00000000
00010010
00000000
00000000
00001010
00000000
00000000
00001001
00000000
00000000
00000001
00000010
00000100
00000010
,
00000001
00000000
00001000
00000001
00000100
00000000
00000001
00001000
00000010
00000000
00010000
00001000
00100000
00000000
00001000
00100000
,
00010000
00000000
10000000
00010000
01000000
00000000
00010000
00100000
01000000
00100000
00010000
00000000
10000000
00000000
01000000
00000000
,
00100000
00000000
00001000
00010000
00000010
00000000
00001000
00000100
00000010
00000000
00000001
00000010
00001000
00000000
00000010
00000001
,
00000100
00000000
00001000
00000100
00000001
00000010
00000100
00000000
00000010
00000000
00001000
00010000
01000000
00100000
00010000
00000000
,
10000000
00010000
01000000
00100000
10000000
00100000
01000000
00000000
00010000
10000000
01000000
00100000
00010000
00100000
01000000
00000000
,
10000000
00010000
00100000
00000000
00001000
00010000
00000010
00000000
00001000
00000100
00000010
00000000
00000001
00001000
00000010
00000000
,
00000100
00000001
00001000
00000000
00000100
00000010
00000100
00000000
00000010
00000001
00001000
00000010
00000100
00000010
00001000
00000001
,
00000010
00000100
00001000
00000100
00010000
00001000
00100000
00010000
10000000
00100000
01000000
00010000
10000000
00000000
01000000
00000000
,
01100000
00000000
00000000
00000000
;
